osu file format v14

[General]
AudioFilename: audio.mp3
AudioLeadIn: 0
PreviewTime: 67662
Countdown: 0
SampleSet: Soft
StackLeniency: 0.7
Mode: 0
LetterboxInBreaks: 0
WidescreenStoryboard: 1

[Editor]
Bookmarks: 2725,26725,44725,60725,68600,83475,98725,114725,122600,136600,156600,172725,190600,204600,212600,218725
DistanceSpacing: 1
BeatDivisor: 4
GridSize: 32
TimelineZoom: 2.3

[Metadata]
Title:Yakusoku no Ao
TitleUnicode:約束の蒼
Artist:Reol
ArtistUnicode:れをる
Creator:zekk
Version:Agatsu's Unchanging Promises
Source:
Tags:japanese rock 極彩色 gokusaishiki promised blue kibbleru professionalbox kalibe chaoslitz toybot fuju nexusqi impurepug resona heroine some_hero some hero zelq bongo moete erisu momoyo estonia corsace closed agatsu cc22 wf finals hr1
BeatmapID:4360374
BeatmapSetID:2010347

[Difficulty]
HPDrainRate:6
CircleSize:4.1
OverallDifficulty:8.8
ApproachRate:9.4
SliderMultiplier:1.6
SliderTickRate:1

[Events]
//Background and Video events
0,0,"Yakusoku BG.jpg",0,0
//Break Periods
//Storyboard Layer 0 (Background)
//Storyboard Layer 1 (Fail)
//Storyboard Layer 2 (Pass)
//Storyboard Layer 3 (Foreground)
//Storyboard Layer 4 (Overlay)
//Storyboard Sound Samples

[TimingPoints]
725,250,4,2,3,70,1,0
2725,-111.111111111111,4,2,3,70,0,0
10537,-100,4,2,3,80,0,0
14350,-166.666666666667,4,2,3,80,0,0
14975,-100,4,2,3,80,0,0
22350,-166.666666666667,4,2,3,80,0,0
22725,-100,4,2,3,80,0,0
26725,-100,4,2,3,60,0,0
28975,-250,4,2,3,60,0,0
30725,-100,4,2,3,80,0,0
34725,-100,4,2,3,70,0,0
38725,-100,4,2,3,80,0,0
42725,-100,4,2,3,70,0,0
44225,-125,4,2,3,70,0,0
44725,-111.111111111111,4,2,3,70,0,0
56725,-249.999999999999,4,2,3,80,0,0
56975,-249.999999999999,4,2,3,60,0,0
59725,-100,4,2,3,70,0,0
60725,-100,4,2,3,70,0,0
64725,-111.111111111111,4,2,3,70,0,0
66725,-111.111111111111,4,2,3,80,0,0
66850,-100,4,2,3,80,0,0
68600,-100,4,2,3,80,0,0
76600,-125,4,2,3,80,0,0
79725,-111.111111111111,4,2,3,80,0,0
80600,-100,4,2,3,80,0,0
86350,-166.666666666667,4,2,3,80,0,0
86975,-100,4,2,3,80,0,0
94350,-166.666666666667,4,2,3,80,0,0
94975,-100,4,2,3,80,0,0
98725,-125,4,2,3,60,0,0
106725,-111.111111111111,4,2,3,70,0,0
114975,-90.9090909090909,4,2,3,70,0,0
116225,-111.111111111111,4,2,3,70,0,0
117225,-90.9090909090909,4,2,3,70,0,0
118725,-100,4,2,3,70,0,0
122600,-100,4,2,3,80,0,0
130600,-125,4,2,3,80,0,0
131225,-166.666666666667,4,2,3,80,0,0
131725,-125,4,2,3,80,0,0
133725,-111.111111111111,4,2,3,80,0,0
134600,-100,4,2,3,80,0,0
136850,-100,4,2,3,60,0,0
140600,-100,4,2,3,70,0,0
141225,-111.111111111111,4,2,3,70,0,0
142350,-100,4,2,3,70,0,0
143225,-111.111111111111,4,2,3,70,0,0
144350,-100,4,2,3,70,0,0
145225,-111.111111111111,4,2,3,70,0,0
146350,-100,4,2,3,70,0,0
147225,-111.111111111111,4,2,3,70,0,0
148600,-100,4,2,3,70,0,0
154537,-100,4,2,3,80,0,0
156600,-100,4,2,3,80,0,0
165975,-100,4,2,2,80,0,0
166100,-100,4,2,3,80,0,0
167475,-100,4,2,2,80,0,0
167600,-100,4,2,3,80,0,0
172725,-100,4,2,3,70,0,0
188725,-100,4,2,3,80,0,0
190600,-142.857142857143,4,2,3,80,0,0
191975,-100,4,2,3,80,0,0
192975,-111.111111111111,4,2,3,80,0,0
194600,-100,4,2,3,80,0,0
198600,-125,4,2,3,80,0,0
201725,-100,4,2,3,80,0,0
204600,-100,4,2,3,80,0,0
212600,-125,4,2,3,80,0,0
215725,-111.111111111111,4,2,3,80,0,0
216600,-100,4,2,3,80,0,0

[Colours]
Combo1 : 131,131,131
Combo2 : 166,97,222
Combo3 : 90,29,126
Combo4 : 128,128,192
Combo5 : 73,73,148
Combo6 : 224,224,224

[HitObjects]
97,63,2725,6,0,P|66:51|17:26,1,71.9999978027344,4|0,1:0|0:0,0:0:0:0:
149,207,2975,1,0,3:0:0:0:
188,220,3037,1,0,3:0:0:0:
226,207,3100,1,0,1:0:0:0:
247,172,3162,1,0,3:0:0:0:
242,131,3225,1,0,3:0:0:0:
168,136,3475,5,0,1:0:0:0:
279,302,3600,1,8,0:1:0:0:
279,302,3662,1,8,0:1:0:0:
279,302,3725,1,8,0:1:0:0:
260,225,3850,2,0,B|344:212|331:258|427:246,1,143.999995605469,0|0,1:0|0:0,0:0:0:0:
155,325,4225,2,0,P|117:341|66:357,1,71.9999978027344,0|0,0:0|1:0,0:0:0:0:
89,352,4412,1,0,1:0:0:0:
89,352,4475,2,0,P|129:367|175:389,1,71.9999978027344,0|0,1:0|0:0,0:0:0:0:
335,252,4725,5,4,1:0:0:0:
220,157,4850,1,8,0:1:0:0:
193,226,4975,1,0,1:0:0:0:
347,156,5100,1,0,1:0:0:0:
151,123,5225,6,0,P|208:95|172:8,1,143.999995605469,0|0,0:0|1:0,0:0:0:0:
418,119,5600,1,8,0:1:0:0:
418,119,5662,1,8,0:1:0:0:
418,119,5725,1,8,0:1:0:0:
199,218,5850,2,0,P|235:232|291:261,1,71.9999978027344,0|0,1:0|3:0,0:0:0:0:
271,240,6225,5,8,0:1:0:0:
10,321,6350,1,8,0:3:0:0:
72,371,6475,2,0,B|79:314|116:338|119:261,1,107.999996704102,4|0,0:3|0:0,0:0:0:0:
81,213,6725,6,0,L|-9:178,1,71.9999978027344,4|0,1:0|0:0,0:0:0:0:
205,20,6975,1,0,3:0:0:0:
214,64,7037,1,0,3:0:0:0:
210,75,7100,1,0,1:0:0:0:
217,114,7162,1,0,3:0:0:0:
214,161,7225,1,0,3:0:0:0:
496,283,7475,5,0,1:0:0:0:
312,359,7600,1,8,0:1:0:0:
312,359,7662,1,8,0:1:0:0:
312,359,7725,1,8,0:1:0:0:
305,281,7850,2,0,B|341:283|341:283|391:310,1,71.9999978027344,0|0,1:0|1:0,0:0:0:0:
120,345,8100,5,2,3:0:0:0:
276,179,8225,1,8,0:1:0:0:
233,240,8350,6,0,P|213:228|194:214,1,35.9999989013672,0|0,1:0|0:0,0:0:0:0:
54,35,8475,2,0,P|19:61|24:127,1,107.999996704102,8|0,0:1|0:0,0:0:0:0:
70,177,8725,6,0,L|157:154,1,71.9999978027344,4|0,1:0|0:0,0:0:0:0:
340,31,8975,1,0,0:0:0:0:
273,0,9100,2,0,B|252:29|252:29|255:94,1,71.9999978027344,0|8,1:0|0:1,0:0:0:0:
408,196,9350,1,0,0:0:0:0:
355,286,9475,2,0,B|334:257|334:257|337:192,1,71.9999978027344,0|0,1:0|0:0,0:0:0:0:
378,105,9662,1,0,1:0:0:0:
385,96,9725,1,0,1:0:0:0:
0,263,10725,6,0,P|49:285|136:316,1,120,6|0,1:0|0:0,0:0:0:0:
112,312,10975,2,0,P|63:323|3:349,1,80,2|0,0:1|1:0,0:0:0:0:
246,198,11225,2,0,P|303:197|325:300,1,160,10|0,0:1|1:0,0:0:0:0:
446,115,11600,5,10,0:1:0:0:
446,115,11662,1,8,0:1:0:0:
446,115,11725,1,8,0:1:0:0:
425,188,11850,2,0,P|478:211|523:224,1,80,2|0,1:0|1:0,0:0:0:0:
224,350,12100,1,0,0:0:0:0:
261,288,12225,2,0,B|181:258|187:306|79:281,1,160,10|2,0:1|0:1,0:0:0:0:
45,330,12600,2,0,P|86:355|112:363,1,40
263,208,12725,6,0,P|266:181|269:42,2,160,4|0|8,1:0|0:0|0:1,0:0:0:0:
263,216,13475,1,0,1:0:0:0:
114,91,13600,1,8,0:1:0:0:
114,91,13662,1,8,0:1:0:0:
114,91,13725,1,8,0:1:0:0:
174,48,13850,6,0,P|212:35|266:8,1,80,14|0,0:1|1:0,0:0:0:0:
423,270,14100,2,0,P|385:257|331:230,1,80,14|0,0:1|1:0,0:0:0:0:
512,98,14350,2,2,B|436:78|438:125|350:107,1,143.999995605469,14|4,0:1|1:0,0:1:0:0:
366,119,14975,6,0,P|410:138|470:153,1,80,2|0,0:1|1:0,0:0:0:0:
250,239,15225,2,0,P|196:236|173:335,1,160,10|0,0:1|1:0,0:0:0:0:
229,376,15600,5,10,0:1:0:0:
229,376,15662,1,8,0:1:0:0:
229,376,15725,1,8,0:1:0:0:
340,212,15850,2,0,B|335:174|335:174|366:134,1,80,2|0,1:0|0:0,0:0:0:0:
271,238,16100,1,0,0:0:0:0:
512,323,16225,2,0,P|475:340|391:367,1,120,10|0,0:1|0:0,0:0:0:0:
399,364,16475,2,0,P|437:373|499:392,1,80,2|0,0:1|1:0,0:0:0:0:
204,202,16725,6,0,B|119:174|131:225|13:204,1,160,4|0,1:0|0:0,0:0:0:0:
241,93,17100,2,0,P|283:78|343:57,1,80,0|8,1:0|0:1,0:0:0:0:
219,279,17350,1,0,0:0:0:0:
67,161,17475,2,0,P|65:132|66:30,1,120,0|0,1:0|0:0,0:0:0:0:
71,8,17725,5,0,1:0:0:0:
164,230,17850,1,8,0:1:0:0:
147,277,17912,1,8,0:1:0:0:
104,301,17975,1,8,0:1:0:0:
53,301,18037,1,8,0:1:0:0:
9,268,18100,1,8,0:1:0:0:
254,378,18350,5,0,1:0:0:0:
86,226,18475,2,0,B|79:291|129:272|125:362,1,120,8|0,0:1|0:0,0:0:0:0:
66,374,18725,6,0,L|-18:349,1,80,6|0,1:0|0:0,0:0:0:0:
205,160,18975,2,0,B|224:196|224:196|209:244,1,80,2|0,0:1|1:0,0:0:0:0:
150,265,19225,2,0,B|244:248|229:295|343:283,1,160,10|4,0:1|1:0,0:0:0:0:
490,128,19600,5,10,0:1:0:0:
490,128,19662,1,8,0:1:0:0:
490,128,19725,1,8,0:1:0:0:
474,200,19850,2,0,P|415:178|366:153,1,80,2|0,1:0|1:0,0:0:0:0:
178,49,20100,1,0,0:0:0:0:
233,0,20225,2,0,P|273:36|256:103,1,120,10|0,0:1|0:0,0:0:0:0:
202,138,20475,2,0,L|119:115,1,80,2|0,0:1|0:0,0:0:0:0:
78,370,20725,5,4,1:0:0:0:
9,352,20850,2,0,B|61:338|61:338|82:301|82:301|173:277,1,160,0|0,1:0|1:0,0:0:0:0:
260,131,21225,2,0,B|254:95|254:95|284:47,1,80,8|0,0:1|0:0,0:0:0:0:
336,101,21475,1,0,1:0:0:0:
232,253,21600,1,8,0:1:0:0:
232,253,21662,1,8,0:1:0:0:
232,253,21725,1,8,0:1:0:0:
300,228,21850,6,0,P|339:249|384:278,1,80,14|0,0:1|1:0,0:0:0:0:
148,104,22100,2,0,P|132:64|106:12,1,80,14|0,0:1|1:0,0:0:0:0:
3,329,22350,2,2,P|53:344|113:278,1,143.999995605469,14|4,0:1|1:0,0:1:0:0:
105,277,22975,5,10,0:1:0:0:
270,375,23100,1,0,1:0:0:0:
399,219,23225,2,0,P|441:256|421:321,1,120,2|0,1:0|0:0,0:0:0:0:
379,366,23475,2,0,L|294:342,1,80,8|2,0:1|0:1,0:0:0:0:
134,193,23725,5,0,1:0:0:0:
69,228,23850,1,2,1:0:0:0:
69,228,23912,1,0,1:0:0:0:
69,228,23975,1,8,0:1:0:0:
206,90,24100,5,0,0:0:0:0:
376,210,24225,2,0,B|382:145|425:167|424:74,1,120,2|0,1:0|0:0,0:0:0:0:
401,28,24475,2,0,L|516:0,1,80,10|0,0:1|0:0,0:0:0:0:
263,137,24725,6,0,P|228:125|168:214,1,160,4|0,1:0|1:0,0:0:0:0:
377,326,25100,2,0,P|445:352|471:360,1,80,8|0,0:1|0:0,0:0:0:0:
451,354,25350,1,0,1:0:0:0:
259,212,25475,2,0,P|168:234|131:249,1,120,8|0,0:1|0:0,0:0:0:0:
74,273,25725,5,0,1:0:0:0:
239,360,25850,1,8,0:1:0:0:
239,360,25912,1,8,0:1:0:0:
239,360,25975,1,8,0:1:0:0:
8,240,26100,2,0,P|53:220|46:145,1,120,8|0,0:1|0:0,0:0:0:0:
35,75,26350,1,8,0:3:0:0:
25,69,26412,1,8,0:3:0:0:
14,64,26475,1,4,0:3:0:0:
192,241,26600,1,4,0:3:0:0:
437,123,26725,5,4,1:0:0:0:
438,114,27725,1,4,1:0:0:0:
439,105,28725,1,4,1:0:0:0:
438,26,28975,6,0,P|474:41|508:51,1,64,2|0,3:0|0:0,0:0:0:0:
439,105,29475,2,0,P|461:131|493:160,1,64,2|4,3:0|1:0,0:0:0:0:
396,168,29975,1,8,0:3:0:0:
387,219,30037,1,8,0:3:0:0:
391,237,30100,1,4,0:3:0:0:
372,283,30162,1,4,0:3:0:0:
377,331,30225,1,0,1:0:0:0:
452,370,30725,5,6,1:0:0:0:
279,326,30850,1,8,0:1:0:0:
261,257,30975,5,0,1:0:0:0:
49,293,31100,2,0,B|36:257|36:257|58:211,1,80,8|2,0:1|1:0,0:0:0:0:
208,82,31350,1,8,0:1:0:0:
159,28,31475,2,0,P|118:14|59:-13,1,80,0|8,1:0|0:1,0:0:0:0:
135,222,31725,5,2,1:0:0:0:
311,175,31850,1,8,0:1:0:0:
239,152,31975,5,0,1:0:0:0:
357,285,32100,1,8,0:1:0:0:
434,103,32225,6,0,P|476:84|522:60,1,80,2|8,1:0|0:1,0:0:0:0:
294,35,32475,1,0,1:0:0:0:
430,269,32600,1,8,0:1:0:0:
434,196,32725,5,6,1:0:0:0:
285,266,32850,1,8,0:1:0:0:
420,372,32975,1,0,1:0:0:0:
322,202,33100,2,0,P|279:187|214:157,1,80,10|0,0:1|1:0,0:0:0:0:
0,40,33350,5,8,0:1:0:0:
147,156,33475,1,2,1:0:0:0:
273,0,33600,1,8,0:1:0:0:
142,82,33725,5,10,0:1:0:0:
265,162,33850,1,8,0:3:0:0:
241,94,33975,1,8,0:3:0:0:
99,218,34100,5,4,0:3:0:0:
282,323,34225,1,4,0:3:0:0:
373,134,34350,5,4,0:3:0:0:
207,245,34475,1,8,0:1:0:0:
459,373,34600,5,8,0:1:0:0:
320,255,34725,2,0,B|417:229|398:270|499:257,1,160,6|8,1:0|0:1,0:0:0:0:
159,318,35100,2,0,B|62:292|81:333|-20:320,1,160,6|0,1:0|1:0,0:0:0:0:
213,269,35475,2,0,P|237:313|241:367,1,80,8|0,0:1|0:0,0:0:0:0:
275,33,35725,5,6,1:0:0:0:
275,33,35975,1,8,0:1:0:0:
198,197,36100,2,0,P|142:168|176:72,1,160,6|0,1:0|1:0,0:0:0:0:
297,249,36475,2,0,L|399:279,1,80,8|0,0:1|0:0,0:0:0:0:
89,227,36725,5,6,1:0:0:0:
209,311,36850,1,0,1:0:0:0:
0,379,36975,5,0,1:0:0:0:
144,275,37100,2,0,L|111:112,1,160,14|0,0:1|1:0,0:0:0:0:
330,7,37475,2,0,P|383:22|425:30,1,80,8|0,0:1|0:0,0:0:0:0:
468,62,37725,5,2,1:0:0:0:
312,149,37850,1,8,0:1:0:0:
186,13,37975,5,0,1:0:0:0:
376,110,38100,2,0,P|395:151|399:198,1,80,8|8,0:1|0:3,0:0:0:0:
399,185,38287,1,4,0:3:0:0:
399,185,38350,1,4,0:3:0:0:
210,382,38475,5,8,0:1:0:0:
165,354,38537,1,8,0:1:0:0:
145,309,38600,1,8,0:1:0:0:
151,261,38662,1,8,0:1:0:0:
183,220,38725,1,6,0:1:0:0:
368,323,38850,6,0,L|466:351,1,80,8|0,0:1|1:0,0:0:0:0:
311,195,39100,1,8,0:1:0:0:
432,269,39225,1,2,1:0:0:0:
126,249,39350,6,0,L|28:277,1,80,8|0,0:1|1:0,0:0:0:0:
183,120,39600,1,8,0:1:0:0:
62,194,39725,1,2,1:0:0:0:
199,50,39850,5,8,0:1:0:0:
391,148,39975,2,0,B|384:112|384:112|414:71,1,80,0|8,1:0|0:1,0:0:0:0:
347,38,40225,5,2,1:0:0:0:
416,230,40350,1,8,0:1:0:0:
464,175,40475,5,0,1:0:0:0:
188,194,40600,1,8,0:1:0:0:
245,235,40725,6,0,B|163:210|177:257|70:237,1,160,6|0,1:0|1:0,0:0:0:0:
351,317,41100,2,0,B|433:292|419:339|526:319,1,160,14|0,0:1|1:0,0:0:0:0:
254,382,41475,2,0,P|240:351|228:287,1,80,10|0,0:1|0:0,0:0:0:0:
302,36,41725,5,8,0:1:0:0:
380,148,41850,1,8,0:3:0:0:
415,84,41975,5,4,0:3:0:0:
258,155,42100,1,4,0:3:0:0:
403,257,42225,5,8,0:1:0:0:
241,78,42350,1,8,0:3:0:0:
53,188,42475,5,8,0:1:0:0:
315,108,42600,1,8,0:1:0:0:
96,0,42725,6,0,P|18:13|10:98,1,160,4|0,1:0|1:0,0:0:0:0:
174,281,43100,2,0,P|223:303|266:327,1,80,8|0,0:1|0:0,0:0:0:0:
225,152,43350,2,0,P|181:183|139:208,1,80,0|0,1:0|0:0,0:0:0:0:
311,260,43600,2,0,P|305:206|304:157,1,80,0|0,1:0|0:0,0:0:0:0:
305,97,43787,1,0,1:0:0:0:
309,86,43850,1,0,1:0:0:0:
454,233,43975,1,8,0:1:0:0:
461,160,44100,6,0,P|497:172|526:189,1,40,0|0,1:0|0:0,0:0:0:0:
219,243,44225,2,2,B|121:210|132:264|19:240,1,192,10|0,0:1|0:0,0:1:0:0:
192,311,44725,6,0,P|242:333|285:360,1,71.9999978027344,6|0,1:0|0:0,0:0:0:0:
479,373,44975,1,0,1:0:0:0:
490,305,45100,2,0,P|492:280|484:136,1,143.999995605469,10|0,0:1|0:0,0:0:0:0:
421,191,45475,2,0,P|416:221|398:288,1,71.9999978027344,2|0,1:0|0:0,0:0:0:0:
350,166,45725,6,0,P|345:136|327:69,1,71.9999978027344,0|0,0:0|1:0,0:0:0:0:
111,190,45975,1,0,1:0:0:0:
115,197,46225,2,0,P|151:212|197:225,1,71.9999978027344,8|0,0:1|0:0,0:0:0:0:
257,117,46475,2,0,P|221:132|175:145,1,71.9999978027344
19,301,46725,6,0,P|46:259|139:273,1,143.999995605469,6|0,1:0|1:0,0:0:0:0:
353,376,47100,2,0,P|326:334|233:348,1,143.999995605469,10|0,0:1|0:0,0:0:0:0:
474,168,47475,2,0,P|441:182|375:201,1,71.9999978027344,2|0,1:0|1:0,0:0:0:0:
347,243,47662,1,0,1:0:0:0:
356,251,47725,2,0,B|339:172|396:180|362:95,2,143.999995605469,0|0|8,1:0|0:0|0:1,0:0:0:0:
351,257,48475,2,0,P|405:277|449:288,1,71.9999978027344
225,348,48725,5,6,1:0:0:0:
158,315,48850,1,0,1:0:0:0:
65,329,48975,1,0,1:0:0:0:
1,298,49100,2,0,P|49:291|51:194,1,143.999995605469,10|0,0:1|0:0,0:0:0:0:
211,32,49475,6,0,P|244:20|287:-1,1,71.9999978027344,2|0,1:0|0:0,0:0:0:0:
255,165,49725,2,0,P|228:142|188:115,1,71.9999978027344,0|0,3:1|1:0,3:0:0:0:
348,61,49975,2,0,P|341:95|338:143,1,71.9999978027344,0|0,2:1|2:0,2:0:0:0:
456,337,50225,2,0,B|464:273|504:304|509:213,1,107.999996704102,10|0,0:1|0:0,0:0:0:0:
505,243,50475,2,0,P|474:231|419:199,1,71.9999978027344,2|0,0:1|0:0,0:0:0:0:
191,361,50725,5,6,1:0:0:0:
223,194,50850,1,0,1:0:0:0:
160,228,50975,1,0,1:0:0:0:
287,342,51100,2,0,P|271:339|127:285,1,143.999995605469,8|0,0:1|0:0,0:0:0:0:
129,80,51475,2,0,P|101:95|46:115,1,71.9999978027344,0|0,1:0|1:0,0:0:0:0:
63,109,51662,1,0,1:0:0:0:
63,109,51725,5,0,1:0:0:0:
120,169,51850,1,0,1:0:0:0:
0,288,51975,2,0,B|-3:253|-3:253|23:217,1,71.9999978027344,0|0,0:1|0:0,0:0:0:0:
235,121,52225,2,0,B|316:134|282:160|378:163,1,143.999995605469,8|0,0:1|0:0,0:0:0:0:
337,230,52600,1,0,0:0:0:0:
501,353,52725,6,0,B|508:321|508:321|466:270,1,71.9999978027344,6|0,1:0|0:0,0:0:0:0:
251,371,52975,1,8,0:1:0:0:
289,310,53100,2,0,B|208:323|242:349|146:352,1,143.999995605469,2|0,1:0|1:0,0:0:0:0:
320,218,53475,2,0,P|356:231|417:251,1,71.9999978027344,10|0,0:1|0:0,0:0:0:0:
184,64,53725,5,0,0:0:0:0:
266,168,53850,1,0,1:0:0:0:
310,106,53975,2,0,B|317:75|317:75|275:20,1,71.9999978027344,8|0,0:1|0:0,0:0:0:0:
92,182,54225,2,0,L|-2:211,1,71.9999978027344,0|0,0:0|1:0,0:0:0:0:
236,372,54475,2,0,B|257:343|257:343|249:300,1,71.9999978027344,8|0,0:1|0:0,0:0:0:0:
212,248,54725,6,0,P|291:280|372:302,1,143.999995605469,6|0,1:0|1:0,0:0:0:0:
71,284,55100,2,0,P|24:304|-19:332,1,71.9999978027344,10|0,0:1|0:0,0:0:0:0:
47,374,55350,1,0,1:0:0:0:
125,184,55475,2,0,P|88:164|30:140,1,71.9999978027344,10|0,0:1|0:0,0:0:0:0:
8,199,55725,1,0,1:0:0:0:
215,309,55850,6,0,P|267:299|346:273,1,107.999996704102,8|0,0:1|0:0,0:0:0:0:
319,283,56100,1,8,0:1:0:0:
456,372,56225,1,8,0:3:0:0:
456,372,56287,1,8,0:3:0:0:
456,372,56350,1,4,0:3:0:0:
262,191,56475,5,8,0:1:0:0:
305,209,56537,1,8,0:1:0:0:
322,209,56600,1,8,0:1:0:0:
367,204,56662,1,8,0:1:0:0:
406,219,56725,1,4,1:0:0:0:
436,154,56975,6,0,P|475:174|500:189,1,64,2|0,3:0|1:0,0:0:0:0:
426,81,57475,2,0,P|451:65|484:43,1,64,2|0,3:0|1:0,0:0:0:0:
359,51,57975,2,0,P|375:9|385:-10,1,64,2|0,3:0|1:0,0:0:0:0:
288,53,58475,2,0,P|279:32|272:11,1,32,2|0,3:0|1:0,0:0:0:0:
275,23,58662,1,0,1:0:0:0:
275,23,58725,5,8,0:1:0:0:
232,99,58975,1,8,0:1:0:0:
281,152,59225,1,8,0:1:0:0:
216,227,59475,2,0,L|223:268,1,32,8|0,0:1|1:0,0:0:0:0:
221,258,59662,1,0,1:0:0:0:
221,258,59725,6,0,P|187:287|142:314,1,80,10|0,0:1|0:0,0:0:0:0:
390,121,59975,2,0,P|404:84|431:37,1,80,10|0,0:1|0:0,0:0:0:0:
447,320,60225,2,0,P|472:359|497:389,1,80,10|0,0:1|0:0,0:0:0:0:
205,168,60475,2,0,P|152:189|152:264,1,120,10|0,0:1|0:0,0:0:0:0:
179,312,60725,5,4,1:0:0:0:
110,342,60850,1,0,1:0:0:0:
110,342,60912,1,0,0:0:0:0:
110,342,60975,1,0,0:0:0:0:
38,371,61100,1,0,1:0:0:0:
197,170,61225,5,0,0:0:0:0:
144,115,61350,2,0,P|124:148|120:178,1,40
252,284,61475,2,0,P|272:251|276:221,1,40,0|0,1:0|0:0,0:0:0:0:
71,209,61600,1,8,0:1:0:0:
61,212,61662,1,8,0:1:0:0:
52,215,61725,1,8,0:1:0:0:
218,55,61850,6,0,B|250:66|250:66|265:79|265:79|312:91,2,80,0|0|0,1:0|1:0|0:0,0:0:0:0:
158,101,62225,6,0,L|118:117,1,40,0|0,1:0|0:0,0:0:0:0:
295,101,62350,2,0,L|255:117,1,40,0|0,1:0|0:0,0:0:0:0:
425,107,62475,2,0,P|384:122|392:213,1,120,0|0,1:0|0:0,0:0:0:0:
416,250,62725,5,4,1:0:0:0:
347,280,62850,1,0,1:0:0:0:
347,280,62912,1,0,0:0:0:0:
347,280,62975,1,0,0:0:0:0:
275,309,63100,1,0,1:0:0:0:
181,134,63225,5,0,0:0:0:0:
234,189,63350,2,0,P|254:156|258:126,1,40
126,20,63475,2,0,P|106:53|102:83,1,40,0|0,1:0|0:0,0:0:0:0:
307,95,63600,1,8,0:1:0:0:
317,92,63662,1,8,0:1:0:0:
326,89,63725,1,8,0:1:0:0:
78,135,63850,6,0,B|46:146|46:146|31:159|31:159|-16:171,2,80,0|0|0,1:0|1:0|0:0,0:0:0:0:
154,144,64225,6,0,P|144:176|123:207,1,40,8|0,0:1|0:0,0:0:0:0:
9,353,64350,1,8,0:3:0:0:
78,377,64475,2,0,P|43:346|61:277,1,120,4|0,0:3|0:0,0:0:0:0:
4,229,64725,6,0,B|86:218|69:264|175:256,1,143.999995605469,6|0,1:0|0:0,0:0:0:0:
353,179,65100,2,0,P|411:201|448:211,1,71.9999978027344,2|0,1:0|0:0,0:0:0:0:
420,208,65475,2,0,P|370:228|323:249,1,71.9999978027344,2|0,1:0|0:0,0:0:0:0:
286,277,65662,1,8,0:1:0:0:
277,284,65725,5,0,1:0:0:0:
338,328,65850,1,0,1:0:0:0:
254,200,65975,1,2,1:0:0:0:
80,272,66100,1,2,1:3:0:0:
32,218,66225,6,0,B|29:183|29:183|59:146,1,71.9999978027344,10|0,0:1|0:0,0:0:0:0:
204,304,66475,2,0,B|207:339|207:339|177:376,1,71.9999978027344,2|0,1:0|0:0,0:0:0:0:
258,20,66725,5,10,0:1:0:0:
395,204,66850,2,0,P|432:195|488:172,1,80,8|0,0:1|0:0,0:0:0:0:
124,281,67100,5,8,0:1:0:0:
261,97,67225,2,0,P|303:115|354:129,1,80,8|0,0:1|0:0,0:0:0:0:
47,162,67475,5,8,0:1:0:0:
431,274,67600,1,8,0:1:0:0:
310,18,68600,6,0,B|404:28|374:62|487:54,1,160,6|0,1:0|1:0,0:0:0:0:
165,220,68975,2,0,P|171:184|199:136,1,80,10|0,0:1|0:0,0:0:0:0:
322,275,69225,2,0,P|316:311|288:359,1,80,0|0,1:0|1:0,0:0:0:0:
227,325,69475,1,8,0:1:0:0:
456,138,69600,6,0,P|395:106|409:17,1,160,0|0,1:0|1:0,0:0:0:0:
142,128,69975,1,10,0:1:0:0:
333,243,70100,1,0,0:0:0:0:
319,168,70225,5,2,1:0:0:0:
132,242,70350,1,0,1:0:0:0:
132,242,70412,1,0,1:0:0:0:
132,242,70475,1,8,0:1:0:0:
352,317,70600,6,0,P|383:321|512:362,1,160,6|0,1:0|1:0,0:0:0:0:
456,226,70975,2,0,P|482:256|512:284,1,80,10|0,0:1|0:0,0:0:0:0:
341,68,71225,2,0,P|330:38|306:-11,1,80,0|0,1:0|1:0,0:0:0:0:
417,58,71475,1,8,0:1:0:0:
249,201,71600,2,0,P|277:248|377:241,1,160,0|0,1:0|1:0,0:0:0:0:
353,174,71975,5,10,0:1:0:0:
183,283,72100,1,0,1:0:0:0:
94,97,72225,5,10,0:1:0:0:
228,221,72350,1,0,1:0:0:0:
45,323,72475,5,8,0:1:0:0:
288,269,72600,2,0,B|375:256|351:300|467:266,1,160,6|0,1:0|1:0,0:0:0:0:
159,346,72975,2,0,P|117:371|75:390,1,80,8|0,0:1|0:0,0:0:0:0:
226,154,73225,2,0,P|230:137|240:24,1,120,0|0,1:0|0:0,0:0:0:0:
240,35,73475,2,0,P|204:19|154:-9,1,80,10|0,0:1|1:0,0:0:0:0:
281,195,73725,5,8,0:1:0:0:
476,124,73850,1,0,1:0:0:0:
278,271,73975,5,8,0:1:0:0:
62,174,74100,1,0,1:0:0:0:
248,340,74225,5,8,0:1:0:0:
479,240,74350,2,0,L|523:254,1,40,0|0,1:0|0:0,0:0:0:0:
512,261,74600,6,0,P|474:275|337:301,1,160,6|0,1:0|1:0,0:0:0:0:
103,192,74975,2,0,P|152:194|187:265,1,120,10|0,0:1|0:0,0:0:0:0:
192,254,75225,2,0,P|151:273|100:308,1,80,0|0,1:0|1:0,0:0:0:0:
56,258,75475,1,8,0:1:0:0:
249,75,75600,2,0,B|169:60|196:30|96:9,1,160,0|0,1:0|1:0,0:0:0:0:
229,152,75975,5,10,0:1:0:0:
421,276,76100,1,0,1:0:0:0:
450,211,76225,5,10,0:1:0:0:
251,256,76350,1,8,3:0:0:0:
470,384,76475,5,4,3:0:0:0:
196,308,76600,2,0,P|177:310|48:335,1,128,6|0,1:0|0:0,0:0:0:0:
70,255,76975,2,0,P|40:242|0:220,1,64,2|0,1:0|0:0,0:0:0:0:
220,66,77225,2,0,P|281:82|279:206,1,192,8|0,0:1|0:0,0:0:0:0:
512,331,77725,6,0,P|504:294|476:249,1,64,0|0,1:0|0:0,0:0:0:0:
356,324,77975,2,0,P|364:359|392:404,1,64,0|0,1:0|0:0,0:0:0:0:
495,191,78225,2,0,P|458:170|468:78,1,128,10|0,0:1|0:0,0:0:0:0:
238,251,78600,6,0,P|208:259|89:281,1,128,6|0,1:0|0:0,0:0:0:0:
313,269,78975,2,0,P|376:294|393:302,1,64,2|0,1:0|0:0,0:0:0:0:
186,188,79225,2,0,P|171:151|158:112,1,64,8|0,0:1|0:0,0:0:0:0:
105,323,79475,2,0,P|83:357|66:385,1,64
272,177,79725,6,0,B|280:117|311:146|318:61,1,107.999996704102,2|0,1:0|0:0,0:0:0:0:
267,26,79975,2,0,L|188:1,1,71.9999978027344,8|0,0:1|1:0,0:0:0:0:
395,188,80225,5,8,0:1:0:0:
165,272,80350,1,8,3:0:0:0:
8,99,80475,5,4,3:0:0:0:
199,203,80600,2,0,P|210:252|214:385,1,160,6|0,1:0|1:0,0:0:0:0:
364,163,80975,2,0,P|401:148|451:121,1,80,8|0,0:1|0:0,0:0:0:0:
399,341,81225,1,2,1:0:0:0:
341,296,81350,2,0,P|315:342|310:397,1,80,0|8,1:0|0:1,0:0:0:0:
512,139,81600,6,0,P|461:111|485:9,1,160,6|0,1:0|1:0,0:0:0:0:
274,159,81975,1,8,0:1:0:0:
462,292,82100,1,0,1:0:0:0:
462,292,82162,1,0,1:0:0:0:
462,292,82225,1,10,0:1:0:0:
269,234,82350,5,0,1:0:0:0:
124,338,82475,1,8,3:0:0:0:
0,193,82600,5,4,3:0:0:0:
195,233,82725,2,0,P|172:237|71:281,1,120,6|0,1:0|0:0,0:0:0:0:
82,273,82975,2,0,P|101:234|90:190,1,80,2|0,0:1|1:0,0:0:0:0:
349,304,83225,2,0,P|328:355|214:339,1,160,10|0,0:1|1:0,0:0:0:0:
180,312,83600,5,10,0:1:0:0:
180,312,83662,1,8,0:1:0:0:
180,312,83725,1,0,1:0:0:0:
379,221,83850,2,0,P|438:247|470:259,1,80,2|0,1:0|0:0,0:0:0:0:
430,320,84100,1,0,1:0:0:0:
239,159,84225,2,0,P|226:121|201:67,1,80,10|0,0:1|0:0,0:0:0:0:
157,295,84475,2,0,P|129:331|95:368,1,80,2|0,0:1|0:0,0:0:0:0:
339,155,84725,6,0,B|435:171|395:203|506:204,2,160,4|0|8,1:0|0:0|0:1,0:0:0:0:
332,160,85475,1,0,1:0:0:0:
391,324,85600,1,8,0:1:0:0:
391,324,85662,1,8,0:1:0:0:
391,324,85725,1,0,1:0:0:0:
297,366,85850,6,0,B|291:328|291:328|313:292,1,80,10|0,0:1|1:0,0:0:0:0:
189,63,86100,2,0,P|164:51|115:25,1,80,10|0,0:1|1:0,0:0:0:0:
0,282,86350,2,2,B|51:272|51:272|77:240|77:240|136:226,1,143.999995605469,10|4,0:1|1:0,0:1:0:0:
123,221,86975,6,0,P|87:209|29:179,1,80,2|0,0:1|1:0,0:0:0:0:
281,383,87225,2,0,P|283:358|274:214,1,160,10|0,0:1|1:0,0:0:0:0:
211,187,87600,5,10,0:1:0:0:
211,187,87662,1,8,0:1:0:0:
211,187,87725,1,0,1:0:0:0:
201,342,87850,2,0,P|174:357|129:388,1,80,2|0,1:0|0:0,0:0:0:0:
88,329,88100,1,0,0:0:0:0:
283,177,88225,2,0,P|235:147|256:47,2,160,10|2|4,0:1|0:1|1:0,0:0:0:0:
429,0,88850,5,0,0:0:0:0:
364,34,88975,1,0,0:0:0:0:
474,201,89100,2,0,P|445:190|375:153,1,80,0|8,1:0|0:1,0:0:0:0:
343,219,89350,1,0,0:0:0:0:
489,333,89475,2,0,P|468:344|363:376,1,120,0|0,1:0|0:0,0:0:0:0:
300,373,89725,5,0,1:0:0:0:
509,180,89850,1,8,0:1:0:0:
466,167,89912,1,8,0:1:0:0:
455,160,89975,1,8,0:1:0:0:
418,152,90037,1,8,0:1:0:0:
376,135,90100,1,0,1:0:0:0:
483,247,90350,5,0,1:0:0:0:
243,324,90475,2,0,B|250:255|285:290|292:194,1,120,8|0,0:1|0:0,0:0:0:0:
268,145,90725,6,0,L|359:118,1,80,6|0,1:0|0:0,0:0:0:0:
118,353,90975,2,0,B|103:319|103:319|128:261,1,80,2|0,0:1|1:0,0:0:0:0:
180,236,91225,2,0,B|97:225|120:270|3:239,1,160,10|0,0:1|1:0,0:0:0:0:
243,312,91600,5,10,0:1:0:0:
243,312,91662,1,8,0:1:0:0:
243,312,91725,1,0,1:0:0:0:
164,150,91850,2,0,P|206:136|266:108,1,80,2|0,1:0|0:0,0:0:0:0:
395,313,92100,1,0,0:0:0:0:
454,264,92225,2,0,P|465:212|404:159,1,120,10|0,0:1|0:0,0:0:0:0:
443,94,92475,2,0,P|488:65|514:42,1,80,2|0,0:1|0:0,0:0:0:0:
282,269,92725,5,0,1:0:0:0:
230,320,92850,2,0,P|230:300|247:142,1,160,0|0,1:0|1:0,0:0:0:0:
22,233,93225,1,8,0:1:0:0:
160,354,93350,1,0,0:0:0:0:
90,383,93475,5,0,1:0:0:0:
143,204,93600,1,8,0:1:0:0:
143,204,93662,1,8,0:1:0:0:
143,204,93725,1,0,1:0:0:0:
99,132,93850,6,0,P|62:115|7:82,1,80,10|0,0:1|1:0,0:0:0:0:
262,302,94100,2,0,P|277:358|293:404,1,80,10|0,0:1|1:0,0:0:0:0:
343,87,94350,2,2,B|426:67|398:42|486:15,1,143.999995605469,10|4,0:1|1:0,0:1:0:0:
475,25,94975,5,10,0:1:0:0:
353,105,95100,1,0,1:0:0:0:
460,287,95225,2,0,P|423:272|338:227,1,120,2|0,0:1|0:0,0:0:0:0:
351,235,95475,2,0,P|381:265|416:311,1,80,8|2,0:1|0:1,0:0:0:0:
487,99,95725,5,0,0:0:0:0:
289,162,95850,1,2,1:0:0:0:
289,162,95912,1,0,1:0:0:0:
289,162,95975,1,8,0:1:0:0:
262,85,96100,5,0,0:0:0:0:
59,8,96225,2,0,B|42:44|42:44|54:100,1,80,2|0,1:0|1:0,0:0:0:0:
115,157,96475,2,0,B|132:121|132:121|120:65,1,80,10|0,0:1|0:0,0:0:0:0:
348,263,96725,6,0,B|436:286|401:322|519:325,1,160,4|4,1:0|1:2,0:0:0:0:
479,249,97100,1,0,0:0:0:0:
269,337,97225,2,0,L|186:364,1,80,8|8,0:1|3:0,0:0:0:0:
322,245,97412,1,4,3:0:0:0:
322,245,97475,2,0,L|291:144,1,80,8|0,0:1|0:0,0:0:0:0:
512,384,97725,5,0,1:0:0:0:
510,351,98725,6,0,P|470:366|435:375,1,64,4|0,1:0|0:0,0:0:0:0:
320,221,98975,2,0,P|354:239|400:258,1,64,8|0,0:1|1:0,0:0:0:0:
213,330,99225,1,0,1:0:0:0:
157,325,99308,1,0,3:0:0:0:
92,350,99391,1,0,3:0:0:0:
40,342,99475,2,0,L|-6:356,2,42.6666666666667,0|0|0,1:0|3:0|3:0,0:0:0:0:
136,185,99725,5,0,3:0:0:0:
136,185,99975,2,0,L|116:106,2,64,0|0|0,1:0|0:0|1:0,0:0:0:0:
132,192,100475,2,0,L|64:213,1,64
211,129,100662,1,0,0:0:0:0:
211,129,100725,6,0,B|285:141|252:169|357:168,1,128,0|0,1:0|1:0,0:0:0:0:
392,208,101058,2,0,P|414:244|423:270,1,42.6666666666667,0|0,3:0|3:0,0:0:0:0:
284,369,101225,1,0,1:0:0:0:
471,306,101475,1,0,1:0:0:0:
402,324,101558,1,0,3:0:0:0:
337,294,101641,1,0,3:0:0:0:
310,242,101725,1,0,1:0:0:0:
479,314,101975,6,0,P|454:324|340:349,2,128,0|0|0,1:0|1:0|3:0,0:0:0:0:
467,241,102558,2,0,P|495:229|530:217,1,42.6666666666667,0|0,3:0|3:0,0:0:0:0:
327,281,102725,6,0,B|332:252|332:252|308:212,1,64,0|0,1:0|0:0,0:0:0:0:
174,356,102975,1,0,1:0:0:0:
122,371,103058,1,0,3:0:0:0:
55,352,103141,1,0,3:0:0:0:
25,305,103225,1,0,1:0:0:0:
256,108,103475,1,0,1:0:0:0:
256,108,103558,2,0,P|238:134|228:163,1,42.6666666666667,0|0,3:0|3:0,0:0:0:0:
282,294,103725,6,0,P|301:300|358:327,2,64,0|0|0,1:0|0:0|3:0,0:0:0:0:
311,225,104100,1,0,1:0:0:0:
189,278,104225,1,0,1:0:0:0:
278,384,104350,1,0,0:0:0:0:
124,314,104475,2,0,P|83:329|39:341,1,64,0|0,1:0|3:0,0:0:0:0:
326,151,104725,6,0,B|403:165|375:191|470:189,1,128,4|0,1:0|0:0,0:0:0:0:
444,117,105100,1,0,1:0:0:0:
220,148,105225,2,0,L|204:70,1,64,0|0,3:0|0:0,0:0:0:0:
155,228,105475,2,0,L|87:242,1,64,0|0,3:0|1:0,0:0:0:0:
470,380,105725,5,8,0:1:0:0:
182,164,106725,6,0,L|267:136,1,71.9999978027344,6|0,1:0|0:0,0:0:0:0:
123,378,106975,1,8,0:1:0:0:
142,308,107100,2,0,B|64:290|73:337|-24:311,1,143.999995605469,2|0,1:0|1:0,0:0:0:0:
230,171,107475,2,0,B|249:204|249:204|240:250,1,71.9999978027344,8|0,0:1|0:0,0:0:0:0:
374,353,107725,6,0,P|414:368|463:393,1,71.9999978027344,2|0,1:0|0:0,0:0:0:0:
383,280,107975,1,8,0:1:0:0:
472,63,108100,2,0,P|449:132|370:141,1,143.999995605469,2|0,1:0|1:0,0:0:0:0:
386,147,108412,1,0,1:0:0:0:
386,147,108475,2,0,P|422:166|469:182,1,71.9999978027344,8|0,0:1|0:0,0:0:0:0:
185,307,108725,5,2,1:0:0:0:
320,188,108850,1,0,0:0:0:0:
132,103,108975,1,0,1:0:0:0:
197,140,109100,2,0,B|225:64|172:76|220:-22,1,143.999995605469,10|0,0:1|1:0,0:0:0:0:
81,202,109475,2,0,L|2:221,1,71.9999978027344,8|0,0:1|0:0,0:0:0:0:
203,370,109725,5,2,1:0:0:0:
302,228,109850,1,0,1:0:0:0:
302,228,109912,1,0,1:0:0:0:
302,228,109975,1,8,0:1:0:0:
139,262,110100,5,8,0:3:0:0:
319,334,110225,1,4,0:3:0:0:
319,334,110287,1,4,0:3:0:0:
319,334,110350,1,4,0:3:0:0:
88,316,110475,6,0,L|2:340,1,71.9999978027344,8|0,0:1|0:0,0:0:0:0:
277,149,110725,6,0,B|273:114|273:114|303:63,1,71.9999978027344,6|0,1:0|0:0,0:0:0:0:
153,247,110975,1,8,0:1:0:0:
14,134,111100,2,0,B|98:146|70:179|169:174,1,143.999995605469,2|0,1:0|1:0,0:0:0:0:
322,314,111475,2,0,P|288:329|243:342,1,71.9999978027344,8|0,0:1|0:0,0:0:0:0:
460,153,111725,6,0,P|443:207|434:255,1,71.9999978027344,2|0,1:0|0:0,0:0:0:0:
493,339,111975,1,8,0:1:0:0:
391,127,112100,2,0,P|440:111|445:23,1,143.999995605469,2|0,1:0|1:0,0:0:0:0:
247,166,112475,2,0,L|146:187,1,71.9999978027344,8|0,0:1|0:0,0:0:0:0:
12,337,112725,6,0,B|86:326|71:373|185:338,1,143.999995605469,2|0,1:0|1:0,0:0:0:0:
454,256,113100,2,0,B|380:245|395:292|281:257,1,143.999995605469,10|0,0:1|1:0,0:0:0:0:
312,265,113412,1,0,1:0:0:0:
312,265,113475,2,0,P|348:283|396:315,1,71.9999978027344,8|0,0:1|0:0,0:0:0:0:
20,376,113725,5,0,1:0:0:0:
121,167,114725,5,4,1:0:0:0:
197,149,114850,1,0,0:0:0:0:
197,149,114912,1,0,0:0:0:0:
197,149,114975,1,0,0:0:0:0:
268,129,115100,1,0,1:0:0:0:
396,237,115225,5,0,1:0:0:0:
427,171,115350,2,0,B|447:180|447:180|469:212,1,44.0000013427735
322,242,115475,2,0,B|319:220|319:220|336:185,1,44.0000013427735,0|0,1:0|0:0,0:0:0:0:
441,297,115600,2,0,B|423:309|423:309|384:312,1,44.0000013427735,0|0,1:0|0:0,0:0:0:0:
225,362,115725,5,8,0:1:0:0:
208,291,115850,2,0,B|178:303|178:303|159:322|159:322|103:341,2,88.000002685547,0|0|0,1:0|1:0|0:0,0:0:0:0:
246,28,116225,6,0,L|262:73,1,35.9999989013672,8|0,0:3|0:0,0:0:0:0:
325,41,116350,2,0,L|341:86,1,35.9999989013672,8|0,0:3|0:0,0:0:0:0:
224,92,116475,6,0,L|208:137,1,35.9999989013672,0|0,1:0|0:0,0:0:0:0:
144,104,116600,2,0,L|128:149,1,35.9999989013672,0|0,1:0|0:0,0:0:0:0:
254,164,116725,5,0,1:0:0:0:
331,192,116850,1,0,1:0:0:0:
331,192,116912,1,0,0:0:0:0:
331,192,116975,1,0,0:0:0:0:
400,215,117100,1,0,1:0:0:0:
240,310,117225,5,0,1:0:0:0:
209,244,117350,2,0,B|189:253|189:253|167:285,1,44.0000013427735
314,315,117475,2,0,B|317:293|317:293|300:258,1,44.0000013427735,0|0,1:0|0:0,0:0:0:0:
195,371,117600,2,0,B|213:383|213:383|252:386,1,44.0000013427735,0|0,1:0|0:0,0:0:0:0:
419,352,117725,5,8,0:1:0:0:
436,281,117850,2,0,B|466:293|466:293|485:312|485:312|541:331,2,88.000002685547,0|0|0,1:0|1:0|0:0,0:0:0:0:
254,106,118225,6,0,L|259:77,4,29.3333342285157,8|0|0|8|0,0:1|0:0|0:0|0:3|0:0,0:0:0:0:
303,57,118475,5,4,0:3:0:0:
155,193,118600,1,8,0:1:0:0:
284,344,118725,6,0,P|239:365|190:384,1,80,6|0,1:0|0:0,0:0:0:0:
357,167,118975,1,8,0:1:0:0:
419,209,119100,2,0,P|429:164|449:101,1,80,6|0,1:0|1:0,0:0:0:0:
246,281,119350,1,0,0:0:0:0:
512,384,119475,5,10,0:1:0:0:
484,318,119600,2,0,B|398:324|428:365|311:353,1,160,0|0,1:0|1:0,0:0:0:0:
383,185,119975,5,10,0:1:0:0:
174,274,120100,1,2,3:0:0:0:
1,131,120225,5,10,0:1:0:0:
48,110,120287,1,8,0:1:0:0:
101,119,120350,1,0,1:0:0:0:
137,154,120412,1,0,1:0:0:0:
143,202,120475,2,0,P|108:220|47:240,1,80,12|0,0:1|0:0,0:0:0:0:
434,263,120725,5,6,1:0:0:0:
291,131,120850,1,8,0:3:0:0:
472,51,120975,5,4,0:3:0:0:
302,205,121100,1,4,0:3:0:0:
96,50,121225,5,8,0:1:0:0:
51,90,121308,1,8,0:3:0:0:
65,148,121391,1,8,0:3:0:0:
108,171,121475,1,0,1:0:0:0:
143,202,121558,1,4,0:3:0:0:
155,265,121641,1,4,0:3:0:0:
115,310,121725,1,0,1:0:0:0:
169,327,122600,6,0,B|80:338|113:372|9:370,1,160,6|0,1:0|1:0,0:0:0:0:
244,183,122975,2,0,P|247:161|248:51,1,120,10|0,0:1|0:0,0:0:0:0:
250,64,123225,2,0,P|210:47|153:16,1,80,0|0,1:0|1:0,0:0:0:0:
311,206,123475,1,8,0:1:0:0:
98,95,123600,2,0,P|38:134|57:225,1,160,0|0,1:0|1:0,0:0:0:0:
217,330,123975,5,10,0:1:0:0:
307,133,124100,1,0,0:0:0:0:
243,167,124225,5,2,1:0:0:0:
423,282,124350,1,0,1:0:0:0:
423,282,124412,1,0,1:0:0:0:
423,282,124475,1,8,0:1:0:0:
185,266,124600,6,0,B|104:244|113:294|17:269,1,160,6|0,1:0|1:0,0:0:0:0:
325,0,124975,2,0,P|347:34|357:105,1,80,10|0,0:1|0:0,0:0:0:0:
216,167,125225,2,0,P|194:133|184:62,1,80,0|0,1:0|1:0,0:0:0:0:
127,205,125475,1,8,0:1:0:0:
219,0,125600,2,0,P|177:63|101:55,1,160,0|0,1:0|1:0,0:0:0:0:
323,131,125975,5,10,0:1:0:0:
489,254,126100,1,0,1:0:0:0:
507,65,126225,5,10,0:1:0:0:
361,214,126350,1,0,1:0:0:0:
361,214,126412,1,0,1:0:0:0:
361,214,126475,1,8,0:1:0:0:
164,3,126600,6,0,P|205:66|281:58,1,160,6|0,1:0|1:0,0:0:0:0:
102,184,126975,2,0,P|68:204|2:228,1,80,10|0,0:1|0:0,0:0:0:0:
275,373,127225,2,0,P|278:353|280:232,1,120,0|0,1:0|0:0,0:0:0:0:
282,254,127475,5,8,0:1:0:0:
134,307,127600,1,0,1:0:0:0:
260,187,127725,5,8,0:1:0:0:
443,289,127850,1,0,1:0:0:0:
240,119,127975,5,8,0:1:0:0:
20,205,128100,1,0,1:0:0:0:
228,47,128225,5,8,0:1:0:0:
474,165,128350,2,0,P|503:176|536:186,1,40,0|0,1:0|0:0,0:0:0:0:
512,185,128600,6,0,P|456:192|329:218,1,160,6|0,1:0|1:0,0:0:0:0:
392,275,128975,2,0,P|432:298|472:316,1,80,10|0,0:1|0:0,0:0:0:0:
255,156,129225,2,0,P|245:112|225:53,1,80,0|0,1:0|1:0,0:0:0:0:
137,334,129475,1,8,0:1:0:0:
163,266,129600,6,0,B|86:246|96:295|-11:271,1,160,0|0,1:0|1:0,0:0:0:0:
290,242,129975,5,10,0:1:0:0:
81,372,130100,1,0,1:0:0:0:
333,330,130225,5,10,0:1:0:0:
146,194,130350,1,8,0:3:0:0:
354,74,130475,5,4,0:3:0:0:
239,295,130600,2,0,B|257:223|217:240|245:158,1,128,6|0,1:0|0:0,0:0:0:0:
94,24,130975,2,0,P|64:12|20:-8,1,64,2|0,1:0|0:0,0:0:0:0:
257,100,131225,2,0,B|281:170|241:153|263:251,1,143.999995605469,8|0,0:1|0:0,0:0:0:0:
104,357,131725,6,0,P|140:373|183:388,1,64,4|0,1:0|0:0,0:0:0:0:
328,215,131975,2,0,P|292:231|249:246,1,64,0|0,1:0|0:0,0:0:0:0:
375,332,132225,2,0,B|310:320|325:355|221:324,1,128,10|0,0:1|0:0,0:0:0:0:
7,219,132600,6,0,L|42:70,1,128,6|0,1:0|0:0,0:0:0:0:
92,51,132975,2,0,P|130:39|177:18,1,64,2|0,1:0|0:0,0:0:0:0:
325,130,133225,2,0,B|327:100|327:100|310:70,1,64,8|0,0:1|0:0,0:0:0:0:
247,114,133475,2,0,B|245:144|245:144|261:173,1,64
464,375,133725,6,0,B|473:316|509:341|517:252,1,107.999996704102,6|0,1:0|0:0,0:0:0:0:
471,220,133975,2,0,L|387:194,1,71.9999978027344,8|0,0:1|1:0,0:0:0:0:
198,259,134225,5,8,0:1:0:0:
69,87,134350,1,8,0:3:0:0:
232,192,134475,5,4,0:3:0:0:
0,272,134600,2,0,P|70:315|54:391,1,160,6|0,1:0|1:0,0:0:0:0:
174,138,134975,2,0,P|214:123|278:93,1,80,8|0,0:1|0:0,0:0:0:0:
304,155,135225,1,10,0:1:0:0:
105,307,135350,1,8,0:1:0:0:
102,313,135600,6,0,B|192:294|176:346|285:324,1,160,6|0,1:0|1:0,0:0:0:0:
424,145,135975,1,8,0:1:0:0:
216,237,136100,1,0,1:0:0:0:
251,175,136225,5,10,0:1:0:0:
508,353,136350,1,8,0:1:0:0:
502,361,136600,6,0,L|471:200,1,160,6|0,1:0|1:0,0:0:0:0:
303,382,136975,1,2,1:0:0:0:
303,376,137225,1,0,0:0:0:0:
305,370,137475,1,0,0:0:0:0:
307,363,137725,1,0,0:0:0:0:
309,357,137975,1,0,0:0:0:0:
311,350,138225,1,0,0:0:0:0:
276,289,138350,2,0,L|320:270,3,40
409,285,138600,6,0,P|336:250|362:163,1,160,4|0,1:0|1:0,0:0:0:0:
494,3,138975,1,0,1:0:0:0:
485,6,139225,1,0,0:0:0:0:
476,9,139475,1,0,0:0:0:0:
469,13,139725,2,0,L|521:29,4,40
333,82,140100,5,0,0:0:0:0:
333,82,140162,1,0,0:0:0:0:
333,82,140225,2,0,L|317:27,1,40,0|0,3:0|0:0,0:0:0:0:
259,103,140350,2,0,L|243:48,1,40,0|0,3:0|0:0,0:0:0:0:
187,130,140475,2,0,L|171:75,1,40,0|0,3:0|0:0,0:0:0:0:
425,289,140600,6,0,P|370:289|328:225,1,120,4|0,1:0|0:0,0:0:0:0:
330,242,140850,2,0,P|261:279|234:289,1,80,0|0,1:0|1:0,0:0:0:0:
264,287,141225,2,0,P|303:303|356:329,1,71.9999978027344,8|0,0:1|0:0,0:0:0:0:
134,197,141475,2,0,P|120:154|101:111,1,71.9999978027344,0|0,1:0|0:0,0:0:0:0:
63,324,141725,2,0,P|28:361|8:386,1,71.9999978027344,0|0,1:0|0:0,0:0:0:0:
226,184,141975,1,0,1:0:0:0:
226,184,142225,1,8,0:1:0:0:
202,384,142350,2,0,P|179:366|153:340,3,40
99,315,142600,6,0,B|190:299|178:341|274:330,1,160,4|0,1:0|1:0,0:0:0:0:
474,224,142975,1,0,1:0:0:0:
480,229,143225,2,0,P|437:256|388:276,1,71.9999978027344,8|0,0:1|0:0,0:0:0:0:
273,107,143475,2,0,P|315:133|368:155,1,71.9999978027344,0|0,1:0|0:0,0:0:0:0:
405,169,143725,5,0,1:0:0:0:
213,272,143850,1,8,0:1:0:0:
401,383,143975,5,8,0:1:0:0:
269,226,144100,1,8,0:1:0:0:
105,336,144225,5,0,1:0:0:0:
330,276,144350,2,0,B|339:209|381:233|381:146,1,120,0|0,1:0|0:0,0:0:0:0:
316,134,144600,6,0,L|503:105,1,160,4|0,1:0|1:0,0:0:0:0:
325,281,144975,1,0,1:0:0:0:
330,276,145225,2,0,B|352:308|352:308|348:365,1,71.9999978027344,8|0,0:1|0:0,0:0:0:0:
190,185,145475,2,0,P|148:168|101:144,1,71.9999978027344,0|0,1:0|0:0,0:0:0:0:
282,381,145725,2,0,B|264:349|264:349|264:292,1,71.9999978027344,0|0,1:0|0:0,0:0:0:0:
378,152,145975,2,0,P|417:136|467:111,1,71.9999978027344,0|0,1:0|0:0,0:0:0:0:
219,255,146225,1,8,0:1:0:0:
356,321,146350,2,0,L|343:277,3,40
429,280,146600,6,0,B|374:267|374:267|348:233|348:233|264:211,1,160,4|0,1:0|1:0,0:0:0:0:
63,340,146975,1,0,1:0:0:0:
68,334,147225,2,0,L|160:302,1,71.9999978027344,8|0,0:1|1:0,0:0:0:0:
181,202,147475,2,0,L|108:175,1,71.9999978027344,0|0,0:0|1:0,0:0:0:0:
114,178,147662,1,0,1:0:0:0:
114,178,147725,5,12,0:1:0:0:
276,374,147850,2,0,P|324:349|304:256,1,143.999995605469,0|0,1:0|1:0,0:0:0:0:
68,245,148225,5,8,0:1:0:0:
173,21,148350,1,8,0:3:0:0:
104,47,148475,5,4,0:3:0:0:
291,203,148600,2,0,B|213:183|219:227|97:196,1,160,4|0,1:0|1:0,0:0:0:0:
334,146,148975,2,0,P|377:130|439:97,1,80,0|0,1:0|0:0,0:0:0:0:
385,279,149225,2,0,P|349:249|290:212,1,80,8|0,0:1|0:0,0:0:0:0:
474,171,149475,2,0,P|466:216|463:286,1,80,0|0,1:0|0:0,0:0:0:0:
213,180,149725,6,0,B|151:165|153:198|62:181,1,120,0|0,1:0|0:0,0:0:0:0:
95,186,149975,2,0,P|142:208|191:249,1,80,0|0,1:0|0:0,0:0:0:0:
333,374,150225,1,8,0:1:0:0:
379,284,150350,2,0,P|396:315|406:345,3,40
456,364,150600,6,0,P|427:354|298:300,1,160,4|0,1:0|1:0,0:0:0:0:
97,205,150975,2,0,P|52:233|-1:258,1,80,0|0,1:0|0:0,0:0:0:0:
206,79,151225,2,0,B|204:40|204:40|242:-14,1,80,8|0,0:1|0:0,0:0:0:0:
0,91,151475,2,0,P|45:119|98:144,1,80,0|0,1:0|0:0,0:0:0:0:
231,278,151725,2,0,B|233:239|233:239|195:185,1,80,0|0,1:0|0:0,0:0:0:0:
404,3,151975,2,0,P|358:43|293:88,1,120,0|0,1:0|0:0,0:0:0:0:
311,78,152225,1,8,0:1:0:0:
468,251,152350,2,0,P|477:234|485:216,3,40,0|0|0|0,1:0|0:0|0:0|0:0,0:0:0:0:
387,227,152600,6,0,P|450:265|409:345,1,160,4|8,1:0|0:1,0:0:0:0:
361,378,152912,1,8,0:1:0:0:
351,382,152975,5,8,0:1:0:0:
168,255,153100,1,8,0:1:0:0:
129,317,153225,5,8,0:1:0:0:
352,236,153350,1,8,0:1:0:0:
207,40,153475,6,0,B|195:99|162:73|149:149,1,120,0|0,1:0|0:0,0:0:0:0:
97,195,153725,2,0,P|54:213|-5:233,1,80,8|0,0:1|1:0,0:0:0:0:
53,291,153975,1,0,1:0:0:0:
240,170,154100,2,0,P|240:121|230:35,1,120,8|0,0:1|0:0,0:0:0:0:
233,51,154350,2,0,P|194:39|155:23,1,80,0|8,1:0|0:1,0:0:0:0:
512,206,154600,6,0,P|496:260|388:266,1,160,4|0,1:0|1:0,0:0:0:0:
403,277,154912,1,0,1:0:0:0:
403,277,154975,2,0,P|440:298|485:328,1,80,8|0,0:1|0:0,0:0:0:0:
208,115,155225,2,0,P|191:63|171:15,1,80,8|0,0:1|0:0,0:0:0:0:
111,328,155475,2,0,P|79:361|34:401,1,80,8|0,0:1|0:0,0:0:0:0:
429,207,155725,1,0,1:0:0:0:
360,233,156600,6,0,B|276:214|299:265|189:238,1,160,6|0,1:0|1:0,0:0:0:0:
418,3,156975,2,0,P|425:34|435:145,1,120,10|0,0:1|0:0,0:0:0:0:
438,126,157225,2,0,P|485:148|536:170,1,80,2|0,1:0|1:0,0:0:0:0:
361,364,157475,1,8,0:1:0:0:
387,300,157600,6,0,P|316:289|263:366,1,160,2|0,1:0|1:0,0:0:0:0:
103,157,157975,2,0,P|56:143|5:121,1,80,10|0,0:1|0:0,0:0:0:0:
213,288,158225,1,2,1:0:0:0:
0,378,158350,1,0,1:0:0:0:
0,378,158412,1,0,1:0:0:0:
0,378,158475,1,8,0:1:0:0:
22,305,158600,6,0,B|112:312|93:353|200:348,1,160,6|0,1:0|1:0,0:0:0:0:
348,206,158975,2,0,P|386:193|422:178,1,80,10|0,0:1|0:0,0:0:0:0:
310,270,159225,1,2,1:0:0:0:
466,377,159350,1,0,1:0:0:0:
257,382,159475,5,8,0:1:0:0:
439,248,159600,2,0,P|396:218|437:108,1,160,2|0,1:0|1:0,0:0:0:0:
0,30,159975,5,8,0:1:0:0:
177,250,160100,1,0,1:0:0:0:
106,273,160225,5,10,0:1:0:0:
195,2,160350,1,0,1:0:0:0:
195,2,160412,1,0,1:0:0:0:
195,2,160475,1,8,0:1:0:0:
436,178,160600,6,0,B|359:155|369:202|260:173,1,160,6|0,1:0|1:0,0:0:0:0:
512,245,160975,2,0,P|484:259|412:285,1,80,10|0,0:1|0:0,0:0:0:0:
250,57,161225,2,0,P|279:73|352:102,1,80,2|0,1:0|1:0,0:0:0:0:
176,214,161475,5,10,0:1:0:0:
25,308,161600,1,0,1:0:0:0:
0,237,161725,5,2,1:0:0:0:
54,215,161808,2,0,P|85:223|133:247,1,53.3333333333333,0|0,1:0|1:0,0:0:0:0:
306,333,161975,2,0,P|274:344|179:366,1,120,10|0,0:1|0:0,0:0:0:0:
119,380,162225,5,10,0:1:0:0:
279,220,162350,1,8,0:3:0:0:
478,373,162475,5,4,0:3:0:0:
226,274,162600,2,0,B|253:186|197:204|237:105,1,160,6|0,1:0|1:0,0:0:0:0:
5,294,162975,2,0,B|9:334|9:334|44:379,1,80,10|0,0:1|0:0,0:0:0:0:
226,200,163225,1,2,1:0:0:0:
61,95,163350,1,0,1:0:0:0:
61,95,163412,1,0,1:0:0:0:
61,95,163475,1,8,0:1:0:0:
91,290,163600,6,0,B|98:222|138:250|140:157,1,120,2|0,1:0|0:0,0:0:0:0:
135,143,163850,1,0,1:0:0:0:
385,263,163975,5,8,0:1:0:0:
142,371,164100,1,0,1:0:0:0:
3,177,164225,5,8,0:1:0:0:
195,316,164350,1,8,0:3:0:0:
237,251,164475,5,4,0:3:0:0:
499,129,164600,2,2,B|503:154|528:187|528:187|479:188|433:240,1,160,6|0,1:0|1:0,0:1:0:0:
313,121,164912,1,0,1:0:0:0:
313,121,164975,2,0,P|274:107|174:60,1,120,10|0,0:1|0:0,0:0:0:0:
43,169,165225,5,2,1:2:0:0:
172,185,165350,2,0,P|129:207|90:224,1,80,2|8,1:2|0:1,0:0:0:0:
445,285,165600,5,2,1:2:0:0:
332,238,165725,2,0,P|356:279|380:314,1,80,2|0,0:2|1:0,0:0:0:0:
31,344,165975,5,10,0:1:0:0:
138,290,166100,2,0,P|117:333|97:371,1,80,2|0,0:2|0:0,0:0:0:0:
369,134,166350,5,2,1:2:0:0:
369,134,166412,1,0,1:0:0:0:
369,134,166475,1,8,0:1:0:0:
225,382,166600,2,2,B|223:342|223:342|239:311|239:311|224:268|243:205,1,160,6|0,1:0|1:0,0:1:0:0:
267,137,166912,1,0,1:0:0:0:
272,126,166975,1,8,0:1:0:0:
398,368,167100,5,2,0:0:0:0:
419,243,167225,2,0,P|432:278|468:345,1,80,2|0,1:2|1:0,0:0:0:0:
87,270,167475,5,10,0:1:0:0:
66,145,167600,2,0,P|53:180|17:247,1,80,2|0,1:2|0:0,0:0:0:0:
247,354,167850,5,0,1:0:0:0:
379,159,167975,1,8,0:1:0:0:
215,282,168100,1,0,1:0:0:0:
97,18,168225,5,8,0:1:0:0:
242,208,168350,1,0,1:0:0:0:
56,375,168475,5,8,0:1:0:0:
316,199,168600,2,0,B|270:185|270:185|250:147|250:147|150:115,1,160,6|0,1:0|1:0,0:0:0:0:
366,377,168975,2,0,B|377:342|377:342|352:293,1,80,10|0,0:1|0:0,0:0:0:0:
67,186,169225,5,2,1:0:0:0:
216,307,169350,1,0,1:0:0:0:
201,235,169475,5,8,0:1:0:0:
0,302,169600,2,0,P|72:328|162:349,1,160,2|0,1:0|1:0,0:0:0:0:
273,178,169975,5,10,0:1:0:0:
506,39,170100,1,0,1:0:0:0:
474,106,170225,5,10,0:1:0:0:
230,7,170350,1,8,0:3:0:0:
44,187,170475,5,4,0:3:0:0:
297,50,170600,2,0,P|226:32|190:111,1,160,6|0,1:0|1:0,0:0:0:0:
352,249,170975,2,0,P|387:268|433:300,1,80,10|0,0:1|0:0,0:0:0:0:
479,99,171225,2,0,P|444:118|398:150,1,80,2|0,1:0|1:0,0:0:0:0:
220,364,171475,1,8,0:1:0:0:
245,297,171600,6,0,B|167:275|172:326|69:310,1,160,2|0,1:0|1:0,0:0:0:0:
288,204,171975,5,10,0:1:0:0:
496,302,172100,1,0,1:0:0:0:
297,133,172225,5,10,0:1:0:0:
83,220,172350,1,0,1:0:0:0:
282,62,172475,5,8,0:1:0:0:
512,221,172600,1,0,1:0:0:0:
362,1,172725,6,0,B|274:3|305:48|189:40,1,160,6|0,1:0|0:0,0:0:0:0:
50,197,173100,2,0,L|33:249,1,40,10|0,0:1|0:0,0:0:0:0:
44,187,173350,2,0,L|-1:172,1,40,2|0,1:0|0:0,0:0:0:0:
87,313,173600,6,0,P|63:241|146:203,1,160,6|0,1:0|1:0,0:0:0:0:
321,324,173975,2,0,P|390:352|455:369,1,120,8|0,0:1|0:0,0:0:0:0:
433,364,174225,1,0,1:0:0:0:
274,376,174350,1,0,1:0:0:0:
383,200,174475,2,0,P|337:225|283:245,1,80,10|0,0:1|0:0,0:0:0:0:
0,351,174725,6,0,B|93:331|75:384|185:369,1,160,6|0,1:0|1:0,0:0:0:0:
370,275,175100,2,0,P|428:300|472:315,1,80,10|0,0:1|0:0,0:0:0:0:
195,142,175350,1,2,1:0:0:0:
310,320,175475,1,8,0:1:0:0:
303,153,175600,6,0,P|249:144|209:241,1,160,6|0,1:0|1:0,0:0:0:0:
88,100,175975,2,0,P|41:80|-3:58,1,80,8|0,0:1|0:0,0:0:0:0:
124,273,176225,1,0,1:0:0:0:
296,176,176350,1,0,1:0:0:0:
296,176,176412,1,0,1:0:0:0:
296,176,176475,2,0,P|294:143|277:42,1,120,10|0,0:1|0:0,0:0:0:0:
330,1,176725,6,0,B|238:12|270:50|175:49,1,160,6|0,1:0|1:0,0:0:0:0:
410,144,177100,2,0,P|460:161|511:186,1,80,10|0,0:1|0:0,0:0:0:0:
454,80,177350,1,2,1:0:0:0:
292,173,177475,1,8,0:1:0:0:
141,52,177600,6,0,P|68:51|46:132,1,160,6|0,1:0|1:0,0:0:0:0:
183,352,177975,2,0,P|243:376|276:392,1,80,10|0,0:1|0:0,0:0:0:0:
235,221,178225,2,0,P|184:260|153:281,1,80,2|0,1:0|1:0,0:0:0:0:
327,331,178475,2,0,P|317:267|315:230,1,80,10|0,0:1|0:0,0:0:0:0:
490,0,178725,6,0,B|452:85|515:65|472:173,1,160,6|0,1:0|1:0,0:0:0:0:
249,20,179100,2,0,P|201:8|186:0,1,40,10|0,0:1|0:0,0:0:0:0:
253,37,179350,1,2,1:0:0:0:
107,122,179475,1,8,0:1:0:0:
0,0,179600,6,0,P|58:4|71:111,1,160,6|0,1:0|1:0,0:0:0:0:
225,232,179975,2,0,P|264:253|320:291,1,80,10|0,0:1|0:0,0:0:0:0:
76,380,180225,1,0,1:0:0:0:
19,340,180308,1,0,1:0:0:0:
12,270,180391,1,0,1:0:0:0:
52,212,180475,2,0,P|75:209|178:181,1,120,10|0,0:1|0:0,0:0:0:0:
210,125,180725,6,0,P|143:143|135:246,1,160,6|0,1:0|1:0,0:0:0:0:
365,352,181100,2,0,L|413:368,1,40,10|0,0:1|0:0,0:0:0:0:
355,354,181350,2,0,L|338:398,1,40,2|0,1:0|0:0,0:0:0:0:
231,243,181475,1,8,0:1:0:0:
447,306,181600,6,0,B|364:285|379:339|261:309,1,160,6|0,1:0|1:0,0:0:0:0:
111,174,181975,2,0,P|68:158|17:131,1,80,8|0,0:1|0:0,0:0:0:0:
84,246,182225,1,0,1:0:0:0:
232,141,182350,1,0,1:0:0:0:
123,0,182475,2,0,B|101:36|101:36|112:90,1,80,10|0,0:1|0:0,0:0:0:0:
266,209,182725,6,0,P|350:239|432:259,1,160,6|0,1:0|1:0,0:0:0:0:
216,267,183100,2,0,B|179:272|179:272|142:297,1,80,10|0,0:1|0:0,0:0:0:0:
305,146,183350,1,2,1:0:0:0:
137,214,183475,1,8,0:1:0:0:
25,40,183600,6,0,P|94:40|120:135,1,160,6|0,1:0|1:0,0:0:0:0:
270,266,183975,2,0,P|321:289|365:315,1,80,8|0,0:1|0:0,0:0:0:0:
33,368,184225,1,8,0:1:0:0:
300,195,184350,1,8,0:1:0:0:
304,188,184600,6,0,B|223:166|239:224|126:194,1,160,6|0,1:0|1:0,0:0:0:0:
415,312,184975,2,0,P|417:277|417:164,1,120,8|0,0:1|0:0,0:0:0:0:
417,192,185225,1,0,1:0:0:0:
342,261,185350,1,0,1:0:0:0:
493,326,185475,5,8,0:1:0:0:
245,242,185600,2,0,P|301:236|303:135,1,160,6|0,1:0|1:0,0:0:0:0:
68,17,185975,5,8,0:1:0:0:
196,186,186100,1,0,1:0:0:0:
24,326,186225,5,8,0:1:0:0:
137,132,186350,1,0,1:0:0:0:
66,150,186475,5,8,0:3:0:0:
253,281,186600,1,4,0:3:0:0:
512,194,186725,5,0,1:0:0:0:
200,190,188725,5,8,0:1:0:0:
371,377,188850,2,0,B|375:342|375:342|338:289,1,80,8|0,0:1|0:0,0:0:0:0:
349,65,189100,5,8,0:1:0:0:
102,259,189225,2,0,B|98:224|98:224|135:171,1,80,8|0,0:1|0:0,0:0:0:0:
306,5,189475,5,8,0:1:0:0:
235,314,189600,1,8,0:1:0:0:
243,307,190600,6,0,B|343:320|308:361|418:359,1,167.999994873047,6|2,1:0|0:3,0:0:0:0:
405,369,191475,1,2,0:3:0:0:
168,311,191600,2,0,L|157:355,1,27.9999991455078,0|0,1:0|0:0,0:0:0:0:
89,367,191850,5,0,1:0:0:0:
214,213,191975,2,0,P|246:203|308:177,1,80,0|0,1:0|0:0,0:0:0:0:
79,133,192225,5,8,0:1:0:0:
267,271,192350,1,8,0:3:0:0:
0,380,192475,5,4,0:3:0:0:
142,200,192600,2,0,L|105:20,1,160,6|0,1:0|1:0,0:0:0:0:
310,112,192975,2,0,P|334:106|408:79,1,71.9999978027344,2|0,1:0|0:0,0:0:0:0:
337,244,193225,2,0,P|319:226|259:175,1,71.9999978027344,8|0,0:1|0:3,0:3:0:0:
435,161,193475,2,0,P|428:184|414:262,1,71.9999978027344,0|0,1:3|0:3,0:3:0:0:
85,337,193725,5,0,1:0:0:0:
120,290,193808,1,8,0:3:0:0:
162,283,193891,1,8,0:3:0:0:
211,312,193975,1,4,0:3:0:0:
246,359,194058,1,4,0:3:0:0:
288,373,194141,1,4,0:3:0:0:
339,341,194225,1,8,0:1:0:0:
105,205,194350,1,8,0:1:0:0:
133,139,194600,6,0,P|70:127|30:219,1,160,6|0,1:0|1:0,0:0:0:0:
267,153,194975,2,0,P|297:143|384:105,1,120,10|0,0:1|0:0,0:0:0:0:
383,104,195225,2,0,P|348:164|336:195,1,80,0|0,1:0|1:0,0:0:0:0:
266,373,195475,1,10,0:1:0:0:
413,204,195600,1,0,1:0:0:0:
477,315,195725,6,0,B|398:291|405:347|285:310,1,160,2|8,0:1|0:1,0:0:0:0:
68,152,196100,1,0,1:0:0:0:
38,87,196225,2,0,B|15:96|15:96|-3:124,1,53.3333333333333,10|0,0:1|0:0,0:0:0:0:
155,167,196391,2,0,B|158:142|158:142|143:112,1,53.3333333333333,2|0,1:0|0:0,0:0:0:0:
19,231,196558,2,0,B|38:246|38:246|71:248,1,53.3333333333333,2|0,1:0|3:0,3:0:0:0:
58,168,197225,6,0,P|50:205|33:328,1,160,6|8,1:0|0:1,0:0:0:0:
235,163,197600,2,0,P|322:136|340:128,1,80,0|0,1:0|0:0,0:0:0:0:
200,240,197850,1,0,1:0:0:0:
371,367,197975,1,4,0:3:0:0:
381,328,198037,1,4,0:3:0:0:
379,315,198100,1,4,0:3:0:0:
386,281,198162,1,4,0:3:0:0:
385,235,198225,1,0,1:0:0:0:
183,318,198350,5,0,1:0:0:0:
1,166,198475,1,0,1:0:0:0:
65,132,198600,6,0,P|72:176|79:264,1,128,6|0,1:0|0:0,0:0:0:0:
150,247,198975,2,0,P|157:215|163:163,1,64,2|0,1:0|0:0,0:0:0:0:
392,299,199225,2,0,P|426:371|534:353,1,192,8|0,0:1|0:0,0:0:0:0:
366,226,199725,6,0,P|325:248|283:264,1,64,4|0,1:0|0:0,0:0:0:0:
477,114,199975,2,0,P|489:75|505:36,1,64,0|0,1:0|0:0,0:0:0:0:
264,195,200225,2,0,B|239:264|289:246|261:333,1,128,10|0,0:1|0:0,0:0:0:0:
122,73,200600,6,0,L|-27:28,1,128,6|0,1:0|0:0,0:0:0:0:
128,148,200975,2,0,B|111:176|111:176|110:224,1,64,2|0,1:0|0:0,0:0:0:0:
169,255,201225,2,0,B|186:228|186:228|187:179,1,64,8|0,0:1|0:0,0:0:0:0:
31,311,201475,2,0,P|-4:331|-36:351,1,64
265,231,201725,6,0,B|275:170|307:196|314:115,1,120,2|0,1:0|0:0,0:0:0:0:
279,59,201975,2,0,L|186:33,1,80,8|0,0:1|1:0,0:0:0:0:
361,206,202225,5,0,0:0:0:0:
174,284,202350,1,8,0:3:0:0:
34,131,202475,5,4,0:3:0:0:
207,218,202600,2,0,B|244:300|191:287|224:378,1,160,6|0,1:0|1:0,0:0:0:0:
326,169,202975,2,0,P|363:148|406:118,1,80,8|0,0:1|0:0,0:0:0:0:
329,246,203225,1,2,1:0:0:0:
203,82,203350,1,0,1:0:0:0:
270,120,203475,5,8,0:1:0:0:
47,215,203600,2,0,B|40:176|40:176|70:129,1,80,6|8,1:0|0:3,0:0:0:0:
114,83,203787,1,4,0:3:0:0:
121,78,203850,1,12,0:1:0:0:
246,232,203975,5,0,1:0:0:0:
43,330,204100,1,8,0:1:0:0:
348,377,204225,5,0,1:0:0:0:
138,245,204350,1,8,0:1:0:0:
332,69,204475,5,0,1:0:0:0:
215,301,204600,2,0,P|269:321|315:227,1,160,6|0,1:0|1:0,0:0:0:0:
125,66,204975,2,0,P|78:50|44:35,1,80,10|0,0:1|0:0,0:0:0:0:
208,226,205225,1,0,1:0:0:0:
331,64,205350,1,0,1:0:0:0:
261,83,205475,5,8,0:1:0:0:
452,241,205600,2,0,P|456:211|458:72,1,160,0|0,1:0|1:0,0:0:0:0:
273,275,205975,5,10,0:1:0:0:
439,382,206100,1,0,1:0:0:0:
318,216,206225,5,2,1:0:0:0:
113,275,206350,1,0,1:0:0:0:
18,96,206475,5,8,0:1:0:0:
173,229,206600,2,0,B|95:202|106:251|3:227,1,160,6|0,1:0|1:0,0:0:0:0:
300,119,206975,2,0,P|331:111|388:88,1,80,10|0,0:1|0:0,0:0:0:0:
245,250,207225,1,0,1:0:0:0:
399,373,207350,2,0,B|407:334|407:334|378:282,1,80,0|8,1:0|0:1,0:0:0:0:
325,262,207600,6,0,B|403:235|392:284|495:260,1,160,0|0,1:0|1:0,0:0:0:0:
227,360,207975,5,10,0:1:0:0:
344,183,208100,1,0,1:0:0:0:
276,161,208225,5,2,1:0:0:0:
178,0,208350,1,0,1:0:0:0:
35,173,208475,5,8,0:1:0:0:
249,23,208600,2,0,P|219:27|60:73,1,160,6|0,1:0|1:0,0:0:0:0:
299,82,208975,2,0,P|337:97|386:118,1,80,10|0,0:1|0:0,0:0:0:0:
141,197,209225,2,0,P|90:235|55:267,1,80,0|0,1:0|1:0,0:0:0:0:
359,300,209475,2,0,P|401:335|437:373,1,80,10|0,0:1|1:0,0:0:0:0:
188,376,209725,5,2,1:0:0:0:
236,250,209850,1,0,1:0:0:0:
304,225,209975,5,10,0:1:0:0:
228,89,210100,1,0,1:0:0:0:
52,227,210225,5,10,0:1:0:0:
416,158,210350,2,0,P|398:148|379:140,1,40,0|0,1:0|0:0,0:0:0:0:
372,131,210600,6,0,P|447:113|450:31,1,160,6|0,1:0|1:0,0:0:0:0:
396,270,210975,2,0,P|450:297|488:319,1,80,10|0,0:1|0:0,0:0:0:0:
243,178,211225,2,0,P|226:138|201:90,1,80,0|0,1:0|1:0,0:0:0:0:
383,349,211475,1,8,0:1:0:0:
326,214,211600,6,0,B|246:193|263:248|145:221,1,160,0|0,1:0|1:0,0:0:0:0:
9,366,211975,5,10,0:1:0:0:
235,260,212100,1,0,1:0:0:0:
37,157,212225,5,10,0:1:0:0:
185,317,212350,1,8,0:3:0:0:
230,254,212475,5,4,0:3:0:0:
480,145,212600,2,0,P|435:157|333:193,1,128,6|0,1:0|0:0,0:0:0:0:
397,244,212975,2,0,P|445:269|471:286,1,64,2|0,1:0|0:0,0:0:0:0:
209,365,213225,2,0,P|232:312|128:240,1,192,8|0,0:1|0:0,0:0:0:0:
92,286,213725,6,0,P|126:310|167:330,1,64,0|0,1:0|0:0,0:0:0:0:
286,182,213975,2,0,P|251:201|202:219,1,64,0|0,1:0|0:0,0:0:0:0:
374,307,214225,2,0,B|443:316|419:342|521:340,1,128,10|0,0:1|0:0,0:0:0:0:
221,384,214600,6,0,P|218:359|217:247,1,128,6|0,1:0|0:0,0:0:0:0:
162,210,214975,2,0,P|142:252|129:296,1,64,2|0,1:0|0:0,0:0:0:0:
370,142,215225,2,0,P|317:145|296:26,1,192,8|0,0:1|0:0,0:0:0:0:
206,282,215725,6,0,P|145:308|89:324,1,107.999996704102,6|0,1:0|0:0,0:0:0:0:
36,333,215975,2,0,P|79:352|126:379,1,71.9999978027344,8|0,0:1|0:0,0:0:0:0:
316,231,216225,5,10,0:1:0:0:
482,320,216350,1,0,1:0:0:0:
263,377,216475,5,0,1:0:0:0:
409,206,216600,2,0,P|327:188|346:101,1,160,14|0,0:1|1:0,0:0:0:0:
143,258,216975,2,0,L|0:289,1,120,8|0,0:1|0:0,0:0:0:0:
12,299,217225,1,2,1:0:0:0:
142,155,217350,1,0,1:0:0:0:
70,171,217475,5,8,0:1:0:0:
275,269,217600,2,0,B|372:281|334:319|449:315,1,160,6|0,1:0|1:0,0:0:0:0:
254,358,217975,5,8,0:1:0:0:
398,184,218100,1,0,1:0:0:0:
398,184,218162,1,0,1:0:0:0:
398,184,218225,1,10,0:1:0:0:
148,151,218350,5,0,1:0:0:0:
337,282,218475,1,8,0:3:0:0:
25,377,218600,5,4,0:3:0:0:
254,185,218725,1,6,1:0:0:0:
