osu file format v14

[General]
AudioFilename: audio.mp3
AudioLeadIn: 0
PreviewTime: 67662
Countdown: 0
SampleSet: Soft
StackLeniency: 0.7
Mode: 0
LetterboxInBreaks: 0
WidescreenStoryboard: 1

[Editor]
Bookmarks: 2725,26725,44725,60725,68600,83475,98725,114725,122600,136600,156600,172725,190600,204600,212600,218725
DistanceSpacing: 0.9
BeatDivisor: 4
GridSize: 32
TimelineZoom: 2.3

[Metadata]
Title:Yakusoku no Ao
TitleUnicode:約束の蒼
Artist:Reol
ArtistUnicode:れをる
Creator:zekk
Version:toyBox's pRanK
Source:
Tags:japanese rock 極彩色 gokusaishiki promised blue kibbleru professionalbox kalibe chaoslitz toybot fuju nexusqi impurepug resona heroine some_hero some hero zelq bongo moete erisu momoyo estonia corsace closed agatsu cc22 wf finals hr1
BeatmapID:4183042
BeatmapSetID:2010347

[Difficulty]
HPDrainRate:5
CircleSize:4.2
OverallDifficulty:9.2
ApproachRate:9.7
SliderMultiplier:1.92
SliderTickRate:1

[Events]
//Background and Video events
0,0,"Yakusoku BG.jpg",0,0
//Break Periods
//Storyboard Layer 0 (Background)
//Storyboard Layer 1 (Fail)
//Storyboard Layer 2 (Pass)
//Storyboard Layer 3 (Foreground)
//Storyboard Layer 4 (Overlay)
//Storyboard Sound Samples

[TimingPoints]
725,250,4,2,1,60,1,0
3600,-100,4,2,1,60,0,0
3725,-100,4,2,1,60,0,0
5600,-100,4,2,1,60,0,0
5725,-100,4,2,1,60,0,0
6475,-83.3333333333333,4,2,1,60,0,0
6725,-100,4,2,1,60,0,0
7600,-100,4,2,1,60,0,0
7725,-100,4,2,1,60,0,0
10475,-125,4,2,1,60,0,0
10725,-100,4,2,1,65,0,0
11600,-100,4,2,1,65,0,0
11723,-100,4,2,1,65,0,0
13600,-100,4,2,1,65,0,0
13725,-100,4,2,1,65,0,0
14350,-83.3333333333333,4,2,1,65,0,0
14975,-100,4,2,1,65,0,0
15600,-100,4,2,1,65,0,0
15725,-100,4,2,1,65,0,0
17598,-100,4,2,1,65,0,0
17975,-100,4,2,1,65,0,0
18475,-83.3333333333333,4,2,1,65,0,0
18725,-100,4,2,1,65,0,0
19600,-100,4,2,1,65,0,0
19725,-100,4,2,1,65,0,0
21600,-83.3333333333333,4,2,1,65,0,0
21724,-83.3333333333333,4,2,1,65,0,0
22350,-133.333333333333,4,2,1,65,0,0
22725,-100,4,2,1,70,0,0
26725,-133.333333333333,4,2,1,60,0,0
30725,-133.333333333333,4,2,1,70,0,0
30850,-100,4,2,1,70,0,0
34725,-100,4,2,1,65,0,0
36100,-90.9090909090909,4,2,1,65,0,0
36475,-100,4,2,1,65,0,0
38725,-100,4,2,1,70,0,0
44225,-125,4,2,1,70,0,0
44725,-111.111111111111,4,2,1,62,0,0
52725,-142.857142857143,4,2,1,62,0,0
53100,-111.111111111111,4,2,1,62,0,0
53475,-90.9090909090909,4,2,1,62,0,0
54725,-142.857142857143,4,2,1,62,0,0
55100,-111.111111111111,4,2,1,62,0,0
55475,-90.9090909090909,4,2,1,62,0,0
55725,-100,4,2,1,62,0,0
56725,-166.666666666667,4,2,1,55,0,0
57287,-166.666666666667,4,2,1,55,0,0
57349,-166.666666666667,4,2,1,55,0,0
57725,-166.666666666667,4,2,1,55,0,0
57974,-166.666666666667,4,2,1,55,0,0
58725,-166.666666666667,4,2,1,60,0,0
59725,-111.111111111111,4,2,1,65,0,0
60475,-100,4,2,1,65,0,0
60725,-100,4,2,1,62,0,0
60850,-100,4,2,1,62,0,0
60975,-100,4,2,1,62,0,0
61225,-100,4,2,1,62,0,0
61350,-100,4,2,1,62,0,0
61600,-100,4,2,1,62,0,0
61725,-100,4,2,1,62,0,0
62850,-100,4,2,1,62,0,0
63100,-100,4,2,1,62,0,0
63225,-100,4,2,1,62,0,0
63350,-100,4,2,1,62,0,0
63600,-100,4,2,1,62,0,0
63725,-100,4,2,1,62,0,0
64475,-90.9090909090909,4,2,1,62,0,0
64725,-133.333333333333,4,2,1,62,0,0
65600,-133.333333333333,4,2,1,62,0,0
65725,-133.333333333333,4,2,1,62,0,0
66850,-100,4,2,1,62,0,0
67850,-200,4,2,1,62,0,0
68600,-90.9090909090909,4,2,1,80,0,1
76975,-100,4,2,1,80,0,1
78225,-83.3333333333333,4,2,1,80,0,1
78600,-100,4,2,1,80,0,1
82725,-100,4,2,1,65,0,0
83600,-100,4,2,1,65,0,0
83725,-100,4,2,1,65,0,0
85600,-100,4,2,1,65,0,0
85725,-100,4,2,1,65,0,0
86350,-83.3333333333333,4,2,1,65,0,0
86725,-100,4,2,1,65,0,0
87600,-100,4,2,1,65,0,0
87725,-100,4,2,1,65,0,0
89600,-100,4,2,1,65,0,0
89725,-100,4,2,1,65,0,0
89850,-100,4,2,1,65,0,0
90100,-100,4,2,1,65,0,0
91600,-100,4,2,1,65,0,0
91725,-100,4,2,1,65,0,0
93600,-100,4,2,1,65,0,0
93725,-100,4,2,1,65,0,0
94350,-83.3333333333333,4,2,1,65,0,0
94725,-100,4,2,1,70,0,0
97725,-166.666666666667,4,2,1,70,0,0
98225,-133.333333333333,4,2,1,70,0,0
98725,-133.333333333333,4,2,1,55,0,0
104600,-133.333333333333,4,2,1,55,0,0
104725,-125,4,2,1,55,0,0
106725,-100,4,2,1,70,0,0
113756,-100,4,2,1,30,0,0
114225,-100,4,2,1,70,0,0
114725,-100,4,2,1,65,0,0
121725,-166.666666666667,4,2,1,65,0,0
122225,-142.857142857143,4,2,1,65,0,0
122600,-90.9090909090909,4,2,1,80,0,1
130975,-100,4,2,1,80,0,1
132225,-83.3333333333333,4,2,1,80,0,1
132600,-100,4,2,1,80,0,1
136600,-100,4,2,1,67,0,1
136725,-100,4,2,1,67,0,0
137475,-100,4,2,1,67,0,0
139725,-133.333333333333,4,2,1,67,0,0
140600,-100,4,2,1,67,0,0
142537,-100,4,2,1,67,0,0
142600,-100,4,2,1,67,0,0
146787,-100,4,2,1,67,0,0
146850,-100,4,2,1,67,0,0
148787,-100,4,2,1,67,0,0
148850,-100,4,2,1,67,0,0
149100,-100,4,2,1,67,0,0
149225,-100,4,2,1,67,0,0
149600,-100,4,2,1,67,0,0
149725,-100,4,2,1,67,0,0
151600,-100,4,2,1,67,0,0
151725,-100,4,2,1,67,0,0
154600,-76.9230769230769,4,2,1,67,0,0
155725,-142.857142857143,4,2,1,67,0,0
156162,-142.857142857143,4,2,1,5,0,0
156225,-100,4,2,1,67,0,0
156537,-100,4,2,1,5,0,0
156600,-90.9090909090909,4,2,1,85,0,0
170225,-125,4,2,1,85,0,0
170600,-90.9090909090909,4,2,1,85,0,0
172725,-90.9090909090909,4,2,1,75,0,0
173225,-90.9090909090909,4,2,1,75,0,0
173350,-90.9090909090909,4,2,1,75,0,0
173475,-90.9090909090909,4,2,1,75,0,0
173600,-90.9090909090909,4,2,1,75,0,0
174725,-76.9230769230769,4,2,1,75,0,0
175100,-90.9090909090909,4,2,1,75,0,0
175350,-76.9230769230769,4,2,1,75,0,0
175600,-90.9090909090909,4,2,1,75,0,0
177225,-90.9090909090909,4,2,1,75,0,0
177350,-90.9090909090909,4,2,1,75,0,0
179350,-83.3333333333333,4,2,1,75,0,0
180725,-90.9090909090909,4,2,1,75,0,0
181600,-83.3333333333333,4,2,1,75,0,0
182725,-90.9090909090909,4,2,1,75,0,0
186725,-166.666666666667,4,2,1,55,0,0
188725,-166.666666666667,4,2,1,90,0,0
189850,-166.666666666667,4,2,1,90,0,0
190600,-166.666666666667,4,2,1,75,0,0
191975,-142.857142857143,4,2,1,75,0,0
192600,-125,4,2,1,75,0,0
193725,-125,4,2,1,75,0,0
194225,-125,4,2,1,75,0,0
194600,-83.3333333333333,4,2,1,85,0,1
196725,-111.111111111111,4,2,1,85,0,0
197225,-90.9090909090909,4,2,1,85,0,1
198600,-90.9090909090909,4,2,1,80,0,1
202600,-83.3333333333333,4,2,1,80,0,1
204225,-83.3333333333333,4,2,1,80,0,0
204600,-76.9230769230769,4,2,1,90,0,1
212600,-90.9090909090909,4,2,1,80,0,1
215725,-90.9090909090909,4,2,1,80,0,1
218725,-90.9090909090909,4,2,1,70,0,0
221850,-83.3333333333333,4,2,1,70,0,0
222350,-100,4,2,1,70,0,0
222975,-90.9090909090909,4,2,1,70,0,0
226475,-83.3333333333333,4,2,1,70,0,0
226725,-90.9090909090909,4,2,1,70,0,0
230350,-83.3333333333333,4,2,1,70,0,0
230725,-90.9090909090909,4,2,1,70,0,0
234100,-83.3333333333333,4,2,1,70,0,0
234475,-58.8235294117647,4,2,1,70,0,0

[Colours]
Combo1 : 139,2,251
Combo2 : 21,191,255
Combo3 : 88,75,252
Combo4 : 254,236,192
Combo5 : 249,213,68
Combo6 : 118,237,250

[HitObjects]
129,109,2725,6,0,P|123:165|110:249,1,96,4|0,1:1|2:2,0:0:0:0:
9,109,2975,1,2,2:2:0:0:
63,341,3100,5,0,1:1:0:0:
63,341,3162,1,0,1:0:0:0:
63,341,3225,2,0,B|110:319|110:319|183:335,1,96,4|0,1:2|0:0,0:0:0:0:
370,356,3475,1,2,1:2:0:0:
370,356,3537,1,0,1:0:0:0:
370,356,3600,2,0,L|365:274,1,48,8|8,2:2|2:2,0:0:0:0:
292,131,3725,5,8,2:2:0:0:
280,301,3850,1,0,1:1:0:0:
294,111,3975,5,2,1:2:0:0:
280,318,4100,1,0,2:2:0:0:
420,219,4225,2,0,P|445:215|486:209,2,48,0|0|0,1:2|0:0|1:1,0:0:0:0:
54,319,4475,2,0,P|98:274|192:289,1,144,2|0,1:2|0:0,0:0:0:0:
194,287,4725,6,0,P|186:236|181:185,1,96,4|0,1:2|2:2,0:0:0:0:
132,363,4975,1,2,2:2:0:0:
132,363,5100,1,0,1:1:0:0:
218,108,5225,6,0,B|106:75|136:177|23:137,1,192,8|4,0:2|1:2,0:0:0:0:
343,210,5600,1,8,2:2:0:0:
343,210,5662,1,8,2:2:0:0:
343,210,5725,2,0,P|349:157|353:75,1,96,8|2,2:2|1:2,0:0:0:0:
58,14,5975,6,0,P|68:47|75:97,1,48,0|0,1:1|0:0,0:0:0:0:
165,165,6100,2,0,P|170:141|177:118,1,48,2|0,1:2|0:0,0:0:0:0:
259,60,6225,5,8,2:2:0:0:
151,258,6350,1,8,2:2:0:0:
6,148,6475,6,0,B|55:154|55:154|83:178|83:178|116:160|116:160|207:168,1,172.799994726563,0|0,1:1|0:0,0:0:0:0:
258,239,6725,6,0,B|272:290|272:290|248:341,1,96,4|0,1:1|2:2,0:0:0:0:
149,42,6975,1,2,2:2:0:0:
32,273,7100,1,0,1:1:0:0:
32,273,7162,1,0,1:0:0:0:
32,273,7225,2,0,L|150:280,1,96,4|0,0:0|2:2,0:0:0:0:
245,101,7475,6,0,L|238:29,2,48,4|0|8,1:0|0:0|2:2,0:0:0:0:
258,239,7725,1,8,2:2:0:0:
382,194,7850,2,0,P|434:182|486:170,1,96,0|2,1:1|1:2,0:0:0:0:
361,45,8100,1,8,2:2:0:0:
343,283,8225,6,0,P|336:360|329:411,1,96,8|0,2:2|1:1,0:0:0:0:
166,144,8475,2,0,P|159:96|154:48,1,96,10|0,2:2|0:0,0:0:0:0:
69,325,8725,5,0,1:1:0:0:
0,232,8850,2,0,P|99:211|177:286,1,192,0|0,1:2|1:1,0:0:0:0:
345,89,9225,2,0,L|225:100,1,96,8|0,2:2|1:1,0:0:0:0:
57,108,9475,1,4,1:1:0:0:
166,262,9600,1,0,1:2:0:0:
189,19,9725,5,0,1:1:0:0:
471,334,10475,6,0,L|329:322,1,115.2,2|0,2:2|2:2,0:0:0:0:
249,267,10725,6,0,L|263:374,1,96,4|0,1:1|2:2,0:0:0:0:
316,174,10975,1,2,2:2:0:0:
169,341,11100,1,0,1:1:0:0:
92,157,11225,2,0,P|145:162|223:170,1,96,8|0,2:2|0:0,0:0:0:0:
1,149,11475,5,4,1:2:0:0:
270,239,11600,2,0,B|300:175|300:175|278:105,1,144,8|0,2:2|0:0,0:0:0:0:
191,56,11850,2,0,P|141:62|80:66,1,96,0|2,1:1|2:2,0:0:0:0:
283,0,12100,1,0,1:1:0:0:
414,215,12225,1,8,2:2:0:0:
414,215,12287,1,8,0:0:0:0:
414,215,12350,2,0,L|409:154,1,48,0|0,1:2|0:0,0:0:0:0:
512,106,12475,6,0,L|501:269,1,144,10|0,2:2|0:0,0:0:0:0:
490,336,12725,5,4,1:2:0:0:
332,202,12850,1,0,2:2:0:0:
319,384,12975,1,2,2:2:0:0:
382,305,13100,1,0,1:1:0:0:
118,296,13225,6,0,L|-11:280,1,96,8|0,2:2|0:0,0:0:0:0:
223,368,13475,1,6,1:2:0:0:
223,368,13537,1,0,1:0:0:0:
223,368,13600,1,0,1:1:0:0:
218,174,13725,1,0,1:1:0:0:
25,284,13850,6,0,B|72:303|72:303|118:296,1,96,8|0,2:2|1:1,0:0:0:0:
431,264,14100,2,0,B|384:245|384:245|338:252,1,96,8|0,2:2|1:1,0:0:0:0:
34,169,14350,6,0,B|53:25|53:25|129:110,1,230.39999296875,8|0,2:2|2:2,0:0:0:0:
163,170,14725,5,4,1:2:0:0:
147,365,14850,1,0,2:2:0:0:
34,262,14975,2,0,L|143:272,1,96,2|0,1:2|1:1,0:0:0:0:
264,296,15162,1,0,1:0:0:0:
264,296,15225,2,0,P|257:239|250:159,1,96,8|0,2:2|0:0,0:0:0:0:
147,365,15475,1,6,1:2:0:0:
361,252,15600,6,0,P|410:257|456:261,1,96,8|0,2:2|2:2,0:0:0:0:
123,140,15850,2,0,P|74:145|28:149,1,96,0|2,1:1|1:2,0:0:0:0:
257,54,16100,1,0,2:2:0:0:
118,296,16225,6,0,P|203:268|285:356,1,192,8|2,2:2|2:2,0:0:0:0:
242,148,16600,1,0,2:2:0:0:
38,358,16725,6,0,P|30:310|18:222,1,96,2|0,1:1|2:2,0:0:0:0:
257,54,16975,2,0,P|250:101|242:148,1,96,2|0,2:1|1:1,0:0:0:0:
189,357,17225,1,8,2:2:0:0:
148,176,17350,1,0,2:2:0:0:
326,310,17475,6,0,P|393:320|470:251,1,144,4|8,1:2|2:2,0:0:0:0:
473,251,17725,1,8,2:2:0:0:
261,239,17850,1,8,2:2:0:0:
261,239,17912,1,8,2:2:0:0:
261,239,17975,1,8,2:2:0:0:
434,92,18100,2,0,B|363:87|363:87|318:124|318:124|240:118,1,192,2|2,1:1|1:1,0:0:0:0:
72,17,18475,6,0,B|76:59|76:59|66:92|66:92|88:108|88:108|83:143|83:143|87:192,1,172.799994726563,10|0,2:1|2:2,0:0:0:0:
93,256,18725,6,0,L|-17:248,1,96,4|0,1:1|2:2,0:0:0:0:
171,108,18975,1,2,2:2:0:0:
99,355,19100,1,0,1:1:0:0:
99,355,19162,1,0,1:0:0:0:
99,355,19225,2,0,B|147:356|172:314|172:314|211:356|273:338,1,192,8|6,2:2|1:2,0:0:0:0:
238,156,19600,6,0,B|227:204|227:204|241:248,1,96,8|0,2:2|1:2,0:0:0:0:
494,218,19850,2,0,B|496:171|496:171|473:128,1,96,0|2,1:1|1:2,0:0:0:0:
346,78,20100,5,0,1:2:0:0:
346,78,20162,1,0,1:0:0:0:
346,78,20225,1,8,2:2:0:0:
378,322,20350,1,0,2:2:0:0:
414,190,20475,2,0,L|306:202,1,96,10|0,2:2|2:2,0:0:0:0:
166,30,20725,6,0,L|274:42,1,96,4|0,1:2|2:2,0:0:0:0:
496,109,20975,1,2,2:2:0:0:
354,30,21100,2,0,L|342:94,1,48,0|0,1:1|0:0,0:0:0:0:
394,238,21225,2,0,B|386:185|414:117|414:117|386:161|338:153,1,192,8|6,2:2|1:2,0:0:0:0:
336,352,21600,6,0,B|387:328|387:328|447:344,1,115.199996484375,8|8,2:2|2:2,0:0:0:0:
288,160,21850,2,0,L|304:280,1,115.199996484375,10|0,1:2|1:1,0:0:0:0:
303,274,22037,1,0,1:0:0:0:
303,274,22100,2,0,L|219:263,1,57.5999982421876,10|0,1:2|0:0,0:0:0:0:
105,179,22225,2,0,L|181:163,1,57.5999982421876,0|0,1:1|0:0,0:0:0:0:
396,79,22350,6,0,P|327:89|273:45,1,144.000005493164,12|0,1:2|2:2,0:0:0:0:
273,44,22725,6,0,L|286:140,1,96,4|0,1:1|2:2,0:0:0:0:
208,232,22975,1,8,2:2:0:0:
64,96,23100,2,0,L|136:104,1,48,0|0,1:0|0:0,0:0:0:0:
188,64,23225,1,0,0:2:0:0:
25,195,23350,1,0,0:1:0:0:
24,183,23413,1,0,0:0:0:0:
24,172,23475,1,12,2:2:0:0:
208,232,23600,6,0,B|222:280|222:280|200:343,1,96,8|0,2:2|1:2,0:0:0:0:
8,320,23850,2,0,B|-6:271|-6:271|15:208,1,96,0|8,1:1|2:2,0:0:0:0:
114,141,24100,1,0,2:2:0:0:
107,367,24225,6,0,L|110:249,1,96,4|0,1:2|1:2,0:0:0:0:
188,64,24475,1,8,2:2:0:0:
0,145,24600,1,0,2:2:0:0:
208,232,24725,6,0,B|308:251|290:156|398:186,1,192,4|0,1:1|1:1,0:0:0:0:
467,121,25100,2,0,B|491:169|491:169|479:233,1,96,8|0,2:2|0:0,0:0:0:0:
264,72,25350,1,0,1:1:0:0:
360,62,25475,2,0,L|248:74,1,96,8|0,2:2|2:2,0:0:0:0:
83,0,25725,5,0,1:1:0:0:
196,216,25850,1,8,2:2:0:0:
196,216,25912,1,8,2:2:0:0:
196,216,25975,1,8,2:2:0:0:
60,84,26100,6,0,B|120:100|168:38|168:38|156:76|168:104,1,192,8|8,2:2|3:3,0:0:0:0:
120,268,26475,2,0,P|100:224|106:177,1,96,8|0,3:3|1:3,0:0:0:0:
264,72,26725,6,0,L|420:84,1,144.000005493164,4|0,1:1|0:0,0:0:0:0:
484,56,27100,1,2,0:0:0:0:
328,172,27475,2,0,P|319:206|324:242,1,72.0000027465821,0|0,2:2|0:0,0:0:0:0:
475,311,27725,6,0,P|464:242|404:208,1,144.000005493164,4|0,1:2|0:0,0:0:0:0:
404,208,28100,1,2,0:0:0:0:
209,307,28475,2,0,P|244:298|279:301,1,72.0000027465821,0|0,2:2|0:0,0:0:0:0:
328,172,28725,6,0,P|244:172|168:152,1,144.000005493164,4|0,1:2|0:0,0:0:0:0:
28,70,29100,2,0,B|92:34|92:34|172:54,1,144.000005493164,2|0,0:0|0:0,0:0:0:0:
108,202,29475,2,0,P|98:167|104:132,1,72.0000027465821,2|0,2:2|0:0,0:0:0:0:
199,39,29725,6,0,L|351:55,1,144.000005493164,4|0,1:2|1:1,0:0:0:0:
378,68,30037,1,0,1:0:0:0:
425,60,30100,1,0,1:0:0:0:
470,51,30162,1,2,1:0:0:0:
511,44,30225,1,4,1:2:0:0:
512,45,30725,5,4,1:1:0:0:
368,224,30850,2,0,B|348:180|348:180|360:128,1,96,8|0,2:2|1:1,0:0:0:0:
358,133,31037,1,0,0:0:0:0:
358,133,31100,2,0,L|432:128,1,48,8|0,2:2|0:0,0:0:0:0:
493,298,31225,2,0,L|393:290,1,96,0|8,1:1|2:2,0:0:0:0:
272,128,31475,1,0,1:1:0:0:
460,211,31600,1,8,2:2:0:0:
460,211,31662,1,0,0:0:0:0:
460,211,31725,5,0,1:1:0:0:
371,38,31850,2,0,L|355:158,1,96,8|0,2:2|1:1,0:0:0:0:
338,348,32100,1,8,2:2:0:0:
493,298,32225,2,0,B|397:325|406:234|309:262,1,192,0|0,1:1|1:1,0:0:0:0:
64,336,32600,2,0,L|124:344,1,48,8|0,2:2|0:0,0:0:0:0:
204,379,32725,6,0,L|192:251,1,96,4|8,1:0|0:0,0:0:0:0:
92,24,32975,2,0,L|84:84,1,48,0|0,1:0|1:0,0:0:0:0:
68,232,33100,1,8,2:2:0:0:
225,143,33225,2,0,L|129:151,1,96,0|8,1:1|2:2,0:0:0:0:
256,24,33475,5,0,1:1:0:0:
278,227,33600,1,8,2:2:0:0:
279,238,33662,1,8,0:0:0:0:
280,250,33725,1,8,2:2:0:0:
344,72,33850,5,8,2:3:0:0:
424,168,33975,1,4,0:3:0:0:
432,80,34100,1,0,1:1:0:0:
336,160,34225,1,8,0:0:0:0:
504,136,34350,5,8,0:0:0:0:
272,48,34475,1,8,1:2:0:0:
404,248,34600,1,8,1:2:0:0:
499,31,34725,6,0,L|389:41,1,96,4|0,1:1|2:2,0:0:0:0:
203,224,34975,1,8,2:2:0:0:
134,134,35100,6,0,P|195:111|307:177,1,192,4|0,1:2|1:1,0:0:0:0:
72,316,35475,2,0,L|-11:301,2,48,8|0|0,2:2|0:0|0:0,0:0:0:0:
282,362,35725,6,0,P|285:313|292:245,1,96,4|0,1:2|2:2,0:0:0:0:
302,60,35975,1,8,2:2:0:0:
134,134,36100,6,0,B|206:127|206:127|258:169|258:169|349:160,1,211.200006445313,4|0,1:2|1:1,0:0:0:0:
512,337,36475,2,0,P|455:343|396:303,1,96,8|0,2:2|2:2,0:0:0:0:
489,28,36725,6,0,L|482:145,1,96,4|0,1:1|2:2,0:0:0:0:
476,233,36975,1,8,2:2:0:0:
302,60,37100,2,0,L|322:263,1,192,4|0,1:2|1:1,0:0:0:0:
320,282,37412,1,0,1:0:0:0:
320,282,37475,2,0,B|272:270|272:270|207:285,1,96,8|0,2:2|2:2,0:0:0:0:
136,345,37725,5,0,1:1:0:0:
119,161,37850,1,8,2:2:0:0:
6,363,37975,5,0,1:1:0:0:
24,184,38100,1,8,2:2:0:0:
223,307,38225,5,8,3:3:0:0:
259,313,38287,1,8,3:3:0:0:
295,308,38350,1,8,3:3:0:0:
320,282,38412,1,8,3:3:0:0:
333,242,38475,5,8,2:2:0:0:
363,214,38537,1,8,2:2:0:0:
404,206,38600,1,8,2:2:0:0:
443,216,38662,1,8,2:2:0:0:
469,246,38725,6,0,L|465:364,1,96,4|8,1:1|2:2,0:0:0:0:
251,220,38975,1,0,1:1:0:0:
366,374,39100,1,8,2:2:0:0:
453,114,39225,6,0,L|326:124,1,96,0|8,1:1|2:2,0:0:0:0:
151,216,39475,1,0,1:1:0:0:
201,6,39600,1,8,2:2:0:0:
0,68,39725,6,0,P|48:73|97:77,1,96,0|8,1:1|2:2,0:0:0:0:
178,88,39912,1,0,0:0:0:0:
178,88,39975,1,0,1:1:0:0:
41,204,40100,1,8,2:2:0:0:
208,282,40225,5,0,1:1:0:0:
144,184,40350,1,8,2:2:0:0:
228,379,40475,1,0,1:1:0:0:
325,137,40600,1,8,2:2:0:0:
471,281,40725,6,0,P|430:263|303:342,1,192,4|0,1:0|1:2,0:0:0:0:
33,328,41100,2,0,L|156:333,1,96,12|0,2:1|0:0,0:0:0:0:
406,363,41350,1,0,1:1:0:0:
364,175,41475,1,12,2:2:0:0:
228,302,41600,1,0,2:2:0:0:
228,302,41662,1,0,0:0:0:0:
228,302,41725,5,8,2:2:0:0:
169,222,41850,1,8,2:3:0:0:
77,198,41975,1,4,0:3:0:0:
0,249,42100,1,0,1:1:0:0:
106,332,42225,5,8,2:2:0:0:
108,111,42350,1,8,3:3:0:0:
228,302,42475,5,8,1:2:0:0:
234,149,42600,1,8,1:2:0:0:
399,230,42725,6,0,L|285:227,1,96,4|0,1:2|1:2,0:0:0:0:
169,222,42975,1,0,1:2:0:0:
470,295,43100,2,0,B|491:329|491:329|476:412,1,96,8|0,2:2|1:2,0:0:0:0:
444,144,43350,2,0,B|423:110|423:110|438:27,1,96,2|0,1:3|0:2,0:0:0:0:
511,212,43600,5,6,1:2:0:0:
314,114,43725,2,0,L|302:40,2,48,0|0|8,2:2|0:0|1:1,0:0:0:0:
344,332,43975,1,8,2:2:0:0:
399,230,44100,1,0,1:1:0:0:
204,308,44225,6,0,B|151:298|121:252|121:252|94:331|14:350,1,230.4,12|0,2:1|2:2,0:0:0:0:
25,115,44725,6,0,L|127:126,1,86.3999973632813,4|0,1:2|2:2,0:0:0:0:
203,136,44975,1,0,1:1:0:0:
331,193,45100,2,0,P|339:150|336:95,1,86.3999973632813,12|0,2:2|0:0,0:0:0:0:
239,1,45350,1,0,0:0:0:0:
203,136,45475,6,0,L|218:344,1,172.799994726563,4|0,1:1|1:2,0:0:0:0:
416,328,45850,1,0,1:1:0:0:
416,328,45912,1,0,1:0:0:0:
416,328,45975,1,0,1:2:0:0:
423,199,46100,1,0,1:2:0:0:
320,359,46225,6,0,P|317:318|337:252,1,86.3999973632813,8|0,2:2|2:2,0:0:0:0:
512,291,46475,2,0,P|515:332|495:398,1,86.3999973632813,0|0,2:2|1:2,0:0:0:0:
264,162,46725,6,0,B|356:134|332:227|432:196,1,172.799994726563,4|0,1:2|1:1,0:0:0:0:
406,17,47100,2,0,L|400:129,1,86.3999973632813,12|0,2:2|2:2,0:0:0:0:
387,293,47350,1,0,2:2:0:0:
189,213,47475,2,0,P|176:173|182:123,1,86.3999973632813,4|8,1:1|2:2,0:0:0:0:
217,57,47662,1,8,2:2:0:0:
217,57,47725,5,0,0:2:0:0:
281,248,47850,1,0,1:1:0:0:
324,73,47975,5,0,1:1:0:0:
281,248,48100,1,0,2:2:0:0:
128,63,48225,2,0,L|26:70,1,86.3999973632813,8|0,2:2|0:0,0:0:0:0:
0,280,48475,2,0,P|57:272|122:317,1,129.599996044922,2|0,0:0|0:0,0:0:0:0:
128,323,48725,6,0,L|119:203,1,86.3999973632813,4|0,1:1|0:0,0:0:0:0:
39,372,48975,1,0,1:1:0:0:
251,189,49100,2,0,P|244:278|234:391,1,172.799994726563,8|0,2:2|2:2,0:0:0:0:
116,146,49475,1,4,1:2:0:0:
116,146,49600,1,8,2:2:0:0:
346,214,49725,6,0,L|431:221,1,86.3999973632813,0|0,2:2|1:1,0:0:0:0:
144,302,49975,2,0,L|58:309,1,86.3999973632813,0|0,1:2|2:2,0:0:0:0:
329,377,50225,1,8,2:2:0:0:
402,35,50475,1,2,2:2:0:0:
402,35,50600,1,0,2:2:0:0:
311,119,50725,6,0,P|243:131|141:45,1,172.799994726563,4|0,1:2|1:2,0:0:0:0:
3,159,51100,2,0,P|43:163|106:169,1,86.3999973632813,8|0,2:2|0:0,0:0:0:0:
213,370,51350,1,0,0:0:0:0:
394,225,51475,2,0,P|350:228|308:233,1,86.3999973632813,4|8,1:2|2:2,0:0:0:0:
220,242,51662,1,8,2:2:0:0:
220,242,51725,5,8,2:2:0:0:
299,330,51850,1,0,1:1:0:0:
256,143,51975,1,0,1:1:0:0:
121,260,52100,1,0,1:2:0:0:
370,68,52225,6,0,B|412:123|412:123|389:252,1,172.799994726563,8|0,2:2|2:2,0:0:0:0:
393,224,52600,1,0,2:2:0:0:
132,160,52725,6,0,L|116:20,1,134.399995898438,4|8,1:1|2:2,0:0:0:0:
280,238,53100,2,0,B|217:232|217:232|182:265|182:265|119:259,1,172.799994726563,4|0,1:2|1:1,0:0:0:0:
364,320,53475,2,0,L|380:120,1,158.400004833985,8|0,2:2|0:0,0:0:0:0:
376,162,53725,5,0,1:2:0:0:
456,312,53850,1,0,1:1:0:0:
260,256,53975,1,8,2:2:0:0:
472,84,54100,5,2,2:2:0:0:
469,73,54162,1,2,0:0:0:0:
466,62,54225,1,0,1:2:0:0:
288,84,54350,1,0,1:1:0:0:
472,196,54475,5,8,0:2:0:0:
282,171,54600,1,0,2:2:0:0:
371,9,54725,6,0,B|379:97,1,67.1999979492188,4|0,1:2|0:0,0:0:0:0:
394,233,54975,1,0,1:1:0:0:
160,260,55100,2,0,P|120:204|180:120,1,172.799994726563,12|0,2:2|1:1,0:0:0:0:
394,233,55475,2,0,B|306:210|330:288|214:265,1,158.400004833985,12|0,2:2|2:2,0:0:0:0:
246,270,55725,6,0,P|269:311|267:358,1,96,0|8,1:2|2:2,0:0:0:0:
47,349,55975,2,0,P|47:301|73:261,1,96,0|8,1:1|2:2,0:0:0:0:
155,333,56225,6,0,L|153:385,2,48,8|8|8,3:3|3:3|3:3,0:0:0:0:
164,188,56475,1,8,2:2:0:0:
164,164,56537,1,8,2:2:0:0:
165,140,56600,1,8,2:2:0:0:
166,116,56662,1,8,2:2:0:0:
167,92,56725,6,0,P|87:108|39:100,1,115.199996484375,0|2,1:1|2:2,0:0:0:0:
100,24,57100,1,0,0:0:0:0:
60,188,57225,2,0,L|64:256,1,57.5999982421876,4|0,1:0|0:0,0:0:0:0:
248,156,57475,2,0,L|251:98,1,57.5999982421876,2|0,2:2|2:2,0:0:0:0:
168,264,57725,6,0,P|225:260|280:276,1,115.199996484375,4|2,1:2|2:2,0:0:0:0:
364,316,58100,1,0,2:2:0:0:
312,204,58225,5,4,1:0:0:0:
284,356,58350,1,0,0:0:0:0:
452,360,58475,2,0,L|444:288,1,57.5999982421876,2|0,2:2|1:1,0:0:0:0:
436,224,58662,1,0,1:1:0:0:
435,209,58724,5,8,0:3:0:0:
203,110,58975,5,8,0:0:0:0:
344,220,59225,5,8,1:1:0:0:
192,19,59475,5,8,1:1:0:0:
259,184,59600,5,0,1:1:0:0:
258,196,59662,1,0,1:1:0:0:
257,208,59725,2,0,L|248:328,1,86.3999973632813,8|0,1:2|0:0,0:0:0:0:
99,95,59975,2,0,P|141:94|177:117,1,86.3999973632813,8|0,1:2|0:0,0:0:0:0:
430,119,60225,2,0,P|387:112|349:129,1,86.3999973632813,8|0,1:2|0:0,0:0:0:0:
249,347,60475,6,0,B|252:294|252:294|244:278|244:278|252:262|252:262|256:208,1,144,8|0,1:2|0:0,0:0:0:0:
261,132,60725,5,4,1:1:0:0:
168,264,60850,2,0,L|136:268,3,32,2|0|0|0,2:2|0:0|0:0|2:2,0:0:0:0:
97,48,61100,2,0,L|101:112,1,48,0|0,1:1|0:0,0:0:0:0:
152,179,61225,6,0,L|40:171,1,96,2|2,2:2|2:2,0:0:0:0:
183,94,61475,1,4,1:2:0:0:
36,276,61600,5,8,2:2:0:0:
36,264,61662,1,8,2:2:0:0:
37,252,61725,1,8,1:2:0:0:
240,184,61850,2,0,B|260:232|260:232|249:274,1,96,0|0,1:1|1:1,0:0:0:0:
80,348,62100,6,0,B|140:356|172:296|172:296|188:352|256:356,1,192,2|0,1:2|1:1,0:0:0:0:
328,172,62475,1,0,1:2:0:0:
380,380,62600,1,2,2:2:0:0:
380,380,62662,1,2,0:0:0:0:
380,380,62725,5,4,1:2:0:0:
300,280,62850,2,0,L|331:276,3,32,2|0|0|0,2:2|0:0|0:0|2:2,0:0:0:0:
492,152,63100,2,0,L|428:144,1,48,0|0,1:1|0:0,0:0:0:0:
356,96,63225,6,0,L|364:216,1,96,2|0,2:2|2:2,0:0:0:0:
408,28,63475,1,4,1:2:0:0:
272,168,63600,5,8,2:2:0:0:
272,156,63662,1,8,2:2:0:0:
273,144,63725,1,8,2:2:0:0:
444,232,63850,1,0,1:1:0:0:
268,248,63975,5,2,1:1:0:0:
449,128,64100,1,2,2:1:0:0:
360,304,64225,5,10,2:1:0:0:
280,64,64350,1,2,1:2:0:0:
125,314,64475,2,0,B|169:322|197:282|197:282|217:326|273:326,1,158.400004833985,2|0,1:2|0:0,0:0:0:0:
133,238,64725,6,0,L|120:140,1,72.0000027465821,4|0,1:2|2:2,0:0:0:0:
80,92,64975,1,0,2:2:0:0:
232,176,65100,2,0,B|311:184|290:123|368:132,1,144.000005493164,0|0,1:1|2:2,0:0:0:0:
248,27,65475,2,0,L|241:98,1,72.0000027465821,4|8,1:2|2:2,0:0:0:0:
224,254,65725,6,0,L|218:310,2,36.0000013732911,8|0|0,1:2|0:0|1:1,0:0:0:0:
232,176,65975,1,0,1:1:0:0:
308,328,66100,5,0,1:2:0:0:
132,272,66225,1,8,2:2:0:0:
312,216,66350,5,0,2:2:0:0:
152,192,66475,1,0,1:1:0:0:
344,100,66600,5,0,1:2:0:0:
151,112,66725,1,8,2:2:0:0:
232,56,66850,2,0,B|251:103|251:103|239:151,1,96,0|0,1:1|2:2,0:0:0:0:
361,272,67100,5,8,2:2:0:0:
280,328,67225,2,0,B|260:280|260:280|272:232,1,96,8|0,2:2|1:1,0:0:0:0:
432,136,67475,5,8,2:2:0:0:
80,248,67600,1,8,1:1:0:0:
80,248,67850,6,0,P|81:219|88:184,1,48,2|2,2:2|2:2,0:0:0:0:
152,305,68100,1,0,2:2:0:0:
96,89,68225,2,0,P|94:60|88:25,1,48,2|0,2:2|2:2,0:0:0:0:
19,141,68475,1,2,2:2:0:0:
222,62,68600,6,0,B|343:19|311:141|436:94,1,211.200006445313,4|0,1:1|1:1,0:0:0:0:
290,353,68975,2,0,P|284:298|275:201,1,105.600003222656,8|0,2:2|2:2,0:0:0:0:
268,149,69162,1,0,0:0:0:0:
268,149,69225,1,0,1:1:0:0:
404,295,69350,1,0,1:1:0:0:
142,234,69475,2,0,B|90:224|90:224|31:251,1,105.600003222656,8|0,2:2|1:1,0:0:0:0:
188,31,69725,6,0,L|175:160,1,105.600003222656,0|0,0:0|1:1,0:0:0:0:
105,324,69975,1,8,2:2:0:0:
65,112,70100,1,0,2:2:0:0:
251,237,70225,1,0,2:2:0:0:
251,237,70287,1,0,0:0:0:0:
251,237,70350,1,0,1:1:0:0:
35,206,70475,1,8,2:2:0:0:
289,331,70600,6,0,B|337:302|361:248|361:248|404:309|469:311,1,211.200006445313,4|0,1:1|1:1,0:0:0:0:
466,71,70975,2,0,P|457:131|449:198,1,105.600003222656,8|0,2:2|2:2,0:0:0:0:
381,372,71225,1,0,1:1:0:0:
302,149,71350,1,0,1:1:0:0:
202,351,71475,1,8,2:2:0:0:
365,252,71600,6,0,P|303:260|233:266,1,105.600003222656,0|0,1:0|0:1,0:0:0:0:
132,276,71850,1,0,1:2:0:0:
365,252,71975,1,8,0:0:0:0:
302,149,72100,1,0,1:1:0:0:
302,149,72162,1,0,1:0:0:0:
302,149,72225,1,8,2:2:0:0:
325,355,72350,1,0,1:1:0:0:
325,355,72412,1,0,1:1:0:0:
325,355,72475,1,8,2:2:0:0:
201,104,72600,6,0,P|271:39|383:74,1,211.200006445313,4|0,1:1|1:1,0:0:0:0:
219,209,72975,2,0,P|154:201|112:158,1,105.600003222656,8|0,2:2|2:2,0:0:0:0:
302,149,73225,1,0,1:1:0:0:
148,316,73350,1,0,1:1:0:0:
18,120,73475,2,0,L|30:238,1,105.600003222656,8|0,2:2|1:1,0:0:0:0:
325,355,73725,6,0,L|313:237,1,105.600003222656,12|0,2:2|1:1,0:0:0:0:
217,362,73975,1,12,2:2:0:0:
460,183,74100,1,0,1:1:0:0:
460,183,74162,1,0,1:0:0:0:
460,183,74225,2,0,L|456:262,1,52.8000016113282,8|0,2:2|0:0,0:0:0:0:
452,333,74350,1,6,1:2:0:0:
458,353,74600,6,0,P|380:316|286:388,1,211.200006445313,4|0,1:1|1:1,0:0:0:0:
195,218,74975,2,0,L|211:322,1,105.600003222656,8|0,2:2|2:2,0:0:0:0:
179,106,75225,1,0,1:1:0:0:
90,300,75350,1,0,1:1:0:0:
295,127,75475,6,0,P|351:116|413:108,1,105.600003222656,8|0,2:2|1:1,0:0:0:0:
101,188,75725,2,0,P|49:178|0:161,1,105.600003222656,0|0,2:2|1:1,0:0:0:0:
68,86,75975,5,8,2:2:0:0:
90,300,76100,1,0,1:1:0:0:
179,106,76225,5,8,1:2:0:0:
199,261,76350,1,8,3:3:0:0:
295,127,76475,5,4,3:3:0:0:
383,315,76600,2,0,B|340:309|315:269|315:269|295:345|224:372,1,211.200006445313,4|0,1:1|2:2,0:0:0:0:
402,214,76975,2,0,L|527:203,1,96,4|0,1:2|2:2,0:0:0:0:
285,36,77225,2,0,B|305:76|305:76|291:143,1,96,8|0,2:2|0:0,0:0:0:0:
324,359,77475,2,0,B|304:319|304:319|318:252,1,96,2|0,2:2|0:0,0:0:0:0:
466,63,77725,6,0,B|403:71|403:71|359:116|359:116|268:129,1,192,4|4,1:1|1:2,0:0:0:0:
176,282,78100,1,0,0:0:0:0:
37,68,78225,6,0,B|124:10|124:10|102:239,1,287.999991210938,10|0,2:1|0:0,0:0:0:0:
106,192,78600,6,0,L|-5:180,1,96,4|0,1:1|0:0,0:0:0:0:
265,338,78850,1,0,2:2:0:0:
348,190,78975,6,0,B|366:237|366:237|348:302,1,96,4|0,1:2|2:2,0:0:0:0:
176,282,79225,2,0,B|168:234|168:234|184:188,1,96,8|0,2:2|2:2,0:0:0:0:
268,30,79475,2,0,L|265:161,1,96,2|0,2:2|2:2,0:0:0:0:
263,246,79725,5,4,1:0:0:0:
386,103,79850,2,0,L|457:91,2,48,0|0|12,2:2|0:0|2:2,0:0:0:0:
139,192,80100,5,0,1:1:0:0:
114,163,80162,1,0,1:0:0:0:
105,126,80225,1,8,2:2:0:0:
117,91,80287,1,8,0:0:0:0:
147,67,80350,1,8,3:3:0:0:
184,58,80412,1,8,3:0:0:0:
222,66,80475,1,0,1:1:0:0:
247,93,80537,1,0,1:0:0:0:
265,125,80600,6,0,B|262:188|262:188|277:228|277:228|260:267|260:267|256:335,1,192,4|0,1:0|1:1,0:0:0:0:
139,192,80975,1,8,2:2:0:0:
112,368,81100,1,0,2:2:0:0:
350,290,81225,6,0,L|474:275,1,96,0|0,1:1|1:1,0:0:0:0:
139,192,81475,1,8,2:2:0:0:
252,377,81600,2,0,P|256:328|261:242,1,96,4|0,1:1|0:0,0:0:0:0:
265,125,81850,5,0,1:1:0:0:
265,125,81912,1,0,1:0:0:0:
265,125,81975,1,8,2:2:0:0:
122,281,82100,1,0,1:1:0:0:
52,73,82225,1,8,2:2:0:0:
121,305,82350,1,0,1:1:0:0:
219,39,82475,2,0,B|174:28|174:28|124:48,1,96,8|0,3:3|1:3,0:0:0:0:
16,168,82725,6,0,B|84:172|84:172|132:208|132:208|216:212,1,192,4|2,1:1|2:2,0:0:0:0:
24,328,83100,1,0,1:1:0:0:
260,372,83225,2,0,L|252:268,1,96,8|0,2:2|0:0,0:0:0:0:
180,116,83475,1,6,1:2:0:0:
180,116,83537,1,0,1:0:0:0:
180,116,83600,6,0,B|226:125|226:125|270:105,1,96,8|0,2:2|1:2,0:0:0:0:
508,48,83850,2,0,B|461:38|461:38|417:58,1,96,0|2,1:1|2:2,0:0:0:0:
335,201,84100,1,0,1:1:0:0:
350,9,84225,2,0,L|334:209,1,192,8|2,2:2|2:2,0:0:0:0:
244,336,84600,1,0,2:2:0:0:
448,352,84725,6,0,P|460:304|436:244,1,96,4|0,1:2|2:2,0:0:0:0:
356,308,84975,1,2,2:2:0:0:
472,172,85100,2,0,L|477:124,2,48,0|0|8,1:1|0:0|2:2,0:0:0:0:
356,308,85351,1,0,0:0:0:0:
269,152,85476,1,6,1:2:0:0:
416,232,85600,6,0,L|320:222,1,96,0|0,1:1|1:1,0:0:0:0:
122,79,85850,2,0,P|156:111|164:157,1,96,8|0,2:2|1:0,0:0:0:0:
380,11,86100,2,0,P|343:43|336:91,1,96,8|0,2:2|1:1,0:0:0:0:
244,336,86350,6,0,B|188:276|240:196|240:196|228:244|260:284,1,230.39999296875,8|0,2:2|2:2,0:0:0:0:
320,222,86725,6,0,L|416:232,1,96,4|0,1:2|2:2,0:0:0:0:
165,158,86975,1,2,1:2:0:0:
64,296,87100,1,0,1:1:0:0:
64,296,87162,1,0,1:0:0:0:
64,296,87225,2,0,B|76:248|76:248|52:188,1,96,8|0,2:2|0:0,0:0:0:0:
160,72,87475,1,6,1:2:0:0:
228,224,87600,6,0,B|180:237|180:237|140:288,1,96,8|0,2:2|2:2,0:0:0:0:
84,118,87850,2,0,B|119:152|119:152|183:161,1,96,0|2,1:1|1:2,0:0:0:0:
311,37,88100,1,0,2:2:0:0:
160,72,88225,2,0,B|255:49|243:142|344:116,1,192,8|2,2:2|2:2,0:0:0:0:
512,55,88600,1,0,2:2:0:0:
413,5,88725,6,0,P|425:51|424:99,1,96,2|0,1:1|2:2,0:0:0:0:
473,307,88975,1,2,2:1:0:0:
319,250,89100,1,0,1:1:0:0:
319,250,89162,1,0,1:0:0:0:
319,250,89225,2,0,P|359:190|467:214,1,192,8|4,2:2|1:2,0:0:0:0:
464,210,89600,1,8,2:2:0:0:
391,342,89725,5,8,2:2:0:0:
247,191,89850,1,8,2:2:0:0:
245,168,89912,1,8,2:2:0:0:
243,145,89975,1,8,2:2:0:0:
155,261,90100,1,2,1:1:0:0:
155,261,90350,5,2,1:1:0:0:
334,98,90475,2,0,L|342:-6,1,96,10|0,2:1|0:0,0:0:0:0:
156,52,90725,6,0,P|142:97|157:142,1,96,4|0,1:1|2:2,0:0:0:0:
345,277,90975,2,0,P|358:231|343:186,1,96,2|0,2:2|1:1,0:0:0:0:
343,186,91162,1,0,1:0:0:0:
343,186,91225,2,0,L|236:192,1,96,8|0,2:2|2:2,0:0:0:0:
100,348,91475,1,6,1:2:0:0:
60,256,91600,6,0,L|166:262,1,96,8|0,2:2|1:2,0:0:0:0:
248,88,91850,2,0,P|192:177|103:157,1,192,0|0,1:1|2:2,0:0:0:0:
311,269,92225,2,0,P|298:223|309:176,1,96,8|0,2:2|2:2,0:0:0:0:
155,261,92475,2,0,P|200:273|235:305,1,96,2|0,2:2|2:2,0:0:0:0:
384,224,92725,5,4,1:2:0:0:
288,368,92850,1,0,1:2:0:0:
480,312,92975,2,0,L|468:204,1,96,2|0,2:2|1:1,0:0:0:0:
264,88,93225,6,0,B|296:76|320:47|320:47|292:116|312:192,1,192,8|4,2:2|1:2,0:0:0:0:
240,0,93600,1,8,2:2:0:0:
406,118,93725,1,8,2:2:0:0:
200,184,93850,6,0,P|144:192|92:164,1,96,8|0,1:2|1:1,0:0:0:0:
380,265,94100,2,0,P|436:257|488:285,1,96,8|0,1:2|1:1,0:0:0:0:
216,316,94350,6,0,B|88:292|140:400|0:372,1,230.39999296875,12|0,1:2|2:2,0:0:0:0:
284,256,94725,6,0,B|308:300|308:300|296:368,1,96,4|0,1:1|2:2,0:0:0:0:
48,296,94975,2,0,B|57:251|57:251|96:219,1,96,8|0,2:2|1:0,0:0:0:0:
196,124,95225,2,0,L|208:244,1,96,0|0,1:2|1:1,0:0:0:0:
216,316,95475,1,12,2:2:0:0:
112,136,95600,6,0,P|68:116|8:136,1,96,8|0,2:2|1:2,0:0:0:0:
282,116,95850,2,0,P|319:88|367:87,1,96,0|8,1:1|2:2,0:0:0:0:
216,316,96100,1,0,2:2:0:0:
216,316,96225,2,0,L|206:220,1,96,4|0,1:2|1:2,0:0:0:0:
196,124,96475,1,8,2:2:0:0:
110,292,96600,1,0,2:2:0:0:
310,222,96725,6,0,P|357:216|401:234,1,96,4|0,1:1|2:2,0:0:0:0:
344,310,96975,1,4,1:2:0:0:
460,159,97100,2,0,P|488:197|494:244,1,96,0|8,2:2|2:2,0:0:0:0:
216,202,97350,2,0,P|235:158|273:130,1,96,8|8,0:3|2:2,0:0:0:0:
344,310,97600,1,0,2:2:0:0:
370,110,97725,6,0,L|379:29,2,76.7999976562501,2|2|2,1:2|2:2|2:2,0:0:0:0:
357,211,98225,2,0,B|251:187|259:282|151:257,1,216.000008239746,2|0,2:2|2:2,0:0:0:0:
9,121,98725,6,0,P|16:158|23:205,1,72.0000027465821,4|0,1:0|0:0,0:0:0:0:
62,369,98975,2,0,P|66:330|76:285,1,72.0000027465821,8|0,2:2|1:1,0:0:0:0:
184,40,99225,1,8,2:2:0:0:
182,58,99308,1,8,2:2:0:0:
181,77,99391,1,8,2:2:0:0:
180,95,99475,1,8,2:2:0:0:
178,114,99558,1,8,2:2:0:0:
177,132,99641,1,8,2:2:0:0:
175,154,99725,6,0,L|84:161,1,72.0000027465821,8|0,2:2|0:0,0:0:0:0:
330,108,99975,2,0,L|421:115,1,72.0000027465821,8|0,2:2|2:2,0:0:0:0:
401,113,100475,6,0,P|406:181|412:242,1,96.0000036621095,2|0,2:2|0:0,0:0:0:0:
418,299,100725,1,8,2:2:0:0:
93,147,100975,5,8,2:2:0:0:
89,191,101058,1,8,2:2:0:0:
86,235,101141,1,8,2:2:0:0:
83,279,101225,1,10,2:2:0:0:
411,211,101475,5,8,2:2:0:0:
415,255,101558,1,8,2:2:0:0:
418,299,101641,1,8,2:2:0:0:
421,343,101725,1,10,2:2:0:0:
218,188,101975,5,8,2:2:0:0:
219,353,102225,2,0,L|224:191,1,144.000005493164,0|8,1:1|2:2,0:0:0:0:
274,123,102558,1,8,2:2:0:0:
227,106,102641,1,8,2:2:0:0:
179,122,102725,1,8,2:2:0:0:
58,325,102975,6,0,L|64:398,2,48.0000018310548,8|8|8,2:2|2:2|2:2,0:0:0:0:
5,229,103225,2,0,P|43:217|149:267,1,144.000005493164,8|8,2:2|2:2,0:0:0:0:
220,295,103558,1,8,2:2:0:0:
219,333,103641,1,8,2:2:0:0:
218,370,103725,5,8,2:2:0:0:
276,220,103850,1,8,2:2:0:0:
276,220,103975,1,8,2:2:0:0:
346,377,104100,1,8,2:2:0:0:
276,220,104225,1,8,2:2:0:0:
276,220,104350,1,8,2:2:0:0:
218,370,104475,1,8,2:2:0:0:
276,133,104600,1,8,2:2:0:0:
496,230,104725,6,0,P|432:268|333:249,1,153.6,4|0,1:1|2:2,0:0:0:0:
22,195,105100,2,0,P|87:154|164:161,1,153.6,0|0,1:1|2:2,0:0:0:0:
277,20,105475,2,0,L|272:116,1,76.8,0|0,1:2|0:0,0:0:0:0:
265,311,105725,5,4,1:2:0:0:
450,50,106100,1,0,0:0:0:0:
416,162,106225,1,2,0:0:0:0:
353,21,106350,1,0,0:0:0:0:
418,184,106475,1,2,0:0:0:0:
458,25,106600,1,0,0:0:0:0:
436,263,106725,6,0,P|379:260|301:254,1,96,4|0,1:1|2:2,0:0:0:0:
197,361,106975,1,8,2:2:0:0:
9,168,107100,2,0,P|81:151|174:225,1,192,4|0,1:2|1:1,0:0:0:0:
110,57,107475,1,8,2:2:0:0:
65,276,107600,1,0,1:0:0:0:
65,276,107662,1,0,1:0:0:0:
65,276,107725,6,0,L|58:386,1,96,4|0,1:2|2:2,0:0:0:0:
210,120,107975,1,8,2:2:0:0:
350,374,108100,6,0,L|328:164,1,192,4|0,1:2|1:1,0:0:0:0:
218,329,108475,1,8,2:2:0:0:
336,87,108600,1,0,2:2:0:0:
512,248,108725,6,0,B|465:257|465:257|395:234,1,96,4|0,1:1|2:2,0:0:0:0:
345,9,108975,1,8,2:2:0:0:
141,221,109100,2,0,B|188:212|188:212|258:235,1,96,4|0,1:2|0:0,0:0:0:0:
180,317,109350,1,0,1:1:0:0:
29,84,109475,2,0,L|43:204,1,96,8|0,2:2|2:2,0:0:0:0:
336,87,109725,6,0,L|322:207,1,96,0|8,1:1|0:3,0:0:0:0:
310,267,109912,1,8,0:3:0:0:
310,267,109975,1,8,0:1:0:0:
220,84,110100,1,4,1:2:0:0:
378,344,110225,5,8,0:3:0:0:
345,371,110287,1,8,0:3:0:0:
301,371,110350,1,8,0:3:0:0:
262,352,110412,1,8,0:3:0:0:
232,313,110475,5,8,0:0:0:0:
195,282,110537,1,0,1:0:0:0:
146,276,110600,1,0,1:0:0:0:
101,292,110662,1,0,1:0:0:0:
70,329,110725,6,0,P|60:264|42:192,1,96,4|0,1:1|2:2,0:0:0:0:
152,373,110975,1,8,2:2:0:0:
26,126,111100,2,0,B|94:122|94:122|139:160|139:160|230:152,1,192,4|0,1:2|1:1,0:0:0:0:
456,30,111475,2,0,P|448:78|441:126,1,96,8|0,2:2|0:0,0:0:0:0:
505,298,111725,6,0,L|395:288,1,96,4|0,1:2|2:2,0:0:0:0:
203,154,111975,1,8,2:2:0:0:
322,369,112100,2,0,B|295:277|295:277|355:151,1,192,4|0,1:2|1:1,0:0:0:0:
409,289,112475,1,8,2:2:0:0:
302,74,112600,1,0,2:2:0:0:
151,249,112725,6,0,P|103:246|48:240,1,96,4|0,1:1|2:2,0:0:0:0:
228,359,112975,1,8,2:2:0:0:
336,190,113100,2,0,P|418:162|512:227,1,192,4|0,1:2|1:1,0:0:0:0:
200,131,113475,2,0,L|212:-2,1,96,8|0,0:0|1:0,0:0:0:0:
287,288,113725,6,0,L|293:323,14,24,2|0|0|0|0|0|0|0|0|0|0|0|0|0|0,1:0|0:0|0:0|0:0|0:0|0:0|0:0|0:0|0:0|0:0|0:0|0:0|0:0|0:0|0:0,0:0:0:0:
275,212,114225,5,2,0:0:0:0:
302,384,114350,1,2,0:0:0:0:
357,207,114475,5,2,0:0:0:0:
380,359,114600,1,2,2:0:0:0:
440,200,114725,5,4,1:1:0:0:
206,282,114850,2,0,L|170:278,4,24,2|2|2|0|0,2:2|2:2|2:2|2:2|2:2,0:0:0:0:
316,295,115100,1,0,1:1:0:0:
235,52,115225,5,2,2:2:0:0:
165,186,115350,1,2,2:2:0:0:
71,68,115475,1,4,1:2:0:0:
235,52,115600,1,0,2:2:0:0:
177,283,115850,5,0,1:1:0:0:
153,87,115975,1,0,1:1:0:0:
177,283,116100,1,2,0:0:0:0:
0,147,116225,6,0,L|6:194,1,48,2|0,1:0|0:0,0:0:0:0:
88,193,116350,2,0,L|94:240,1,48,2|0,1:0|0:0,0:0:0:0:
181,357,116475,6,0,L|187:310,1,48,2|0,1:0|0:0,0:0:0:0:
269,311,116600,2,0,L|275:264,1,48,2|0,1:0|0:0,0:0:0:0:
184,166,116725,5,4,1:2:0:0:
368,268,116850,2,0,L|411:260,4,24,2|2|2|0|0,2:2|2:2|2:2|2:2|2:2,0:0:0:0:
311,377,117100,1,0,1:1:0:0:
227,178,117225,6,0,L|323:183,1,96,2|0,2:2|1:2,0:0:0:0:
128,129,117475,1,0,1:2:0:0:
413,190,117600,1,0,0:0:0:0:
133,222,117725,6,0,P|120:166|138:109,1,96,10|0,2:2|1:1,0:0:0:0:
285,100,117975,1,2,1:1:0:0:
277,288,118100,1,2,2:1:0:0:
289,23,118225,2,0,L|292:-14,6,24,10|0|0|0|10|0|0,2:1|0:0|0:0|0:0|0:3|0:0|0:0,0:0:0:0:
187,77,118475,5,6,1:3:0:0:
385,65,118600,1,8,0:0:0:0:
161,78,118725,6,0,L|56:82,1,96,4|0,1:1|2:2,0:0:0:0:
220,219,118975,1,8,0:2:0:0:
467,22,119100,2,0,P|463:71|457:145,1,96,4|0,1:0|0:0,0:0:0:0:
406,336,119350,1,0,0:0:0:0:
310,181,119475,6,0,B|411:151|384:267|504:217,1,192,12|0,0:0|0:0,0:0:0:0:
119,293,119850,1,0,1:0:0:0:
119,293,119912,1,0,1:0:0:0:
119,293,119975,2,0,L|128:193,1,96,8|0,0:0|0:0,0:0:0:0:
311,314,120225,2,0,L|318:378,2,48,8|8|0,0:0|0:0|1:0,0:0:0:0:
237,93,120475,1,12,0:1:0:0:
224,319,120600,1,0,0:0:0:0:
0,116,120725,6,0,P|42:101|123:122,1,96,2|8,1:2|0:3,0:0:0:0:
170,375,120975,2,0,P|124:388|77:379,1,96,4|0,0:3|1:0,0:0:0:0:
174,130,121225,5,8,0:0:0:0:
240,106,121308,5,8,3:0:0:0:
302,138,121391,5,8,3:0:0:0:
320,206,121475,5,4,3:0:0:0:
377,246,121558,5,4,3:0:0:0:
446,235,121641,5,0,1:0:0:0:
487,176,121725,6,0,L|478:102,2,57.5999982421876,6|2|2,1:0|0:0|0:0,0:0:0:0:
465,327,122100,1,2,0:0:0:0:
320,206,122225,2,0,L|314:290,1,67.1999979492188,2|0,0:0|0:0,0:0:0:0:
388,94,122475,1,2,0:0:0:0:
224,256,122600,6,0,B|129:279|119:185|19:205,1,211.200006445313,4|0,1:1|1:1,0:0:0:0:
216,168,122975,1,8,2:2:0:0:
67,340,123100,1,0,2:2:0:0:
67,340,123162,1,0,0:0:0:0:
67,340,123225,2,0,L|59:287,1,52.8000016113282,0|0,1:1|0:0,0:0:0:0:
124,128,123350,1,0,1:1:0:0:
158,368,123475,1,8,2:2:0:0:
400,214,123600,6,0,B|344:230|300:194|300:194|272:266|196:254,1,211.200006445313,0|0,1:1|1:1,0:0:0:0:
352,28,123975,2,0,P|376:73|363:123,1,105.600003222656,8|0,2:2|2:2,0:0:0:0:
158,368,124225,1,0,2:2:0:0:
400,214,124350,1,0,1:1:0:0:
124,128,124475,1,8,2:2:0:0:
269,334,124600,6,0,L|251:123,1,211.200006445313,4|0,1:1|1:1,0:0:0:0:
366,303,124975,1,8,2:2:0:0:
138,293,125100,1,0,2:2:0:0:
138,293,125162,1,0,0:0:0:0:
138,293,125225,2,0,L|30:284,2,105.600003222656,0|0|8,1:1|1:1|0:0,0:0:0:0:
400,214,125600,6,0,B|328:209|328:209|279:253|279:253|206:247,1,211.200006445313,0|0,1:1|1:1,0:0:0:0:
333,100,125975,1,8,2:2:0:0:
364,328,126100,1,0,1:1:0:0:
208,144,126225,5,8,2:2:0:0:
189,365,126350,1,0,1:1:0:0:
400,214,126475,1,8,2:2:0:0:
114,76,126600,6,0,B|80:69|54:40|54:40|86:177,1,211.200006445313,4|0,1:1|1:1,0:0:0:0:
229,26,126975,1,8,2:2:0:0:
148,248,127100,6,0,B|100:272|100:272|44:260,1,105.600003222656,0|0,2:2|1:1,0:0:0:0:
208,144,127350,1,0,1:1:0:0:
324,360,127475,2,0,L|308:232,1,105.600003222656,8|0,2:2|1:1,0:0:0:0:
304,176,127662,1,0,1:0:0:0:
304,176,127725,5,12,2:2:0:0:
224,352,127850,1,0,1:1:0:0:
424,230,127975,1,12,2:2:0:0:
208,144,128100,1,0,1:1:0:0:
444,228,128225,5,8,2:2:0:0:
98,259,128350,1,6,1:2:0:0:
79,261,128600,6,0,B|35:218|35:218|61:65,1,211.200006445313,4|0,1:1|1:1,0:0:0:0:
308,228,128975,1,8,2:2:0:0:
138,155,129100,1,0,2:2:0:0:
207,0,129225,2,0,L|220:104,1,105.600003222656,0|0,1:1|1:1,0:0:0:0:
168,304,129475,1,8,2:2:0:0:
311,88,129600,6,0,B|415:51|414:158|523:112,1,211.200006445313,2|0,1:1|1:1,0:0:0:0:
510,116,129975,1,8,2:2:0:0:
256,168,130100,1,0,1:1:0:0:
460,224,130225,5,8,1:2:0:0:
244,264,130350,1,8,3:3:0:0:
412,316,130475,5,4,3:3:0:0:
228,360,130600,2,0,B|308:364|332:288|332:288|320:336|352:372,1,211.200006445313,4|0,1:1|2:2,0:0:0:0:
505,307,130975,6,0,P|459:319|412:316,1,96,4|0,1:2|2:2,0:0:0:0:
162,159,131225,2,0,P|209:155|255:167,1,96,8|0,2:2|0:0,0:0:0:0:
345,205,131475,1,2,2:2:0:0:
345,205,131725,6,0,B|385:165|349:73|349:73|341:117|309:141,1,192,4|4,1:1|1:2,0:0:0:0:
449,198,132100,1,0,0:0:0:0:
256,64,132225,6,0,B|133:49|133:49|180:161|180:161|216:118,1,287.999991210938,10|0,2:1|0:0,0:0:0:0:
207,128,132600,6,0,B|109:109|129:191|28:171,1,192,4|0,1:1|2:2,0:0:0:0:
244,212,132975,2,0,P|268:264|260:324,1,96,4|0,1:2|2:2,0:0:0:0:
298,137,133225,2,0,P|331:90|386:67,1,96,8|0,2:2|2:2,0:0:0:0:
180,276,133475,1,2,2:2:0:0:
180,276,133725,6,0,P|120:260|120:132,1,192,4|12,1:0|2:2,0:0:0:0:
240,56,134100,1,0,1:1:0:0:
168,196,134225,1,8,2:2:0:0:
113,49,134350,1,8,3:3:0:0:
288,228,134475,1,4,1:2:0:0:
36,304,134600,6,0,B|52:248|24:180|24:180|44:224|96:232,1,192,4|0,1:1|1:1,0:0:0:0:
113,49,134975,2,0,L|106:144,1,96,8|0,2:2|2:2,0:0:0:0:
0,79,135225,5,0,1:1:0:0:
219,105,135350,1,8,0:0:0:0:
219,105,135600,6,0,B|304:92|304:92|352:132|420:108,1,192,4|0,1:1|1:1,0:0:0:0:
484,48,135975,1,8,2:2:0:0:
352,252,136100,2,0,L|356:180,1,48,0|0,1:1|0:0,0:0:0:0:
368,24,136225,5,8,2:1:0:0:
476,316,136350,1,4,1:2:0:0:
476,316,136600,6,0,P|396:280|320:364,1,192,4|4,1:1|1:2,0:0:0:0:
404,364,136975,1,0,1:1:0:0:
416,132,137225,5,2,2:2:0:0:
404,364,137475,1,2,2:2:0:0:
332,168,137725,5,2,2:2:0:0:
323,340,137975,1,2,2:2:0:0:
248,204,138225,5,2,2:2:0:0:
242,316,138350,1,0,0:0:0:0:
248,184,138475,1,2,0:0:0:0:
240,336,138600,6,0,B|184:359|136:316|136:316|116:360|78:366,1,192,4|4,1:1|1:2,0:0:0:0:
56,288,138975,1,0,1:1:0:0:
332,168,139225,1,2,2:2:0:0:
34,135,139475,1,2,2:2:0:0:
200,268,139725,6,0,L|176:44,1,216.000008239746,2|0,2:2|2:2,0:0:0:0:
173,20,140162,1,2,2:2:0:0:
173,20,140225,5,2,2:2:0:0:
105,174,140350,1,2,2:2:0:0:
273,156,140475,1,2,2:2:0:0:
62,82,140600,6,0,P|11:146|58:265,1,192,4|0,1:1|1:1,0:0:0:0:
209,363,140975,2,0,L|197:244,1,96,0|0,1:1|0:0,0:0:0:0:
101,351,141225,1,8,2:2:0:0:
101,351,141350,1,0,0:0:0:0:
296,258,141475,6,0,B|318:302|318:302|305:353,1,96,0|0,1:1|0:0,0:0:0:0:
285,125,141725,2,0,B|263:81|263:81|275:29,1,96,4|0,1:2|0:0,0:0:0:0:
104,176,141975,2,0,L|229:184,1,96,0|0,1:1|0:0,0:0:0:0:
354,195,142225,1,8,2:2:0:0:
67,384,142350,6,0,P|47:316|74:223,1,144,0|0,1:0|2:2,0:0:0:0:
127,76,142600,6,0,B|148:210|148:210|96:170,1,192,4|0,1:0|1:1,0:0:0:0:
352,24,142975,2,0,L|343:145,1,96,0|0,1:1|0:0,0:0:0:0:
334,263,143225,1,12,2:2:0:0:
238,140,143350,1,0,0:0:0:0:
299,379,143475,2,0,P|344:384|399:359,1,96,0|0,1:1|2:2,0:0:0:0:
452,194,143725,5,4,1:1:0:0:
227,229,143850,1,8,2:2:0:0:
454,295,143975,5,8,2:2:0:0:
238,140,144100,1,8,2:2:0:0:
390,365,144225,5,4,1:2:0:0:
344,119,144350,2,0,L|334:262,1,144,0|0,1:1|2:0,0:0:0:0:
221,354,144600,6,0,P|144:294|38:329,1,192,6|0,1:1|1:1,0:0:0:0:
86,133,144975,2,0,P|98:80|94:-1,1,96,0|0,1:1|0:0,0:0:0:0:
20,217,145225,1,8,2:2:0:0:
20,217,145350,1,0,0:0:0:0:
237,73,145475,2,0,L|360:84,1,96,0|0,1:1|0:0,0:0:0:0:
277,303,145725,6,0,P|265:250|269:169,1,96,4|0,1:2|0:0,0:0:0:0:
494,52,145975,2,0,P|491:99|480:146,1,96,0|0,1:1|0:0,0:0:0:0:
369,343,146225,1,8,2:2:0:0:
75,303,146350,2,0,L|207:290,1,96,0|0,1:2|2:2,0:0:0:0:
480,146,146600,6,0,B|416:138|416:138|366:173|366:173|265:163,1,192,6|0,1:0|1:1,0:0:0:0:
55,39,146975,2,0,B|103:25|103:25|175:50,1,96,0|0,1:1|2:2,0:0:0:0:
152,266,147225,2,0,B|108:281|108:281|60:267,1,96,12|0,2:1|1:1,0:0:0:0:
103,154,147475,1,0,2:2:0:0:
264,332,147600,1,0,1:1:0:0:
264,332,147662,1,0,1:1:0:0:
264,332,147725,5,12,2:2:0:0:
309,153,147850,1,0,1:1:0:0:
152,266,147975,1,0,2:2:0:0:
371,309,148100,1,0,1:1:0:0:
219,116,148225,1,8,2:2:0:0:
264,332,148350,1,8,3:3:0:0:
377,121,148475,1,8,3:3:0:0:
117,140,148600,6,0,B|66:81|118:6|118:6|173:60,1,192,4|0,1:1|1:1,0:0:0:0:
279,238,148975,2,0,P|270:291|262:348,1,96,2|0,1:1|2:2,0:0:0:0:
377,121,149225,2,0,P|427:101|480:80,1,96,8|0,2:2|0:0,0:0:0:0:
226,99,149475,2,0,P|183:64|139:29,1,96,2|0,1:1|2:2,0:0:0:0:
293,155,149725,5,4,1:2:0:0:
293,155,149850,1,0,0:0:0:0:
310,16,149975,2,0,L|297:144,1,96,2|0,1:1|2:2,0:0:0:0:
79,288,150225,2,0,B|128:278|157:223|157:223|190:313|285:327,1,240,12|0,2:2|0:0,0:0:0:0:
335,342,150600,6,0,L|322:212,1,96,4|0,1:0|0:0,0:0:0:0:
141,367,150850,1,0,1:1:0:0:
141,367,150975,1,2,1:1:0:0:
491,157,151225,6,0,P|441:163|363:169,1,96,8|0,2:2|0:0,0:0:0:0:
10,77,151475,2,0,P|57:81|105:86,1,96,2|0,1:1|2:2,0:0:0:0:
254,100,151725,6,0,B|239:68|239:68|255:-27,1,96,4|0,1:2|0:0,0:0:0:0:
263,279,151975,2,0,B|278:311|278:311|262:406,1,96,2|0,1:1|2:2,0:0:0:0:
256,191,152225,1,8,2:2:0:0:
85,318,152350,2,0,L|182:329,1,96,4|0,1:2|0:0,0:0:0:0:
423,323,152600,6,0,P|357:301|263:406,1,192,4|8,1:1|2:2,0:0:0:0:
267,370,152912,1,8,2:2:0:0:
267,370,152975,1,8,2:2:0:0:
159,155,153100,5,8,2:2:0:0:
180,328,153225,1,8,2:2:0:0:
306,122,153350,5,8,2:2:0:0:
291,290,153475,1,0,1:1:0:0:
432,155,153600,5,4,1:2:0:0:
477,342,153725,1,8,2:2:0:0:
441,366,153787,1,0,1:0:0:0:
397,366,153850,1,0,1:1:0:0:
358,347,153912,1,0,1:0:0:0:
335,309,153975,1,0,1:1:0:0:
248,58,154100,5,8,2:2:0:0:
284,34,154162,1,0,1:0:0:0:
328,34,154225,1,0,1:1:0:0:
367,53,154287,1,0,1:0:0:0:
390,91,154350,1,0,1:1:0:0:
254,278,154475,1,8,2:2:0:0:
45,163,154600,6,0,B|96:159|96:159|120:131|120:131|165:193|165:193|186:167|186:167|263:160,1,249.599988574219,4|0,1:2|1:1,0:0:0:0:
511,147,154975,1,8,1:2:0:0:
509,166,155225,1,8,1:2:0:0:
507,185,155475,1,8,1:2:0:0:
367,284,155725,6,0,B|253:248|264:371|140:332,1,235.199992822266,2|0,1:1|0:0,0:0:0:0:
106,194,156225,2,0,P|139:146|156:252,1,240,2|0,2:1|0:0,0:0:0:0:
27,339,156600,6,0,B|13:254|13:254|27:218|27:218|14:132,1,211.200006445313,6|0,1:1|1:1,0:0:0:0:
308,0,156975,2,0,L|292:104,1,105.600003222656,10|0,2:1|2:2,0:0:0:0:
273,216,157225,1,2,1:1:0:0:
180,56,157350,1,0,1:1:0:0:
395,161,157475,1,8,2:2:0:0:
218,281,157600,6,0,B|108:251|130:361|18:337,1,211.200006445313,2|0,1:1|1:1,0:0:0:0:
180,191,157975,1,10,1:0:0:0:
0,23,158100,2,0,P|11:50|13:74,1,52.8000016113282,0|0,0:2|0:0,0:0:0:0:
84,191,158225,2,0,P|88:165|96:141,1,52.8000016113282,2|0,1:0|0:0,0:0:0:0:
180,56,158350,1,0,1:1:0:0:
0,245,158475,1,8,2:2:0:0:
289,256,158600,6,0,B|210:276|173:212|173:212|162:264|117:274,1,211.200006445313,6|2,1:1|1:1,0:0:0:0:
271,0,158975,2,0,P|328:50|317:125,1,158.400004833985,10|0,2:1|0:0,0:0:0:0:
254,179,159225,1,2,1:1:0:0:
387,355,159350,2,0,P|371:306|389:257,1,105.600003222656,0|8,1:1|2:2,0:0:0:0:
458,135,159600,5,2,1:1:0:0:
255,304,159725,1,0,0:0:0:0:
498,263,159850,1,0,1:1:0:0:
254,179,159975,2,0,L|126:164,1,105.600003222656,12|0,0:0|1:0,0:0:0:0:
388,356,160225,1,14,2:1:0:0:
488,60,160350,1,0,1:1:0:0:
488,60,160412,1,0,1:1:0:0:
488,60,160475,1,8,2:2:0:0:
236,196,160600,6,0,B|160:188|160:188|110:143|110:143|42:136,1,211.200006445313,4|0,1:0|1:3,0:3:0:0:
210,0,160975,2,0,B|230:48|230:48|214:100,1,105.600003222656,10|0,2:1|2:2,0:0:0:0:
65,332,161225,2,0,B|45:284|45:284|61:232,1,105.600003222656,2|0,1:1|1:1,0:0:0:0:
299,100,161475,1,8,2:2:0:0:
60,232,161600,1,2,1:1:0:0:
254,370,161725,6,0,L|244:289,1,52.8000016113282,2|0,1:1|0:0,0:0:0:0:
236,196,161850,1,2,1:0:0:0:
236,196,161912,1,0,1:0:0:0:
236,196,161975,1,8,2:2:0:0:
340,352,162100,5,0,1:1:0:0:
149,279,162225,1,14,2:1:0:0:
324,172,162350,1,8,3:3:0:0:
120,281,162475,1,4,3:3:0:0:
416,256,162600,6,0,B|460:204|436:120|436:120|456:172|512:184,1,211.200006445313,6|2,1:1|1:1,0:0:0:0:
478,171,162975,1,10,2:1:0:0:
324,172,163100,1,0,2:2:0:0:
340,351,163225,2,0,P|391:339|443:340,1,105.600003222656,2|0,1:1|1:1,0:0:0:0:
477,152,163475,5,10,1:0:0:0:
209,251,163600,2,0,P|261:250|313:262,1,105.600003222656,2|0,1:1|0:0,0:0:0:0:
323,34,163850,6,0,L|332:85,1,52.8000016113282,0|0,1:0|0:0,0:0:0:0:
472,133,163975,2,0,B|386:117|409:187|308:169,1,158.400004833985,8|0,2:2|0:0,0:0:0:0:
241,147,164225,1,8,2:2:0:0:
452,42,164350,5,8,3:3:0:0:
373,313,164475,1,8,3:3:0:0:
192,77,164600,2,0,B|119:56|119:56|70:94|70:94|0:73,1,211.200006445313,6|2,1:1|1:1,0:0:0:0:
124,276,164975,6,0,P|124:223|110:173,1,105.600003222656,10|0,2:2|2:2,0:0:0:0:
379,52,165225,1,2,1:1:0:0:
373,313,165350,2,0,P|381:261|405:215,1,105.600003222656,2|8,1:2|2:2,0:0:0:0:
177,37,165600,1,2,1:1:0:0:
236,288,165725,6,0,B|139:266|133:357|33:332,1,211.200006445313,2|8,1:2|2:2,0:0:0:0:
204,375,166100,1,2,2:1:0:0:
278,132,166225,1,0,1:1:0:0:
26,190,166350,1,2,1:2:0:0:
204,375,166475,1,12,2:1:0:0:
278,132,166600,6,0,B|341:113|386:165|386:165|433:148|423:82,1,211.200006445313,6|2,1:1|1:1,0:0:0:0:
300,318,166975,2,0,L|313:214,1,105.600003222656,10|0,2:2|1:1,0:0:0:0:
185,120,167225,5,2,1:1:0:0:
436,271,167350,1,2,1:2:0:0:
436,271,167412,1,2,0:0:0:0:
436,271,167475,2,0,L|383:278,1,52.8000016113282,8|0,2:2|0:0,0:0:0:0:
79,289,167600,2,0,B|142:299|142:299|162:328|162:328|219:337,1,158.400004833985,2|0,1:1|0:0,0:0:0:0:
220,337,167850,1,2,1:2:0:0:
219,204,167975,6,0,L|212:257,1,52.8000016113282,12|0,2:2|0:0,0:0:0:0:
89,373,168100,1,0,1:0:0:0:
121,200,168225,5,12,2:2:0:0:
169,218,168308,5,2,0:0:0:0:
219,204,168391,5,2,0:0:0:0:
252,164,168475,6,0,L|261:96,1,52.8000016113282,10|0,2:2|0:0,0:0:0:0:
116,109,168600,6,0,P|35:168|57:265,1,211.200006445313,6|2,1:1|1:1,0:0:0:0:
357,164,168975,2,0,P|357:112|369:61,1,105.600003222656,10|0,2:1|2:2,0:0:0:0:
121,200,169225,1,2,1:1:0:0:
218,4,169350,2,0,P|230:55|230:107,1,105.600003222656,0|8,1:1|2:2,0:0:0:0:
303,288,169600,6,0,B|183:268|219:360|99:336,1,211.200006445313,2|0,1:1|1:1,0:0:0:0:
35,116,169975,1,8,2:2:0:0:
272,200,170100,1,0,1:1:0:0:
272,200,170162,1,0,1:0:0:0:
272,200,170225,6,0,L|368:208,2,76.8,14|8|4,2:1|3:3|3:0,0:0:0:0:
476,346,170600,6,0,B|393:354|393:354|369:349|369:349|346:360|346:360|268:369,1,211.200006445313,6|2,1:1|1:1,0:0:0:0:
430,86,170975,2,0,B|454:138|454:138|438:206,1,105.600003222656,10|0,2:1|2:2,0:0:0:0:
100,124,171225,1,2,1:1:0:0:
89,312,171350,2,0,B|65:260|65:260|81:192,1,105.600003222656,2|8,1:1|2:2,0:0:0:0:
284,32,171600,6,0,L|264:264,1,211.200006445313,2|0,1:1|1:1,0:0:0:0:
265,242,171912,1,0,1:0:0:0:
265,242,171975,1,12,2:2:0:0:
158,26,172100,5,0,1:2:0:0:
416,155,172225,1,12,2:1:0:0:
123,117,172350,5,0,1:1:0:0:
421,48,172475,1,8,2:2:0:0:
255,347,172600,5,8,0:1:0:0:
284,32,172725,2,0,L|273:160,1,105.600003222656,4|0,1:1|0:0,0:0:0:0:
255,347,172975,1,0,1:1:0:0:
71,252,173100,2,0,P|128:226|183:245,1,105.600003222656,8|0,2:2|2:2,0:0:0:0:
491,308,173350,2,0,P|440:347|323:322,1,158.400004833985,8|0,2:2|0:0,0:0:0:0:
255,347,173600,6,0,L|274:136,1,211.200006445313,4|0,1:2|1:1,0:0:0:0:
407,270,173975,1,8,2:2:0:0:
193,146,174100,1,0,2:2:0:0:
169,372,174225,1,0,1:1:0:0:
177,120,174350,1,0,1:1:0:0:
433,271,174475,5,8,2:2:0:0:
156,257,174600,1,0,0:0:0:0:
451,269,174725,6,0,B|469:108|469:108|381:176,1,249.599988574219,4|0,1:2|1:1,0:0:0:0:
16,259,175100,2,0,L|126:268,1,105.600003222656,8|0,2:2|2:2,0:0:0:0:
322,56,175350,2,0,B|281:49|256:17|256:17|240:66|177:93,1,187.199991430664,0|0,1:1|0:0,0:0:0:0:
16,134,175600,6,0,B|91:142|91:142|136:183|136:183|238:194,1,211.200006445313,4|0,1:2|1:1,0:0:0:0:
367,349,175975,1,8,2:2:0:0:
278,128,176100,1,0,2:2:0:0:
169,372,176225,1,0,1:2:0:0:
199,381,176287,1,0,1:0:0:0:
225,378,176350,1,0,1:1:0:0:
398,229,176475,1,8,2:2:0:0:
219,69,176600,1,0,1:2:0:0:
210,286,176725,6,0,P|278:267|377:377,1,211.200006445313,4|0,1:2|1:1,0:0:0:0:
81,365,177100,2,0,P|87:315|97:227,1,105.600003222656,12|0,2:2|2:2,0:0:0:0:
386,0,177350,2,0,P|393:74|405:184,1,158.400004833985,4|0,1:2|0:0,0:0:0:0:
494,255,177600,6,0,B|383:214|408:327|287:284,1,211.200006445313,4|0,1:2|1:1,0:0:0:0:
25,130,177975,2,0,B|11:75|11:75|31:30,1,105.600003222656,8|0,2:2|2:2,0:0:0:0:
136,218,178225,1,0,1:2:0:0:
135,239,178287,1,0,1:0:0:0:
134,260,178350,1,0,1:1:0:0:
261,48,178475,2,0,B|275:103|275:103|234:191,1,105.600003222656,8|0,2:2|0:0,0:0:0:0:
130,353,178725,6,0,L|140:97,1,211.200006445313,4|0,1:1|1:1,0:0:0:0:
416,261,179100,2,0,P|362:268|285:274,1,105.600003222656,8|0,2:2|2:2,0:0:0:0:
75,63,179350,2,0,P|148:38|234:125,1,172.799994726563,4|0,1:2|0:0,0:0:0:0:
225,215,179600,6,0,P|147:254|29:169,1,230.39999296875,4|0,1:0|1:1,0:0:0:0:
228,372,179975,1,8,2:2:0:0:
137,161,180100,1,0,2:2:0:0:
41,359,180225,1,0,1:2:0:0:
138,141,180350,1,0,1:1:0:0:
228,372,180475,2,0,B|289:366|289:366|308:351|308:351|330:361|330:361|414:353,1,172.799994726563,8|0,2:2|2:2,0:0:0:0:
504,381,180725,6,0,B|484:340|484:340|503:236,1,105.600003222656,4|0,1:1|2:2,0:0:0:0:
307,199,180975,1,0,1:1:0:0:
426,8,181100,2,0,B|446:46|446:46|431:141,1,105.600003222656,8|0,2:2|2:2,0:0:0:0:
117,185,181350,2,0,L|263:192,1,105.600003222656,0|8,1:1|2:2,0:0:0:0:
512,208,181600,6,0,B|454:207|454:207|408:241|408:241|370:204|370:204|282:198,1,230.39999296875,4|0,1:2|1:1,0:0:0:0:
253,28,181975,1,8,2:2:0:0:
168,303,182100,1,0,2:2:0:0:
52,48,182225,5,2,1:2:0:0:
126,47,182308,5,2,1:2:0:0:
178,99,182391,5,2,1:2:0:0:
164,171,182475,5,8,2:2:0:0:
101,209,182558,5,0,1:0:0:0:
30,186,182641,5,0,1:0:0:0:
12,115,182725,6,0,B|80:103|80:103|140:139|140:139|237:123,1,211.200006445313,4|0,1:1|1:1,0:0:0:0:
454,20,183100,2,0,L|431:167,1,105.600003222656,8|0,2:2|2:2,0:0:0:0:
382,353,183350,2,0,P|330:362|283:340,1,105.600003222656,0|8,1:1|2:2,0:0:0:0:
340,61,183600,6,0,B|328:138|328:138|354:190|354:190|340:298,1,211.200006445313,4|0,1:2|1:1,0:0:0:0:
437,124,183975,1,8,2:2:0:0:
172,360,184100,1,0,1:2:0:0:
171,341,184162,1,0,1:0:0:0:
170,322,184225,1,8,2:2:0:0:
70,58,184350,1,8,2:2:0:0:
70,58,184600,6,0,P|168:40|229:120,1,211.200006445313,4|0,1:1|1:1,0:0:0:0:
64,257,184975,2,0,P|57:201|42:108,1,105.600003222656,8|0,2:2|2:2,0:0:0:0:
0,342,185225,1,0,1:1:0:0:
153,174,185350,1,0,1:1:0:0:
227,382,185475,1,8,2:2:0:0:
64,257,185600,6,0,B|110:253|142:220|142:220|177:302|272:298,1,211.200006445313,4|0,1:1|1:1,0:0:0:0:
512,244,185975,1,8,2:2:0:0:
372,69,186100,1,0,1:1:0:0:
365,293,186225,2,0,L|361:356,2,52.8000016113282,8|0|0,2:2|0:0|1:1,0:0:0:0:
328,149,186475,5,8,3:3:0:0:
328,149,186600,1,4,3:0:0:0:
444,143,186725,6,0,L|302:151,1,115.199996484375,4|2,1:1|0:0,0:0:0:0:
256,267,187225,1,0,0:0:0:0:
61,90,187475,6,0,L|202:99,1,115.199996484375,0|2,0:0|0:0,0:0:0:0:
256,267,187975,1,0,0:0:0:0:
445,26,188225,6,0,L|303:34,1,115.199996484375,2|0,0:0|0:0,0:0:0:0:
256,352,188725,5,4,1:2:0:0:
254,31,188850,1,8,2:2:0:0:
254,31,189100,5,8,2:2:0:0:
64,288,189225,1,8,2:2:0:0:
448,288,189350,5,0,1:0:0:0:
448,288,189412,1,0,1:0:0:0:
448,288,189475,1,12,1:2:0:0:
254,31,189600,1,0,1:1:0:0:
254,31,189850,5,2,2:2:0:0:
175,133,189975,2,0,P|168:162|168:189,1,57.5999982421876,2|0,2:2|2:2,0:0:0:0:
338,277,190225,6,0,P|339:248|334:220,1,57.5999982421876,2|0,2:2|2:2,0:0:0:0:
254,31,190475,1,2,2:2:0:0:
176,312,190600,6,0,B|96:292|104:373|16:352,1,172.799994726563,4|2,1:1|2:2,0:0:0:0:
14,332,191225,1,2,2:2:0:0:
12,313,191475,1,2,2:2:0:0:
144,184,191600,2,0,L|136:104,1,57.5999982421876,4|0,1:2|0:0,0:0:0:0:
38,50,191850,5,4,1:2:0:0:
256,192,191975,2,0,L|248:264,1,67.1999979492188,0|0,1:1|2:2,0:0:0:0:
152,296,192225,5,8,2:2:0:0:
367,191,192350,1,8,0:3:0:0:
138,126,192475,1,4,0:3:0:0:
413,263,192600,6,0,L|400:109,1,153.6,4|0,1:1|1:1,0:0:0:0:
392,28,192975,1,0,1:1:0:0:
88,208,193225,1,12,2:2:0:0:
419,348,193475,1,0,1:1:0:0:
124,107,193725,5,0,1:3:0:0:
157,172,193809,5,8,3:3:0:0:
225,189,193892,5,4,3:3:0:0:
281,143,193975,5,12,3:3:0:0:
281,71,194059,5,4,1:3:0:0:
225,26,194142,5,4,1:3:0:0:
157,43,194225,5,8,1:2:0:0:
405,233,194350,2,0,P|443:226|481:224,1,76.8,8|0,1:2|2:2,0:0:0:0:
436,133,194600,6,0,B|326:107|337:217|225:189,1,230.39999296875,6|4,1:1|1:2,0:0:0:0:
27,51,194975,2,0,P|43:123|39:191,1,115.199996484375,8|0,1:2|0:0,0:0:0:0:
15,243,195162,1,0,1:2:0:0:
15,243,195225,6,0,L|139:227,1,115.199996484375,0|0,1:1|1:1,0:0:0:0:
232,84,195475,1,8,2:2:0:0:
332,293,195600,1,4,1:1:0:0:
160,144,195725,6,0,B|140:88|140:88|156:28,1,115.199996484375,4|0,1:2|1:1,0:0:0:0:
380,20,195975,2,0,B|400:76|400:76|384:136,1,115.199996484375,12|0,2:2|1:1,0:0:0:0:
232,84,196225,6,0,P|272:88|332:68,1,76.7999976562501,12|0,2:2|2:2,0:0:0:0:
345,235,196391,2,0,P|328:198|281:156,1,76.7999976562501,4|0,1:2|2:2,0:0:0:0:
421,63,196558,2,0,P|397:95|384:157,1,76.7999976562501,4|0,1:2|2:2,0:0:0:0:
487,263,196725,6,0,L|468:102,1,129.599996044922,2|0,0:0|2:2,0:0:0:0:
472,135,197225,6,0,B|368:113|377:201|268:176,1,211.200006445313,4|8,1:1|2:2,0:0:0:0:
75,88,197600,2,0,P|123:68|191:84,1,105.600003222656,0|0,1:1|2:2,0:0:0:0:
204,264,197850,2,0,P|156:284|88:268,1,105.600003222656,0|8,1:1|3:3,0:0:0:0:
144,181,198037,1,8,3:3:0:0:
144,181,198100,1,8,3:3:0:0:
144,181,198162,1,8,3:3:0:0:
144,181,198225,1,4,2:2:0:0:
2,70,198350,5,0,1:2:0:0:
61,348,198475,1,4,1:2:0:0:
251,128,198600,2,0,P|303:104|387:228,1,211.200006445313,4|0,1:1|2:2,0:0:0:0:
298,299,198975,6,0,L|309:194,1,105.600003222656,4|0,1:2|2:2,0:0:0:0:
493,375,199225,2,0,L|482:269,1,105.600003222656,8|0,2:2|2:2,0:0:0:0:
504,28,199475,2,0,P|460:55|409:48,1,105.600003222656,2|0,2:2|2:2,0:0:0:0:
102,91,199725,6,0,B|158:102|206:50|206:50|211:103|251:128,1,211.200006445313,4|4,1:1|1:2,0:0:0:0:
304,46,200100,1,0,0:0:0:0:
175,183,200225,2,0,P|163:243|283:191,1,264.000008056641,12|0,2:1|0:0,0:0:0:0:
291,213,200600,6,0,L|80:229,1,211.200006445313,4|0,1:2|2:2,0:0:0:0:
372,152,200975,2,0,P|392:204|376:272,1,105.600003222656,4|0,1:2|2:2,0:0:0:0:
278,112,201225,2,0,P|313:68|379:48,1,105.600003222656,8|0,2:2|2:2,0:0:0:0:
291,213,201475,2,0,P|235:204|185:156,1,105.600003222656,2|0,2:2|2:2,0:0:0:0:
68,16,201725,6,0,L|80:136,1,105.600003222656,4|0,1:0|2:2,0:0:0:0:
0,283,201975,2,0,B|76:275|76:275|116:319|116:319|191:312,1,211.200006445313,12|8,2:2|2:2,0:0:0:0:
385,252,202350,1,8,3:3:0:0:
152,232,202475,1,8,3:3:0:0:
397,160,202600,6,0,P|469:216|405:344,1,230.39999296875,4|0,1:1|1:1,0:0:0:0:
261,133,202975,2,0,L|245:9,1,115.199996484375,8|0,2:2|2:2,0:0:0:0:
422,9,203225,5,0,1:1:0:0:
111,145,203350,1,0,1:1:0:0:
385,252,203475,1,8,2:2:0:0:
247,19,203600,6,0,L|261:133,1,115.199996484375,4|8,1:1|3:0,0:0:0:0:
20,288,203850,2,0,L|34:173,1,115.199996484375,12|0,2:2|1:1,0:0:0:0:
264,324,204100,1,12,2:2:0:0:
265,338,204162,1,8,0:0:0:0:
268,352,204225,6,0,P|239:346|211:343,1,57.5999982421876,0|0,1:1|0:0,0:0:0:0:
156,221,204350,2,0,P|175:199|191:175,1,57.5999982421876,12|0,2:2|0:0,0:0:0:0:
325,189,204475,2,0,P|334:216|346:242,1,57.5999982421876,0|0,1:1|0:0,0:0:0:0:
20,288,204600,6,0,B|53:118|53:118|89:194,1,249.599988574219,4|0,1:1|1:1,0:0:0:0:
138,371,204975,1,8,2:2:0:0:
270,102,205100,2,0,L|280:17,2,62.3999971435548,0|0|0,2:2|0:0|1:1,0:0:0:0:
354,340,205350,1,0,1:1:0:0:
156,221,205475,1,8,2:2:0:0:
449,196,205600,6,0,P|397:194|292:185,1,124.79999428711,0|0,1:1|0:0,0:0:0:0:
62,85,205850,1,0,1:1:0:0:
121,292,205975,1,8,2:2:0:0:
270,102,206100,1,0,2:2:0:0:
0,170,206225,6,0,P|16:198|23:238,1,62.3999971435548,0|0,1:1|0:0,0:0:0:0:
108,352,206350,2,0,P|111:318|122:289,1,62.3999971435548,0|0,1:1|0:0,0:0:0:0:
190,138,206475,1,8,2:2:0:0:
0,170,206600,6,0,B|138:121|98:292|268:207,1,249.599988574219,4|0,1:1|1:1,0:0:0:0:
432,101,206975,1,8,2:2:0:0:
330,363,207100,1,8,2:2:0:0:
330,363,207162,1,8,0:0:0:0:
330,363,207225,2,0,B|315:304|315:304|345:214,1,124.79999428711,0|0,1:1|1:1,0:0:0:0:
434,318,207475,1,8,2:2:0:0:
184,18,207600,6,0,B|204:78|204:78|189:137,1,124.79999428711,0|0,1:2|0:0,0:0:0:0:
97,338,207850,1,0,1:1:0:0:
81,78,207975,1,12,2:2:0:0:
98,355,208100,1,0,1:1:0:0:
275,119,208225,5,4,1:2:0:0:
34,174,208350,1,0,1:1:0:0:
211,334,208475,1,8,2:2:0:0:
187,38,208600,6,0,P|309:2|396:105,1,249.599988574219,4|0,1:1|2:2,0:0:0:0:
124,315,208975,2,0,P|60:308|-41:298,1,124.79999428711,12|0,2:2|0:0,0:0:0:0:
275,119,209225,1,0,1:1:0:0:
295,364,209350,1,0,1:1:0:0:
0,177,209475,2,0,P|62:183|124:190,1,124.79999428711,12|0,2:2|1:1,0:0:0:0:
412,351,209725,5,4,1:2:0:0:
441,89,209850,1,0,1:1:0:0:
490,259,209975,2,0,P|435:268|364:237,1,124.79999428711,12|0,2:2|1:1,0:0:0:0:
263,9,210225,5,8,2:2:0:0:
295,364,210350,1,4,1:2:0:0:
295,364,210600,6,0,B|240:345|207:282|207:282|156:344|77:360,1,249.599988574219,4|0,1:1|1:1,0:0:0:0:
63,151,210975,1,8,2:2:0:0:
309,257,211100,1,0,2:2:0:0:
309,257,211162,1,0,0:0:0:0:
309,257,211225,6,0,L|299:106,1,124.79999428711,0|0,1:1|1:1,0:0:0:0:
104,352,211475,1,8,2:2:0:0:
169,105,211600,1,0,1:1:0:0:
384,357,211725,6,0,P|317:350|248:342,1,124.79999428711,0|0,2:2|1:1,0:0:0:0:
63,151,211975,1,8,2:2:0:0:
63,151,212100,1,0,1:1:0:0:
170,329,212225,6,0,L|160:243,1,62.3999971435548,8|0,2:2|0:0,0:0:0:0:
315,135,212350,2,0,L|308:220,1,62.3999971435548,8|0,3:3|0:0,0:0:0:0:
384,357,212475,1,4,3:3:0:0:
474,231,212600,6,0,B|401:239|401:239|352:285|352:285|236:295,1,211.200006445313,4|0,1:1|2:2,0:0:0:0:
17,54,212975,2,0,B|69:42|69:42|132:66,1,105.600003222656,0|0,1:2|2:2,0:0:0:0:
78,303,213225,1,8,2:2:0:0:
426,53,213475,1,2,2:2:0:0:
426,53,213600,1,0,2:2:0:0:
474,231,213725,6,0,P|475:178|495:112,1,105.600003222656,4|0,1:0|0:0,0:0:0:0:
229,11,213975,2,0,P|249:61|257:115,1,105.600003222656,4|0,1:0|0:0,0:0:0:0:
205,355,214225,6,0,P|254:294|391:319,1,211.200006445313,14|0,2:1|2:1,0:0:0:0:
59,276,214600,2,0,B|69:198|69:198|46:148|46:148|59:30,1,211.200006445313,4|0,1:1|2:2,0:0:0:0:
102,359,214975,6,0,L|-16:363,1,105.600003222656,4|0,1:2|2:2,0:0:0:0:
149,126,215225,2,0,L|270:135,1,105.600003222656,8|0,2:2|2:2,0:0:0:0:
54,70,215475,1,2,2:2:0:0:
54,70,215600,1,0,2:2:0:0:
347,179,215725,6,0,B|363:134|363:134|344:80,1,105.600003222656,4|0,1:2|2:2,0:0:0:0:
181,308,215975,1,8,2:2:0:0:
106,241,216100,5,0,1:1:0:0:
147,208,216162,1,0,1:0:0:0:
199,201,216225,1,8,2:2:0:0:
243,228,216287,1,8,0:0:0:0:
275,276,216350,5,8,3:3:0:0:
329,296,216412,1,8,3:0:0:0:
386,286,216475,1,8,3:3:0:0:
428,246,216537,1,8,3:0:0:0:
443,189,216600,6,0,B|428:47|428:47|378:128,1,211.200006445313,4|0,1:2|1:1,0:0:0:0:
329,296,216975,1,8,2:2:0:0:
280,51,217100,1,0,2:2:0:0:
146,207,217225,6,0,P|196:204|278:197,1,105.600003222656,0|0,1:1|1:1,0:0:0:0:
310,380,217475,1,8,2:2:0:0:
507,311,217600,6,0,P|424:256|310:331,1,211.200006445313,4|0,1:1|1:1,0:0:0:0:
194,114,217975,1,8,2:2:0:0:
194,114,218037,1,8,0:0:0:0:
194,114,218100,1,0,1:1:0:0:
411,362,218225,5,10,2:1:0:0:
368,154,218350,1,0,1:1:0:0:
249,340,218475,2,0,L|60:323,1,158.400004833985,8|0,3:3|0:0,0:0:0:0:
40,248,218725,5,4,1:1:0:0:
212,68,218850,1,0,2:2:0:0:
72,160,218975,2,0,L|176:146,1,105.600003222656,2|0,2:2|1:1,0:0:0:0:
252,176,219162,1,0,0:0:0:0:
252,176,219225,2,0,B|272:224|272:224|256:304,1,105.600003222656,8|0,2:2|0:0,0:0:0:0:
169,356,219475,5,4,1:2:0:0:
444,348,219600,2,0,B|384:356|352:304|352:304|332:368|256:372,1,211.200006445313,8|0,2:2|1:1,0:0:0:0:
279,368,219975,1,2,2:2:0:0:
443,244,220100,1,0,1:1:0:0:
367,8,220225,6,0,L|353:113,1,105.600003222656,8|0,2:2|2:2,0:0:0:0:
176,236,220475,1,2,2:2:0:0:
161,121,220600,1,0,2:2:0:0:
147,10,220725,5,4,1:2:0:0:
278,222,220975,1,2,2:2:0:0:
20,296,221225,2,0,B|136:264|96:368|228:328,1,211.200006445313,8|4,2:2|1:2,0:0:0:0:
278,222,221600,2,0,L|266:118,1,105.600003222656,0|0,1:1|1:1,0:0:0:0:
85,147,221850,6,0,P|141:143|187:175,1,115.199996484375,8|0,2:2|1:1,0:0:0:0:
449,102,222100,2,0,P|393:111|356:154,1,115.199996484375,8|0,2:2|1:1,0:0:0:0:
290,307,222350,2,0,B|281:244|281:244|273:224|273:224|276:204|276:204|266:117,1,192,8|0,2:2|2:2,0:0:0:0:
251,4,222725,5,4,1:2:0:0:
396,320,222975,2,0,B|427:278|427:278|420:216,1,105.600003222656,2|0,1:2|1:1,0:0:0:0:
474,6,223225,2,0,B|443:48|443:48|450:110,1,105.600003222656,8|0,2:2|0:0,0:0:0:0:
512,272,223475,1,4,1:2:0:0:
360,88,223600,6,0,B|292:80|292:80|228:120|228:120|161:112,1,211.200006445313,8|0,2:2|1:1,0:0:0:0:
41,18,223975,2,0,L|55:123,1,105.600003222656,2|0,1:2|2:2,0:0:0:0:
208,280,224225,1,8,2:2:0:0:
0,203,224350,1,0,0:0:0:0:
92,356,224475,2,0,L|104:244,1,105.600003222656,2|2,2:2|2:2,0:0:0:0:
208,104,224725,6,0,B|264:108|296:156|296:156|308:108|372:80,1,211.200006445313,2|2,1:1|2:1,0:0:0:0:
279,21,225100,1,0,1:1:0:0:
296,156,225225,2,0,L|312:272,1,105.600003222656,8|0,2:2|2:2,0:0:0:0:
279,21,225475,1,4,1:2:0:0:
236,288,225600,6,0,P|287:337|391:253,1,211.200006445313,8|8,2:2|2:2,0:0:0:0:
391,274,225912,1,8,2:2:0:0:
391,274,225975,1,8,2:2:0:0:
120,148,226100,5,2,1:1:0:0:
120,148,226350,1,2,1:1:0:0:
462,125,226475,2,0,B|370:109|390:178|290:157,1,172.799994726563,10|0,2:1|2:2,0:0:0:0:
210,105,226725,6,0,P|217:159|200:209,1,105.600003222656,4|0,1:1|2:2,0:0:0:0:
28,189,226975,2,0,P|20:137|37:87,1,105.600003222656,2|0,2:2|1:1,0:0:0:0:
120,148,227225,2,0,L|100:360,1,211.200006445313,8|4,2:2|1:2,0:0:0:0:
100,358,227600,6,0,L|216:346,1,105.600003222656,8|0,2:2|1:2,0:0:0:0:
304,209,227850,2,0,L|188:197,1,105.600003222656,0|2,1:1|1:2,0:0:0:0:
333,364,228100,1,0,2:2:0:0:
488,106,228225,2,0,B|406:114|406:114|366:75|366:75|276:82,1,211.200006445313,8|2,2:2|2:2,0:0:0:0:
199,198,228600,1,0,2:2:0:0:
92,32,228725,6,0,P|110:81|112:134,1,105.600003222656,4|0,1:2|2:2,0:0:0:0:
271,306,228975,2,0,P|272:253|290:203,1,105.600003222656,2|0,2:2|1:1,0:0:0:0:
353,133,229225,2,0,P|255:115|199:198,1,211.200006445313,8|4,2:2|1:2,0:0:0:0:
422,354,229600,1,8,2:2:0:0:
422,354,229662,1,8,2:2:0:0:
422,354,229725,1,8,2:2:0:0:
484,185,229850,5,8,1:2:0:0:
105,55,230100,1,8,1:2:0:0:
300,312,230350,6,0,B|272:232|304:132|304:132|280:192|237:211,1,287.999991210938,12|0,1:2|0:0,0:0:0:0:
238,210,230725,6,0,L|113:225,1,105.600003222656,4|0,1:1|2:2,0:0:0:0:
0,43,230975,2,0,L|105:54,1,105.600003222656,8|0,2:2|1:0,0:0:0:0:
123,319,231225,1,0,1:2:0:0:
44,152,231350,1,0,1:1:0:0:
246,311,231475,1,12,2:2:0:0:
7,369,231600,6,0,B|-13:317|-13:317|0:268,1,105.600003222656,8|0,2:2|1:2,0:0:0:0:
238,210,231850,2,0,B|258:262|258:262|242:326,1,105.600003222656,0|8,1:1|2:2,0:0:0:0:
28,131,232100,1,0,2:2:0:0:
145,361,232225,2,0,L|355:345,1,211.200006445313,4|8,1:2|2:2,0:0:0:0:
339,52,232600,2,0,L|346:104,1,52.8000016113282,0|0,1:2|0:0,0:0:0:0:
497,164,232725,6,0,B|422:157|422:157|370:191|370:191|297:184,1,211.200006445313,4|0,1:0|1:0,0:0:0:0:
134,101,233100,2,0,P|185:101|227:132,1,105.600003222656,12|0,0:0|0:0,0:0:0:0:
355,345,233350,1,0,1:0:0:0:
430,139,233475,2,0,P|354:132|297:184,1,158.400004833985,12|0,0:1|0:0,0:0:0:0:
264,259,233725,5,0,1:0:0:0:
212,10,233850,2,0,L|200:89,1,52.8000016113282,8|8,0:0|0:0,0:0:0:0:
154,272,233975,2,0,L|145:219,1,52.8000016113282,8|8,0:0|0:0,0:0:0:0:
69,21,234100,6,0,L|52:135,1,115.199996484375,4|0,1:2|0:0,0:0:0:0:
145,361,234350,1,4,1:0:0:0:
438,235,234475,6,0,B|374:242|374:242|329:278|329:278|263:229|263:229|219:264|219:264|150:272,1,326.400006225586,4|0,1:0|0:0,0:0:0:0:
