osu file format v14

[General]
AudioFilename: audio.mp3
AudioLeadIn: 0
PreviewTime: 67662
Countdown: 0
SampleSet: Soft
StackLeniency: 0.7
Mode: 0
LetterboxInBreaks: 0
WidescreenStoryboard: 1

[Editor]
Bookmarks: 2725,26725,44725,60725,68600,83475,98725,114725,122600,136600,156600,172725,190600,204600,212600,218725
DistanceSpacing: 1
BeatDivisor: 4
GridSize: 32
TimelineZoom: 2.4

[Metadata]
Title:Yakusoku no Ao
TitleUnicode:約束の蒼
Artist:Reol
ArtistUnicode:れをる
Creator:zekk
Version:Kibbleru's Extra
Source:
Tags:japanese rock 極彩色 gokusaishiki promised blue kibbleru professionalbox kalibe chaoslitz toybot fuju nexusqi impurepug resona heroine some_hero some hero zelq bongo moete erisu momoyo estonia corsace closed agatsu cc22 wf finals hr1
BeatmapID:4183040
BeatmapSetID:2010347

[Difficulty]
HPDrainRate:6
CircleSize:4
OverallDifficulty:8.7
ApproachRate:9.6
SliderMultiplier:1.65
SliderTickRate:1

[Events]
//Background and Video events
0,0,"Yakusoku BG.jpg",0,0
//Break Periods
2,84925,97216
//Storyboard Layer 0 (Background)
//Storyboard Layer 1 (Fail)
//Storyboard Layer 2 (Pass)
//Storyboard Layer 3 (Foreground)
//Storyboard Layer 4 (Overlay)
//Storyboard Sound Samples

[TimingPoints]
725,250,4,2,1,60,1,0
5225,-200,4,2,1,60,0,0
5725,-100,4,2,1,60,0,0
6225,-80,4,2,1,60,0,0
6475,-133.333333333333,4,2,1,60,0,0
7225,-200,4,2,1,60,0,0
7725,-100,4,2,1,60,0,0
9850,-142.857142857143,4,2,1,60,0,0
10100,-166.666666666667,4,2,1,60,0,0
10725,-166.666666666667,4,2,1,65,0,0
10975,-100,4,2,1,65,0,0
14350,-166.666666666667,4,2,1,65,0,0
14975,-100,4,2,1,65,0,0
18100,-80,4,2,1,65,0,0
18475,-100,4,2,1,65,0,0
22350,-166.666666666667,4,2,1,65,0,0
22725,-166.666666666667,4,2,1,70,0,0
23850,-100,4,2,1,70,0,0
26725,-166.666666666667,4,2,1,60,0,0
29725,-125,4,2,1,60,0,0
30725,-100,4,2,1,70,0,0
34725,-100,4,2,1,65,0,0
38725,-100,4,2,1,70,0,0
44225,-200,4,2,1,70,0,0
44725,-125,4,2,1,62,0,0
52725,-111.111111111111,4,2,1,62,0,0
56725,-111.111111111111,4,2,1,55,0,0
57725,-111.111111111111,4,2,1,55,0,0
57838,-111.111111111111,4,2,1,55,0,0
58725,-111.111111111111,4,2,1,60,0,0
59725,-111.111111111111,4,2,1,65,0,0
60725,-111.111111111111,4,2,1,62,0,0
60850,-100,4,2,1,62,0,0
61213,-100,4,2,1,62,0,0
61350,-100,4,2,1,62,0,0
63213,-100,4,2,1,62,0,0
63350,-100,4,2,1,62,0,0
64725,-125,4,2,1,62,0,0
66725,-100,4,2,1,62,0,0
68600,-100,4,2,1,80,0,1
76600,-142.857142857143,4,2,1,80,0,0
78225,-142.857142857143,4,2,1,80,0,1
78350,-200,4,2,1,80,0,1
78600,-142.857142857143,4,2,1,80,0,0
79725,-100,4,2,1,80,0,0
80600,-100,4,2,1,80,0,1
82725,-100,4,2,1,65,0,0
94725,-100,4,2,1,70,0,0
97725,-142.857142857143,4,2,1,70,0,0
98725,-117.647058823529,4,2,1,55,0,0
99225,-117.647058823529,4,2,1,55,0,0
104100,-117.647058823529,4,2,1,55,0,0
104225,-117.647058823529,4,2,1,55,0,0
104475,-117.647058823529,4,2,1,55,0,0
104588,-117.647058823529,4,2,1,55,0,0
104600,-117.647058823529,4,2,1,55,0,0
104725,-111.111111111111,4,2,1,55,0,0
106725,-100,4,2,1,70,0,0
114725,-100,4,2,1,65,0,0
115850,-80,4,2,1,65,0,0
116225,-66.6666666666667,4,2,1,65,0,0
116850,-100,4,2,1,65,0,0
117850,-80,4,2,1,65,0,0
118225,-66.6666666666667,4,2,1,65,0,0
118475,-80,4,2,1,65,0,0
121725,-200,4,2,1,65,0,0
122600,-100,4,2,1,80,0,1
130600,-142.857142857143,4,2,1,80,0,0
132225,-142.857142857143,4,2,1,80,0,1
132350,-200,4,2,1,80,0,1
132600,-142.857142857143,4,2,1,80,0,0
133725,-100,4,2,1,80,0,0
134600,-100,4,2,1,80,0,1
136600,-100,4,2,1,67,0,0
137475,-100,4,2,1,67,0,0
139725,-133.333333333333,4,2,1,67,0,0
140600,-100,4,2,1,67,0,0
141400,-100,4,2,1,67,0,0
141475,-100,4,2,1,67,0,0
143400,-100,4,2,1,67,0,0
143475,-100,4,2,1,67,0,0
144350,-80,4,2,1,67,0,0
144525,-80,4,2,1,67,0,0
144600,-100,4,2,1,67,0,0
145400,-100,4,2,1,67,0,0
145475,-100,4,2,1,67,0,0
146775,-100,4,2,1,67,0,0
146838,-100,4,2,1,67,0,0
148775,-100,4,2,1,67,0,0
148838,-100,4,2,1,67,0,0
149400,-100,4,2,1,67,0,0
149475,-100,4,2,1,67,0,0
151400,-100,4,2,1,67,0,0
151475,-100,4,2,1,67,0,0
152350,-125,4,2,1,67,0,0
152600,-100,4,2,1,67,0,0
155725,-300,4,2,1,67,0,0
156600,-100,4,2,1,85,0,1
163775,-100,4,2,1,85,0,1
163838,-100,4,2,1,85,0,1
164225,-100,4,2,1,85,0,0
164600,-100,4,2,1,85,0,1
172600,-80,4,2,1,85,0,1
172725,-100,4,2,1,75,0,0
173213,-100,4,2,1,75,0,0
173350,-100,4,2,1,75,0,0
173463,-100,4,2,1,75,0,0
173600,-100,4,2,1,75,0,0
177213,-100,4,2,1,75,0,0
184225,-80,4,2,1,75,0,0
184600,-100,4,2,1,75,0,0
186725,-200,4,2,1,55,0,0
188725,-200,4,2,1,90,0,0
190600,-142.857142857143,4,2,1,75,0,1
191600,-100,4,2,1,75,0,0
191850,-80,4,2,1,75,0,0
192600,-142.857142857143,4,2,1,75,0,1
193225,-80,4,2,1,75,0,1
193725,-80,4,2,1,75,0,0
194225,-80,4,2,1,75,0,0
194600,-142.857142857143,4,2,1,85,0,1
195600,-80,4,2,1,85,0,1
195725,-100,4,2,1,85,0,0
198600,-142.857142857143,4,2,1,80,0,0
200225,-142.857142857143,4,2,1,80,0,1
200350,-200,4,2,1,80,0,1
200600,-142.857142857143,4,2,1,80,0,0
201725,-100,4,2,1,80,0,0
202600,-100,4,2,1,80,0,1
203850,-100,4,2,1,80,0,0
204600,-100,4,2,1,90,0,1
212600,-142.857142857143,4,2,1,80,0,0
214225,-142.857142857143,4,2,1,80,0,1
214350,-200,4,2,1,80,0,1
214600,-142.857142857143,4,2,1,80,0,0
215725,-100,4,2,1,80,0,0
216600,-100,4,2,1,80,0,1
218725,-100,4,2,1,70,0,0

[Colours]
Combo1 : 139,2,251
Combo2 : 21,191,255
Combo3 : 88,75,252
Combo4 : 254,236,192
Combo5 : 249,213,68
Combo6 : 118,237,250

[HitObjects]
256,192,725,12,0,2475,2:2:0:0:
89,154,2725,5,4,1:1:0:0:
205,249,2850,1,0,2:2:0:0:
234,102,2975,1,0,2:2:0:0:
111,241,3100,1,0,1:1:0:0:
178,164,3225,6,0,L|274:154,1,82.5,4|0,1:2|0:0,0:0:0:0:
369,113,3600,1,8,2:2:0:0:
369,113,3662,1,8,2:2:0:0:
369,113,3725,6,0,P|372:133|373:153,1,41.25,8|0,2:2|0:0,0:0:0:0:
427,280,3850,2,0,P|428:259|431:239,1,41.25,0|0,1:1|0:0,0:0:0:0:
505,182,3975,1,0,1:1:0:0:
336,243,4100,1,0,2:2:0:0:
457,76,4225,6,0,P|415:71|375:66,1,82.5,0|0,2:2|1:1,0:0:0:0:
254,233,4475,2,0,P|295:237|335:242,1,82.5,0|0,1:1|2:2,0:0:0:0:
171,169,4725,5,4,1:2:0:0:
256,328,4850,1,0,2:2:0:0:
99,319,4975,1,0,2:2:0:0:
254,233,5100,1,0,1:1:0:0:
166,272,5225,6,0,P|126:272|95:247,1,82.5,0|4,2:2|1:2,0:0:0:0:
29,140,5600,1,8,2:2:0:0:
29,140,5662,1,8,2:2:0:0:
29,140,5725,6,0,L|69:133,1,41.25,8|0,2:2|0:0,0:0:0:0:
168,46,5850,2,0,L|208:52,1,41.25,0|0,1:1|0:0,0:0:0:0:
295,137,5975,1,0,1:1:0:0:
376,20,6225,6,0,P|368:44|366:69,1,51.5625,8|0,2:2|0:0,0:0:0:0:
377,259,6350,2,0,P|375:233|366:209,1,51.5625,8|0,2:2|0:0,0:0:0:0:
295,137,6475,6,0,B|238:153|231:121|172:138,1,123.750004720688,0|4,1:1|1:1,0:0:0:0:
100,216,6850,5,0,2:2:0:0:
200,244,6975,1,0,2:2:0:0:
74,119,7100,1,0,1:1:0:0:
17,277,7225,2,0,L|10:359,1,82.5,4|4,0:0|1:1,0:0:0:0:
129,314,7600,1,8,2:2:0:0:
129,314,7662,1,8,2:2:0:0:
129,314,7725,6,0,P|147:304|176:299,1,41.25,8|0,2:2|0:0,0:0:0:0:
267,232,7850,2,0,P|286:238|303:250,1,41.25,0|0,1:1|0:0,0:0:0:0:
365,328,7975,1,0,1:1:0:0:
321,146,8100,1,8,2:2:0:0:
187,281,8225,5,8,2:2:0:0:
420,224,8350,1,0,1:1:0:0:
420,224,8412,1,0,1:0:0:0:
420,224,8475,1,8,2:2:0:0:
420,224,8725,5,0,1:1:0:0:
325,69,8850,2,0,B|338:108|338:108|320:145,1,82.5,0|0,1:2|2:2,0:0:0:0:
207,43,9100,1,0,1:1:0:0:
116,211,9225,2,0,B|103:172|103:172|120:134,1,82.5,8|0,2:2|1:1,0:0:0:0:
207,43,9475,6,0,L|219:176,1,123.75,4|0,1:1|0:0,0:0:0:0:
218,166,9725,5,0,1:1:0:0:
204,273,9850,2,0,P|231:265|260:263,1,57.7499982376099,0|0,2:2|2:2,0:0:0:0:
416,203,10100,2,0,P|392:198|370:188,1,49.4999984893799,2|0,2:2|2:2,0:0:0:0:
280,33,10350,2,0,P|296:53|314:69,1,49.4999984893799,2|2,2:2|2:2,0:0:0:0:
218,166,10725,5,4,1:1:0:0:
24,123,10850,1,0,2:2:0:0:
117,99,10975,2,0,L|123:181,1,82.5,0|0,2:2|1:1,0:0:0:0:
183,363,11225,2,0,B|193:304|193:304|233:272|233:272|240:218,1,165,8|4,2:2|1:2,0:0:0:0:
292,366,11600,1,8,2:2:0:0:
292,366,11662,1,8,2:2:0:0:
292,366,11725,5,0,1:2:0:0:
52,219,11850,2,0,P|93:215|133:209,1,82.5,0|0,1:1|2:2,0:0:0:0:
313,130,12100,1,0,1:1:0:0:
349,314,12225,2,0,P|287:318|225:325,1,123.75,8|0,2:2|0:0,0:0:0:0:
225,325,12475,1,0,2:2:0:0:
408,218,12600,1,0,2:2:0:0:
206,124,12725,5,4,1:2:0:0:
408,59,12850,1,0,2:2:0:0:
299,238,12975,2,0,P|289:198|307:161,1,82.5,0|0,2:2|1:1,0:0:0:0:
435,98,13225,2,0,B|353:113|363:59|275:74,1,165,8|4,2:2|1:2,0:0:0:0:
412,0,13600,1,0,1:1:0:0:
412,0,13662,1,0,1:1:0:0:
412,0,13725,5,0,1:1:0:0:
302,236,13850,2,0,B|321:200|321:200|305:160,1,82.5,8|0,2:2|1:1,0:0:0:0:
86,132,14100,2,0,B|67:168|67:168|82:207,1,82.5,8|0,2:2|1:1,0:0:0:0:
151,380,14350,2,0,L|175:258,1,123.74999622345,8|0,2:2|0:0,0:0:0:0:
192,173,14725,5,4,1:2:0:0:
293,334,14850,1,0,2:2:0:0:
375,236,14975,2,0,L|293:225,1,82.5,0|0,1:2|1:1,0:0:0:0:
123,188,15225,2,0,B|182:176|182:176|211:139|211:139|268:129,1,165,8|4,2:2|1:2,0:0:0:0:
279,232,15600,1,8,2:2:0:0:
279,232,15662,1,8,2:2:0:0:
279,232,15725,5,0,2:2:0:0:
130,5,15850,2,0,P|127:46|123:87,1,82.5,0|0,1:1|1:1,0:0:0:0:
18,183,16100,1,0,2:2:0:0:
160,321,16225,2,0,P|163:280|167:239,1,82.5,8|0,2:2|0:0,0:0:0:0:
272,290,16475,1,0,2:2:0:0:
59,274,16600,1,0,2:2:0:0:
214,142,16725,6,0,P|176:125|136:132,1,82.5,2|0,1:1|2:2,0:0:0:0:
119,331,16975,2,0,P|156:347|196:340,1,82.5,2|0,2:1|1:1,0:0:0:0:
375,259,17225,2,0,P|313:254|251:249,1,123.75,8|0,2:2|0:0,0:0:0:0:
162,238,17475,1,4,1:2:0:0:
300,353,17600,1,8,2:2:0:0:
300,353,17662,1,8,2:2:0:0:
300,353,17725,5,8,2:2:0:0:
311,151,17850,2,0,P|306:131|302:111,2,41.25,8|8|8,2:2|2:2|2:2,0:0:0:0:
162,237,18100,2,0,P|157:212|150:187,1,51.5625,2|0,1:1|0:0,0:0:0:0:
149,186,18350,5,2,1:1:0:0:
369,198,18475,2,0,P|307:193|245:188,1,123.75,10|0,2:1|2:2,0:0:0:0:
149,186,18725,5,4,1:1:0:0:
248,53,18850,1,0,2:2:0:0:
135,5,18975,2,0,P|120:43|130:82,1,82.5,0|0,2:2|1:1,0:0:0:0:
243,322,19225,2,0,B|221:238|281:248|261:162,1,165,8|4,2:2|1:2,0:0:0:0:
346,300,19600,1,8,2:2:0:0:
346,300,19662,1,8,2:2:0:0:
346,300,19725,5,0,1:2:0:0:
66,197,19850,2,0,P|106:192|147:186,1,82.5,0|0,1:1|1:1,0:0:0:0:
249,77,20100,1,0,2:2:0:0:
350,206,20225,5,8,2:2:0:0:
137,99,20350,1,0,2:2:0:0:
353,28,20475,2,0,P|362:67|348:105,1,82.5,0|0,2:2|2:2,0:0:0:0:
229,161,20725,5,4,1:2:0:0:
402,299,20850,2,0,P|348:239|269:248,1,165,0|0,2:2|1:1,0:0:0:0:
5,348,21225,2,0,L|131:335,1,123.75,8|0,2:2|2:2,0:0:0:0:
209,331,21475,1,4,1:2:0:0:
68,205,21600,1,8,2:2:0:0:
61,181,21662,1,8,2:2:0:0:
70,157,21725,1,8,2:2:0:0:
259,192,21850,6,0,L|176:183,1,82.5,8|0,1:2|1:1,0:0:0:0:
296,0,22100,2,0,P|337:4|378:8,1,82.5,8|0,1:2|1:1,0:0:0:0:
467,128,22350,2,0,P|405:120|344:114,1,123.74999622345,12|0,1:2|0:0,0:0:0:0:
344,114,22725,5,4,1:1:0:0:
389,271,22850,1,0,2:2:0:0:
215,214,22975,1,8,2:2:0:0:
427,176,23100,1,0,1:0:0:0:
206,196,23225,5,0,1:2:0:0:
389,271,23350,1,0,1:1:0:0:
196,316,23475,1,12,2:2:0:0:
308,142,23600,1,8,2:2:0:0:
319,163,23662,1,8,2:2:0:0:
318,187,23725,1,0,1:2:0:0:
13,308,23850,6,0,P|8:266|3:226,1,82.5,0|8,1:1|2:2,0:0:0:0:
147,363,24100,1,0,2:2:0:0:
213,185,24225,2,0,P|217:226|222:266,1,82.5,4|0,1:2|1:2,0:0:0:0:
116,253,24475,6,0,P|185:212|260:238,1,165,8|4,2:2|1:1,0:0:0:0:
489,254,24975,1,0,1:1:0:0:
337,323,25100,2,0,P|372:343|412:339,1,82.5,8|0,2:2|0:0,0:0:0:0:
303,138,25350,1,0,1:1:0:0:
400,108,25475,6,0,L|391:231,1,123.75,8|0,2:2|0:0,0:0:0:0:
391,231,25725,1,0,1:1:0:0:
210,97,25850,1,8,2:2:0:0:
193,94,25912,1,8,2:2:0:0:
177,91,25975,1,8,2:2:0:0:
78,219,26100,1,8,2:2:0:0:
300,175,26225,5,0,1:1:0:0:
89,42,26350,1,8,3:3:0:0:
78,63,26412,1,8,3:3:0:0:
79,87,26475,1,8,3:3:0:0:
179,192,26600,1,4,1:3:0:0:
318,81,26725,6,0,B|363:97|398:66|398:66|359:101|310:177|351:220|428:197|393:142,1,296.99999093628,4|0,1:1|2:2,0:0:0:0:
436,256,27725,6,0,B|366:302|294:246|294:246|246:225|202:239|202:239|250:256,1,296.99999093628,4|0,1:2|2:2,0:0:0:0:
248,255,28725,6,0,B|248:198|248:198|174:197|144:259|166:315|206:342|259:331,1,296.99999093628,4|0,1:2|2:2,0:0:0:0:
345,147,29725,2,0,L|342:245,1,99,4|0,1:2|0:0,0:0:0:0:
335,268,29975,5,0,1:1:0:0:
370,239,30037,1,0,1:1:0:0:
415,232,30100,1,0,1:1:0:0:
458,248,30162,1,0,1:1:0:0:
488,283,30225,1,2,1:3:0:0:
404,335,30725,6,0,L|322:322,1,82.5,4|8,1:1|2:2,0:0:0:0:
170,130,30975,2,0,L|251:142,1,82.5,0|8,1:1|2:2,0:0:0:0:
201,233,31225,1,0,1:1:0:0:
390,139,31350,1,8,2:2:0:0:
226,39,31475,1,0,1:1:0:0:
226,39,31537,1,0,0:0:0:0:
226,39,31600,1,8,2:2:0:0:
327,243,31725,5,0,1:1:0:0:
120,153,31850,1,8,2:2:0:0:
227,151,31975,2,0,L|218:239,1,82.5,0|8,1:1|2:2,0:0:0:0:
128,309,32225,1,0,1:1:0:0:
128,309,32287,1,0,0:0:0:0:
128,309,32350,1,8,2:2:0:0:
339,210,32475,1,0,1:1:0:0:
125,70,32600,1,8,2:2:0:0:
361,44,32725,6,0,L|280:56,1,82.5,4|8,1:0|0:0,0:0:0:0:
105,195,32975,2,0,L|186:183,1,82.5,0|8,1:0|2:2,0:0:0:0:
299,242,33225,1,0,1:1:0:0:
130,100,33350,1,8,2:2:0:0:
85,309,33475,1,0,1:1:0:0:
251,123,33600,1,8,2:2:0:0:
168,217,33725,5,8,2:2:0:0:
130,100,33850,1,8,2:3:0:0:
251,123,33975,1,4,0:3:0:0:
210,332,34100,2,0,P|168:328|127:325,1,82.5,0|8,1:1|0:0,0:0:0:0:
23,211,34350,1,8,0:0:0:0:
83,114,34475,2,0,P|124:110|165:107,1,82.5,8|8,1:2|1:2,0:0:0:0:
337,35,34725,6,0,P|277:87|293:164,1,165,4|8,1:1|2:2,0:0:0:0:
392,377,35100,2,0,B|414:264|414:264|377:230,1,165,4|0,1:2|1:1,0:0:0:0:
209,307,35475,2,0,L|291:299,1,82.5,8|0,2:2|0:0,0:0:0:0:
146,203,35725,5,4,1:2:0:0:
85,363,35850,2,0,P|66:326|69:286,1,82.5,0|8,2:2|2:2,0:0:0:0:
167,105,36100,2,0,B|88:92|88:145|6:128,1,165,4|0,1:2|1:1,0:0:0:0:
146,203,36475,2,0,L|228:208,1,82.5,8|0,2:2|2:2,0:0:0:0:
39,29,36725,5,4,1:1:0:0:
23,252,36850,2,0,P|28:211|32:170,1,82.5,0|8,2:2|2:2,0:0:0:0:
229,13,37100,2,0,B|235:71|235:71|207:112|207:112|215:168,1,165,4|0,1:2|1:1,0:0:0:0:
395,151,37475,2,0,L|300:138,1,82.5,8|0,2:2|2:2,0:0:0:0:
133,43,37725,5,0,1:1:0:0:
363,29,37850,1,8,2:2:0:0:
110,163,37975,1,0,1:1:0:0:
348,225,38100,1,8,2:2:0:0:
208,267,38225,6,0,L|213:226,3,41.25,8|8|8|8,3:3|3:3|3:3|3:3,0:0:0:0:
180,131,38475,1,8,2:2:0:0:
221,124,38537,1,8,2:2:0:0:
260,135,38600,1,8,2:2:0:0:
291,163,38662,1,8,2:2:0:0:
307,200,38725,5,4,1:1:0:0:
117,209,38850,1,8,2:2:0:0:
270,42,38975,1,0,1:1:0:0:
103,190,39100,1,8,2:2:0:0:
198,334,39225,2,0,L|208:247,1,82.5,0|8,1:1|2:2,0:0:0:0:
120,10,39475,2,0,L|110:91,1,82.5,0|8,1:1|2:2,0:0:0:0:
213,145,39725,5,0,1:1:0:0:
31,274,39850,1,8,2:2:0:0:
241,294,39975,1,0,1:1:0:0:
49,182,40100,1,8,2:2:0:0:
295,91,40225,2,0,P|309:128|301:168,1,82.5,0|8,1:1|2:2,0:0:0:0:
149,325,40475,2,0,P|140:285|155:247,1,82.5,0|8,1:1|2:2,0:0:0:0:
396,313,40725,6,0,B|347:306|347:306|318:318|318:318|293:300|293:300|240:293,1,165,4|0,1:0|1:2,0:0:0:0:
57,164,41100,2,0,B|106:157|106:157|135:169|135:169|160:151|160:151|212:144,1,165,12|0,2:1|1:1,0:0:0:0:
307,57,41475,1,12,2:2:0:0:
91,266,41725,5,8,2:2:0:0:
124,62,41850,1,8,2:3:0:0:
206,248,41975,1,4,0:3:0:0:
127,165,42100,1,0,1:1:0:0:
343,261,42225,5,8,2:2:0:0:
159,351,42350,1,8,3:3:0:0:
369,367,42475,1,8,1:2:0:0:
206,248,42600,1,8,1:2:0:0:
439,157,42725,6,0,P|386:215|309:198,1,165,4|0,1:2|1:2,0:0:0:0:
184,43,43100,2,0,L|196:174,1,123.75,8|0,2:2|0:0,0:0:0:0:
206,248,43350,1,0,1:1:0:0:
286,91,43475,1,0,0:2:0:0:
83,121,43600,1,4,1:2:0:0:
83,121,43850,5,8,1:1:0:0:
296,189,43975,1,8,2:2:0:0:
82,257,44100,1,0,1:1:0:0:
82,257,44162,1,0,0:0:0:0:
82,257,44225,6,0,L|205:247,1,123.75,12|0,2:1|2:2,0:0:0:0:
296,189,44725,6,0,L|283:320,1,132,4|0,1:2|1:1,0:0:0:0:
406,204,45100,2,0,P|401:171|396:138,1,66,12|0,2:2|0:0,0:0:0:0:
296,189,45350,1,0,0:0:0:0:
203,132,45475,2,0,P|195:164|187:196,1,66,4|8,1:1|2:2,0:0:0:0:
191,211,45850,5,0,1:1:0:0:
309,44,45975,2,0,P|311:77|314:110,1,66,0|0,1:2|1:2,0:0:0:0:
169,54,46225,2,0,P|166:86|163:119,1,66,8|0,2:2|2:2,0:0:0:0:
34,34,46475,2,0,P|36:66|39:99,1,66,0|0,2:2|1:2,0:0:0:0:
47,261,46725,6,0,P|101:226|165:236,1,132,4|0,1:2|1:1,0:0:0:0:
154,383,47100,2,0,P|132:359|123:326,1,66,12|0,2:2|2:2,0:0:0:0:
215,154,47350,1,0,2:2:0:0:
313,173,47475,2,0,P|303:204|281:228,1,66,4|8,1:1|2:2,0:0:0:0:
263,233,47850,5,0,1:1:0:0:
370,308,47975,2,0,P|402:311|435:315,1,66,0|0,1:1|2:2,0:0:0:0:
352,190,48225,2,0,P|384:187|417:183,1,66,8|0,2:2|0:0,0:0:0:0:
386,72,48475,2,0,L|451:79,1,66,2|0,0:0|0:0,0:0:0:0:
236,29,48725,6,0,P|241:94|246:160,1,132,4|0,1:1|1:1,0:0:0:0:
352,211,49100,2,0,P|356:178|362:145,1,66,8|0,2:2|2:2,0:0:0:0:
246,160,49350,1,0,2:2:0:0:
125,169,49475,2,0,P|137:200|148:231,1,66,4|8,1:2|2:2,0:0:0:0:
199,351,49725,6,0,P|226:333|258:329,1,66,0|0,2:2|1:1,0:0:0:0:
349,244,49975,2,0,P|379:255|401:279,1,66,0|0,2:2|2:2,0:0:0:0:
227,213,50225,2,0,P|203:153|226:93,1,132,8|0,2:2|2:2,0:0:0:0:
243,71,50725,6,0,L|111:85,1,132,0|0,1:2|1:2,0:0:0:0:
35,184,51100,2,0,B|138:167|130:230|226:212,1,198,8|4,2:2|1:2,0:0:0:0:
226,212,51600,2,0,L|236:145,1,66,8|8,2:2|2:2,0:0:0:0:
371,80,51850,5,0,1:1:0:0:
440,173,51975,2,0,L|449:238,1,66,0|0,1:1|1:2,0:0:0:0:
320,342,52225,2,0,B|306:277|346:273|335:212,1,132,8|0,2:2|2:2,0:0:0:0:
323,190,52725,6,0,P|263:232|192:218,1,148.49999546814,4|8,1:1|2:2,0:0:0:0:
183,48,53100,2,0,P|215:30|251:28,1,74.2499977340699,4|0,1:2|2:2,0:0:0:0:
240,131,53350,1,0,1:1:0:0:
1,155,53475,6,0,L|148:139,1,148.49999546814,8|0,2:2|2:2,0:0:0:0:
296,47,53850,1,0,1:1:0:0:
354,128,53975,2,0,L|341:214,1,74.2499977340699,8|0,2:2|2:2,0:0:0:0:
218,286,54225,2,0,L|229:212,1,74.2499977340699,0|0,1:2|1:1,0:0:0:0:
148,139,54412,1,0,1:1:0:0:
148,139,54475,2,0,L|136:212,1,74.2499977340699,8|0,0:2|2:2,0:0:0:0:
218,285,54725,6,0,P|277:244|348:255,1,148.49999546814,4|0,1:2|1:1,0:0:0:0:
456,276,55100,2,0,P|448:239|442:202,1,74.2499977340699,12|0,2:2|2:2,0:0:0:0:
365,372,55350,1,0,1:1:0:0:
281,130,55475,6,0,B|291:196|248:206|259:275,1,148.49999546814,12|0,2:2|1:2,0:0:0:0:
171,148,55850,1,8,2:2:0:0:
372,72,55975,1,0,1:1:0:0:
185,26,56100,1,8,2:2:0:0:
400,169,56225,5,8,3:3:0:0:
378,175,56287,1,8,3:3:0:0:
355,173,56350,1,8,3:3:0:0:
155,54,56475,1,8,2:2:0:0:
178,52,56537,1,8,2:2:0:0:
200,58,56600,1,8,2:2:0:0:
243,192,56725,6,0,L|226:339,1,148.49999546814,0|0,1:1|2:2,0:0:0:0:
339,278,57100,1,0,0:0:0:0:
171,148,57225,2,0,P|242:159|298:113,1,148.49999546814,4|0,1:0|2:2,0:0:0:0:
260,22,57600,1,0,2:2:0:0:
427,50,57725,6,0,P|419:86|413:122,1,74.2499977340699,4|0,1:2|0:0,0:0:0:0:
210,51,57975,1,0,2:2:0:0:
247,195,58100,2,0,P|254:231|260:267,1,74.2499977340699,0|4,2:2|1:0,0:0:0:0:
503,225,58350,1,0,0:0:0:0:
407,284,58475,2,0,P|399:320|393:356,1,74.2499977340699,0|0,2:2|1:1,0:0:0:0:
299,292,58725,5,8,0:3:0:0:
503,225,58975,1,8,0:0:0:0:
333,145,59225,1,8,1:1:0:0:
461,108,59475,1,8,1:1:0:0:
343,54,59600,5,0,1:1:0:0:
343,54,59662,1,0,1:1:0:0:
343,54,59725,1,8,1:2:0:0:
448,12,59975,6,0,P|449:49|452:86,1,74.2499977340699,8|0,1:2|0:0,0:0:0:0:
228,109,60225,2,0,P|226:146|223:183,1,74.2499977340699,8|0,1:2|0:0,0:0:0:0:
483,188,60475,2,0,P|484:225|487:262,1,74.2499977340699,8|0,1:2|0:0,0:0:0:0:
390,347,60725,5,4,1:1:0:0:
292,290,60850,2,0,P|287:310|283:330,2,41.25,2|2|0,2:2|2:2|2:2,0:0:0:0:
331,188,61100,2,0,P|292:178|253:190,1,82.5,0|2,1:1|2:2,0:0:0:0:
170,238,61350,1,2,2:2:0:0:
95,185,61475,1,4,1:2:0:0:
80,274,61600,1,8,2:2:0:0:
80,274,61662,1,8,2:2:0:0:
80,274,61725,1,8,1:2:0:0:
178,145,61850,6,0,P|182:104|185:62,1,82.5,0|0,1:1|1:1,0:0:0:0:
297,29,62100,2,0,B|319:99|272:119|296:191,1,165,2|0,1:2|1:1,0:0:0:0:
372,242,62475,1,0,1:2:0:0:
372,242,62725,5,4,1:2:0:0:
281,315,62850,2,0,L|269:372,2,41.25,2|2|0,2:2|2:2|2:2,0:0:0:0:
206,222,63100,2,0,B|169:238|169:238|128:225,1,82.5,0|2,1:1|2:2,0:0:0:0:
110,71,63350,1,0,2:2:0:0:
166,142,63475,1,4,1:2:0:0:
76,154,63600,1,8,2:2:0:0:
76,154,63662,1,8,2:2:0:0:
76,154,63725,5,8,2:2:0:0:
202,57,63850,2,0,L|293:47,1,82.5,0|2,1:1|1:1,0:0:0:0:
413,122,64100,2,0,L|372:114,1,41.25,2|0,2:1|0:0,0:0:0:0:
372,114,64225,6,0,P|376:155|380:196,1,82.5,10|2,2:1|1:2,0:0:0:0:
246,285,64475,2,0,P|252:224|256:162,1,123.75,2|0,1:2|0:0,0:0:0:0:
256,162,64725,6,0,P|206:202|142:194,1,132,4|0,1:2|2:2,0:0:0:0:
49,108,65100,1,0,1:1:0:0:
49,108,65350,1,0,2:2:0:0:
34,316,65475,2,0,P|76:293|125:296,1,99,4|8,1:2|2:2,0:0:0:0:
199,342,65725,5,8,1:2:0:0:
159,159,65850,1,0,1:1:0:0:
277,303,65975,5,0,1:1:0:0:
299,94,66100,1,0,1:2:0:0:
350,357,66225,5,8,2:2:0:0:
253,172,66350,1,0,2:2:0:0:
462,211,66475,1,0,1:1:0:0:
277,303,66600,1,0,1:2:0:0:
430,120,66725,6,0,L|424:202,1,82.5,8|0,2:2|1:1,0:0:0:0:
215,26,67100,6,0,L|209:108,1,82.5,8|8,2:2|2:2,0:0:0:0:
189,291,67350,1,0,1:1:0:0:
241,225,67475,2,0,P|204:207|163:210,1,82.5,8|0,2:2|1:1,0:0:0:0:
82,227,68600,6,0,B|137:215|137:215|183:236|183:236|240:225,1,165,4|0,1:1|1:1,0:0:0:0:
215,52,68975,2,0,L|199:133,1,82.5,8|0,2:2|2:2,0:0:0:0:
123,311,69225,1,0,1:1:0:0:
316,120,69350,1,0,1:1:0:0:
96,61,69475,1,8,2:2:0:0:
211,266,69600,6,0,P|154:209|75:219,1,165,0|0,1:1|1:1,0:0:0:0:
316,120,69975,2,0,L|400:104,1,82.5,8|0,2:2|2:2,0:0:0:0:
373,209,70225,1,0,2:2:0:0:
226,55,70350,1,0,1:1:0:0:
226,55,70412,1,0,1:0:0:0:
226,55,70475,1,8,2:2:0:0:
189,211,70600,6,0,L|22:186,1,165,4|0,1:1|1:1,0:0:0:0:
288,256,70975,2,0,B|304:216|304:216|292:179,1,82.5,8|0,2:2|2:2,0:0:0:0:
140,13,71225,2,0,B|124:53|124:53|135:89,1,82.5,0|0,1:1|1:1,0:0:0:0:
254,67,71475,1,8,2:2:0:0:
41,227,71600,6,0,P|111:187|188:210,1,165,0|0,1:1|1:1,0:0:0:0:
233,308,71975,1,8,2:2:0:0:
356,110,72100,1,0,1:1:0:0:
362,347,72225,5,8,2:2:0:0:
265,131,72350,1,0,1:1:0:0:
125,339,72475,1,8,2:2:0:0:
375,244,72600,6,0,B|294:229|297:291|217:275,1,165,4|0,1:1|1:1,0:0:0:0:
223,95,72975,2,0,P|241:130|237:171,1,82.5,8|0,2:2|2:2,0:0:0:0:
125,339,73225,2,0,P|106:303|110:262,1,82.5,0|0,1:1|1:1,0:0:0:0:
133,145,73475,1,8,2:2:0:0:
310,245,73600,1,0,1:1:0:0:
10,257,73725,5,12,2:2:0:0:
237,171,73850,1,0,1:1:0:0:
21,103,73975,5,12,2:2:0:0:
203,262,74100,1,0,1:1:0:0:
203,262,74162,1,0,0:0:0:0:
203,262,74225,1,8,2:2:0:0:
280,67,74350,2,0,L|198:77,1,82.5,6|0,1:2|2:2,0:0:0:0:
301,41,74600,6,0,B|289:99|289:99|310:140|310:140|294:197,1,165,4|0,1:1|1:1,0:0:0:0:
395,83,74975,2,0,L|477:73,1,82.5,8|0,2:2|2:2,0:0:0:0:
198,157,75225,1,0,1:1:0:0:
380,286,75350,1,0,1:1:0:0:
272,58,75475,1,8,2:2:0:0:
177,248,75600,6,0,B|260:264|252:203|335:217,1,165,0|0,1:1|1:1,0:0:0:0:
204,74,75975,2,0,P|201:115|197:156,1,82.5,8|0,2:2|1:1,0:0:0:0:
391,136,76225,1,8,1:2:0:0:
317,384,76350,2,0,P|313:342|310:301,1,82.5,8|4,3:3|3:3,0:0:0:0:
454,208,76600,6,0,P|374:234|307:184,1,173.24999471283,4|4,1:1|1:2,0:0:0:0:
234,104,77100,2,0,L|176:100,1,57.7499982376099,0|8,2:2|2:2,0:0:0:0:
77,166,77475,1,0,2:2:0:0:
87,279,77725,6,0,L|173:273,1,86.6249973564149,4|0,1:1|0:0,0:0:0:0:
244,227,77975,2,0,L|359:234,1,115.49999647522,4|10,1:2|2:1,0:0:0:0:
457,271,78350,2,0,P|464:251|464:231,1,41.25,0|0,0:0|2:2,0:0:0:0:
502,81,78600,6,0,B|419:58|416:114|332:88,1,173.24999471283,4|4,1:1|1:2,0:0:0:0:
233,57,79100,2,0,L|241:132,1,57.7499982376099,0|8,2:2|2:2,0:0:0:0:
260,222,79475,1,0,2:2:0:0:
111,219,79725,6,0,L|120:137,1,82.5,4|0,1:0|2:2,0:0:0:0:
180,316,79975,1,12,2:2:0:0:
3,260,80100,1,0,1:1:0:0:
238,207,80225,5,8,2:2:0:0:
63,335,80350,1,8,3:3:0:0:
293,368,80475,1,4,1:1:0:0:
163,116,80600,6,0,P|112:176|132:253,1,165,0|0,2:2|1:1,0:0:0:0:
333,266,80975,2,0,L|415:256,1,82.5,8|0,2:2|2:2,0:0:0:0:
221,318,81225,1,0,1:1:0:0:
351,155,81350,1,0,1:1:0:0:
451,348,81475,1,8,2:2:0:0:
307,368,81600,6,0,P|327:291|276:230,1,165,4|0,1:1|1:1,0:0:0:0:
105,161,81975,2,0,L|23:151,1,82.5,8|0,2:2|1:1,0:0:0:0:
79,50,82225,5,8,2:2:0:0:
221,318,82350,1,0,1:1:0:0:
285,35,82475,5,8,3:3:0:0:
129,293,82600,1,0,1:3:0:0:
186,96,82725,1,4,1:1:0:0:
256,192,82850,12,4,84725,1:2:0:0:
134,153,97725,6,0,L|123:229,1,76.9999976501466,2|2,1:2|2:2,0:0:0:0:
233,267,98058,2,0,L|243:190,1,76.9999976501466,2|2,2:2|2:2,0:0:0:0:
215,85,98725,6,0,P|256:58|312:64,1,105.187502006292,0|0,1:1|0:0,0:0:0:0:
309,63,98975,1,8,2:2:0:0:
279,156,99100,1,0,1:1:0:0:
316,250,99225,5,8,2:2:0:0:
291,246,99308,1,0,3:0:0:0:
267,242,99391,1,0,3:0:0:0:
239,239,99475,1,8,2:2:0:0:
176,168,99600,1,0,0:0:0:0:
90,212,99725,5,8,2:2:0:0:
36,301,99975,1,8,2:2:0:0:
126,348,100225,1,0,1:1:0:0:
126,348,100725,6,0,L|201:334,1,70.1250013375282,8|0,2:2|0:0,0:0:0:0:
295,332,100975,1,8,2:2:0:0:
310,313,101058,1,0,3:0:0:0:
312,286,101141,1,0,3:0:0:0:
309,262,101225,1,8,2:2:0:0:
177,206,101475,5,8,2:2:0:0:
159,182,101558,1,0,3:0:0:0:
162,150,101641,1,0,3:0:0:0:
167,123,101725,6,0,P|183:92|183:57,1,70.1250013375282,8|0,2:2|0:0,0:0:0:0:
92,76,101975,1,8,2:2:0:0:
252,162,102225,1,0,1:1:0:0:
80,252,102475,1,8,2:2:0:0:
80,252,102558,1,0,0:0:0:0:
80,252,102641,1,0,0:0:0:0:
80,252,102725,6,0,L|150:243,1,70.1250013375282,8|0,2:2|0:0,0:0:0:0:
252,162,102975,1,8,2:2:0:0:
276,165,103058,1,0,0:0:0:0:
300,169,103141,1,0,0:0:0:0:
323,173,103225,1,8,2:2:0:0:
400,317,103475,5,8,2:2:0:0:
367,322,103558,1,0,0:0:0:0:
343,326,103641,1,0,0:0:0:0:
319,330,103725,5,8,2:2:0:0:
233,299,103850,1,8,2:2:0:0:
152,342,103975,1,8,2:2:0:0:
67,308,104100,1,8,2:2:0:0:
52,217,104225,2,0,L|64:147,1,70.1250013375282,8|8,2:2|2:2,0:0:0:0:
173,95,104475,2,0,L|185:164,1,70.1250013375282,8|8,2:2|2:2,0:0:0:0:
272,213,104725,6,0,P|342:226|396:178,1,148.49999546814,0|0,1:1|2:2,0:0:0:0:
400,68,105100,1,0,1:1:0:0:
486,272,105225,5,0,1:1:0:0:
389,249,105350,1,0,2:2:0:0:
313,313,105475,1,0,2:2:0:0:
217,287,105600,1,0,1:1:0:0:
112,200,105725,6,0,L|118:348,1,148.49999546814,4|0,1:2|2:2,0:0:0:0:
217,287,106100,1,0,0:0:0:0:
120,104,106225,1,0,0:0:0:0:
33,145,106350,1,0,0:0:0:0:
112,200,106475,2,0,L|185:191,1,74.2499977340699
409,34,106725,6,0,P|346:83|271:60,1,165,4|8,1:1|2:2,0:0:0:0:
169,31,107100,2,0,B|145:112|208:104|185:191,1,165,4|0,1:2|1:1,0:0:0:0:
57,248,107475,2,0,L|72:155,1,82.5,8|0,2:2|0:0,0:0:0:0:
210,316,107725,5,4,1:2:0:0:
298,120,107850,2,0,L|311:201,1,82.5,0|8,2:2|2:2,0:0:0:0:
350,354,108100,2,0,P|288:302|209:315,1,165,4|0,1:2|1:1,0:0:0:0:
210,316,108412,1,0,0:0:0:0:
210,316,108475,1,8,2:2:0:0:
512,232,108725,6,0,P|478:255|437:258,1,82.5,4|0,1:1|2:2,0:0:0:0:
350,354,108975,1,8,2:2:0:0:
337,189,109100,2,0,L|351:369,1,165,4|0,1:2|1:1,0:0:0:0:
207,195,109475,2,0,P|214:154|220:113,1,82.5,8|0,2:2|2:2,0:0:0:0:
320,43,109725,5,0,1:1:0:0:
107,139,109850,1,8,0:3:0:0:
107,139,109912,1,8,0:3:0:0:
107,139,109975,1,8,0:1:0:0:
331,247,110100,5,4,1:2:0:0:
200,64,110225,2,0,L|204:130,2,41.25,8|8|8,0:3|0:3|0:3,0:0:0:0:
171,210,110475,2,0,B|210:221|210:221|250:207,1,82.5,8|0,0:0|0:0,0:0:0:0:
474,106,110725,6,0,B|417:94|417:94|372:113|372:113|315:99,1,165,4|8,1:1|2:2,0:0:0:0:
417,325,111100,2,0,B|429:204|429:204|396:232,1,165,4|0,1:2|1:1,0:0:0:0:
195,234,111475,2,0,P|227:258|268:259,1,82.5,8|0,2:2|0:0,0:0:0:0:
349,37,111725,5,4,1:2:0:0:
253,160,111850,2,0,L|263:71,1,82.5,0|8,2:2|2:2,0:0:0:0:
27,127,112100,2,0,B|146:112|146:112|109:84,1,165,4|0,1:2|1:1,0:0:0:0:
86,236,112475,2,0,L|95:317,1,82.5,8|0,2:2|2:2,0:0:0:0:
325,237,112725,6,0,P|365:242|406:248,1,82.5,4|0,1:1|2:2,0:0:0:0:
227,276,112975,1,8,2:2:0:0:
295,94,113100,2,0,P|335:88|376:82,1,82.5,4|0,1:2|0:0,0:0:0:0:
197,55,113350,1,0,1:1:0:0:
145,264,113475,2,0,P|185:269|226:275,1,82.5,8|0,0:0|1:0,0:0:0:0:
56,152,113725,6,0,B|51:106|74:84|74:84|91:147|40:209|59:280|59:280|57:251|70:223,1,330,0|0,1:0|0:0,0:0:0:0:
75,217,114350,1,0,0:0:0:0:
90,210,114475,1,0,0:0:0:0:
114,208,114600,1,0,2:0:0:0:
138,218,114725,1,4,1:1:0:0:
252,160,114850,6,0,L|244:119,2,41.25,2|2|0,2:2|2:2|2:2,0:0:0:0:
345,224,115100,2,0,L|427:215,1,82.5,0|2,1:1|2:2,0:0:0:0:
285,294,115350,1,2,2:2:0:0:
214,236,115475,1,4,1:2:0:0:
199,325,115600,1,0,2:2:0:0:
199,325,115662,1,0,0:0:0:0:
199,325,115725,1,8,0:0:0:0:
304,197,115850,6,0,L|312:146,1,51.5625,0|0,1:1|0:0,0:0:0:0:
337,56,115975,2,0,L|275:69,1,51.5625,0|0,1:1|0:0,0:0:0:0:
200,86,116100,1,2,0:0:0:0:
0,49,116225,6,0,L|10:111,1,61.875002360344,2|0,1:0|0:0,0:0:0:0:
102,76,116350,2,0,L|112:138,1,61.875002360344,2|0,1:0|0:0,0:0:0:0:
15,136,116475,6,0,L|25:198,1,61.875002360344,2|0,1:0|0:0,0:0:0:0:
117,163,116600,2,0,L|127:225,1,61.875002360344,2|0,1:0|0:0,0:0:0:0:
70,303,116725,5,4,1:2:0:0:
221,290,116850,2,0,L|210:344,2,41.25,2|2|0,2:2|2:2|2:2,0:0:0:0:
208,183,117100,2,0,P|248:183|283:204,1,82.5,0|2,1:1|2:2,0:0:0:0:
330,282,117350,1,0,1:2:0:0:
398,222,117475,1,0,1:2:0:0:
421,309,117600,1,0,0:0:0:0:
421,309,117662,1,0,0:0:0:0:
421,309,117725,1,10,2:2:0:0:
300,181,117850,6,0,L|305:129,1,51.5625,0|0,1:1|0:0,0:0:0:0:
343,37,117975,2,0,P|318:28|293:30,1,51.5625,2|0,1:1|0:0,0:0:0:0:
224,86,118100,1,2,2:1:0:0:
97,30,118225,6,0,L|105:81,6,30.937501180172,10|0|0|0|10|0|0,2:1|0:0|0:0|0:0|0:3|0:0|0:0,0:0:0:0:
117,141,118475,6,0,L|103:243,1,103.125,6|8,1:3|0:0,0:0:0:0:
39,317,118725,5,0,1:1:0:0:
352,172,118850,1,0,1:2:0:0:
352,172,118975,1,8,0:2:0:0:
35,117,119100,5,4,1:0:0:0:
337,264,119225,1,0,1:0:0:0:
91,245,119475,6,0,L|149:239,1,51.5625,12|0,0:0|0:0,0:0:0:0:
428,221,119600,1,0,1:0:0:0:
48,137,119850,6,0,L|106:131,1,51.5625,0|0,1:0|0:0,0:0:0:0:
385,113,119975,1,8,0:0:0:0:
469,0,120225,6,0,L|463:51,3,51.5625,8|8|0|0,0:0|0:0|1:0|1:0,0:0:0:0:
472,143,120475,2,0,P|477:169|484:194,1,51.5625,12|0,0:1|0:0,0:0:0:0:
367,240,120600,2,0,P|361:265|350:288,1,51.5625
419,357,120725,5,2,1:2:0:0:
176,219,120850,1,8,0:3:0:0:
472,143,120975,5,4,0:3:0:0:
200,309,121100,1,0,1:0:0:0:
122,123,121225,6,0,P|153:107|187:110,1,68.75,8|8,0:0|3:0,0:0:0:0:
273,175,121391,1,8,3:0:0:0:
369,172,121475,6,0,P|335:164|303:176,1,68.75,4|4,3:0|3:0,0:0:0:0:
236,260,121641,1,0,1:0:0:0:
130,249,121725,6,0,P|199:256|240:342,1,165,6|2,1:0|0:0,0:0:0:0:
295,31,122600,6,0,B|270:109|332:106|304:191,1,165,4|0,1:1|1:1,0:0:0:0:
390,64,122975,2,0,L|483:49,1,82.5,8|0,2:2|2:2,0:0:0:0:
208,156,123225,2,0,L|115:141,1,82.5,0|0,1:1|1:1,0:0:0:0:
264,299,123475,1,8,2:2:0:0:
464,209,123600,6,0,P|391:174|317:205,1,165,0|0,1:1|1:1,0:0:0:0:
162,345,123975,2,0,P|155:304|148:263,1,82.5,8|0,2:2|2:2,0:0:0:0:
264,299,124225,1,0,2:2:0:0:
47,224,124350,1,0,1:1:0:0:
47,224,124412,1,0,1:0:0:0:
47,224,124475,1,8,2:2:0:0:
248,114,124600,6,0,B|189:124|189:124|146:104|146:104|89:113,1,165,4|0,1:1|1:1,0:0:0:0:
350,81,124975,2,0,P|343:121|338:162,1,82.5,8|0,2:2|2:2,0:0:0:0:
144,287,125225,2,0,P|138:246|132:205,1,82.5,0|0,1:1|1:1,0:0:0:0:
204,26,125475,1,8,2:2:0:0:
393,251,125600,6,0,P|314:265|249:215,1,165,0|0,1:1|1:1,0:0:0:0:
249,109,125975,1,8,2:2:0:0:
216,320,126100,1,0,1:1:0:0:
340,146,126225,5,8,2:2:0:0:
137,261,126350,1,0,1:1:0:0:
364,363,126475,1,8,2:2:0:0:
225,180,126600,6,0,L|60:163,1,165,4|0,1:1|1:1,0:0:0:0:
195,0,126975,2,0,B|209:42|209:42|194:77,1,82.5,8|0,2:2|2:2,0:0:0:0:
137,338,127225,2,0,B|122:302|122:302|136:260,1,82.5,0|0,1:1|1:1,0:0:0:0:
393,174,127475,1,8,2:2:0:0:
237,292,127600,1,0,1:1:0:0:
449,327,127725,5,12,2:2:0:0:
217,195,127850,1,0,1:1:0:0:
467,119,127975,5,12,2:2:0:0:
136,260,128100,1,0,1:1:0:0:
136,260,128162,1,0,0:0:0:0:
136,260,128225,1,8,2:2:0:0:
197,93,128350,2,0,P|237:89|273:109,1,82.5,6|0,1:2|2:2,0:0:0:0:
178,109,128600,6,0,B|101:124|114:63|20:76,1,165,4|0,1:1|1:1,0:0:0:0:
42,262,128975,2,0,L|52:167,1,82.5,8|0,2:2|2:2,0:0:0:0:
268,187,129225,1,0,1:1:0:0:
152,236,129350,1,0,1:1:0:0:
300,300,129475,1,8,2:2:0:0:
360,130,129600,6,0,P|297:79|218:91,1,165,2|0,1:1|1:1,0:0:0:0:
258,268,129975,2,0,L|270:166,1,82.5,8|0,2:2|1:1,0:0:0:0:
377,233,130225,1,8,1:2:0:0:
153,305,130350,1,8,3:3:0:0:
342,370,130475,1,4,3:3:0:0:
163,195,130600,6,0,B|102:201|102:201|62:175|62:175|-2:180,1,173.24999471283,4|4,1:1|1:2,0:0:0:0:
139,42,131100,2,0,L|126:119,1,57.7499982376099,0|8,2:2|2:2,0:0:0:0:
33,266,131475,1,0,2:2:0:0:
156,340,131725,6,0,P|196:321|238:326,1,86.6249973564149,4|0,1:1|0:0,0:0:0:0:
314,293,131975,2,0,P|362:322|436:308,1,115.49999647522,4|10,1:2|2:1,0:0:0:0:
487,258,132350,2,0,P|495:226|491:204,1,41.25,0|0,0:0|2:2,0:0:0:0:
371,44,132600,6,0,B|384:102|384:102|364:151|364:151|376:210,1,173.24999471283,4|4,1:1|1:2,0:0:0:0:
387,309,133100,2,0,L|330:298,1,57.7499982376099,0|8,2:2|2:2,0:0:0:0:
241,213,133475,1,0,2:2:0:0:
111,240,133725,6,0,P|101:200|114:162,1,82.5,4|0,1:0|2:2,0:0:0:0:
196,92,133975,1,12,2:2:0:0:
6,198,134100,1,0,1:1:0:0:
209,289,134225,5,8,2:2:0:0:
28,100,134350,1,8,3:3:0:0:
281,65,134475,1,4,1:2:0:0:
116,263,134600,6,0,P|158:196|244:199,1,165,4|0,1:1|1:1,0:0:0:0:
363,265,134975,2,0,L|444:252,1,82.5,8|0,2:2|2:2,0:0:0:0:
388,157,135225,1,0,1:1:0:0:
209,289,135350,1,8,0:0:0:0:
481,137,135600,6,0,P|439:70|353:73,1,165,4|0,1:1|1:1,0:0:0:0:
200,132,135975,2,0,L|118:119,1,82.5,8|0,2:2|1:1,0:0:0:0:
253,41,136225,1,8,2:1:0:0:
288,281,136350,1,4,1:2:0:0:
288,281,136600,6,0,B|228:270|228:270|188:292|188:292|130:282,1,165,4|4,1:1|1:2,0:0:0:0:
253,368,136975,1,0,1:1:0:0:
168,191,137225,5,2,2:2:0:0:
169,174,137475,1,2,2:2:0:0:
171,157,137725,1,2,2:2:0:0:
173,140,137975,1,2,2:2:0:0:
175,123,138225,6,0,P|250:146|309:94,1,165,2|0,2:2|0:0,0:0:0:0:
447,59,138600,2,0,B|443:121|443:121|413:154|413:154|406:211,1,165,4|4,1:1|1:2,0:0:0:0:
500,203,138975,1,0,1:1:0:0:
351,78,139225,5,2,2:2:0:0:
334,74,139475,1,2,2:2:0:0:
321,71,139725,2,0,L|178:85,1,123.750004720688,2|0,2:2|0:0,0:0:0:0:
85,55,140100,1,0,2:2:0:0:
79,72,140162,1,2,2:2:0:0:
80,90,140225,1,2,2:2:0:0:
130,160,140350,1,2,2:2:0:0:
115,245,140475,1,2,2:2:0:0:
39,294,140600,6,0,P|116:272|188:327,1,165,4|0,1:1|1:1,0:0:0:0:
313,206,140975,1,0,1:1:0:0:
313,206,141225,2,0,B|246:197|246:197|286:260,1,123.75,8|0,2:2|2:2,0:0:0:0:
276,244,141475,1,0,1:1:0:0:
333,115,141725,5,4,1:2:0:0:
385,256,141975,1,0,1:1:0:0:
421,76,142225,2,0,B|366:65|366:65|326:90|326:90|265:79,1,165,8|0,2:2|0:0,0:0:0:0:
156,22,142600,6,0,L|181:185,1,165,4|0,1:0|1:1,0:0:0:0:
115,286,142975,1,0,1:1:0:0:
247,355,143225,2,0,B|271:289|271:289|296:336,1,123.75,12|0,2:2|2:2,0:0:0:0:
296,336,143475,1,0,1:1:0:0:
182,220,143725,5,4,1:1:0:0:
339,183,143850,1,8,2:2:0:0:
218,120,143975,1,8,2:2:0:0:
401,79,144100,6,0,P|359:82|318:85,1,82.5,8|4,2:2|1:2,0:0:0:0:
67,100,144350,2,0,B|150:87|143:132|218:119,1,154.6875,0|2,1:1|2:1,0:0:0:0:
243,45,144600,6,0,L|225:209,1,165,4|0,1:1|1:1,0:0:0:0:
296,331,144975,1,0,1:1:0:0:
296,331,145225,2,0,P|320:288|388:316,1,123.75,8|0,2:2|2:2,0:0:0:0:
382,304,145475,1,0,1:1:0:0:
224,209,145725,5,4,1:2:0:0:
366,138,145975,1,0,1:1:0:0:
108,79,146225,2,0,B|212:52|212:52|250:94,1,165,8|0,2:2|2:2,0:0:0:0:
411,69,146600,6,0,L|379:231,1,165,4|0,1:0|1:1,0:0:0:0:
416,334,146975,1,0,1:1:0:0:
416,334,147225,5,12,2:1:0:0:
225,240,147350,1,0,1:1:0:0:
309,180,147475,5,0,2:2:0:0:
133,302,147600,1,0,1:1:0:0:
133,302,147662,1,0,1:1:0:0:
133,301,147725,6,0,P|126:261|119:220,1,82.5,12|0,2:2|1:1,0:0:0:0:
256,9,147975,2,0,P|249:49|242:90,1,82.5,0|0,2:2|1:1,0:0:0:0:
309,180,148225,5,8,2:2:0:0:
145,48,148350,1,8,3:3:0:0:
358,12,148475,1,8,3:3:0:0:
385,261,148600,6,0,B|279:283|279:283|237:244,1,165,4|0,1:1|1:1,0:0:0:0:
188,149,148975,1,0,1:1:0:0:
188,149,149225,6,0,P|136:125|106:174,1,123.75,8|0,2:2|2:2,0:0:0:0:
106,174,149475,1,0,1:1:0:0:
307,128,149725,5,4,1:2:0:0:
190,270,149975,1,0,1:1:0:0:
452,209,150225,6,0,B|369:195|375:249|293:236,1,165,12|0,2:2|2:2,0:0:0:0:
423,296,150600,6,0,L|399:132,1,165,4|0,1:0|1:1,0:0:0:0:
285,82,150975,1,0,1:1:0:0:
285,82,151225,6,0,B|247:130|247:130|207:81,1,123.75,8|0,2:2|2:2,0:0:0:0:
207,81,151475,1,0,1:1:0:0:
300,229,151725,1,4,1:2:0:0:
119,178,151975,1,0,1:1:0:0:
175,335,152225,5,8,2:2:0:0:
217,164,152350,2,0,P|210:196|203:228,1,66,4|0,1:2|0:0,0:0:0:0:
194,67,152600,6,0,B|280:54|267:110|351:98,1,165,4|8,1:1|2:2,0:0:0:0:
351,98,152912,1,8,2:2:0:0:
351,98,152975,1,8,2:2:0:0:
421,28,153100,1,8,2:2:0:0:
449,122,153225,5,8,2:2:0:0:
325,7,153350,1,8,2:2:0:0:
178,82,153475,1,0,1:1:0:0:
218,241,153600,1,4,1:2:0:0:
264,150,153725,5,8,2:2:0:0:
111,226,153850,1,0,1:1:0:0:
267,332,153975,1,0,1:1:0:0:
218,241,154100,5,8,2:2:0:0:
397,133,154225,1,0,1:1:0:0:
178,82,154350,1,0,1:1:0:0:
369,235,154475,1,8,2:2:0:0:
293,6,154600,6,0,B|300:66|300:66|274:106|274:106|279:162,1,165,4|0,1:2|1:1,0:0:0:0:
369,235,154975,1,8,1:2:0:0:
303,184,155225,1,8,1:2:0:0:
187,193,155475,1,8,1:2:0:0:
114,303,155725,6,0,L|223:291,1,110,2|2,1:1|2:1,0:0:0:0:
239,303,156600,6,0,B|212:227|267:216|235:140,1,165,6|0,1:1|1:1,0:0:0:0:
138,79,156975,2,0,P|131:119|124:160,1,82.5,10|0,2:1|2:2,0:0:0:0:
347,263,157225,2,0,P|353:303|360:344,1,82.5,2|0,1:1|1:1,0:0:0:0:
388,164,157475,1,8,2:2:0:0:
68,249,157600,6,0,P|146:267|211:210,1,165,2|0,1:1|1:1,0:0:0:0:
335,50,157975,2,0,L|253:36,1,82.5,8|0,2:2|2:2,0:0:0:0:
290,150,158225,1,0,1:2:0:0:
455,94,158350,1,0,1:1:0:0:
455,94,158412,1,0,1:1:0:0:
455,94,158475,1,8,2:2:0:0:
388,339,158600,6,0,B|366:236|366:236|399:186,1,165,6|2,1:1|1:1,0:0:0:0:
276,140,158975,2,0,P|241:161|201:160,1,82.5,10|0,2:1|2:2,0:0:0:0:
60,217,159225,2,0,P|22:201|0:167,1,82.5,2|0,1:1|1:1,0:0:0:0:
176,274,159475,1,8,2:2:0:0:
217,53,159600,6,0,P|288:16|364:43,1,165,2|0,1:1|1:1,0:0:0:0:
461,156,159975,2,0,L|448:237,1,82.5,12|0,2:2|1:1,0:0:0:0:
364,323,160225,5,14,2:1:0:0:
297,134,160350,1,0,1:1:0:0:
297,134,160475,1,8,2:2:0:0:
92,241,160600,6,0,B|195:214|195:214|238:252,1,165,4|0,1:1|1:1,0:0:0:0:
375,144,160975,2,0,P|334:149|296:133,1,82.5,10|0,2:1|2:2,0:0:0:0:
192,364,161225,2,0,P|232:358|270:374,1,82.5,2|0,1:1|1:1,0:0:0:0:
407,288,161475,1,8,2:2:0:0:
262,57,161600,6,0,L|277:221,1,165,2|0,1:1|1:0,0:0:0:0:
399,82,161975,2,0,P|412:43|401:4,1,82.5,8|0,2:2|1:1,0:0:0:0:
119,34,162225,2,0,P|117:74|139:109,1,82.5,14|8,2:1|3:3,0:0:0:0:
277,221,162475,1,4,3:3:0:0:
410,181,162600,6,0,B|352:171|352:171|326:137|326:137|263:124,1,165,6|2,1:1|1:1,0:0:0:0:
130,264,162975,2,0,P|198:267|259:226,1,123.75,10|0,2:1|0:1,0:0:0:0:
277,221,163225,1,2,1:0:0:0:
69,142,163350,1,0,1:1:0:0:
196,11,163475,1,10,2:1:0:0:
363,135,163600,6,0,L|198:117,1,165,2|0,1:1|1:1,0:0:0:0:
342,319,163975,2,0,P|333:278|324:238,1,82.5,8|0,2:2|1:1,0:0:0:0:
190,302,164225,1,8,2:2:0:0:
84,98,164350,2,0,P|92:138|101:178,1,82.5,8|8,3:3|3:3,0:0:0:0:
221,124,164600,6,0,P|283:73|363:84,1,165,6|2,1:1|1:1,0:0:0:0:
371,237,164975,2,0,P|352:272|353:313,1,82.5,8|0,2:2|2:2,0:0:0:0:
459,170,165225,1,2,1:1:0:0:
251,232,165350,1,0,1:1:0:0:
483,304,165475,1,8,2:2:0:0:
248,333,165600,6,0,B|307:324|307:324|339:294|339:294|399:285,1,165,2|0,1:1|1:1,0:0:0:0:
462,93,165975,2,0,B|475:132|475:132|458:169,1,82.5,8|2,2:2|2:1,0:0:0:0:
251,232,166225,2,0,B|238:193|238:193|254:155,1,82.5,0|0,1:1|1:1,0:0:0:0:
254,155,166412,1,0,1:1:0:0:
254,155,166475,1,12,2:1:0:0:
373,360,166600,6,0,L|361:195,1,165,6|2,1:1|1:1,0:0:0:0:
274,57,166975,2,0,P|314:49|354:41,1,82.5,8|0,2:2|1:1,0:0:0:0:
171,152,167225,1,2,1:1:0:0:
248,268,167350,2,0,P|207:275|167:283,1,82.5,0|8,1:1|2:2,0:0:0:0:
347,336,167600,6,0,P|390:269|360:195,1,165,2|2,1:1|1:0,0:0:0:0:
211,166,167975,1,12,2:2:0:0:
404,40,168100,1,0,0:0:0:0:
218,26,168225,5,12,2:2:0:0:
440,138,168350,1,0,1:1:0:0:
440,138,168412,1,0,1:1:0:0:
440,138,168475,1,8,2:2:0:0:
282,278,168600,6,0,L|306:114,1,165,6|2,1:1|1:1,0:0:0:0:
489,227,168975,2,0,P|451:242|411:236,1,82.5,10|0,2:1|2:2,0:0:0:0:
242,37,169225,2,0,P|279:21|319:27,1,82.5,2|0,1:1|1:1,0:0:0:0:
186,173,169475,1,8,2:2:0:0:
440,138,169600,6,0,B|385:123|385:123|340:143|340:143|282:130,1,165,2|0,1:1|1:1,0:0:0:0:
412,314,169975,2,0,P|405:273|399:232,1,82.5,8|0,2:2|1:1,0:0:0:0:
319,27,170225,1,14,2:1:0:0:
289,234,170350,1,8,3:3:0:0:
477,170,170475,1,4,3:3:0:0:
270,125,170600,6,0,P|347:144|408:93,1,165,6|2,1:1|1:1,0:0:0:0:
153,47,170975,2,0,P|147:87|142:128,1,82.5,10|0,2:1|2:2,0:0:0:0:
365,341,171225,2,0,P|370:300|375:259,1,82.5,2|2,1:1|1:1,0:0:0:0:
226,286,171475,1,8,2:2:0:0:
429,154,171600,6,0,L|265:177,1,165,2|0,1:1|1:1,0:0:0:0:
46,87,171975,5,12,2:2:0:0:
147,228,172100,1,0,2:2:0:0:
208,58,172225,5,12,2:2:0:0:
112,316,172350,1,0,1:1:0:0:
138,134,172475,5,8,2:2:0:0:
267,310,172600,2,0,P|241:305|216:301,1,51.5625,8|8,0:1|0:2,0:0:0:0:
46,251,172725,6,0,B|106:242|106:242|138:208|138:208|195:200,1,165,4|0,1:1|1:1,0:0:0:0:
382,46,173100,2,0,P|389:86|372:123,1,82.5,8|0,2:2|2:2,0:0:0:0:
410,342,173350,2,0,P|371:329|348:295,1,82.5,8|0,2:2|1:2,0:0:0:0:
94,231,173600,6,0,P|157:182|237:193,1,165,4|0,1:2|1:1,0:0:0:0:
348,249,173975,2,0,P|354:208|361:167,1,82.5,8|0,2:2|2:2,0:0:0:0:
188,293,174225,1,0,1:1:0:0:
125,60,174350,2,0,P|132:100|138:141,1,82.5,0|8,1:1|2:2,0:0:0:0:
245,69,174600,1,0,0:0:0:0:
406,70,174725,6,0,B|326:40|321:95|244:68,1,165,0|0,1:2|1:1,0:0:0:0:
348,257,175100,2,0,P|355:216|364:176,1,82.5,8|0,2:2|2:2,0:0:0:0:
119,251,175350,2,0,P|127:291|135:331,1,82.5,0|8,1:1|2:2,0:0:0:0:
207,179,175600,6,0,P|143:130|63:148,1,165,4|0,1:2|1:1,0:0:0:0:
280,80,175975,2,0,L|378:63,1,82.5,8|0,2:2|2:2,0:0:0:0:
478,44,176225,1,0,1:2:0:0:
400,210,176350,2,0,L|411:170,2,41.25,0|0|8,1:1|0:0|2:2,0:0:0:0:
453,312,176600,1,0,2:2:0:0:
320,328,176725,6,0,B|260:312|260:312|215:332|215:332|162:320,1,165,4|0,1:2|1:1,0:0:0:0:
208,136,177100,2,0,B|222:177|222:177|206:212,1,82.5,12|0,2:2|2:2,0:0:0:0:
38,350,177350,2,0,B|24:309|24:309|39:273,1,82.5,0|8,1:1|2:2,0:0:0:0:
68,14,177600,6,0,P|83:94|99:175,1,165,4|0,1:2|1:1,0:0:0:0:
191,318,177975,2,0,P|243:312|274:278,1,82.5,8|0,2:2|2:2,0:0:0:0:
272,95,178225,1,0,2:2:0:0:
242,185,178350,2,0,L|306:194,2,41.25,0|0|8,1:1|1:1|2:2,0:0:0:0:
395,129,178600,1,0,0:0:0:0:
479,230,178725,6,0,P|414:277|336:259,1,165,4|0,1:1|1:1,0:0:0:0:
300,45,179100,2,0,P|306:85|312:126,1,82.5,8|0,2:2|2:2,0:0:0:0:
111,216,179350,2,0,P|104:175|98:134,1,82.5,0|8,1:1|2:2,0:0:0:0:
211,0,179600,6,0,P|203:82|195:164,1,165,4|0,1:2|1:1,0:0:0:0:
173,288,179975,2,0,P|214:292|252:276,1,82.5,8|0,2:2|2:2,0:0:0:0:
354,132,180225,1,0,1:2:0:0:
424,217,180350,2,0,L|416:267,2,41.25,0|0|8,1:1|1:1|2:2,0:0:0:0:
258,185,180600,1,0,0:0:0:0:
409,44,180725,6,0,P|346:94|268:76,1,165,4|0,1:1|1:1,0:0:0:0:
124,106,181100,2,0,P|89:87|48:85,1,82.5,8|0,2:2|2:2,0:0:0:0:
151,280,181350,2,0,P|186:299|227:301,1,82.5,0|8,1:1|2:2,0:0:0:0:
54,198,181600,6,0,P|19:270|51:349,1,165,4|0,1:2|1:1,0:0:0:0:
218,200,181975,2,0,P|259:191|299:180,1,82.5,8|0,2:2|2:2,0:0:0:0:
215,331,182225,1,2,1:2:0:0:
351,307,182350,2,0,L|390:318,2,41.25,0|0|8,0:0|0:0|2:2,0:0:0:0:
407,200,182600,1,0,0:0:0:0:
263,64,182725,6,0,B|287:133|235:149|263:226,1,165,4|0,1:1|1:1,0:0:0:0:
85,135,183100,2,0,P|124:124|164:111,1,82.5,8|0,2:2|2:2,0:0:0:0:
338,307,183350,2,0,P|298:317|258:330,1,82.5,0|8,1:1|2:2,0:0:0:0:
17,303,183600,6,0,P|71:244|155:249,1,165,4|0,1:2|1:1,0:0:0:0:
257,99,183975,2,0,P|266:138|254:177,1,82.5,8|0,2:2|2:2,0:0:0:0:
103,384,184225,6,0,P|108:358|113:333,1,51.5625,8|0,2:2|0:0,0:0:0:0:
104,138,184350,2,0,P|129:135|155:131,1,51.5625,8|0,2:2|0:0,0:0:0:0:
74,116,184600,6,0,B|131:127|131:127|176:108|176:108|234:119,1,165,4|0,1:1|1:1,0:0:0:0:
363,104,184975,2,0,P|351:143|341:183,1,82.5,8|0,2:2|2:2,0:0:0:0:
207,229,185225,5,0,1:1:0:0:
317,194,185350,1,0,1:1:0:0:
293,306,185475,1,8,2:2:0:0:
110,187,185600,6,0,P|160:125|240:125,1,165,4|0,1:1|1:1,0:0:0:0:
393,267,185975,1,8,2:2:0:0:
207,229,186100,1,0,1:1:0:0:
435,174,186225,5,8,2:2:0:0:
284,321,186350,1,0,1:1:0:0:
240,125,186475,1,8,3:3:0:0:
316,214,186600,1,4,3:0:0:0:
105,261,186725,6,0,L|112:178,1,82.5,0|0,1:1|0:0,0:0:0:0:
223,125,187475,6,0,L|215:42,2,82.5
340,269,188225,6,0,L|332:351,1,82.5
356,246,188725,5,0,1:2:0:0:
148,339,188850,1,8,2:2:0:0:
148,339,189100,5,8,2:2:0:0:
383,339,189225,1,8,2:2:0:0:
170,219,189350,1,0,1:0:0:0:
450,273,189475,5,12,1:2:0:0:
88,265,189600,1,0,1:1:0:0:
191,135,190600,6,0,P|251:191|233:278,1,173.24999471283,4|2,1:1|2:2,0:0:0:0:
83,221,191600,6,0,P|102:161|155:133,1,123.75,4|0,1:2|0:0,0:0:0:0:
188,302,191850,2,0,P|138:301|100:268,1,103.125,4|0,1:2|1:1,0:0:0:0:
169,219,192100,1,0,2:2:0:0:
292,330,192225,5,8,2:2:0:0:
111,374,192350,1,8,0:3:0:0:
152,133,192475,1,4,0:3:0:0:
283,233,192600,6,0,L|168:218,1,115.49999647522,4|0,1:1|1:1,0:0:0:0:
314,127,192975,1,0,1:1:0:0:
353,242,193225,6,0,L|301:234,1,51.5625,12|0,2:2|0:0,0:0:0:0:
432,253,193475,2,0,L|380:245,1,51.5625,0|0,1:1|0:0,0:0:0:0:
232,157,193725,6,0,P|204:136|171:129,2,68.75,0|8|4,1:3|3:3|3:3,0:0:0:0:
212,281,193975,2,0,P|181:297|162:325,2,68.75,12|4|4,3:3|1:3|1:3,0:0:0:0:
248,369,194225,5,8,1:2:0:0:
42,255,194350,1,8,1:2:0:0:
181,95,194600,6,0,L|173:210,1,115.49999647522,6|4,1:1|1:2,0:0:0:0:
276,44,194975,1,8,1:2:0:0:
276,44,195225,1,0,1:1:0:0:
78,153,195350,1,0,1:1:0:0:
290,193,195475,1,8,2:2:0:0:
38,73,195600,2,0,P|62:65|88:65,1,51.5625,4|0,1:1|0:0,0:0:0:0:
225,123,195725,6,0,P|262:138|303:136,1,82.5,4|0,1:2|1:1,0:0:0:0:
370,79,195912,1,0,1:2:0:0:
370,79,195975,1,12,2:2:0:0:
178,33,196100,1,0,1:1:0:0:
241,262,196225,1,12,2:2:0:0:
269,69,196391,6,0,B|277:116|250:136|258:185,1,110,4|4,1:0|1:0,0:0:0:0:
268,208,197225,6,0,P|208:154|128:161,1,165,4|8,1:1|2:2,0:0:0:0:
64,230,197537,1,8,2:2:0:0:
64,230,197600,2,0,L|52:325,1,82.5,0|0,1:1|2:2,0:0:0:0:
303,99,197850,1,0,1:1:0:0:
173,273,197975,1,8,3:3:0:0:
191,297,198037,1,8,3:3:0:0:
214,313,198100,1,8,3:3:0:0:
242,322,198162,1,8,3:3:0:0:
270,321,198225,5,4,2:2:0:0:
211,66,198350,1,0,1:2:0:0:
394,137,198475,1,4,1:2:0:0:
263,217,198600,6,0,B|328:210|328:210|373:233|373:233|430:228,1,173.24999471283,4|4,1:1|1:2,0:0:0:0:
211,66,199100,2,0,L|201:145,1,57.7499982376099,0|8,2:2|2:2,0:0:0:0:
308,313,199475,1,0,2:2:0:0:
183,351,199725,6,0,P|146:328|103:327,1,86.6249973564149,4|0,1:1|0:0,0:0:0:0:
25,331,199975,2,0,P|72:300|87:246,1,115.49999647522,4|12,1:2|2:1,0:0:0:0:
171,188,200350,2,0,P|172:208|177:228,1,41.25,0|0,0:0|2:2,0:0:0:0:
262,129,200600,6,0,B|188:104|179:170|94:144,1,173.24999471283,0|4,1:2|1:2,0:0:0:0:
69,38,201100,2,0,P|97:38|124:47,1,57.7499982376099,0|8,2:2|2:2,0:0:0:0:
235,220,201475,1,0,2:2:0:0:
344,61,201725,2,0,L|350:158,1,82.5,4|0,1:0|2:2,0:0:0:0:
417,220,201975,5,12,2:2:0:0:
251,115,202100,1,0,1:1:0:0:
461,34,202225,5,8,2:2:0:0:
223,111,202350,1,8,3:3:0:0:
431,240,202475,1,8,3:3:0:0:
306,38,202600,6,0,P|343:112|303:185,1,165,4|0,1:1|1:1,0:0:0:0:
398,341,202975,2,0,P|395:300|418:261,1,82.5,8|0,2:2|2:2,0:0:0:0:
223,111,203225,5,0,1:1:0:0:
413,236,203350,1,0,1:1:0:0:
210,325,203475,1,8,2:2:0:0:
279,226,203600,2,0,P|238:218|197:212,1,82.5,4|8,1:1|3:0,0:0:0:0:
114,200,203787,1,4,3:0:0:0:
89,195,203850,5,12,2:2:0:0:
278,74,203975,1,0,1:1:0:0:
108,95,204100,5,12,2:2:0:0:
279,226,204225,1,0,1:1:0:0:
29,267,204350,5,12,2:2:0:0:
337,144,204475,1,0,1:1:0:0:
58,16,204600,6,0,L|74:180,1,165,4|0,1:1|1:1,0:0:0:0:
108,334,204975,2,0,P|144:352|185:359,1,82.5,8|0,2:2|2:2,0:0:0:0:
318,147,205225,1,0,1:1:0:0:
182,257,205350,1,0,1:1:0:0:
353,319,205475,1,8,2:2:0:0:
397,85,205600,6,0,B|324:66|318:131|238:110,1,165,0|0,1:1|1:1,0:0:0:0:
130,135,205975,2,0,P|115:98|112:57,1,82.5,8|0,2:2|2:2,0:0:0:0:
377,194,206225,2,0,P|373:234|358:272,1,82.5,0|0,1:1|1:1,0:0:0:0:
234,305,206475,1,8,2:2:0:0:
289,116,206600,6,0,P|355:71|441:95,1,165,4|0,1:1|1:1,0:0:0:0:
208,197,206975,2,0,P|167:191|126:187,1,82.5,8|0,2:2|2:2,0:0:0:0:
245,3,207225,1,0,1:1:0:0:
68,70,207350,2,0,P|109:66|149:60,1,82.5,0|8,1:1|2:2,0:0:0:0:
298,133,207600,6,0,P|322:210|281:280,1,165,0|0,1:2|1:1,0:0:0:0:
182,310,207975,1,12,2:2:0:0:
409,261,208100,1,0,1:1:0:0:
208,197,208225,5,4,1:2:0:0:
434,264,208350,1,0,1:1:0:0:
263,381,208475,1,8,2:2:0:0:
462,161,208600,6,0,B|383:141|384:204|303:186,1,165,4|0,1:1|2:2,0:0:0:0:
203,34,208975,2,0,P|209:74|214:115,1,82.5,12|0,2:2|0:0,0:0:0:0:
445,345,209225,2,0,P|438:304|433:263,1,82.5,0|0,1:1|1:1,0:0:0:0:
326,89,209475,1,12,2:2:0:0:
161,212,209600,1,0,1:1:0:0:
304,187,209725,5,4,1:2:0:0:
101,65,209850,1,0,1:1:0:0:
265,25,209975,5,12,2:2:0:0:
45,168,210100,1,0,1:1:0:0:
274,281,210225,1,8,2:2:0:0:
174,150,210350,2,0,L|165:232,1,82.5,4|0,1:2|2:2,0:0:0:0:
158,128,210600,6,0,B|220:137|220:137|258:116|258:116|316:125,1,165,4|0,1:1|1:1,0:0:0:0:
416,198,210975,2,0,P|430:236|422:276,1,82.5,8|0,2:2|2:2,0:0:0:0:
199,37,211225,1,0,1:1:0:0:
294,308,211350,2,0,L|284:226,1,82.5,0|8,1:1|2:2,0:0:0:0:
158,128,211600,6,0,P|237:137|297:83,1,165,0|0,1:1|1:1,0:0:0:0:
199,37,211975,1,8,2:2:0:0:
76,195,212100,1,0,1:1:0:0:
290,214,212225,5,8,2:2:0:0:
90,79,212350,1,8,3:3:0:0:
290,214,212475,1,4,3:3:0:0:
161,333,212600,6,0,B|138:251|199:244|176:165,1,173.24999471283,4|0,1:1|1:2,0:0:0:0:
84,21,213100,2,0,L|89:78,1,57.7499982376099,0|8,2:2|2:2,0:0:0:0:
76,195,213475,1,0,2:2:0:0:
277,94,213725,6,0,P|242:69|199:66,1,86.6249973564149,4|0,1:0|0:0,0:0:0:0:
369,138,213975,2,0,P|426:134|467:95,1,115.49999647522,4|14,1:0|2:1,0:0:0:0:
284,193,214350,2,0,P|276:212|272:232,1,41.25,0|0,0:0|2:1,0:0:0:0:
391,319,214600,6,0,B|333:305|333:305|286:329|286:329|226:317,1,173.24999471283,4|4,1:1|1:2,0:0:0:0:
146,261,215100,2,0,P|136:233|134:205,1,57.7499982376099,0|8,2:2|2:2,0:0:0:0:
262,123,215475,1,0,2:2:0:0:
262,123,215725,6,0,L|247:237,1,82.5,4|0,1:2|2:2,0:0:0:0:
351,65,215975,1,8,2:2:0:0:
158,160,216100,1,0,1:1:0:0:
420,225,216225,5,8,2:2:0:0:
256,20,216350,1,8,3:3:0:0:
164,265,216475,1,8,3:3:0:0:
267,221,216600,6,0,P|218:157|135:155,1,165,4|0,1:2|1:1,0:0:0:0:
60,227,216975,2,0,P|50:267|62:311,1,82.5,8|0,2:2|2:2,0:0:0:0:
164,265,217225,1,0,1:1:0:0:
117,78,217350,1,0,1:1:0:0:
164,265,217475,1,8,2:2:0:0:
365,49,217600,6,0,P|285:52|237:116,1,165,4|0,1:1|1:1,0:0:0:0:
443,201,217975,2,0,P|453:161|444:122,1,82.5,8|0,2:2|1:1,0:0:0:0:
352,267,218225,1,10,2:1:0:0:
266,202,218350,1,0,1:1:0:0:
174,257,218475,1,8,3:3:0:0:
200,360,218600,1,4,3:3:0:0:
306,368,218725,5,4,1:1:0:0:
256,192,218787,12,4,220725,1:2:0:0:
