osu file format v14

[General]
AudioFilename: audio.mp3
AudioLeadIn: 0
PreviewTime: 67662
Countdown: 0
SampleSet: Soft
StackLeniency: 0.5
Mode: 0
LetterboxInBreaks: 0
WidescreenStoryboard: 1

[Editor]
Bookmarks: 2725,26725,44725,60725,68600,82725,98725,114725,122600,136600,156600,172725,190600,204600,212600,218725
DistanceSpacing: 1
BeatDivisor: 3
GridSize: 32
TimelineZoom: 2.3

[Metadata]
Title:Yakusoku no Ao
TitleUnicode:約束の蒼
Artist:Reol
ArtistUnicode:れをる
Creator:zekk
Version:Advanced
Source:
Tags:japanese rock 極彩色 gokusaishiki promised blue kibbleru professionalbox kalibe chaoslitz toybot fuju nexusqi impurepug resona heroine some_hero some hero zelq bongo moete erisu momoyo estonia corsace closed agatsu cc22 wf finals hr1
BeatmapID:4183041
BeatmapSetID:2010347

[Difficulty]
HPDrainRate:2.8
CircleSize:3
OverallDifficulty:4.5
ApproachRate:6.5
SliderMultiplier:0.999999999999999
SliderTickRate:1

[Events]
//Background and Video events
0,0,"Yakusoku BG.jpg",0,0
//Break Periods
2,56925,57600
2,84925,97600
//Storyboard Layer 0 (Background)
//Storyboard Layer 1 (Fail)
//Storyboard Layer 2 (Pass)
//Storyboard Layer 3 (Foreground)
//Storyboard Layer 4 (Overlay)
//Storyboard Sound Samples

[TimingPoints]
725,250,4,2,1,60,1,0
2725,-111.111111111111,4,2,1,60,0,0
10725,-105.263157894737,4,2,1,65,0,0
22725,-105.263157894737,4,2,1,70,0,0
26725,-105.263157894737,4,2,1,60,0,0
29725,-111.111111111111,4,2,1,60,0,0
30725,-111.111111111111,4,2,1,70,0,0
34725,-111.111111111111,4,2,1,65,0,0
38725,-111.111111111111,4,2,1,70,0,0
44725,-111.111111111111,4,2,1,62,0,0
56725,-111.111111111111,4,2,1,55,0,0
58725,-111.111111111111,4,2,1,60,0,0
59725,-111.111111111111,4,2,1,65,0,0
60725,-111.111111111111,4,2,1,62,0,0
68600,-100,4,2,1,80,0,0
82725,-100,4,2,1,65,0,0
94725,-100,4,2,1,70,0,0
98725,-111.111111111111,4,2,1,55,0,0
106725,-111.111111111111,4,2,1,70,0,0
114725,-111.111111111111,4,2,1,65,0,0
122600,-100,4,2,1,80,0,0
136600,-111.111111111111,4,2,1,67,0,0
156600,-100,4,2,1,85,0,0
172725,-111.111111111111,4,2,1,75,0,0
186725,-111.111111111111,4,2,1,55,0,0
188725,-100,4,2,1,90,0,0
190600,-100,4,2,1,75,0,0
194600,-100,4,2,1,85,0,0
198600,-100,4,2,1,80,0,0
204600,-100,4,2,1,90,0,0
212600,-100,4,2,1,80,0,0
218725,-100,4,2,1,70,0,0

[Colours]
Combo1 : 139,2,251
Combo2 : 21,191,255
Combo3 : 88,75,252
Combo4 : 254,236,192
Combo5 : 249,213,68
Combo6 : 118,237,250

[HitObjects]
71,92,2725,6,0,B|164:122|164:122|263:90,1,179.999994506836,4|4,1:1|1:2,0:0:0:0:
327,68,3475,1,0,1:2:0:0:
311,156,3725,2,0,L|326:218,2,44.999998626709,8|0|0,2:2|1:1|1:1,0:0:0:0:
465,377,4725,6,0,P|392:335|302:333,1,134.999995880127,4|0,1:2|1:1,0:0:0:0:
297,332,5225,2,0,L|200:345,1,89.999997253418,0|4,2:2|1:2,0:0:0:0:
139,284,5725,2,0,L|82:290,1,44.999998626709,8|0,2:2|1:1,0:0:0:0:
172,178,6225,2,0,L|227:172,2,44.999998626709,8|8|0,2:2|2:2|1:1,0:0:0:0:
104,117,6725,6,0,P|119:63|166:30,1,89.999997253418,4|0,1:1|2:2,0:0:0:0:
230,18,7225,1,4,0:0:0:0:
363,139,7725,2,0,L|382:202,2,44.999998626709,8|0|0,2:2|1:1|1:1,0:0:0:0:
273,124,8225,1,8,2:2:0:0:
270,213,8475,1,8,2:2:0:0:
279,302,8725,2,0,P|344:294|441:320,1,134.999995880127,0|0,1:1|1:1,0:0:0:0:
453,323,9225,1,8,2:2:0:0:
460,233,9475,2,0,L|471:132,1,89.999997253418,4|0,1:1|1:1,0:0:0:0:
35,91,10725,6,0,B|126:65|126:65|191:86,1,142.499996194839,4|0,1:1|1:1,0:0:0:0:
213,102,11225,1,8,2:2:0:0:
294,53,11475,2,0,P|328:53|399:104,1,94.9999974632263,4|0,1:2|0:0,0:0:0:0:
415,169,11975,1,0,2:2:0:0:
325,201,12225,2,0,L|147:224,1,142.499996194839,8|0,2:2|0:0,0:0:0:0:
146,248,12725,2,0,B|135:285|135:285|158:355,2,94.9999974632263,4|0|8,1:2|2:2|2:2,0:0:0:0:
109,160,13475,1,4,1:2:0:0:
109,160,13600,2,0,L|90:49,1,94.9999974632263,0|8,1:1|2:2,0:0:0:0:
185,45,14100,1,8,2:2:0:0:
276,18,14350,2,0,P|326:42|440:19,1,142.499996194839,8|4,2:2|1:2,0:0:0:0:
390,224,15225,5,8,2:2:0:0:
484,210,15475,2,0,B|505:255|505:255|482:316,1,94.9999974632263,4|0,1:2|2:2,0:0:0:0:
396,321,15975,1,0,1:1:0:0:
316,269,16225,2,0,P|276:280|203:365,1,142.499996194839,8|0,2:2|2:2,0:0:0:0:
163,368,16725,6,0,P|109:340|74:283,1,94.9999974632263,2|2,1:1|2:1,0:0:0:0:
80,174,17350,2,0,L|138:166,1,47.4999987316131,0|4,2:2|1:2,0:0:0:0:
216,200,17725,2,0,P|266:207|321:178,1,94.9999974632263,8|8,2:2|2:2,0:0:0:0:
340,157,18100,1,2,1:1:0:0:
309,67,18350,1,2,1:1:0:0:
309,67,18475,1,10,2:1:0:0:
401,46,18725,6,0,L|431:199,1,142.499996194839,4|0,1:1|1:1,0:0:0:0:
445,230,19225,1,8,2:2:0:0:
350,218,19475,2,0,P|318:272|338:367,2,142.499996194839,4|0|8,1:2|1:1|2:2,0:0:0:0:
296,139,20475,1,0,2:2:0:0:
212,184,20725,6,0,L|93:208,2,94.9999974632263,4|0|8,1:2|2:2|2:2,0:0:0:0:
296,139,21475,1,4,1:2:0:0:
296,139,21600,2,0,B|311:102|311:102|295:27,1,94.9999974632263,8|8,2:2|1:2,0:0:0:0:
205,61,22100,1,8,1:2:0:0:
111,76,22350,2,0,P|79:149|103:216,1,142.499996194839,12|4,1:2|1:1,0:0:0:0:
168,267,22975,5,8,2:2:0:0:
250,219,23225,2,0,L|365:208,1,94.9999974632263,0|12,1:2|2:2,0:0:0:0:
392,204,23600,1,8,2:2:0:0:
467,146,23850,1,0,1:1:0:0:
385,96,24100,1,0,2:2:0:0:
385,96,24225,2,0,B|361:57|361:57|383:2,1,94.9999974632263,4|8,1:2|2:2,0:0:0:0:
284,14,24725,6,0,P|233:48|146:48,1,142.499996194839,4|8,1:1|2:2,0:0:0:0:
70,95,25350,1,0,1:1:0:0:
70,95,25475,1,8,2:2:0:0:
64,189,25725,1,0,1:1:0:0:
130,256,25975,2,0,P|169:239|193:177,1,94.9999974632263,8|0,2:2|0:0,0:0:0:0:
225,104,26475,1,8,3:3:0:0:
317,125,26725,5,4,1:1:0:0:
317,125,27725,1,4,1:2:0:0:
317,125,28725,1,4,1:2:0:0:
317,125,29725,2,0,L|336:330,1,179.999994506836,4|2,1:2|1:3,0:0:0:0:
333,304,30725,6,0,P|382:305|429:272,1,89.999997253418,4|0,1:1|1:1,0:0:0:0:
450,201,31225,2,0,L|427:88,1,89.999997253418,0|0,1:1|1:1,0:0:0:0:
350,73,31725,1,0,1:1:0:0:
295,144,31975,1,0,1:1:0:0:
208,120,32225,2,0,P|159:114|101:35,1,134.999995880127,0|8,1:1|2:2,0:0:0:0:
59,44,32725,6,0,P|38:76|35:152,1,89.999997253418,4|0,1:0|1:0,0:0:0:0:
25,171,33100,1,8,2:2:0:0:
35,305,33475,2,0,L|114:291,1,44.999998626709,0|8,1:1|2:2,0:0:0:0:
121,313,33725,1,8,2:2:0:0:
243,257,34100,2,0,P|311:252|389:165,1,179.999994506836,0|8,1:1|1:2,0:0:0:0:
384,130,34725,5,4,1:1:0:0:
292,31,35100,2,0,B|208:52|208:52|137:21,1,134.999995880127,4|8,1:2|2:2,0:0:0:0:
86,78,35725,2,0,P|61:113|68:179,1,89.999997253418,4|8,1:2|2:2,0:0:0:0:
71,202,36100,2,0,L|254:173,1,179.999994506836,4|0,1:2|2:2,0:0:0:0:
279,207,36725,6,0,B|303:245|303:245|292:306,1,89.999997253418,4|8,1:1|2:2,0:0:0:0:
281,332,37100,1,4,1:2:0:0:
412,362,37475,1,8,2:2:0:0:
466,282,37725,2,0,L|436:130,1,134.999995880127,0|8,1:1|2:2,0:0:0:0:
430,105,38225,1,8,3:3:0:0:
341,122,38475,2,0,L|279:104,1,44.999998626709,8|8,2:2|2:2,0:0:0:0:
255,91,38725,6,0,P|231:117|228:222,1,134.999995880127,4|8,1:1|2:2,0:0:0:0:
248,249,39225,1,0,1:1:0:0:
219,334,39475,1,0,1:1:0:0:
130,348,39725,2,0,L|31:330,1,89.999997253418,0|0,1:1|1:1,0:0:0:0:
35,242,40225,2,0,L|147:261,1,89.999997253418,0|0,1:1|1:1,0:0:0:0:
203,215,40725,2,0,B|250:146|250:146|219:59,1,134.999995880127,4|12,1:0|2:1,0:0:0:0:
338,13,41475,1,12,2:2:0:0:
413,62,41725,2,0,P|450:87|465:149,1,89.999997253418,8|4,2:2|0:3,0:0:0:0:
431,210,42225,1,8,2:2:0:0:
407,296,42475,1,8,1:2:0:0:
333,347,42725,6,0,P|286:335|220:263,1,134.999995880127,4|8,1:2|2:2,0:0:0:0:
258,191,43350,1,0,1:1:0:0:
183,140,43600,2,0,P|142:162|112:252,1,134.999995880127,4|8,1:2|2:2,0:0:0:0:
103,330,44225,1,12,2:1:0:0:
281,317,44725,6,0,B|331:322|331:322|359:345|359:345|445:356,1,134.999995880127,4|12,1:2|2:2,0:0:0:0:
467,230,45475,2,0,L|447:117,1,89.999997253418,4|0,1:1|1:2,0:0:0:0:
440,97,45850,1,0,1:1:0:0:
328,172,46225,2,0,L|304:30,1,134.999995880127,8|0,2:2|1:2,0:0:0:0:
263,22,46725,6,0,P|208:26|158:91,2,134.999995880127,4|12|4,1:2|2:2|1:1,0:0:0:0:
288,154,47850,2,0,L|297:213,1,44.999998626709,0|0,1:1|1:1,0:0:0:0:
301,288,48225,2,0,L|190:300,1,89.999997253418,8|2,2:2|0:0,0:0:0:0:
138,350,48725,6,0,P|86:338|46:242,1,134.999995880127,4|8,1:1|2:2,0:0:0:0:
109,153,49475,2,0,L|201:169,1,89.999997253418,4|0,1:2|2:2,0:0:0:0:
251,241,49975,1,0,2:2:0:0:
317,180,50225,2,0,P|348:117|349:79,1,89.999997253418,8|0,2:2|2:2,0:0:0:0:
420,42,50725,6,0,B|460:86|460:86|445:192,1,134.999995880127,0|8,1:2|2:2,0:0:0:0:
425,294,51475,2,0,P|377:321|276:308,1,134.999995880127,4|0,1:2|1:1,0:0:0:0:
262,292,51975,1,0,1:1:0:0:
195,352,52225,2,0,P|150:329|127:269,1,89.999997253418,8|0,2:2|2:2,0:0:0:0:
54,248,52725,5,4,1:1:0:0:
140,144,53100,1,4,1:2:0:0:
265,194,53475,2,0,L|383:222,1,89.999997253418,8|0,2:2|2:2,0:0:0:0:
429,262,53975,1,8,2:2:0:0:
471,182,54225,2,0,B|489:140|489:140|472:77|472:77,1,89.999997253418,0|8,1:2|0:2,0:0:0:0:
392,67,54725,1,4,1:2:0:0:
258,43,55100,1,12,2:2:0:0:
197,163,55475,2,0,L|37:191,2,134.999995880127,12|8|8,2:2|2:2|3:3,0:0:0:0:
259,227,56475,1,8,2:2:0:0:
239,314,56725,5,0,1:1:0:0:
256,192,58725,12,4,60725,1:1:0:0:
11,205,61725,6,0,P|55:206|115:172,1,89.999997253418,8|0,1:2|1:1,0:0:0:0:
125,153,62100,1,2,1:2:0:0:
179,81,62350,2,0,L|251:104,1,44.999998626709,0|0,1:1|1:2,0:0:0:0:
302,137,62725,6,0,L|319:247,1,89.999997253418,4|0,1:2|2:2,0:0:0:0:
237,261,63225,2,0,L|330:337,1,89.999997253418,2|4,2:2|1:2,0:0:0:0:
389,347,63725,1,8,2:2:0:0:
439,272,63975,1,2,1:1:0:0:
392,194,64225,1,10,2:1:0:0:
302,199,64475,1,2,1:2:0:0:
237,261,64725,6,0,P|175:288|100:273,2,134.999995880127,4|0|4,1:2|1:1|1:2,0:0:0:0:
302,199,65725,2,0,L|285:148,2,44.999998626709,8|0|0,1:2|1:1|1:1,0:0:0:0:
367,260,66225,1,8,2:2:0:0:
427,193,66475,1,0,1:1:0:0:
369,123,66725,6,0,L|291:110,1,44.999998626709,8|0,2:2|1:1,0:0:0:0:
246,160,67100,2,0,L|187:150,1,44.999998626709,8|8,2:2|2:2,0:0:0:0:
125,200,67475,2,0,L|71:191,1,44.999998626709,8|0,2:2|1:1,0:0:0:0:
80,192,68600,6,0,P|71:257|144:335,1,150,4|8,1:1|2:2,0:0:0:0:
216,335,69225,1,0,1:1:0:0:
216,335,69350,2,0,L|291:311,1,50,0|8,1:1|2:2,0:0:0:0:
291,278,69600,2,0,B|308:196|246:206|280:97,1,150,0|8,1:1|2:2,0:0:0:0:
364,96,70225,1,0,2:2:0:0:
428,179,70475,5,8,2:2:0:0:
428,179,70600,2,0,P|444:231|402:303,1,99.9999999999999,4|0,1:1|1:1,0:0:0:0:
416,321,70975,1,8,2:2:0:0:
316,325,71225,2,0,L|259:312,2,50,0|0|8,1:1|1:1|2:2,0:0:0:0:
337,279,71600,2,0,L|318:174,1,99.9999999999999,0|0,1:1|1:1,0:0:0:0:
309,131,71975,1,8,2:2:0:0:
207,132,72225,1,8,2:2:0:0:
162,221,72475,5,8,2:2:0:0:
162,221,72600,2,0,L|59:234,1,99.9999999999999,4|0,1:1|1:1,0:0:0:0:
16,213,72975,2,0,B|5:173|5:173|19:94,1,99.9999999999999,8|0,2:2|1:1,0:0:0:0:
93,53,73475,1,8,2:2:0:0:
191,69,73725,1,12,2:2:0:0:
237,157,73975,1,12,2:2:0:0:
316,96,74225,1,8,2:2:0:0:
316,96,74350,2,0,L|405:84,1,50,6|0,1:2|0:0,0:0:0:0:
414,76,74600,6,0,P|436:126|405:226,1,150,4|8,1:1|2:2,0:0:0:0:
346,289,75225,2,0,L|292:317,2,50,0|0|8,1:1|1:1|2:2,0:0:0:0:
318,247,75600,2,0,L|196:222,1,99.9999999999999,0|0,1:1|1:1,0:0:0:0:
177,200,75975,1,8,2:2:0:0:
103,268,76225,1,8,1:2:0:0:
55,179,76475,5,4,3:3:0:0:
55,179,76600,2,0,P|51:101|109:61,1,150,4|4,1:1|1:2,0:0:0:0:
202,82,77225,1,8,2:2:0:0:
389,152,77725,2,0,B|407:197|407:197|378:267,2,99.9999999999999,4|4|10,1:1|1:2|2:1,0:0:0:0:
248,203,78600,6,0,L|111:215,1,99.9999999999999,4|0,1:1|2:2,0:0:0:0:
98,214,78975,1,4,1:2:0:0:
86,313,79225,1,8,2:2:0:0:
13,126,79725,5,4,1:0:0:0:
73,46,79975,1,12,2:2:0:0:
150,129,80225,2,0,L|225:117,1,50,8|8,2:2|3:3,0:0:0:0:
241,148,80475,1,4,1:1:0:0:
241,148,80600,6,0,P|295:196|401:185,1,150,0|8,2:2|2:2,0:0:0:0:
397,103,81225,1,0,1:1:0:0:
318,40,81475,1,8,2:2:0:0:
318,40,81600,2,0,B|264:37|235:19|235:19|205:43|159:50,1,150,4|8,1:1|2:2,0:0:0:0:
92,98,82225,1,8,2:2:0:0:
80,197,82475,2,0,L|100:278,1,50,8|0,3:3|1:3,0:0:0:0:
106,293,82725,1,4,1:1:0:0:
256,192,82850,12,4,84725,1:2:0:0:
58,180,98725,5,0,1:1:0:0:
142,211,98975,1,8,2:2:0:0:
226,179,99225,2,0,P|280:130|296:90,2,89.999997253418,8|8|8,2:2|2:2|2:2,0:0:0:0:
235,268,99975,1,8,2:2:0:0:
483,163,100725,5,8,2:2:0:0:
420,97,100975,1,8,2:2:0:0:
366,169,101225,2,0,L|353:278,2,89.999997253418,8|8|8,2:2|2:2|2:2,0:0:0:0:
303,103,101975,1,8,2:2:0:0:
62,226,102725,6,0,P|17:191|19:120,1,89.999997253418,8|8,2:2|2:2,0:0:0:0:
72,97,103225,2,0,L|169:111,1,89.999997253418,8|8,2:2|2:2,0:0:0:0:
225,172,103725,1,8,2:2:0:0:
301,334,104225,2,0,B|376:353|376:353|456:327,1,134.999995880127,8|8,2:2|2:2,0:0:0:0:
468,310,104725,2,0,L|441:155,2,134.999995880127,0|0|0,1:1|1:1|2:2,0:0:0:0:
383,279,105725,1,4,1:2:0:0:
128,254,106725,5,4,1:1:0:0:
202,375,107100,2,0,B|286:354|286:354|357:385,1,134.999995880127,4|8,1:2|2:2,0:0:0:0:
422,328,107725,2,0,P|447:293|440:227,1,89.999997253418,4|8,1:2|2:2,0:0:0:0:
429,197,108100,2,0,L|276:218,1,134.999995880127,4|8,1:2|2:2,0:0:0:0:
207,196,108725,5,4,1:1:0:0:
244,54,109100,1,4,1:2:0:0:
106,17,109475,1,8,2:2:0:0:
44,89,109725,2,0,L|65:197,1,89.999997253418,0|8,1:1|0:1,0:0:0:0:
47,220,110100,1,4,1:2:0:0:
149,308,110475,1,8,0:0:0:0:
229,268,110725,6,0,P|256:225|232:156,1,89.999997253418,4|8,1:1|2:2,0:0:0:0:
223,154,111100,1,4,1:2:0:0:
293,50,111475,1,8,2:2:0:0:
380,29,111725,2,0,L|479:47,1,89.999997253418,4|8,1:2|2:2,0:0:0:0:
479,89,112100,2,0,P|475:138|421:200,1,134.999995880127,4|8,1:2|2:2,0:0:0:0:
332,180,112725,6,0,L|320:291,1,89.999997253418,4|8,1:1|2:2,0:0:0:0:
280,285,113100,2,0,L|268:383,1,89.999997253418,4|0,1:2|1:1,0:0:0:0:
223,372,113475,1,8,0:0:0:0:
140,336,113725,1,0,1:0:0:0:
346,58,114725,6,0,P|368:82|376:153,1,89.999997253418,4|0,1:1|2:2,0:0:0:0:
352,223,115225,2,0,P|324:254|257:265,1,89.999997253418,2|4,2:2|1:2,0:0:0:0:
195,234,115725,1,8,0:0:0:0:
68,105,116225,1,2,1:0:0:0:
91,18,116475,1,2,1:0:0:0:
176,46,116725,6,0,L|291:63,1,89.999997253418,4|0,1:2|2:2,0:0:0:0:
349,27,117225,2,0,L|407:136,1,89.999997253418,2|0,2:2|1:2,0:0:0:0:
461,162,117725,1,10,2:2:0:0:
391,218,117975,1,2,1:1:0:0:
403,307,118225,2,0,P|331:342|237:314,1,179.999994506836,10|0,2:1|1:1,0:0:0:0:
153,210,119100,6,0,L|23:227,1,89.999997253418,4|0,1:0|0:0,0:0:0:0:
22,238,119475,2,0,P|-16:172|24:95,1,134.999995880127,12|0,0:0|1:0,0:0:0:0:
34,91,119975,1,8,0:0:0:0:
123,100,120225,1,8,0:0:0:0:
196,48,120475,1,12,0:1:0:0:
258,112,120725,1,2,1:2:0:0:
258,112,121725,1,6,1:0:0:0:
258,112,122600,6,0,L|271:231,1,99.9999999999999,4|0,1:1|1:1,0:0:0:0:
234,248,122975,1,8,2:2:0:0:
299,323,123225,1,0,1:1:0:0:
299,323,123350,2,0,L|372:337,1,50,0|8,1:1|2:2,0:0:0:0:
391,358,123600,2,0,P|439:297|387:227,1,150,0|8,1:1|2:2,0:0:0:0:
420,138,124225,1,0,2:2:0:0:
430,42,124475,5,8,2:2:0:0:
430,42,124600,2,0,B|348:72|348:72|279:52,1,150,4|8,1:1|2:2,0:0:0:0:
188,79,125225,2,0,L|130:93,2,50,0|0|8,1:1|1:1|2:2,0:0:0:0:
218,118,125600,2,0,P|208:157|156:200,1,99.9999999999999,0|0,1:1|1:1,0:0:0:0:
117,211,125975,1,8,2:2:0:0:
64,296,126225,1,8,2:2:0:0:
140,360,126475,5,8,2:2:0:0:
140,360,126600,2,0,L|248:346,1,99.9999999999999,4|0,1:1|1:1,0:0:0:0:
287,360,126975,2,0,P|321:288|310:223,1,99.9999999999999,8|0,2:2|1:1,0:0:0:0:
268,184,127475,1,8,2:2:0:0:
334,109,127725,1,12,2:2:0:0:
428,146,127975,1,12,2:2:0:0:
450,48,128225,1,8,2:2:0:0:
450,48,128350,1,6,1:2:0:0:
353,21,128600,6,0,B|305:27|305:27|282:49|282:49|196:60,1,150,4|8,1:1|2:2,0:0:0:0:
152,138,129225,2,0,L|128:217,2,50,0|0|8,1:1|1:1|2:2,0:0:0:0:
194,165,129600,2,0,L|296:186,1,99.9999999999999,2|0,1:1|1:1,0:0:0:0:
296,234,129975,1,8,2:2:0:0:
235,313,130225,1,8,1:2:0:0:
141,340,130475,5,4,3:3:0:0:
141,340,130600,2,0,P|78:300|83:197,1,150,4|4,1:1|1:2,0:0:0:0:
92,133,131225,1,8,2:2:0:0:
269,41,131725,2,0,L|375:72,1,99.9999999999999,4|4,1:1|1:2,0:0:0:0:
441,133,132225,2,0,B|395:107|395:107|268:136,1,150,10|4,2:1|1:1,0:0:0:0:
227,260,132975,5,4,1:2:0:0:
136,205,133225,2,0,B|112:158|112:158|130:91,1,99.9999999999999,8|0,2:2|2:2,0:0:0:0:
209,58,133725,1,4,1:0:0:0:
290,115,133975,1,12,2:2:0:0:
389,101,134225,2,0,L|452:110,2,50,8|8|4,2:2|3:3|1:2,0:0:0:0:
383,154,134600,6,0,P|371:200|404:271,1,99.9999999999999,4|0,1:1|1:1,0:0:0:0:
419,286,134975,1,8,2:2:0:0:
327,325,135225,1,0,1:1:0:0:
327,325,135350,2,0,L|260:331,1,50,8|0,0:0|0:0,0:0:0:0:
230,347,135600,2,0,B|146:325|181:374|73:347,1,150,4|8,1:1|2:2,0:0:0:0:
34,261,136225,2,0,L|47:191,1,50,8|4,2:1|1:2,0:0:0:0:
57,112,136600,5,4,1:1:0:0:
135,174,136850,1,4,1:2:0:0:
135,174,136975,1,0,1:1:0:0:
338,218,138600,5,4,1:1:0:0:
259,156,138850,2,0,L|188:169,1,44.999998626709,4|0,1:2|1:1,0:0:0:0:
23,241,140600,5,4,1:1:0:0:
85,306,140850,2,0,L|169:281,1,44.999998626709,0|0,1:1|1:1,0:0:0:0:
199,238,141225,2,0,L|296:265,2,89.999997253418,8|0|4,2:2|1:1|1:2,0:0:0:0:
156,158,141975,1,0,1:1:0:0:
225,101,142225,1,8,2:2:0:0:
341,168,142600,6,0,B|431:172|380:212|496:217,1,134.999995880127,4|0,1:0|1:1,0:0:0:0:
456,304,143225,2,0,P|427:329|364:327,1,89.999997253418,12|0,2:2|1:1,0:0:0:0:
287,343,143725,1,4,1:1:0:0:
261,256,143975,1,8,2:2:0:0:
176,285,144225,2,0,L|115:300,1,44.999998626709,4|0,1:2|1:1,0:0:0:0:
129,194,144600,6,0,B|157:145|157:145|134:52,1,134.999995880127,4|0,1:1|1:1,0:0:0:0:
224,41,145225,1,8,2:2:0:0:
282,109,145475,2,0,P|281:149|248:205,2,89.999997253418,0|4|0,1:1|1:2|1:1,0:0:0:0:
345,44,146225,1,8,2:2:0:0:
390,170,146600,6,0,P|404:224|455:272,1,89.999997253418,4|0,1:0|1:1,0:0:0:0:
453,285,146975,1,0,1:1:0:0:
367,312,147225,2,0,B|321:321|321:321|293:342|293:342|211:354,1,134.999995880127,12|0,2:1|1:1,0:0:0:0:
196,360,147725,2,0,B|154:330|154:330|184:218,1,134.999995880127,12|0,2:2|1:1,0:0:0:0:
208,218,148225,2,0,L|224:146,1,44.999998626709,8|8,2:2|3:3,0:0:0:0:
296,130,148600,6,0,P|373:124|442:56,2,134.999995880127,4|0|0,1:1|1:1|0:0,0:0:0:0:
258,104,149475,1,0,1:1:0:0:
187,47,149725,2,0,P|142:60|82:74,1,89.999997253418,4|0,1:2|1:1,0:0:0:0:
49,145,150225,1,12,2:2:0:0:
144,240,150600,6,0,B|197:225|197:225|220:330,2,134.999995880127,4|0|0,1:0|1:1|0:0,0:0:0:0:
100,250,151475,1,0,1:1:0:0:
64,167,151725,2,0,P|112:157|172:145,1,89.999997253418,4|0,1:2|1:1,0:0:0:0:
229,101,152225,2,0,L|286:114,1,44.999998626709,8|4,2:2|1:2,0:0:0:0:
357,81,152600,6,0,P|400:120|394:201,1,134.999995880127,4|8,1:1|2:2,0:0:0:0:
325,245,153225,1,8,2:2:0:0:
347,332,153475,2,0,L|289:342,1,44.999998626709,0|4,1:1|1:2,0:0:0:0:
258,345,153725,1,8,2:2:0:0:
173,250,154100,1,8,2:2:0:0:
210,120,154475,5,8,2:2:0:0:
210,120,154600,2,0,L|102:137,1,89.999997253418,4|0,1:2|1:1,0:0:0:0:
77,122,154975,1,8,1:2:0:0:
49,207,155225,1,8,1:2:0:0:
97,283,155475,1,8,1:2:0:0:
52,361,155725,1,2,1:1:0:0:
105,15,156600,6,0,P|156:31|186:75,1,99.9999999999999,6|0,1:1|1:1,0:0:0:0:
182,116,156975,1,10,2:1:0:0:
153,211,157225,1,2,1:1:0:0:
250,231,157475,1,8,2:2:0:0:
250,231,157600,2,0,L|426:213,1,150,2|8,1:1|2:2,0:0:0:0:
439,307,158225,1,0,1:2:0:0:
346,345,158475,5,8,2:2:0:0:
346,345,158600,2,0,B|264:328|284:378|174:344,1,150,6|10,1:1|2:1,0:0:0:0:
98,358,159225,2,0,L|89:301,1,50,2|0,1:1|1:1,0:0:0:0:
61,267,159475,1,8,2:2:0:0:
61,267,159600,2,0,B|91:223|91:223|70:142,1,99.9999999999999,2|0,1:1|1:1,0:0:0:0:
63,130,159975,1,12,2:2:0:0:
160,109,160225,1,14,2:1:0:0:
235,174,160475,5,8,2:2:0:0:
235,174,160600,2,0,P|281:198|354:174,1,99.9999999999999,4|0,1:1|1:1,0:0:0:0:
375,179,160975,1,10,2:1:0:0:
391,80,161225,2,0,L|375:25,2,50,2|0|8,1:1|1:1|2:2,0:0:0:0:
475,132,161725,1,2,1:1:0:0:
458,230,161975,1,8,2:2:0:0:
444,329,162225,2,0,B|406:302|406:302|331:315,1,99.9999999999999,14|4,2:1|3:3,0:0:0:0:
313,341,162600,6,0,B|228:352|252:294|142:313,1,150,6|10,1:1|2:1,0:0:0:0:
69,319,163225,1,2,1:1:0:0:
52,220,163475,1,10,2:1:0:0:
52,220,163600,2,0,P|106:212|155:203,1,99.9999999999999,2|0,1:1|1:1,0:0:0:0:
200,211,163975,1,8,2:2:0:0:
267,137,164225,2,0,L|342:125,2,50,8|8|8,2:2|3:3|3:3,0:0:0:0:
229,103,164600,6,0,P|220:71|265:5,1,99.9999999999999,6|2,1:1|1:1,0:0:0:0:
298,17,164975,1,8,2:2:0:0:
397,19,165225,2,0,L|414:137,1,99.9999999999999,2|8,1:1|2:2,0:0:0:0:
383,159,165600,2,0,L|401:283,1,99.9999999999999,2|0,1:1|0:0,0:0:0:0:
378,304,165975,1,8,2:2:0:0:
284,267,166225,2,0,L|217:278,2,50,0|0|12,1:1|1:1|2:1,0:0:0:0:
298,218,166600,6,0,B|309:177|309:177|291:110,1,99.9999999999999,6|2,1:1|1:1,0:0:0:0:
252,93,166975,1,8,2:2:0:0:
162,138,167225,1,2,1:1:0:0:
68,103,167475,1,8,2:2:0:0:
68,103,167600,2,0,L|52:241,1,99.9999999999999,2|2,1:1|1:0,0:0:0:0:
35,248,167975,1,12,2:2:0:0:
113,310,168225,1,12,2:2:0:0:
211,328,168475,5,8,2:2:0:0:
211,328,168600,2,0,B|265:317|265:317|290:266|259:187,1,150,6|10,1:1|2:1,0:0:0:0:
208,145,169225,1,2,1:1:0:0:
283,79,169475,1,8,2:2:0:0:
283,79,169600,2,0,P|327:98|399:96,1,99.9999999999999,2|0,1:1|1:1,0:0:0:0:
422,76,169975,1,8,2:2:0:0:
480,157,170225,2,0,L|498:229,2,50,14|8|4,2:1|3:3|3:3,0:0:0:0:
432,173,170600,6,0,B|386:186|386:186|366:214|366:214|283:237,1,150,6|10,1:1|2:1,0:0:0:0:
210,187,171225,1,2,1:1:0:0:
210,187,171350,2,0,L|121:169,1,50,2|8,1:1|2:2,0:0:0:0:
112,164,171600,2,0,B|84:207|84:207|92:271,1,99.9999999999999,2|0,1:1|1:1,0:0:0:0:
80,304,171975,1,12,2:2:0:0:
175,332,172225,1,12,2:2:0:0:
263,284,172475,2,0,L|316:294,1,50,8|8,2:2|0:1,0:0:0:0:
353,310,172725,6,0,P|448:272|473:215,1,134.999995880127,4|8,1:1|2:2,0:0:0:0:
458,158,173350,1,8,2:2:0:0:
453,68,173600,2,0,L|344:83,1,89.999997253418,4|0,1:2|1:1,0:0:0:0:
318,77,173975,1,8,2:2:0:0:
272,154,174225,1,0,1:1:0:0:
246,240,174475,1,8,2:2:0:0:
159,265,174725,6,0,B|124:221|124:221|156:107,1,134.999995880127,0|8,1:2|2:2,0:0:0:0:
80,81,175350,1,0,1:1:0:0:
34,156,175600,2,0,B|20:210|20:210|37:259,1,89.999997253418,4|0,1:2|1:1,0:0:0:0:
36,287,175975,1,8,2:2:0:0:
80,365,176225,2,0,P|134:364|190:324,1,89.999997253418,0|8,1:2|2:2,0:0:0:0:
228,284,176725,6,0,B|322:287|264:318|391:324,1,134.999995880127,4|12,1:2|2:2,0:0:0:0:
425,264,177350,1,0,1:1:0:0:
360,201,177600,2,0,B|344:156|344:156|359:101,1,89.999997253418,4|0,1:2|1:1,0:0:0:0:
324,82,177975,1,8,2:2:0:0:
235,95,178225,1,0,2:2:0:0:
190,173,178475,1,8,2:2:0:0:
179,262,178725,6,0,P|156:285|89:288,1,89.999997253418,4|0,1:1|1:1,0:0:0:0:
55,297,179100,2,0,L|41:198,1,89.999997253418,8|0,2:2|1:1,0:0:0:0:
63,120,179600,2,0,B|146:138|146:138|225:108,1,134.999995880127,4|8,1:2|2:2,0:0:0:0:
260,60,180225,2,0,L|336:76,2,44.999998626709,0|0|8,1:2|1:1|2:2,0:0:0:0:
270,149,180725,6,0,L|301:263,1,89.999997253418,4|0,1:1|1:1,0:0:0:0:
270,275,181100,1,8,2:2:0:0:
351,313,181350,1,0,1:1:0:0:
435,283,181600,2,0,P|456:235|406:149,1,134.999995880127,4|8,1:2|2:2,0:0:0:0:
360,101,182225,2,0,L|370:43,2,44.999998626709,2|0|8,1:2|0:0|2:2,0:0:0:0:
293,162,182725,6,0,P|274:176|177:177,1,89.999997253418,4|0,1:1|1:1,0:0:0:0:
164,190,183100,1,8,2:2:0:0:
74,179,183350,2,0,L|66:251,1,44.999998626709,0|8,1:1|2:2,0:0:0:0:
55,267,183600,2,0,B|107:277|107:277|131:299|131:299|218:314,1,134.999995880127,4|8,1:2|2:2,0:0:0:0:
267,345,184225,1,8,2:2:0:0:
267,345,184350,1,8,2:2:0:0:
346,284,184600,6,0,P|343:219|258:186,1,134.999995880127,4|8,1:1|2:2,0:0:0:0:
203,153,185225,2,0,L|129:166,2,44.999998626709,0|0|8,1:1|1:1|2:2,0:0:0:0:
223,112,185600,2,0,P|271:45|353:38,1,134.999995880127,4|8,1:1|2:2,0:0:0:0:
384,93,186225,1,8,2:2:0:0:
362,180,186475,2,0,L|343:261,2,44.999998626709,8|4|0,3:3|3:0|1:1,0:0:0:0:
20,188,188725,6,0,L|94:178,1,50,0|8,1:2|2:2,0:0:0:0:
160,221,189100,2,0,L|223:213,1,50,8|8,2:2|2:2,0:0:0:0:
301,248,189475,2,0,L|367:240,1,50,12|0,1:2|1:1,0:0:0:0:
351,242,190600,1,4,1:1:0:0:
351,242,191600,6,0,B|366:200|366:200|344:131,1,99.9999999999999,4|4,1:2|1:2,0:0:0:0:
218,73,192225,2,0,L|163:65,2,50,8|8|4,2:2|0:3|0:3,0:0:0:0:
227,121,192600,1,4,1:1:0:0:
144,177,192850,1,0,1:1:0:0:
144,177,192975,1,0,1:1:0:0:
136,276,193225,1,12,2:2:0:0:
208,345,193475,1,0,1:1:0:0:
307,335,193725,2,0,P|343:313|360:245,1,99.9999999999999,0|12,1:3|3:3,0:0:0:0:
326,173,194225,1,8,1:2:0:0:
326,173,194350,1,8,1:2:0:0:
230,203,194600,6,0,L|151:212,1,50,6|0,1:1|0:0,0:0:0:0:
136,232,194850,1,4,1:2:0:0:
136,232,194975,2,0,P|78:209|47:142,1,99.9999999999999,8|0,1:2|1:1,0:0:0:0:
43,81,195475,1,8,2:2:0:0:
137,47,195725,1,4,1:2:0:0:
196,127,195975,1,12,2:2:0:0:
287,86,196225,2,0,P|323:82|375:74,2,66.6666666666666,12|4|4,2:2|1:2|1:2,0:0:0:0:
202,339,197225,6,0,B|290:326|261:375|373:351,1,150,4|0,1:1|1:1,0:0:0:0:
410,277,197850,1,0,1:1:0:0:
278,204,198225,1,4,2:2:0:0:
191,254,198475,5,4,1:2:0:0:
191,254,198600,2,0,L|29:276,1,150,4|4,1:1|1:2,0:0:0:0:
25,175,199225,1,8,2:2:0:0:
216,117,199725,2,0,P|261:97|293:49,1,99.9999999999999,4|4,1:1|1:2,0:0:0:0:
381,14,200225,2,0,B|419:35|419:35|387:113,1,99.9999999999999,12|0,2:1|0:0,0:0:0:0:
382,134,200600,6,0,L|405:290,1,150,0|4,1:2|1:2,0:0:0:0:
320,338,201225,1,8,2:2:0:0:
179,195,201725,1,4,1:0:0:0:
118,274,201975,1,12,2:2:0:0:
29,227,202225,2,0,L|16:168,1,50,8|8,2:2|3:3,0:0:0:0:
9,128,202475,1,8,3:3:0:0:
9,128,202600,6,0,P|61:121|124:109,1,99.9999999999999,4|0,1:1|1:1,0:0:0:0:
150,85,202975,1,8,2:2:0:0:
236,34,203225,2,0,L|252:108,1,50,0|0,1:1|1:1,0:0:0:0:
247,133,203475,1,8,2:2:0:0:
247,133,203600,1,4,1:1:0:0:
260,232,203850,1,12,2:2:0:0:
353,267,204100,1,12,2:2:0:0:
449,241,204350,2,0,L|433:310,1,50,12|0,2:2|1:1,0:0:0:0:
446,338,204600,6,0,B|366:332|398:374|288:367,1,150,4|8,1:1|2:2,0:0:0:0:
209,327,205225,1,0,1:1:0:0:
109,331,205475,1,8,2:2:0:0:
109,331,205600,2,0,B|81:282|81:282|94:223,1,99.9999999999999,0|0,1:1|1:1,0:0:0:0:
132,211,205975,1,8,2:2:0:0:
225,246,206225,1,0,1:1:0:0:
324,216,206475,5,8,2:2:0:0:
324,216,206600,2,0,P|313:164|306:105,1,99.9999999999999,4|0,1:1|1:1,0:0:0:0:
277,77,206975,1,8,2:2:0:0:
181,107,207225,1,0,1:1:0:0:
109,176,207475,1,8,2:2:0:0:
109,176,207600,2,0,P|62:171|-3:161,1,99.9999999999999,0|0,1:2|1:1,0:0:0:0:
9,213,207975,1,12,2:2:0:0:
5,312,208225,2,0,L|59:323,1,50,4|0,1:2|1:1,0:0:0:0:
102,348,208475,5,8,2:2:0:0:
102,348,208600,2,0,B|187:360|173:317|261:329,1,150,4|12,1:1|2:2,0:0:0:0:
358,343,209225,1,0,1:1:0:0:
415,260,209475,1,12,2:2:0:0:
328,209,209725,1,4,1:2:0:0:
230,232,209975,1,12,2:2:0:0:
178,152,210225,1,8,2:2:0:0:
178,152,210350,1,4,1:2:0:0:
256,89,210600,6,0,P|334:56|370:-2,1,150,4|8,1:1|2:2,0:0:0:0:
429,81,211225,1,0,1:1:0:0:
429,81,211350,2,0,L|444:164,1,50,0|8,1:1|2:2,0:0:0:0:
464,172,211600,2,0,B|485:215|485:215|465:275,1,99.9999999999999,0|0,1:1|1:1,0:0:0:0:
423,287,211975,1,8,2:2:0:0:
323,294,212225,2,0,L|243:271,2,50,8|8|4,2:2|3:3|3:3,0:0:0:0:
338,246,212600,6,0,B|358:207|358:207|318:85,1,150,4|0,1:1|1:2,0:0:0:0:
373,18,213225,1,8,2:2:0:0:
190,100,213725,2,0,L|72:117,1,99.9999999999999,4|4,1:0|1:0,0:0:0:0:
52,206,214225,1,14,2:1:0:0:
187,269,214600,6,0,B|287:243|287:243|359:267,1,150,4|4,1:1|1:2,0:0:0:0:
410,318,215225,2,0,P|453:287|452:220,1,99.9999999999999,8|0,2:2|2:2,0:0:0:0:
466,143,215725,1,4,1:2:0:0:
368,166,215975,1,8,2:2:0:0:
284,110,216225,2,0,L|219:97,1,50,8|8,2:2|3:3,0:0:0:0:
190,78,216475,1,8,3:3:0:0:
190,78,216600,6,0,B|139:97|139:97|161:190,1,150,4|8,1:2|2:2,0:0:0:0:
256,221,217225,2,0,L|324:234,1,50,0|0,1:1|1:1,0:0:0:0:
334,271,217475,1,8,2:2:0:0:
334,271,217600,2,0,L|313:370,1,99.9999999999999,4|0,1:1|1:1,0:0:0:0:
263,369,217975,1,8,2:2:0:0:
184,306,218225,2,0,L|101:319,2,50,10|0|8,2:1|1:1|3:3,0:0:0:0:
216,268,218600,1,0,0:0:0:0:
216,268,218725,1,4,1:1:0:0:
256,192,218850,12,4,220725,1:2:0:0:
