osu file format v14

[General]
AudioFilename: audio.mp3
AudioLeadIn: 0
PreviewTime: 67677
Countdown: 0
SampleSet: Soft
StackLeniency: 0.3
Mode: 0
LetterboxInBreaks: 0
EpilepsyWarning: 1
WidescreenStoryboard: 1

[Editor]
Bookmarks: 26626,44626,60626,68501,82626,98626,114626,122501,136501,156501,172626,186626,190501,218626
DistanceSpacing: 0.54
BeatDivisor: 4
GridSize: 32
TimelineZoom: 2.2

[Metadata]
Title:Yakusoku no Ao
TitleUnicode:約束の蒼
Artist:Reol
ArtistUnicode:れをる
Creator:Broccoly
Version:Unbreakable
Source:
Tags:Gokusaishiki Alternative Yairi 極彩色
BeatmapID:1030303
BeatmapSetID:482871

[Difficulty]
HPDrainRate:6
CircleSize:4.2
OverallDifficulty:9.5
ApproachRate:9.8
SliderMultiplier:1.65
SliderTickRate:1

[Events]
//Background and Video events
0,0,"BG.jpg",0,0
//Break Periods
//Storyboard Layer 0 (Background)
//Storyboard Layer 1 (Fail)
//Storyboard Layer 2 (Pass)
//Storyboard Layer 3 (Foreground)
Sprite,Foreground,Centre,"sb\broccoly.png",320,240 S,0,2677,,0.5 F,0,2677,2927,0,1 M,1,2677,3177,0,355,138,355 P,0,2677,6177,A M,0,3177,6177,138,355,158,355 M,0,6177,6677,158,355,270,355 F,0,6177,6677,1,0
Sprite,Foreground,Centre,"sb\Lhighlight.png",320,240 R,0,136552,,1.57 MY,0,136552,,261 F,0,136552,137252,0.9,0.3 V,0,136552,137252,1,5,0,4 P,0,136552,137252,A
Sprite,Foreground,Centre,"sb\Lhighlight.png",320,240 MX,0,136552,,92 F,0,136552,137252,0.9,0.3 V,0,136552,137252,1,5,0,4 P,0,136552,137252,A
Sprite,Foreground,Centre,"sb\Lhighlight.png",320,240 R,0,136927,,1.57 MY,0,136927,,132 F,0,136927,137627,0.9,0.3 V,0,136927,137627,1,5,0,4 P,0,136927,137627,A
Sprite,Foreground,Centre,"sb\Lhighlight.png",320,240 MX,0,136927,,426 F,0,136927,137627,0.9,0.3 V,0,136927,137627,1,5,0,4 P,0,136927,137627,A
Sprite,Foreground,Centre,"sb\Lhighlight.png",320,240 R,0,137177,,1.57 MY,0,137177,,340 F,0,137177,137877,0.9,0.3 V,0,137177,137877,1,5,0,4 P,0,137177,137877,A
Sprite,Foreground,Centre,"sb\Lhighlight.png",320,240 MX,0,137177,,538 F,0,137177,137877,0.9,0.3 V,0,137177,137877,1,5,0,4 P,0,137177,137877,A
Sprite,Foreground,Centre,"sb\Lhighlight.png",320,240 R,0,137427,,1.57 MY,0,137427,,360 F,0,137427,138127,0.9,0.3 V,0,137427,138127,1,5,0,4 P,0,137427,138127,A
Sprite,Foreground,Centre,"sb\Lhighlight.png",320,240 MX,0,137427,,355 F,0,137427,138127,0.9,0.3 V,0,137427,138127,1,5,0,4 P,0,137427,138127,A
Sprite,Foreground,Centre,"sb\Lhighlight.png",320,240 R,0,137677,,1.57 MY,0,137677,,381 F,0,137677,138377,0.9,0.3 V,0,137677,138377,1,5,0,4 P,0,137677,138377,A
Sprite,Foreground,Centre,"sb\Lhighlight.png",320,240 MX,0,137677,,190 F,0,137677,138377,0.9,0.3 V,0,137677,138377,1,5,0,4 P,0,137677,138377,A
Sprite,Foreground,Centre,"sb\Lhighlight.png",320,240 R,0,137927,,1.57 MY,0,137927,,352 F,0,137927,138627,0.9,0.3 V,0,137927,138627,1,5,0,4 P,0,137927,138627,A
Sprite,Foreground,Centre,"sb\Lhighlight.png",320,240 MX,0,137927,,230 F,0,137927,138627,0.9,0.3 V,0,137927,138627,1,5,0,4 P,0,137927,138627,A
Sprite,Foreground,Centre,"sb\Lhighlight.png",320,240 R,0,138177,,1.57 MY,0,138177,,300 F,0,138177,138877,0.9,0.3 V,0,138177,138877,1,5,0,4 P,0,138177,138877,A
Sprite,Foreground,Centre,"sb\Lhighlight.png",320,240 MX,0,138177,,155 F,0,138177,138877,0.9,0.3 V,0,138177,138877,1,5,0,4 P,0,138177,138877,A
Sprite,Foreground,Centre,"sb\Lhighlight.png",320,240 R,0,138552,,1.57 MY,0,138552,,134 F,0,138552,139252,0.9,0.3 V,0,138552,139252,1,5,0,4 P,0,138552,139252,A
Sprite,Foreground,Centre,"sb\Lhighlight.png",320,240 MX,0,138552,,286 F,0,138552,139252,0.9,0.3 V,0,138552,139252,1,5,0,4 P,0,138552,139252,A
Sprite,Foreground,Centre,"sb\Lhighlight.png",320,240 R,0,138927,,1.57 MY,0,138927,,391 F,0,138927,139627,0.9,0.3 V,0,138927,139627,1,5,0,4 P,0,138927,139627,A
Sprite,Foreground,Centre,"sb\Lhighlight.png",320,240 MX,0,138927,,458 F,0,138927,139627,0.9,0.3 V,0,138927,139627,1,5,0,4 P,0,138927,139627,A
Sprite,Foreground,Centre,"sb\Lhighlight.png",320,240 R,0,139177,,1.57 MY,0,139177,,341 F,0,139177,139877,0.9,0.3 V,0,139177,139877,1,5,0,4 P,0,139177,139877,A
Sprite,Foreground,Centre,"sb\Lhighlight.png",320,240 MX,0,139177,,111 F,0,139177,139877,0.9,0.3 V,0,139177,139877,1,5,0,4 P,0,139177,139877,A
Sprite,Foreground,Centre,"sb\Lhighlight.png",320,240 R,0,139427,,1.57 MY,0,139427,,376 F,0,139427,140127,0.9,0.3 V,0,139427,140127,1,5,0,4 P,0,139427,140127,A
Sprite,Foreground,Centre,"sb\Lhighlight.png",320,240 MX,0,139427,,319 F,0,139427,140127,0.9,0.3 V,0,139427,140127,1,5,0,4 P,0,139427,140127,A
Sprite,Foreground,Centre,"sb\Lhighlight.png",320,240 R,0,139677,,1.57 MY,0,139677,,287 F,0,139677,140377,0.9,0.3 V,0,139677,140377,1,5,0,4 P,0,139677,140377,A
Sprite,Foreground,Centre,"sb\Lhighlight.png",320,240 MX,0,139677,,263 F,0,139677,140377,0.9,0.3 V,0,139677,140377,1,5,0,4 P,0,139677,140377,A
Sprite,Foreground,Centre,"sb\Lhighlight.png",320,240 R,0,140114,,1.57 MY,0,140114,,246 F,0,140114,140814,0.9,0.3 V,0,140114,140814,1,5,0,4 P,0,140114,140814,A
Sprite,Foreground,Centre,"sb\Lhighlight.png",320,240 MX,0,140114,,174 F,0,140114,140814,0.9,0.3 V,0,140114,140814,1,5,0,4 P,0,140114,140814,A
Sprite,Foreground,Centre,"sb\Lhighlight.png",320,240 R,0,140177,,1.57 MY,0,140177,,246 F,0,140177,140877,0.9,0.3 V,0,140177,140877,1,5,0,4 P,0,140177,140877,A
Sprite,Foreground,Centre,"sb\Lhighlight.png",320,240 MX,0,140177,,174 F,0,140177,140877,0.9,0.3 V,0,140177,140877,1,5,0,4 P,0,140177,140877,A
Sprite,Foreground,Centre,"sb\Lhighlight.png",320,240 R,0,140302,,1.57 MY,0,140302,,139 F,0,140302,141002,0.9,0.3 V,0,140302,141002,1,5,0,4 P,0,140302,141002,A
Sprite,Foreground,Centre,"sb\Lhighlight.png",320,240 MX,0,140302,,332 F,0,140302,141002,0.9,0.3 V,0,140302,141002,1,5,0,4 P,0,140302,141002,A
Sprite,Foreground,Centre,"sb\Lhighlight.png",320,240 R,0,140427,,1.57 MY,0,140427,,139 F,0,140427,141127,0.9,0.3 V,0,140427,141127,1,5,0,4 P,0,140427,141127,A
Sprite,Foreground,Centre,"sb\Lhighlight.png",320,240 MX,0,140427,,332 F,0,140427,141127,0.9,0.3 V,0,140427,141127,1,5,0,4 P,0,140427,141127,A
Sprite,Foreground,Centre,"sb\Lhighlight.png",320,240 R,0,140552,,1.57 MY,0,140552,,86 F,0,140552,141252,0.9,0.3 V,0,140552,141252,1,5,0,4 P,0,140552,141252,A
Sprite,Foreground,Centre,"sb\Lhighlight.png",320,240 MX,0,140552,,169 F,0,140552,141252,0.9,0.3 V,0,140552,141252,1,5,0,4 P,0,140552,141252,A
Sprite,Foreground,Centre,"sb\Lhighlight.png",320,240 R,0,140927,,1.57 MY,0,140927,,424 F,0,140927,141627,0.9,0.3 V,0,140927,141627,1,5,0,4 P,0,140927,141627,A
Sprite,Foreground,Centre,"sb\Lhighlight.png",320,240 MX,0,140927,,378 F,0,140927,141627,0.9,0.3 V,0,140927,141627,1,5,0,4 P,0,140927,141627,A
Sprite,Foreground,Centre,"sb\Lhighlight.png",320,240 R,0,141177,,1.57 MY,0,141177,,382 F,0,141177,141877,0.9,0.3 V,0,141177,141877,1,5,0,4 P,0,141177,141877,A
Sprite,Foreground,Centre,"sb\Lhighlight.png",320,240 MX,0,141177,,120 F,0,141177,141877,0.9,0.3 V,0,141177,141877,1,5,0,4 P,0,141177,141877,A
Sprite,Foreground,Centre,"sb\Lhighlight.png",320,240 R,0,141427,,1.57 MY,0,141427,,306 F,0,141427,142127,0.9,0.3 V,0,141427,142127,1,5,0,4 P,0,141427,142127,A
Sprite,Foreground,Centre,"sb\Lhighlight.png",320,240 MX,0,141427,,315 F,0,141427,142127,0.9,0.3 V,0,141427,142127,1,5,0,4 P,0,141427,142127,A
Sprite,Foreground,Centre,"sb\Lhighlight.png",320,240 R,0,141677,,1.57 MY,0,141677,,297 F,0,141677,142377,0.9,0.3 V,0,141677,142377,1,5,0,4 P,0,141677,142377,A
Sprite,Foreground,Centre,"sb\Lhighlight.png",320,240 MX,0,141677,,434 F,0,141677,142377,0.9,0.3 V,0,141677,142377,1,5,0,4 P,0,141677,142377,A
Sprite,Foreground,Centre,"sb\Lhighlight.png",320,240 R,0,141927,,1.57 MY,0,141927,,297 F,0,141927,142627,0.9,0.3 V,0,141927,142627,1,5,0,4 P,0,141927,142627,A
Sprite,Foreground,Centre,"sb\Lhighlight.png",320,240 MX,0,141927,,434 F,0,141927,142627,0.9,0.3 V,0,141927,142627,1,5,0,4 P,0,141927,142627,A
Sprite,Foreground,Centre,"sb\Lhighlight.png",320,240 R,0,142177,,1.57 MY,0,142177,,174 F,0,142177,142877,0.9,0.3 V,0,142177,142877,1,5,0,4 P,0,142177,142877,A
Sprite,Foreground,Centre,"sb\Lhighlight.png",320,240 MX,0,142177,,449 F,0,142177,142877,0.9,0.3 V,0,142177,142877,1,5,0,4 P,0,142177,142877,A
Sprite,Foreground,Centre,"sb\Lhighlight.png",320,240 R,0,142552,,1.57 MY,0,142552,,222 F,0,142552,143252,0.9,0.3 V,0,142552,143252,1,5,0,4 P,0,142552,143252,A
Sprite,Foreground,Centre,"sb\Lhighlight.png",320,240 MX,0,142552,,358 F,0,142552,143252,0.9,0.3 V,0,142552,143252,1,5,0,4 P,0,142552,143252,A
Sprite,Foreground,Centre,"sb\Lhighlight.png",320,240 R,0,142927,,1.57 MY,0,142927,,409 F,0,142927,143627,0.9,0.3 V,0,142927,143627,1,5,0,4 P,0,142927,143627,A
Sprite,Foreground,Centre,"sb\Lhighlight.png",320,240 MX,0,142927,,491 F,0,142927,143627,0.9,0.3 V,0,142927,143627,1,5,0,4 P,0,142927,143627,A
Sprite,Foreground,Centre,"sb\Lhighlight.png",320,240 R,0,143177,,1.57 MY,0,143177,,342 F,0,143177,143877,0.9,0.3 V,0,143177,143877,1,5,0,4 P,0,143177,143877,A
Sprite,Foreground,Centre,"sb\Lhighlight.png",320,240 MX,0,143177,,130 F,0,143177,143877,0.9,0.3 V,0,143177,143877,1,5,0,4 P,0,143177,143877,A
Sprite,Foreground,Centre,"sb\Lhighlight.png",320,240 R,0,143427,,1.57 MY,0,143427,,261 F,0,143427,144127,0.9,0.3 V,0,143427,144127,1,5,0,4 P,0,143427,144127,A
Sprite,Foreground,Centre,"sb\Lhighlight.png",320,240 MX,0,143427,,325 F,0,143427,144127,0.9,0.3 V,0,143427,144127,1,5,0,4 P,0,143427,144127,A
Sprite,Foreground,Centre,"sb\Lhighlight.png",320,240 R,0,143677,,1.57 MY,0,143677,,196 F,0,143677,144377,0.9,0.3 V,0,143677,144377,1,5,0,4 P,0,143677,144377,A
Sprite,Foreground,Centre,"sb\Lhighlight.png",320,240 MX,0,143677,,181 F,0,143677,144377,0.9,0.3 V,0,143677,144377,1,5,0,4 P,0,143677,144377,A
Sprite,Foreground,Centre,"sb\Lhighlight.png",320,240 R,0,143802,,1.57 MY,0,143802,,196 F,0,143802,144502,0.9,0.3 V,0,143802,144502,1,5,0,4 P,0,143802,144502,A
Sprite,Foreground,Centre,"sb\Lhighlight.png",320,240 MX,0,143802,,181 F,0,143802,144502,0.9,0.3 V,0,143802,144502,1,5,0,4 P,0,143802,144502,A
Sprite,Foreground,Centre,"sb\Lhighlight.png",320,240 R,0,143927,,1.57 MY,0,143927,,428 F,0,143927,144627,0.9,0.3 V,0,143927,144627,1,5,0,4 P,0,143927,144627,A
Sprite,Foreground,Centre,"sb\Lhighlight.png",320,240 MX,0,143927,,245 F,0,143927,144627,0.9,0.3 V,0,143927,144627,1,5,0,4 P,0,143927,144627,A
Sprite,Foreground,Centre,"sb\Lhighlight.png",320,240 R,0,144052,,1.57 MY,0,144052,,261 F,0,144052,144752,0.9,0.3 V,0,144052,144752,1,5,0,4 P,0,144052,144752,A
Sprite,Foreground,Centre,"sb\Lhighlight.png",320,240 MX,0,144052,,325 F,0,144052,144752,0.9,0.3 V,0,144052,144752,1,5,0,4 P,0,144052,144752,A
Sprite,Foreground,Centre,"sb\Lhighlight.png",320,240 R,0,144177,,1.57 MY,0,144177,,342 F,0,144177,144877,0.9,0.3 V,0,144177,144877,1,5,0,4 P,0,144177,144877,A
Sprite,Foreground,Centre,"sb\Lhighlight.png",320,240 MX,0,144177,,130 F,0,144177,144877,0.9,0.3 V,0,144177,144877,1,5,0,4 P,0,144177,144877,A
Sprite,Foreground,Centre,"sb\Lhighlight.png",320,240 R,0,144302,,1.57 MY,0,144302,,360 F,0,144302,145002,0.9,0.3 V,0,144302,145002,1,5,0,4 P,0,144302,145002,A
Sprite,Foreground,Centre,"sb\Lhighlight.png",320,240 MX,0,144302,,364 F,0,144302,145002,0.9,0.3 V,0,144302,145002,1,5,0,4 P,0,144302,145002,A
Sprite,Foreground,Centre,"sb\Lhighlight.png",320,240 R,0,144552,,1.57 MY,0,144552,,261 F,0,144552,145252,0.9,0.3 V,0,144552,145252,1,5,0,4 P,0,144552,145252,A
Sprite,Foreground,Centre,"sb\Lhighlight.png",320,240 MX,0,144552,,325 F,0,144552,145252,0.9,0.3 V,0,144552,145252,1,5,0,4 P,0,144552,145252,A
Sprite,Foreground,Centre,"sb\Lhighlight.png",320,240 R,0,144927,,1.57 MY,0,144927,,194 F,0,144927,145627,0.9,0.3 V,0,144927,145627,1,5,0,4 P,0,144927,145627,A
Sprite,Foreground,Centre,"sb\Lhighlight.png",320,240 MX,0,144927,,455 F,0,144927,145627,0.9,0.3 V,0,144927,145627,1,5,0,4 P,0,144927,145627,A
Sprite,Foreground,Centre,"sb\Lhighlight.png",320,240 R,0,145177,,1.57 MY,0,145177,,112 F,0,145177,145877,0.9,0.3 V,0,145177,145877,1,5,0,4 P,0,145177,145877,A
Sprite,Foreground,Centre,"sb\Lhighlight.png",320,240 MX,0,145177,,118 F,0,145177,145877,0.9,0.3 V,0,145177,145877,1,5,0,4 P,0,145177,145877,A
Sprite,Foreground,Centre,"sb\Lhighlight.png",320,240 R,0,145427,,1.57 MY,0,145427,,316 F,0,145427,146127,0.9,0.3 V,0,145427,146127,1,5,0,4 P,0,145427,146127,A
Sprite,Foreground,Centre,"sb\Lhighlight.png",320,240 MX,0,145427,,201 F,0,145427,146127,0.9,0.3 V,0,145427,146127,1,5,0,4 P,0,145427,146127,A
Sprite,Foreground,Centre,"sb\Lhighlight.png",320,240 R,0,145677,,1.57 MY,0,145677,,296 F,0,145677,146377,0.9,0.3 V,0,145677,146377,1,5,0,4 P,0,145677,146377,A
Sprite,Foreground,Centre,"sb\Lhighlight.png",320,240 MX,0,145677,,377 F,0,145677,146377,0.9,0.3 V,0,145677,146377,1,5,0,4 P,0,145677,146377,A
Sprite,Foreground,Centre,"sb\Lhighlight.png",320,240 R,0,145927,,1.57 MY,0,145927,,394 F,0,145927,146627,0.9,0.3 V,0,145927,146627,1,5,0,4 P,0,145927,146627,A
Sprite,Foreground,Centre,"sb\Lhighlight.png",320,240 MX,0,145927,,552 F,0,145927,146627,0.9,0.3 V,0,145927,146627,1,5,0,4 P,0,145927,146627,A
Sprite,Foreground,Centre,"sb\Lhighlight.png",320,240 R,0,146177,,1.57 MY,0,146177,,223 F,0,146177,146877,0.9,0.3 V,0,146177,146877,1,5,0,4 P,0,146177,146877,A
Sprite,Foreground,Centre,"sb\Lhighlight.png",320,240 MX,0,146177,,544 F,0,146177,146877,0.9,0.3 V,0,146177,146877,1,5,0,4 P,0,146177,146877,A
Sprite,Foreground,Centre,"sb\Lhighlight.png",320,240 R,0,146302,,1.57 MY,0,146302,,394 F,0,146302,147002,0.9,0.3 V,0,146302,147002,1,5,0,4 P,0,146302,147002,A
Sprite,Foreground,Centre,"sb\Lhighlight.png",320,240 MX,0,146302,,378 F,0,146302,147002,0.9,0.3 V,0,146302,147002,1,5,0,4 P,0,146302,147002,A
Sprite,Foreground,Centre,"sb\Lhighlight.png",320,240 R,0,146552,,1.57 MY,0,146552,,242 F,0,146552,147252,0.9,0.3 V,0,146552,147252,1,5,0,4 P,0,146552,147252,A
Sprite,Foreground,Centre,"sb\Lhighlight.png",320,240 MX,0,146552,,112 F,0,146552,147252,0.9,0.3 V,0,146552,147252,1,5,0,4 P,0,146552,147252,A
Sprite,Foreground,Centre,"sb\Lhighlight.png",320,240 R,0,146802,,1.57 MY,0,146802,,279 F,0,146802,147502,0.9,0.3 V,0,146802,147502,1,5,0,4 P,0,146802,147502,A
Sprite,Foreground,Centre,"sb\Lhighlight.png",320,240 MX,0,146802,,215 F,0,146802,147502,0.9,0.3 V,0,146802,147502,1,5,0,4 P,0,146802,147502,A
Sprite,Foreground,Centre,"sb\Lhighlight.png",320,240 R,0,146927,,1.57 MY,0,146927,,192 F,0,146927,147627,0.9,0.3 V,0,146927,147627,1,5,0,4 P,0,146927,147627,A
Sprite,Foreground,Centre,"sb\Lhighlight.png",320,240 MX,0,146927,,469 F,0,146927,147627,0.9,0.3 V,0,146927,147627,1,5,0,4 P,0,146927,147627,A
Sprite,Foreground,Centre,"sb\Lhighlight.png",320,240 R,0,147177,,1.57 MY,0,147177,,400 F,0,147177,147877,0.9,0.3 V,0,147177,147877,1,5,0,4 P,0,147177,147877,A
Sprite,Foreground,Centre,"sb\Lhighlight.png",320,240 MX,0,147177,,180 F,0,147177,147877,0.9,0.3 V,0,147177,147877,1,5,0,4 P,0,147177,147877,A
Sprite,Foreground,Centre,"sb\Lhighlight.png",320,240 R,0,147302,,1.57 MY,0,147302,,302 F,0,147302,148002,0.9,0.3 V,0,147302,148002,1,5,0,4 P,0,147302,148002,A
Sprite,Foreground,Centre,"sb\Lhighlight.png",320,240 MX,0,147302,,344 F,0,147302,148002,0.9,0.3 V,0,147302,148002,1,5,0,4 P,0,147302,148002,A
Sprite,Foreground,Centre,"sb\Lhighlight.png",320,240 R,0,147552,,1.57 MY,0,147552,,265 F,0,147552,148252,0.9,0.3 V,0,147552,148252,1,5,0,4 P,0,147552,148252,A
Sprite,Foreground,Centre,"sb\Lhighlight.png",320,240 MX,0,147552,,127 F,0,147552,148252,0.9,0.3 V,0,147552,148252,1,5,0,4 P,0,147552,148252,A
Sprite,Foreground,Centre,"sb\Lhighlight.png",320,240 R,0,147614,,1.57 MY,0,147614,,265 F,0,147614,148314,0.9,0.3 V,0,147614,148314,1,5,0,4 P,0,147614,148314,A
Sprite,Foreground,Centre,"sb\Lhighlight.png",320,240 MX,0,147614,,127 F,0,147614,148314,0.9,0.3 V,0,147614,148314,1,5,0,4 P,0,147614,148314,A
Sprite,Foreground,Centre,"sb\Lhighlight.png",320,240 R,0,147677,,1.57 MY,0,147677,,265 F,0,147677,148377,0.9,0.3 V,0,147677,148377,1,5,0,4 P,0,147677,148377,A
Sprite,Foreground,Centre,"sb\Lhighlight.png",320,240 MX,0,147677,,127 F,0,147677,148377,0.9,0.3 V,0,147677,148377,1,5,0,4 P,0,147677,148377,A
Sprite,Foreground,Centre,"sb\Lhighlight.png",320,240 R,0,147802,,1.57 MY,0,147802,,165 F,0,147802,148502,0.9,0.3 V,0,147802,148502,1,5,0,4 P,0,147802,148502,A
Sprite,Foreground,Centre,"sb\Lhighlight.png",320,240 MX,0,147802,,299 F,0,147802,148502,0.9,0.3 V,0,147802,148502,1,5,0,4 P,0,147802,148502,A
Sprite,Foreground,Centre,"sb\Lhighlight.png",320,240 R,0,147927,,1.57 MY,0,147927,,265 F,0,147927,148627,0.9,0.3 V,0,147927,148627,1,5,0,4 P,0,147927,148627,A
Sprite,Foreground,Centre,"sb\Lhighlight.png",320,240 MX,0,147927,,127 F,0,147927,148627,0.9,0.3 V,0,147927,148627,1,5,0,4 P,0,147927,148627,A
Sprite,Foreground,Centre,"sb\Lhighlight.png",320,240 R,0,148177,,1.57 MY,0,148177,,367 F,0,148177,148877,0.9,0.3 V,0,148177,148877,1,5,0,4 P,0,148177,148877,A
Sprite,Foreground,Centre,"sb\Lhighlight.png",320,240 MX,0,148177,,336 F,0,148177,148877,0.9,0.3 V,0,148177,148877,1,5,0,4 P,0,148177,148877,A
Sprite,Foreground,Centre,"sb\Lhighlight.png",320,240 R,0,148302,,1.57 MY,0,148302,,265 F,0,148302,149002,0.9,0.3 V,0,148302,149002,1,5,0,4 P,0,148302,149002,A
Sprite,Foreground,Centre,"sb\Lhighlight.png",320,240 MX,0,148302,,127 F,0,148302,149002,0.9,0.3 V,0,148302,149002,1,5,0,4 P,0,148302,149002,A
Sprite,Foreground,Centre,"sb\Lhighlight.png",320,240 R,0,148427,,1.57 MY,0,148427,,165 F,0,148427,149127,0.9,0.3 V,0,148427,149127,1,5,0,4 P,0,148427,149127,A
Sprite,Foreground,Centre,"sb\Lhighlight.png",320,240 MX,0,148427,,299 F,0,148427,149127,0.9,0.3 V,0,148427,149127,1,5,0,4 P,0,148427,149127,A
Sprite,Foreground,Centre,"sb\Lhighlight.png",320,240 R,0,148552,,1.57 MY,0,148552,,406 F,0,148552,149252,0.9,0.3 V,0,148552,149252,1,5,0,4 P,0,148552,149252,A
Sprite,Foreground,Centre,"sb\Lhighlight.png",320,240 MX,0,148552,,223 F,0,148552,149252,0.9,0.3 V,0,148552,149252,1,5,0,4 P,0,148552,149252,A
Sprite,Foreground,Centre,"sb\Lhighlight.png",320,240 R,0,148802,,1.57 MY,0,148802,,366 F,0,148802,149502,0.9,0.3 V,0,148802,149502,1,5,0,4 P,0,148802,149502,A
Sprite,Foreground,Centre,"sb\Lhighlight.png",320,240 MX,0,148802,,335 F,0,148802,149502,0.9,0.3 V,0,148802,149502,1,5,0,4 P,0,148802,149502,A
Sprite,Foreground,Centre,"sb\Lhighlight.png",320,240 R,0,148927,,1.57 MY,0,148927,,338 F,0,148927,149627,0.9,0.3 V,0,148927,149627,1,5,0,4 P,0,148927,149627,A
Sprite,Foreground,Centre,"sb\Lhighlight.png",320,240 MX,0,148927,,510 F,0,148927,149627,0.9,0.3 V,0,148927,149627,1,5,0,4 P,0,148927,149627,A
Sprite,Foreground,Centre,"sb\Lhighlight.png",320,240 R,0,149177,,1.57 MY,0,149177,,266 F,0,149177,149877,0.9,0.3 V,0,149177,149877,1,5,0,4 P,0,149177,149877,A
Sprite,Foreground,Centre,"sb\Lhighlight.png",320,240 MX,0,149177,,299 F,0,149177,149877,0.9,0.3 V,0,149177,149877,1,5,0,4 P,0,149177,149877,A
Sprite,Foreground,Centre,"sb\Lhighlight.png",320,240 R,0,149427,,1.57 MY,0,149427,,164 F,0,149427,150127,0.9,0.3 V,0,149427,150127,1,5,0,4 P,0,149427,150127,A
Sprite,Foreground,Centre,"sb\Lhighlight.png",320,240 MX,0,149427,,209 F,0,149427,150127,0.9,0.3 V,0,149427,150127,1,5,0,4 P,0,149427,150127,A
Sprite,Foreground,Centre,"sb\Lhighlight.png",320,240 R,0,149677,,1.57 MY,0,149677,,215 F,0,149677,150377,0.9,0.3 V,0,149677,150377,1,5,0,4 P,0,149677,150377,A
Sprite,Foreground,Centre,"sb\Lhighlight.png",320,240 MX,0,149677,,413 F,0,149677,150377,0.9,0.3 V,0,149677,150377,1,5,0,4 P,0,149677,150377,A
Sprite,Foreground,Centre,"sb\Lhighlight.png",320,240 R,0,149927,,1.57 MY,0,149927,,215 F,0,149927,150627,0.9,0.3 V,0,149927,150627,1,5,0,4 P,0,149927,150627,A
Sprite,Foreground,Centre,"sb\Lhighlight.png",320,240 MX,0,149927,,413 F,0,149927,150627,0.9,0.3 V,0,149927,150627,1,5,0,4 P,0,149927,150627,A
Sprite,Foreground,Centre,"sb\Lhighlight.png",320,240 R,0,150177,,1.57 MY,0,150177,,389 F,0,150177,150877,0.9,0.3 V,0,150177,150877,1,5,0,4 P,0,150177,150877,A
Sprite,Foreground,Centre,"sb\Lhighlight.png",320,240 MX,0,150177,,132 F,0,150177,150877,0.9,0.3 V,0,150177,150877,1,5,0,4 P,0,150177,150877,A
Sprite,Foreground,Centre,"sb\Lhighlight.png",320,240 R,0,150552,,1.57 MY,0,150552,,379 F,0,150552,151252,0.9,0.3 V,0,150552,151252,1,5,0,4 P,0,150552,151252,A
Sprite,Foreground,Centre,"sb\Lhighlight.png",320,240 MX,0,150552,,108 F,0,150552,151252,0.9,0.3 V,0,150552,151252,1,5,0,4 P,0,150552,151252,A
Sprite,Foreground,Centre,"sb\Lhighlight.png",320,240 R,0,150927,,1.57 MY,0,150927,,396 F,0,150927,151627,0.9,0.3 V,0,150927,151627,1,5,0,4 P,0,150927,151627,A
Sprite,Foreground,Centre,"sb\Lhighlight.png",320,240 MX,0,150927,,456 F,0,150927,151627,0.9,0.3 V,0,150927,151627,1,5,0,4 P,0,150927,151627,A
Sprite,Foreground,Centre,"sb\Lhighlight.png",320,240 R,0,151177,,1.57 MY,0,151177,,233 F,0,151177,151877,0.9,0.3 V,0,151177,151877,1,5,0,4 P,0,151177,151877,A
Sprite,Foreground,Centre,"sb\Lhighlight.png",320,240 MX,0,151177,,350 F,0,151177,151877,0.9,0.3 V,0,151177,151877,1,5,0,4 P,0,151177,151877,A
Sprite,Foreground,Centre,"sb\Lhighlight.png",320,240 R,0,151427,,1.57 MY,0,151427,,156 F,0,151427,152127,0.9,0.3 V,0,151427,152127,1,5,0,4 P,0,151427,152127,A
Sprite,Foreground,Centre,"sb\Lhighlight.png",320,240 MX,0,151427,,470 F,0,151427,152127,0.9,0.3 V,0,151427,152127,1,5,0,4 P,0,151427,152127,A
Sprite,Foreground,Centre,"sb\Lhighlight.png",320,240 R,0,151677,,1.57 MY,0,151677,,356 F,0,151677,152377,0.9,0.3 V,0,151677,152377,1,5,0,4 P,0,151677,152377,A
Sprite,Foreground,Centre,"sb\Lhighlight.png",320,240 MX,0,151677,,332 F,0,151677,152377,0.9,0.3 V,0,151677,152377,1,5,0,4 P,0,151677,152377,A
Sprite,Foreground,Centre,"sb\Lhighlight.png",320,240 R,0,151927,,1.57 MY,0,151927,,279 F,0,151927,152627,0.9,0.3 V,0,151927,152627,1,5,0,4 P,0,151927,152627,A
Sprite,Foreground,Centre,"sb\Lhighlight.png",320,240 MX,0,151927,,152 F,0,151927,152627,0.9,0.3 V,0,151927,152627,1,5,0,4 P,0,151927,152627,A
Sprite,Foreground,Centre,"sb\Lhighlight.png",320,240 R,0,152177,,1.57 MY,0,152177,,177 F,0,152177,152877,0.9,0.3 V,0,152177,152877,1,5,0,4 P,0,152177,152877,A
Sprite,Foreground,Centre,"sb\Lhighlight.png",320,240 MX,0,152177,,447 F,0,152177,152877,0.9,0.3 V,0,152177,152877,1,5,0,4 P,0,152177,152877,A
Sprite,Foreground,Centre,"sb\Lhighlight.png",320,240 R,0,152302,,1.57 MY,0,152302,,109 F,0,152302,153002,0.9,0.3 V,0,152302,153002,1,5,0,4 P,0,152302,153002,A
Sprite,Foreground,Centre,"sb\Lhighlight.png",320,240 MX,0,152302,,298 F,0,152302,153002,0.9,0.3 V,0,152302,153002,1,5,0,4 P,0,152302,153002,A
Sprite,Foreground,Centre,"sb\Lhighlight.png",320,240 R,0,152552,,1.57 MY,0,152552,,275 F,0,152552,153252,0.9,0.3 V,0,152552,153252,1,5,0,4 P,0,152552,153252,A
Sprite,Foreground,Centre,"sb\Lhighlight.png",320,240 MX,0,152552,,370 F,0,152552,153252,0.9,0.3 V,0,152552,153252,1,5,0,4 P,0,152552,153252,A
Sprite,Foreground,Centre,"sb\Lhighlight.png",320,240 R,0,152864,,1.57 MY,0,152864,,174 F,0,152864,153564,0.9,0.3 V,0,152864,153564,1,5,0,4 P,0,152864,153564,A
Sprite,Foreground,Centre,"sb\Lhighlight.png",320,240 MX,0,152864,,444 F,0,152864,153564,0.9,0.3 V,0,152864,153564,1,5,0,4 P,0,152864,153564,A
Sprite,Foreground,Centre,"sb\Lhighlight.png",320,240 R,0,152927,,1.57 MY,0,152927,,174 F,0,152927,153627,0.9,0.3 V,0,152927,153627,1,5,0,4 P,0,152927,153627,A
Sprite,Foreground,Centre,"sb\Lhighlight.png",320,240 MX,0,152927,,444 F,0,152927,153627,0.9,0.3 V,0,152927,153627,1,5,0,4 P,0,152927,153627,A
Sprite,Foreground,Centre,"sb\Lhighlight.png",320,240 R,0,153052,,1.57 MY,0,153052,,251 F,0,153052,153752,0.9,0.3 V,0,153052,153752,1,5,0,4 P,0,153052,153752,A
Sprite,Foreground,Centre,"sb\Lhighlight.png",320,240 MX,0,153052,,215 F,0,153052,153752,0.9,0.3 V,0,153052,153752,1,5,0,4 P,0,153052,153752,A
Sprite,Foreground,Centre,"sb\Lhighlight.png",320,240 R,0,153177,,1.57 MY,0,153177,,378 F,0,153177,153877,0.9,0.3 V,0,153177,153877,1,5,0,4 P,0,153177,153877,A
Sprite,Foreground,Centre,"sb\Lhighlight.png",320,240 MX,0,153177,,369 F,0,153177,153877,0.9,0.3 V,0,153177,153877,1,5,0,4 P,0,153177,153877,A
Sprite,Foreground,Centre,"sb\Lhighlight.png",320,240 R,0,153302,,1.57 MY,0,153302,,162 F,0,153302,154002,0.9,0.3 V,0,153302,154002,1,5,0,4 P,0,153302,154002,A
Sprite,Foreground,Centre,"sb\Lhighlight.png",320,240 MX,0,153302,,300 F,0,153302,154002,0.9,0.3 V,0,153302,154002,1,5,0,4 P,0,153302,154002,A
Sprite,Foreground,Centre,"sb\Lhighlight.png",320,240 R,0,153427,,1.57 MY,0,153427,,379 F,0,153427,154127,0.9,0.3 V,0,153427,154127,1,5,0,4 P,0,153427,154127,A
Sprite,Foreground,Centre,"sb\Lhighlight.png",320,240 MX,0,153427,,134 F,0,153427,154127,0.9,0.3 V,0,153427,154127,1,5,0,4 P,0,153427,154127,A
Sprite,Foreground,Centre,"sb\Lhighlight.png",320,240 R,0,153677,,1.57 MY,0,153677,,246 F,0,153677,154377,0.9,0.3 V,0,153677,154377,1,5,0,4 P,0,153677,154377,A
Sprite,Foreground,Centre,"sb\Lhighlight.png",320,240 MX,0,153677,,479 F,0,153677,154377,0.9,0.3 V,0,153677,154377,1,5,0,4 P,0,153677,154377,A
Sprite,Foreground,Centre,"sb\Lhighlight.png",320,240 R,0,153802,,1.57 MY,0,153802,,141 F,0,153802,154502,0.9,0.3 V,0,153802,154502,1,5,0,4 P,0,153802,154502,A
Sprite,Foreground,Centre,"sb\Lhighlight.png",320,240 MX,0,153802,,188 F,0,153802,154502,0.9,0.3 V,0,153802,154502,1,5,0,4 P,0,153802,154502,A
Sprite,Foreground,Centre,"sb\Lhighlight.png",320,240 R,0,154052,,1.57 MY,0,154052,,395 F,0,154052,154752,0.9,0.3 V,0,154052,154752,1,5,0,4 P,0,154052,154752,A
Sprite,Foreground,Centre,"sb\Lhighlight.png",320,240 MX,0,154052,,405 F,0,154052,154752,0.9,0.3 V,0,154052,154752,1,5,0,4 P,0,154052,154752,A
Sprite,Foreground,Centre,"sb\Lhighlight.png",320,240 R,0,154177,,1.57 MY,0,154177,,267 F,0,154177,154877,0.9,0.3 V,0,154177,154877,1,5,0,4 P,0,154177,154877,A
Sprite,Foreground,Centre,"sb\Lhighlight.png",320,240 MX,0,154177,,254 F,0,154177,154877,0.9,0.3 V,0,154177,154877,1,5,0,4 P,0,154177,154877,A
Sprite,Foreground,Centre,"sb\Lhighlight.png",320,240 R,0,154302,,1.57 MY,0,154302,,163 F,0,154302,155002,0.9,0.3 V,0,154302,155002,1,5,0,4 P,0,154302,155002,A
Sprite,Foreground,Centre,"sb\Lhighlight.png",320,240 MX,0,154302,,484 F,0,154302,155002,0.9,0.3 V,0,154302,155002,1,5,0,4 P,0,154302,155002,A
Sprite,Foreground,Centre,"sb\Lhighlight.png",320,240 R,0,154552,,1.57 MY,0,154552,,422 F,0,154552,155252,0.9,0.3 V,0,154552,155252,1,5,0,4 P,0,154552,155252,A
Sprite,Foreground,Centre,"sb\Lhighlight.png",320,240 MX,0,154552,,259 F,0,154552,155252,0.9,0.3 V,0,154552,155252,1,5,0,4 P,0,154552,155252,A
Sprite,Foreground,Centre,"sb\Lhighlight.png",320,240 R,0,154927,,1.57 MY,0,154927,,179 F,0,154927,155627,0.9,0.3 V,0,154927,155627,1,5,0,4 P,0,154927,155627,A
Sprite,Foreground,Centre,"sb\Lhighlight.png",320,240 MX,0,154927,,99 F,0,154927,155627,0.9,0.3 V,0,154927,155627,1,5,0,4 P,0,154927,155627,A
Sprite,Foreground,Centre,"sb\Lhighlight.png",320,240 R,0,155177,,1.57 MY,0,155177,,148 F,0,155177,155877,0.9,0.3 V,0,155177,155877,1,5,0,4 P,0,155177,155877,A
Sprite,Foreground,Centre,"sb\Lhighlight.png",320,240 MX,0,155177,,325 F,0,155177,155877,0.9,0.3 V,0,155177,155877,1,5,0,4 P,0,155177,155877,A
Sprite,Foreground,Centre,"sb\Lhighlight.png",320,240 R,0,155427,,1.57 MY,0,155427,,331 F,0,155427,156127,0.9,0.3 V,0,155427,156127,1,5,0,4 P,0,155427,156127,A
Sprite,Foreground,Centre,"sb\Lhighlight.png",320,240 MX,0,155427,,400 F,0,155427,156127,0.9,0.3 V,0,155427,156127,1,5,0,4 P,0,155427,156127,A
Sprite,Foreground,Centre,"sb\Lhighlight.png",320,240 R,0,155677,,1.57 MY,0,155677,,331 F,0,155677,156377,0.9,0.3 V,0,155677,156377,1,5,0,4 P,0,155677,156377,A
Sprite,Foreground,Centre,"sb\Lhighlight.png",320,240 MX,0,155677,,400 F,0,155677,156377,0.9,0.3 V,0,155677,156377,1,5,0,4 P,0,155677,156377,A
Sprite,Foreground,Centre,"sb\Lhighlight.png",320,240 R,0,156177,,1.57 MY,0,156177,,389 F,0,156177,156877,0.9,0.3 V,0,156177,156877,1,5,0,4 P,0,156177,156877,A
Sprite,Foreground,Centre,"sb\Lhighlight.png",320,240 MX,0,156177,,299 F,0,156177,156877,0.9,0.3 V,0,156177,156877,1,5,0,4 P,0,156177,156877,A
//Storyboard Sound Samples

[TimingPoints]
677,250,4,2,1,70,1,0
2427,-100,4,2,1,10,0,0
2675,-100,4,2,1,70,0,0
3550,-100,4,2,1,30,0,0
3675,-100,4,2,1,70,0,0
5550,-100,4,2,1,30,0,0
5675,-100,4,2,1,70,0,0
7550,-100,4,2,1,30,0,0
7675,-100,4,2,1,70,0,0
9550,-142.857142857143,4,2,1,70,0,0
10050,-166.666666666667,4,2,1,70,0,0
10675,-100,4,2,1,70,0,0
11550,-100,4,2,1,30,0,0
11675,-100,4,2,1,70,0,0
13550,-100,4,2,1,30,0,0
13675,-100,4,2,1,70,0,0
14300,-166.666666666667,4,2,1,70,0,0
14675,-100,4,2,1,70,0,0
15550,-100,4,2,1,30,0,0
15675,-100,4,2,1,70,0,0
17550,-100,4,2,1,30,0,0
17925,-100,4,2,1,70,0,0
18050,-80,4,2,1,70,0,0
18425,-100,4,2,1,70,0,0
19550,-100,4,2,1,30,0,0
19675,-100,4,2,1,70,0,0
21550,-100,4,2,1,30,0,0
21675,-100,4,2,1,70,0,0
22300,-166.666666666667,4,2,1,70,0,0
22675,-100,4,2,1,70,0,0
24675,-80,4,2,1,70,0,0
25050,-100,4,2,1,70,0,0
26675,-166.666666666667,4,2,1,70,0,0
29675,-100,4,2,1,70,0,0
44175,-125,4,2,1,70,0,0
44675,-125,4,2,1,70,0,0
52675,-111.111111111111,4,2,1,70,0,0
57239,-111.111111111111,4,2,1,20,0,0
57302,-111.111111111111,4,2,1,70,0,0
57677,-111.111111111111,4,2,1,50,0,0
57802,-111.111111111111,4,2,1,70,0,0
60675,-125,4,2,1,70,0,0
60800,-125,4,2,1,30,0,0
60925,-125,4,2,1,70,0,0
61177,-125,4,2,1,50,0,0
61302,-125,4,2,1,70,0,0
61550,-125,4,2,1,30,0,0
61675,-125,4,2,1,70,0,0
62800,-125,4,2,1,30,0,0
62987,-125,4,2,1,70,0,0
63177,-125,4,2,1,50,0,0
63302,-125,4,2,1,70,0,0
63550,-125,4,2,1,30,0,0
63675,-125,4,2,1,70,0,0
65550,-125,4,2,1,30,0,0
65675,-125,4,2,1,70,0,0
67800,-125,4,2,1,40,0,0
68552,-100,4,2,1,70,0,1
76552,-142.857142857143,4,2,1,70,0,0
78177,-200,4,2,1,70,0,1
78552,-142.857142857143,4,2,1,70,0,0
79677,-100,4,2,1,70,0,0
80552,-100,4,2,1,70,0,1
82677,-100,4,2,1,70,0,0
83552,-100,4,2,1,30,0,0
83677,-100,4,2,1,70,0,0
85552,-100,4,2,1,30,0,0
85677,-100,4,2,1,70,0,0
86300,-166.666666666667,4,2,1,70,0,0
86677,-100,4,2,1,70,0,0
87552,-100,4,2,1,30,0,0
87677,-100,4,2,1,70,0,0
89552,-100,4,2,1,30,0,0
89677,-100,4,2,1,70,0,0
89802,-100,4,2,1,55,0,0
90050,-80,4,2,1,70,0,0
90425,-100,4,2,1,70,0,0
91552,-100,4,2,1,30,0,0
91677,-100,4,2,1,70,0,0
93552,-100,4,2,1,30,0,0
93677,-100,4,2,1,70,0,0
94300,-166.666666666667,4,2,1,70,0,0
94677,-100,4,2,1,70,0,0
97677,-142.857142857143,4,2,1,70,0,0
98177,-166.666666666667,4,2,1,70,0,0
98677,-117.647058823529,4,2,1,55,0,0
99177,-117.647058823529,4,2,2,55,0,0
104052,-117.647058823529,4,2,1,55,0,0
104177,-117.647058823529,4,2,2,55,0,0
104427,-117.647058823529,4,2,1,55,0,0
104552,-117.647058823529,4,2,2,30,0,0
104677,-100,4,2,1,30,0,0
106677,-100,4,2,1,40,0,0
114677,-125,4,2,1,70,0,0
121677,-125,4,2,1,40,0,0
122552,-100,4,2,1,70,0,1
130552,-142.857142857143,4,2,1,70,0,0
132177,-200,4,2,1,70,0,1
132552,-142.857142857143,4,2,1,70,0,0
133677,-100,4,2,1,70,0,0
134552,-100,4,2,1,70,0,1
136552,-100,4,2,1,70,0,0
137364,-100,4,2,1,10,0,0
137427,-100,4,2,1,40,0,0
137614,-100,4,2,1,10,0,0
137677,-100,4,2,1,40,0,0
137864,-100,4,2,1,10,0,0
137927,-100,4,2,1,40,0,0
138114,-100,4,2,1,10,0,0
138177,-100,4,2,1,40,0,0
139364,-100,4,2,1,10,0,0
139427,-100,4,2,1,40,0,0
139614,-100,4,2,1,10,0,0
139677,-133.333333333333,4,2,1,40,0,0
140552,-100,4,2,1,40,0,0
141364,-100,4,2,1,10,0,0
141427,-100,4,2,1,40,0,0
141614,-100,4,2,1,10,0,0
141677,-100,4,2,1,40,0,0
141864,-100,4,2,1,10,0,0
141927,-100,4,2,1,40,0,0
142114,-100,4,2,1,10,0,0
142177,-100,4,2,1,40,0,0
142489,-100,4,2,1,10,0,0
142552,-100,4,2,1,40,0,0
143364,-100,4,2,1,10,0,0
143427,-100,4,2,1,40,0,0
143677,-100,4,2,1,40,0,0
144302,-80,4,2,1,40,0,0
144489,-80,4,2,1,10,0,0
144552,-100,4,2,1,40,0,0
145364,-100,4,2,1,10,0,0
145427,-100,4,2,1,40,0,0
145614,-100,4,2,1,10,0,0
145677,-100,4,2,1,40,0,0
145864,-100,4,2,1,10,0,0
145927,-100,4,2,1,40,0,0
146114,-100,4,2,1,10,0,0
146177,-100,4,2,1,40,0,0
146739,-100,4,2,1,10,0,0
146802,-100,4,2,1,40,0,0
147552,-100,4,2,1,40,0,0
148739,-100,4,2,1,10,0,0
148802,-100,4,2,1,40,0,0
149052,-100,4,2,1,10,0,0
149177,-100,4,2,1,40,0,0
149364,-100,4,2,1,10,0,0
149427,-100,4,2,1,40,0,0
149552,-100,4,2,1,10,0,0
149677,-100,4,2,1,40,0,0
149862,-100,4,2,1,10,0,0
149925,-100,4,2,1,40,0,0
150175,-142.857142857143,4,2,1,40,0,0
150550,-100,4,2,1,40,0,0
151112,-100,4,2,1,10,0,0
151175,-100,4,2,1,40,0,0
151364,-100,4,2,1,10,0,0
151427,-100,4,2,1,40,0,0
151552,-100,4,2,1,10,0,0
151677,-100,4,2,1,40,0,0
151864,-100,4,2,1,10,0,0
151927,-100,4,2,1,40,0,0
152302,-125,4,2,1,40,0,0
152489,-125,4,2,1,10,0,0
152552,-100,4,2,1,40,0,0
155114,-100,4,2,1,10,0,0
155177,-100,4,2,1,40,0,0
155364,-100,4,2,1,10,0,0
155427,-100,4,2,1,40,0,0
155614,-100,4,2,1,10,0,0
155677,-300,4,2,1,40,0,0
156552,-111.111111111111,4,2,1,70,0,1
162489,-111.111111111111,4,2,1,10,0,1
162552,-111.111111111111,4,2,1,70,0,1
163739,-111.111111111111,4,2,1,10,0,1
163802,-111.111111111111,4,2,1,70,0,1
164177,-111.111111111111,4,2,1,70,0,0
164552,-100,4,2,1,70,0,1
170489,-100,4,2,1,10,0,1
170552,-100,4,2,1,70,0,1
172677,-100,4,2,1,70,0,0
173177,-100,4,2,1,20,0,0
173302,-100,4,2,1,70,0,0
173427,-100,4,2,1,20,0,0
173552,-100,4,2,1,70,0,0
174614,-100,4,2,1,10,0,0
174677,-100,4,2,1,70,0,0
177177,-100,4,2,1,20,0,0
177302,-100,4,2,1,70,0,0
188552,-100,4,2,1,10,0,0
188677,-100,4,2,1,70,0,0
189802,-100,4,2,1,40,0,0
190552,-142.857142857143,4,2,1,70,0,1
191552,-142.857142857143,4,2,1,70,0,0
191802,-142.857142857143,4,2,1,70,0,0
192552,-142.857142857143,4,2,1,70,0,1
193677,-142.857142857143,4,2,1,50,0,0
194177,-142.857142857143,4,2,1,70,0,0
194552,-200,4,2,1,70,0,1
194927,-117.647058823529,4,2,1,70,0,1
195177,-100,4,2,1,70,0,1
195677,-100,4,2,1,70,0,0
196927,-66.6666666666667,4,2,1,70,0,0
197177,-100,4,2,1,70,0,0
198552,-142.857142857143,4,2,1,70,0,0
200177,-300,4,2,1,70,0,1
200552,-142.857142857143,4,2,1,70,0,0
201677,-100,4,2,1,70,0,0
202177,-100,4,2,1,70,0,0
202552,-100,4,2,1,70,0,1
203802,-100,4,2,1,70,0,0
204552,-90.9090909090909,4,2,1,80,0,1
212552,-142.857142857143,4,2,1,80,0,0
214177,-330,4,2,1,80,0,1
214552,-142.857142857143,4,2,1,80,0,0
215677,-100,4,2,1,70,0,0
216552,-100,4,2,1,70,0,1
218677,-100,4,2,1,70,0,0

[Colours]
Combo1 : 185,197,206
Combo2 : 55,145,253

[HitObjects]
256,192,677,12,0,2427,2:0:0:0:
235,91,2677,5,6,0:0:0:0:
324,299,2802,1,0,0:0:0:0:
163,215,2927,2,0,P|127:218|92:248,1,82.5,0|2,0:0|0:0,0:0:0:0:
455,344,3177,2,0,L|467:214,1,123.75,0|0,0:0|2:0,0:0:0:0:
466,220,3427,1,6,0:0:0:0:
383,133,3552,5,8,0:0:0:0:
383,133,3614,1,8,0:0:0:0:
383,133,3677,1,8,0:0:0:0:
504,60,3802,1,2,0:0:0:0:
283,21,3927,2,0,L|273:116,1,82.5,2|0,0:0|0:0,0:0:0:0:
148,270,4177,1,0,0:0:0:0:
352,193,4302,1,2,0:0:0:0:
163,89,4427,2,0,P|111:92|85:115,1,82.5,2|0,0:0|0:0,0:0:0:0:
344,267,4677,6,0,L|353:183,1,82.5,6|0,0:0|0:0,0:0:0:0:
165,213,4927,1,0,0:0:0:0:
344,267,5052,1,2,0:0:0:0:
179,335,5177,2,0,L|164:207,1,123.75,0|0,0:0|2:0,0:0:0:0:
164,212,5427,1,6,0:0:0:0:
86,104,5552,5,8,0:0:0:0:
86,104,5614,1,8,0:0:0:0:
86,104,5677,1,8,0:0:0:0:
287,235,5802,1,2,0:0:0:0:
38,235,5927,5,2,0:0:0:0:
244,82,6052,1,0,0:0:0:0:
156,258,6177,5,8,0:0:0:0:
159,274,6302,1,8,0:0:0:0:
162,290,6427,2,0,L|178:373,1,82.5,2|0,0:0|0:0,0:0:0:0:
67,336,6677,5,6,0:0:0:0:
272,286,6802,1,0,0:0:0:0:
67,336,6927,1,0,0:0:0:0:
286,187,7052,2,0,B|332:199|332:199|349:223|349:223|400:237,1,123.75,2|0,0:0|2:0,0:0:0:0:
463,179,7302,1,0,0:0:0:0:
272,286,7427,1,6,0:0:0:0:
453,356,7552,5,8,0:0:0:0:
453,356,7614,1,8,0:0:0:0:
453,356,7677,1,8,0:0:0:0:
286,187,7802,2,0,P|280:159|304:104,1,82.5,2|2,0:0|0:0,0:0:0:0:
173,315,8052,1,8,0:0:0:0:
365,267,8177,5,8,0:0:0:0:
118,170,8302,1,2,0:0:0:0:
423,57,8427,1,8,0:0:0:0:
71,13,8677,5,2,0:0:0:0:
71,13,8802,2,0,B|60:56|60:56|71:112,1,82.5
180,324,9052,1,2,0:0:0:0:
0,197,9177,1,8,0:0:0:0:
267,109,9302,2,0,B|278:152|278:152|267:208,1,82.5,2|6,0:0|0:0,0:0:0:0:
18,325,9552,6,0,P|43:309|79:314,1,57.7499982376099,0|2,0:0|0:0,0:0:0:0:
470,254,9802,2,0,P|444:238|409:243,1,57.7499982376099
153,143,10052,5,0,0:0:0:0:
153,143,10114,1,0,0:0:0:0:
152,142,10177,2,0,L|161:201,1,49.4999984893799
392,19,10427,2,0,L|382:109,1,74.2499977340699,0|0,0:0|2:0,0:0:0:0:
392,19,10677,6,0,P|434:28|459:58,1,82.5,6|0,0:0|0:0,0:0:0:0:
310,344,10927,2,0,P|350:336|377:306,1,82.5,0|2,0:0|0:0,0:0:0:0:
243,50,11177,2,0,L|120:64,1,123.75,8|0,0:0|2:0,0:0:0:0:
120,64,11427,1,6,0:0:0:0:
283,201,11552,5,8,0:0:0:0:
283,201,11614,1,8,0:0:0:0:
283,201,11677,1,8,0:0:0:0:
159,300,11802,2,0,P|118:290|74:284,1,82.5,2|0,0:0|0:0,0:0:0:0:
243,50,12052,1,2,0:0:0:0:
433,160,12177,2,0,L|422:264,1,82.5,8|0,0:0|0:0,0:0:0:0:
170,170,12427,1,0,0:0:0:0:
388,31,12552,1,0,0:0:0:0:
444,337,12677,5,4,0:0:0:0:
444,337,12802,2,0,P|405:340|361:311,1,82.5
125,138,13052,1,2,0:0:0:0:
245,298,13177,2,0,B|269:250|269:250|262:169,1,123.75,8|0,0:0|2:0,0:0:0:0:
259,133,13427,5,6,0:0:0:0:
116,330,13552,1,2,0:0:0:0:
116,330,13614,1,2,0:0:0:0:
116,330,13677,1,2,0:0:0:0:
392,224,13802,6,0,L|501:226,1,82.5,8|2,0:0|0:0,0:0:0:0:
132,105,14052,2,0,L|35:97,1,82.5,8|2,0:0|0:0,0:0:0:0:
419,22,14302,6,0,B|432:65|432:65|415:125,1,98.9999969787599,8|0,0:0|2:0,0:0:0:0:
419,22,14677,5,2,0:0:0:0:
477,242,14802,2,0,P|444:246|400:289,1,82.5
275,62,15052,1,2,0:0:0:0:
90,208,15177,2,0,P|150:198|222:196,1,123.75,8|0,0:0|2:0,0:0:0:0:
281,245,15427,1,6,0:0:0:0:
89,91,15552,6,0,L|80:37,2,41.25,8|8|0,0:0|0:0|0:0,0:0:0:0:
34,311,15802,1,2,0:0:0:0:
292,163,15927,2,0,P|288:217|277:253,1,82.5,2|0,0:0|0:0,0:0:0:0:
24,209,16177,2,0,B|93:189|79:245|143:228,1,123.75,8|0,0:0|2:0,0:0:0:0:
197,139,16427,2,0,P|205:95|186:62,1,82.5
279,341,16677,5,2,0:0:0:0:
140,228,16802,1,0,0:0:0:0:
365,162,16927,2,0,L|356:261,1,82.5,0|2,0:0|0:0,0:0:0:0:
88,48,17177,2,0,L|97:147,1,82.5,8|0,0:0|0:0,0:0:0:0:
463,8,17427,2,0,L|454:107,1,82.5,6|8,0:0|0:0,0:0:0:0:
455,90,17614,1,8,0:0:0:0:
455,90,17677,1,8,0:0:0:0:
481,280,17802,5,8,0:0:0:0:
450,307,17864,1,8,0:0:0:0:
408,305,17927,1,8,0:0:0:0:
185,169,18052,6,0,B|242:155|242:155|281:168|281:168|359:152,1,154.6875,2|0,0:0|0:0,0:0:0:0:
267,83,18302,6,0,P|283:102|286:127,1,51.5625,2|0,0:0|2:0,0:0:0:0:
223,271,18427,2,0,B|208:355|208:355|249:318,1,123.75,8|0,0:0|2:0,0:0:0:0:
325,266,18677,5,6,0:0:0:0:
99,331,18802,1,0,0:0:0:0:
325,266,18927,2,0,P|356:272|392:322,1,82.5,0|2,0:0|0:0,0:0:0:0:
74,66,19177,2,0,L|65:177,1,82.5,8|0,0:0|0:0,0:0:0:0:
360,140,19427,1,6,0:0:0:0:
161,259,19552,2,0,L|165:218,1,41.25,10|10,0:0|0:0,0:0:0:0:
97,323,19677,6,0,B|56:327|56:327|14:298,1,82.5,8|2,0:0|0:0,0:0:0:0:
226,111,19927,1,2,0:0:0:0:
293,304,20052,1,0,0:0:0:0:
67,148,20177,2,0,L|74:66,1,82.5,8|0,0:0|0:0,0:0:0:0:
414,278,20427,2,0,L|407:196,1,82.5
371,24,20677,6,0,P|411:29|443:58,1,82.5,6|0,0:0|0:0,0:0:0:0:
259,257,20927,1,0,0:0:0:0:
497,154,21052,1,2,0:0:0:0:
275,35,21177,2,0,L|286:167,1,123.75,8|0,0:0|2:0,0:0:0:0:
285,158,21427,1,6,0:0:0:0:
401,290,21552,1,8,0:0:0:0:
412,293,21614,1,8,0:0:0:0:
423,297,21677,1,8,0:0:0:0:
166,233,21802,6,0,P|125:239|93:290,1,82.5,8|2,0:0|0:0,0:0:0:0:
382,53,22052,2,0,P|422:58|456:87,1,82.5,8|2,0:0|0:0,0:0:0:0:
138,17,22302,6,0,L|145:116,1,98.9999969787599,12|0,0:0|2:0,0:0:0:0:
138,17,22677,5,6,0:0:0:0:
224,224,22802,1,0,0:0:0:0:
31,142,22927,1,8,0:0:0:0:
279,49,23052,2,0,P|311:49|369:124,1,123.75,2|0,0:0|2:0,0:0:0:0:
368,112,23302,1,2,0:0:0:0:
150,267,23427,2,0,B|108:268|108:268|68:240,1,82.5,12|0,0:0|0:0,0:0:0:0:
131,179,23614,5,0,0:0:0:0:
131,179,23677,1,0,0:0:0:0:
381,286,23802,1,2,0:0:0:0:
235,349,23927,2,0,L|244:254,1,82.5,8|0,0:0|0:0,0:0:0:0:
442,117,24177,1,2,0:0:0:0:
272,56,24302,1,0,0:0:0:0:
442,117,24427,2,0,L|452:199,1,82.5,8|0,0:0|0:0,0:0:0:0:
235,349,24677,6,0,B|128:368|128:368|155:320,1,154.6875,6|0,0:0|2:0,0:0:0:0:
205,262,24927,1,2,0:0:0:0:
90,169,25052,2,0,P|93:127|185:102,1,123.75,8|0,2:0|2:0,2:0:0:0:
200,118,25302,1,2,2:0:0:0:
370,63,25427,2,0,L|385:176,1,82.5,12|0,0:0|0:0,0:0:0:0:
161,241,25677,5,2,0:0:0:0:
268,42,25802,1,8,0:0:0:0:
268,42,25864,1,8,0:0:0:0:
268,42,25927,1,8,0:0:0:0:
389,295,26052,2,0,B|431:297|431:297|464:271,1,82.5,8|2,0:0|0:0,0:0:0:0:
137,94,26302,1,8,3:0:0:0:
137,94,26364,1,8,3:0:0:0:
137,94,26427,2,0,L|147:191,1,82.5,8|2,3:0|0:0,0:0:0:0:
105,341,26677,6,0,B|81:318|54:317|54:317|85:299|126:294|161:318|161:318|226:268|249:272|279:297|232:308,1,296.99999093628,2|0,0:0|0:0,0:0:0:0:
507,179,27677,6,0,B|476:212|468:255|468:255|425:223|425:223|384:238|323:212|323:212|344:199|372:198,1,296.99999093628,4|0,0:0|0:0,0:0:0:0:
97,122,28677,6,0,B|77:131|37:123|37:123|67:103|134:97|170:113|170:113|143:71|154:35|174:40|196:60|185:59,1,296.99999093628,4|0,0:0|0:0,0:0:0:0:
423,185,29677,5,6,0:0:0:0:
423,185,29927,2,0,L|417:234,1,41.25,2|2,0:0|0:0,0:0:0:0:
297,137,30052,2,0,L|290:97,1,41.25,2|2,0:0|0:0,0:0:0:0:
199,228,30177,1,2,0:0:0:0:
199,228,30677,6,0,P|163:224|132:188,1,82.5,2|8,0:0|0:0,0:0:0:0:
453,64,30927,2,0,L|442:158,1,82.5,2|8,0:0|0:0,0:0:0:0:
139,82,31177,2,0,P|96:84|53:119,1,82.5,2|8,0:0|0:0,0:0:0:0:
485,330,31427,2,0,L|496:243,1,82.5,2|8,0:0|0:0,0:0:0:0:
266,25,31677,5,2,0:0:0:0:
376,223,31802,1,8,0:0:0:0:
175,176,31927,5,2,0:0:0:0:
405,89,32052,1,8,0:0:0:0:
149,47,32177,5,2,0:0:0:0:
197,277,32302,2,0,L|209:329,2,41.25,8|0|2,0:0|0:0|0:0,0:0:0:0:
205,157,32552,1,8,0:0:0:0:
50,192,32677,6,0,B|159:208|97:147|218:157,1,165,2|2,0:0|0:0,0:0:0:0:
352,83,33052,2,0,P|379:88|418:162,1,82.5,8|2,0:0|0:0,0:0:0:0:
198,278,33302,1,8,0:0:0:0:
376,339,33427,2,0,L|361:253,1,82.5,2|8,0:0|0:0,0:0:0:0:
186,28,33677,5,8,0:0:0:0:
136,25,33802,1,8,0:0:0:0:
96,55,33927,1,2,0:0:0:0:
81,102,34052,1,2,0:0:0:0:
269,188,34177,5,2,0:0:0:0:
81,292,34302,1,2,0:0:0:0:
175,117,34427,5,8,0:0:0:0:
254,354,34552,1,8,0:0:0:0:
49,200,34677,6,0,P|93:205|132:217,1,82.5,6|0,0:0|0:0,0:0:0:0:
391,86,34927,1,8,0:0:0:0:
378,288,35052,2,0,P|333:285|293:170,1,165,6|2,0:0|0:0,0:0:0:0:
121,47,35427,1,8,0:0:0:0:
121,47,35677,6,0,P|121:91|114:137,1,82.5,6|0,0:0|0:0,0:0:0:0:
206,307,35927,1,8,0:0:0:0:
416,127,36052,2,0,P|408:209|421:290,1,165,6|2,0:0|0:0,0:0:0:0:
270,217,36427,2,0,P|231:200|233:150,1,82.5,8|0,0:0|0:0,0:0:0:0:
59,341,36677,6,0,P|92:326|148:320,1,82.5,6|0,0:0|0:0,0:0:0:0:
326,343,36927,1,8,0:0:0:0:
166,95,37052,2,0,P|92:116|83:194,1,165,6|2,0:0|0:0,0:0:0:0:
355,71,37427,2,0,P|353:116|361:160,1,82.5,8|0,0:0|0:0,0:0:0:0:
438,328,37677,5,2,0:0:0:0:
251,196,37802,1,8,0:0:0:0:
449,116,37927,2,0,P|477:123|517:181,1,82.5,2|8,0:0|0:0,0:0:0:0:
330,338,38177,5,8,3:0:0:0:
306,344,38239,1,8,3:0:0:0:
283,342,38302,1,8,3:0:0:0:
262,332,38364,1,8,3:0:0:0:
243,318,38427,1,8,0:0:0:0:
222,308,38489,1,8,0:0:0:0:
198,306,38552,1,8,0:0:0:0:
173,311,38614,1,8,0:0:0:0:
151,324,38677,6,0,P|146:280|160:242,1,82.5,6|8,0:0|0:0,0:0:0:0:
345,39,38927,2,0,L|364:137,1,82.5,2|8,0:0|0:0,0:0:0:0:
53,155,39177,2,0,P|77:131|144:122,1,82.5,2|8,0:0|0:0,0:0:0:0:
483,155,39427,2,0,L|471:259,1,82.5,2|8,0:0|0:0,0:0:0:0:
234,83,39677,5,2,0:0:0:0:
328,220,39802,1,8,0:0:0:0:
366,82,39927,5,2,0:0:0:0:
222,304,40052,1,8,0:0:0:0:
433,269,40177,5,2,0:0:0:0:
219,176,40302,1,8,0:0:0:0:
219,176,40364,1,0,0:0:0:0:
219,176,40427,1,2,0:0:0:0:
361,93,40552,2,0,L|354:162,1,41.25,8|0,0:0|0:0,0:0:0:0:
333,326,40677,6,0,B|395:312|395:312|417:279|417:279|484:265,1,165,6|0,0:0|0:0,0:0:0:0:
170,200,41052,2,0,B|108:186|108:186|86:153|86:153|19:139,1,165,8|2,0:0|0:0,0:0:0:0:
383,40,41427,2,0,P|420:48|457:102,1,82.5,12|0,0:0|0:0,0:0:0:0:
472,283,41677,5,8,0:0:0:0:
276,213,41802,1,8,0:0:0:0:
379,127,41927,1,2,0:0:0:0:
273,341,42052,5,2,0:0:0:0:
186,132,42177,1,8,0:0:0:0:
377,226,42302,1,8,3:0:0:0:
162,264,42427,5,8,0:0:0:0:
289,77,42552,1,8,0:0:0:0:
84,37,42677,5,6,0:0:0:0:
84,37,42802,2,0,B|72:80|72:80|84:142,1,82.5
274,364,43052,2,0,B|286:321|286:321|274:259,1,82.5,8|0,0:0|0:0,0:0:0:0:
425,72,43302,2,0,B|424:116|424:116|452:173,1,82.5,2|0,0:0|0:0,0:0:0:0:
70,233,43552,6,0,B|111:218|111:218|166:224,1,82.5,4|0,0:0|0:0,0:0:0:0:
301,86,43802,1,2,0:0:0:0:
392,326,43927,2,0,B|351:341|351:341|312:336,1,82.5,8|2,0:0|0:0,0:0:0:0:
112,120,44177,6,0,B|44:81|44:81|84:205,1,198,8|0,0:0|2:0,0:0:0:0:
76,301,44677,6,0,P|101:302|139:282,1,66,6|0,0:0|0:0,0:0:0:0:
250,342,44927,1,2,0:0:0:0:
351,272,45052,1,0,0:0:0:0:
351,272,45114,1,0,0:0:0:0:
351,272,45177,2,0,L|338:184,1,66
430,47,45427,1,6,0:0:0:0:
430,47,45552,2,0,L|440:96,1,33
447,130,45677,5,0,0:0:0:0:
343,88,45802,1,2,0:0:0:0:
249,51,45927,2,0,P|216:61|196:100,1,66
96,259,46177,2,0,P|103:225|80:188,1,66,8|0,0:0|0:0,0:0:0:0:
12,25,46427,2,0,P|37:48|80:46,1,66
378,348,46677,6,0,L|393:209,1,132,6|2,0:0|0:0,0:0:0:0:
334,126,47052,1,0,0:0:0:0:
411,59,47177,2,0,P|447:65|477:91,1,66
220,190,47427,1,6,0:0:0:0:
265,25,47552,5,0,0:0:0:0:
265,25,47614,1,0,0:0:0:0:
265,25,47677,2,0,P|236:25|199:64,1,66,0|2,0:0|0:0,0:0:0:0:
100,128,47927,2,0,L|92:62,1,66,2|0,0:0|0:0,0:0:0:0:
175,217,48177,1,8,0:0:0:0:
106,314,48302,2,0,P|73:312|47:292,1,66
263,104,48552,1,0,0:0:0:0:
410,283,48677,6,0,P|360:270|277:261,1,132,6|2,0:0|0:0,0:0:0:0:
161,160,49052,1,0,0:0:0:0:
372,58,49177,2,0,P|375:91|371:124,1,66
280,261,49427,1,6,0:0:0:0:
161,155,49552,5,0,0:0:0:0:
161,155,49614,1,0,0:0:0:0:
161,155,49677,2,0,P|128:157|97:184,1,66,0|2,0:0|0:0,0:0:0:0:
380,232,49927,1,0,0:0:0:0:
268,53,50052,1,0,0:0:0:0:
179,275,50177,2,0,P|205:294|237:296,1,66,8|0,0:0|0:0,0:0:0:0:
444,68,50427,2,0,L|438:148,1,66
278,168,50677,5,6,0:0:0:0:
421,297,50802,1,0,0:0:0:0:
421,297,50927,1,0,0:0:0:0:
204,273,51052,5,8,0:0:0:0:
401,138,51177,2,0,P|428:146|459:198,1,66
327,354,51427,5,6,0:0:0:0:
202,163,51552,1,0,0:0:0:0:
205,143,51614,1,0,0:0:0:0:
208,123,51677,1,0,0:0:0:0:
64,173,51802,1,2,0:0:0:0:
243,245,51927,5,2,0:0:0:0:
83,72,52052,1,0,0:0:0:0:
44,263,52177,2,0,B|30:353|30:353|81:329,1,132,12|0,0:0|0:0,0:0:0:0:
275,109,52552,1,0,0:0:0:0:
434,293,52677,6,0,P|382:279|322:284,1,111.374996601105,6|0,0:0|2:0,0:0:0:0:
326,284,52927,1,8,0:0:0:0:
103,176,53052,2,0,P|144:179|183:170,1,74.2499977340699,6|0,0:0|0:0,0:0:0:0:
311,96,53302,1,2,0:0:0:0:
144,291,53427,6,0,P|153:340|245:364,1,148.49999546814,8|0,0:0|0:0,0:0:0:0:
331,288,53802,1,2,0:0:0:0:
463,320,53927,2,0,P|468:285|464:244,1,74.2499977340699,8|0,0:0|0:0,0:0:0:0:
359,25,54177,1,0,0:0:0:0:
324,165,54302,1,2,0:0:0:0:
324,165,54364,1,2,0:0:0:0:
324,165,54427,1,8,0:0:0:0:
478,100,54552,1,0,0:0:0:0:
327,275,54677,6,0,P|286:278|231:200,1,111.374996601105,6|0,0:0|0:0,0:0:0:0:
478,290,54927,2,0,L|471:332,1,37.1249988670349,2|0,0:0|0:0,0:0:0:0:
415,215,55052,2,0,L|406:141,1,74.2499977340699,8|0,0:0|0:0,0:0:0:0:
189,330,55302,1,2,0:0:0:0:
93,134,55427,2,0,P|146:137|217:151,1,111.374996601105,8|0,0:0|2:0,0:0:0:0:
203,147,55677,5,6,0:0:0:0:
95,8,55802,1,8,0:0:0:0:
316,39,55927,2,0,P|337:81|320:136,1,74.2499977340699,2|8,0:0|0:0,0:0:0:0:
158,267,56177,1,8,3:0:0:0:
158,267,56239,1,8,3:0:0:0:
158,267,56302,1,8,3:0:0:0:
275,179,56427,6,0,L|285:220,1,37.1249988670349,8|8,0:0|0:0,0:0:0:0:
351,338,56552,1,8,0:0:0:0:
351,338,56614,1,8,0:0:0:0:
351,338,56677,2,0,B|306:306|306:306|283:211,1,148.49999546814,2|0,0:0|0:0,0:0:0:0:
443,39,57052,2,0,L|430:180,1,111.374996601105,0|0,0:0|2:0,0:0:0:0:
432,149,57302,1,0,0:0:0:0:
217,101,57427,2,0,P|245:77|282:73,1,74.2499977340699
55,238,57677,6,0,P|123:250|207:255,1,148.49999546814,6|0,0:0|0:0,0:0:0:0:
475,274,58052,2,0,P|406:270|358:342,1,148.49999546814
153,125,58427,1,0,0:0:0:0:
262,57,58552,5,2,0:0:0:0:
262,57,58614,1,2,0:0:0:0:
262,57,58677,1,2,0:0:0:0:
192,365,58927,1,2,0:0:0:0:
374,133,59177,1,2,0:0:0:0:
99,202,59427,1,2,0:0:0:0:
306,274,59552,5,2,0:0:0:0:
306,274,59614,1,2,0:0:0:0:
306,274,59677,1,8,0:0:0:0:
37,71,59927,1,8,0:0:0:0:
409,183,60177,1,8,0:0:0:0:
40,326,60427,1,8,0:0:0:0:
183,180,60677,5,6,0:0:0:0:
294,308,60802,1,8,0:0:0:0:
294,308,60864,1,8,0:0:0:0:
294,308,60927,2,0,P|331:305|358:282,1,66,0|2,0:0|0:0,0:0:0:0:
416,170,61177,1,4,0:0:0:0:
258,83,61302,1,0,0:0:0:0:
258,83,61427,2,0,L|268:170,1,66,6|0,0:0|0:0,0:0:0:0:
270,196,61614,1,0,0:0:0:0:
270,196,61677,1,8,0:0:0:0:
112,132,61802,5,2,0:0:0:0:
112,132,61927,1,2,0:0:0:0:
67,331,62052,2,0,B|116:319|116:319|139:294|139:294|192:285,1,132,0|2,0:0|0:0,0:0:0:0:
384,223,62427,2,0,P|407:238|422:284,1,66,8|0,0:0|0:0,0:0:0:0:
335,13,62677,5,2,0:0:0:0:
175,99,62802,1,0,0:0:0:0:
175,99,62864,1,0,0:0:0:0:
175,99,62927,2,0,L|189:185,1,66,0|2,0:0|0:0,0:0:0:0:
262,321,63177,1,4,0:0:0:0:
262,321,63302,1,0,0:0:0:0:
32,248,63427,2,0,P|53:230|106:225,1,66,6|8,0:0|0:0,0:0:0:0:
185,164,63614,5,8,0:0:0:0:
185,164,63677,2,0,P|219:177|243:217,1,66,8|2,0:0|0:0,0:0:0:0:
133,334,63927,1,2,0:0:0:0:
370,206,64052,1,0,0:0:0:0:
185,164,64177,5,8,0:0:0:0:
294,330,64302,1,2,0:0:0:0:
235,72,64427,1,2,0:0:0:0:
452,264,64677,5,2,0:0:0:0:
452,264,64802,2,0,P|414:262|374:256,1,66
96,254,65052,2,0,P|107:218|175:199,1,99,2|0,0:0|2:0,0:0:0:0:
160,195,65302,1,0,0:0:0:0:
325,96,65427,2,0,P|336:126|330:158,1,66,2|8,0:0|0:0,0:0:0:0:
274,225,65614,5,8,0:0:0:0:
274,225,65677,1,8,0:0:0:0:
384,297,65802,1,2,0:0:0:0:
226,111,65927,5,2,0:0:0:0:
150,318,66052,1,0,0:0:0:0:
354,156,66177,5,8,0:0:0:0:
119,210,66302,1,0,0:0:0:0:
312,304,66427,5,2,0:0:0:0:
187,40,66552,1,0,0:0:0:0:
435,200,66677,5,8,0:0:0:0:
435,200,66802,2,0,P|475:208|527:213,1,66,2|0,0:0|0:0,0:0:0:0:
113,292,67052,1,8,0:0:0:0:
113,292,67177,2,0,P|79:291|35:282,1,66,8|2,0:0|0:0,0:0:0:0:
232,97,67427,1,8,0:0:0:0:
328,375,67552,1,2,0:0:0:0:
175,178,67802,5,0,0:0:0:0:
340,139,67927,1,0,0:0:0:0:
261,287,68052,1,0,0:0:0:0:
275,53,68177,1,0,0:0:0:0:
125,315,68302,1,0,0:0:0:0:
415,215,68427,1,0,0:0:0:0:
120,101,68552,6,0,B|64:73|64:73|90:176,1,165,6|2,0:0|0:0,0:0:0:0:
429,351,68927,2,0,P|384:348|353:308,1,82.5,8|0,0:0|0:0,0:0:0:0:
255,80,69177,1,2,0:0:0:0:
193,298,69302,1,2,0:0:0:0:
403,193,69427,1,8,0:0:0:0:
149,156,69552,6,0,P|104:161|84:242,1,123.75,2|0,0:0|2:0,0:0:0:0:
77,227,69802,1,2,0:0:0:0:
245,118,69927,1,8,0:0:0:0:
149,323,70052,1,0,0:0:0:0:
13,68,70177,2,0,P|53:61|94:68,1,82.5,0|2,0:0|0:0,0:0:0:0:
269,7,70427,1,8,0:0:0:0:
457,280,70552,6,0,P|385:299|283:303,1,165,6|2,0:0|0:0,0:0:0:0:
100,118,70927,2,0,P|105:80|143:49,1,82.5,8|0,0:0|0:0,0:0:0:0:
397,170,71177,1,2,0:0:0:0:
118,260,71302,1,2,0:0:0:0:
272,39,71427,1,8,0:0:0:0:
271,329,71552,6,0,B|243:284|243:284|259:178,1,123.75,2|0,0:0|2:0,0:0:0:0:
261,167,71802,1,2,0:0:0:0:
141,283,71927,1,8,0:0:0:0:
383,150,72052,1,2,0:0:0:0:
199,47,72177,1,8,0:0:0:0:
349,265,72302,1,2,0:0:0:0:
349,265,72364,1,2,0:0:0:0:
349,265,72427,1,8,0:0:0:0:
142,136,72552,6,0,B|33:118|33:118|71:72,1,165,6|2,0:0|0:0,0:0:0:0:
439,17,72927,2,0,P|457:47|452:102,1,82.5,8|0,0:0|0:0,0:0:0:0:
248,263,73177,1,2,0:0:0:0:
343,74,73302,1,2,0:0:0:0:
465,323,73427,2,0,L|368:341,1,82.5,8|2,0:0|0:0,0:0:0:0:
140,170,73677,5,8,0:0:0:0:
378,227,73802,1,2,0:0:0:0:
101,292,73927,1,8,0:0:0:0:
344,91,74052,1,2,0:0:0:0:
237,342,74177,1,8,0:0:0:0:
237,342,74302,2,0,L|242:256,1,82.5,2|0,0:0|0:0,0:0:0:0:
36,66,74552,6,0,B|98:78|98:78|117:113|117:113|187:128,1,165,6|2,0:0|0:0,0:0:0:0:
450,260,74927,2,0,L|369:272,1,82.5,8|0,0:0|0:0,0:0:0:0:
135,299,75177,1,2,0:0:0:0:
293,90,75302,1,2,0:0:0:0:
450,260,75427,2,0,P|462:298|453:338,1,82.5,8|2,0:0|0:0,0:0:0:0:
225,215,75677,5,0,0:0:0:0:
225,215,75802,1,2,0:0:0:0:
343,304,75927,1,8,0:0:0:0:
253,81,76052,1,2,0:0:0:0:
126,322,76177,1,8,0:0:0:0:
399,189,76302,1,8,3:0:0:0:
79,97,76427,1,8,3:0:0:0:
356,0,76552,6,0,B|366:44|366:44|345:128,1,115.49999647522,6|0,0:0|0:0,0:0:0:0:
81,213,76927,2,0,P|106:213|144:236,1,57.7499982376099,6|0,0:0|0:0,0:0:0:0:
432,330,77177,2,0,L|300:347,1,115.49999647522,8|0,0:0|2:0,0:0:0:0:
33,271,77677,5,6,0:0:0:0:
483,206,77927,1,6,0:0:0:0:
110,22,78177,6,0,L|123:115,1,82.5,8|0,0:0|0:0,0:0:0:0:
332,109,78552,6,0,L|321:237,1,115.49999647522,6|0,0:0|0:0,0:0:0:0:
125,237,78927,2,0,P|96:239|60:208,1,57.7499982376099,6|0,0:0|0:0,0:0:0:0:
448,267,79177,2,0,L|439:338,1,57.7499982376099,8|0,0:0|0:0,0:0:0:0:
146,54,79427,2,0,L|155:125,1,57.7499982376099
73,340,79677,6,0,B|116:339|116:339|160:305,1,82.5,6|0,0:0|0:0,0:0:0:0:
448,219,79927,2,0,B|405:218|405:218|361:184,1,82.5,8|2,0:0|0:0,0:0:0:0:
146,65,80177,1,8,0:0:0:0:
140,54,80302,1,8,3:0:0:0:
135,44,80427,1,8,3:0:0:0:
386,19,80552,6,0,L|371:182,1,123.75,6|0,0:0|2:0,0:0:0:0:
374,142,80802,1,2,0:0:0:0:
437,315,80927,2,0,P|398:315|357:342,1,82.5,8|0,0:0|0:0,0:0:0:0:
152,177,81177,1,2,0:0:0:0:
123,158,81302,1,2,0:0:0:0:
90,139,81427,1,8,0:0:0:0:
348,108,81552,6,0,L|333:271,1,123.75,6|0,0:0|2:0,0:0:0:0:
336,231,81802,1,2,0:0:0:0:
130,299,81927,2,0,P|169:299|210:326,1,82.5,8|2,0:0|0:0,0:0:0:0:
455,207,82177,1,8,0:0:0:0:
237,80,82302,1,2,0:0:0:0:
379,46,82427,2,0,L|370:142,1,82.5,8|8,3:0|3:0,0:0:0:0:
133,187,82677,6,0,P|90:180|55:143,1,82.5,6|0,0:0|0:0,0:0:0:0:
330,287,82927,1,0,0:0:0:0:
221,94,83052,1,2,0:0:0:0:
59,338,83177,2,0,P|143:313|191:316,1,123.75,8|0,0:0|2:0,0:0:0:0:
178,314,83427,1,6,0:0:0:0:
284,204,83552,5,8,0:0:0:0:
284,204,83614,1,8,0:0:0:0:
284,204,83677,1,0,0:0:0:0:
356,341,83802,1,2,0:0:0:0:
140,214,83927,2,0,P|146:171|151:124,1,82.5
372,25,84177,2,0,P|382:70|388:115,1,82.5,8|0,0:0|0:0,0:0:0:0:
465,318,84427,2,0,P|422:317|381:291,1,82.5
111,272,84677,5,2,0:0:0:0:
248,185,84802,2,0,L|256:271,1,82.5
44,154,85052,1,2,0:0:0:0:
136,47,85177,2,0,B|223:34|179:93|290:68,1,123.75,8|0,0:0|2:0,0:0:0:0:
252,73,85427,1,6,0:0:0:0:
141,228,85552,5,8,0:0:0:0:
141,228,85614,1,8,0:0:0:0:
141,228,85677,1,0,0:0:0:0:
377,65,85802,2,0,L|372:147,1,82.5,8|2,0:0|0:0,0:0:0:0:
24,263,86052,2,0,L|29:181,1,82.5,8|2,0:0|0:0,0:0:0:0:
461,240,86302,6,0,L|454:351,1,98.9999969787599,8|0,0:0|2:0,0:0:0:0:
454,338,86677,6,0,P|413:332|382:285,1,82.5,6|0,0:0|0:0,0:0:0:0:
242,137,86927,2,0,P|283:138|323:145,1,82.5,0|2,0:0|0:0,0:0:0:0:
152,337,87177,1,8,0:0:0:0:
152,337,87427,5,6,0:0:0:0:
272,184,87552,1,8,0:0:0:0:
272,184,87614,1,8,0:0:0:0:
272,184,87677,2,0,L|267:267,1,82.5,0|2,0:0|0:0,0:0:0:0:
46,241,87927,2,0,P|77:216|118:217,1,82.5,2|0,0:0|0:0,0:0:0:0:
386,54,88177,2,0,L|380:186,1,123.75,8|0,0:0|2:0,0:0:0:0:
380,177,88427,2,0,P|420:193|382:208,1,82.5
244,133,88677,5,6,0:0:0:0:
484,62,88802,1,0,0:0:0:0:
434,317,88927,2,0,P|393:315|354:303,1,82.5,0|2,0:0|0:0,0:0:0:0:
216,39,89177,2,0,P|257:40|297:53,1,82.5,8|0,0:0|0:0,0:0:0:0:
159,332,89427,2,0,P|117:330|78:318,1,82.5,6|8,0:0|0:0,0:0:0:0:
78,318,89614,1,8,0:0:0:0:
78,318,89677,1,2,0:0:0:0:
55,189,89802,5,8,0:0:0:0:
69,150,89864,1,8,0:0:0:0:
106,131,89927,1,8,0:0:0:0:
242,17,90052,6,0,B|207:103|273:79|237:170,1,154.6875,2|0,0:0|2:0,0:0:0:0:
153,122,90302,6,0,L|102:113,1,51.5625,2|0,0:0|0:0,0:0:0:0:
325,61,90427,2,0,P|368:67|394:148,1,123.75,8|0,0:0|2:0,0:0:0:0:
360,220,90677,6,0,P|362:261|370:306,1,82.5,6|0,0:0|0:0,0:0:0:0:
259,287,90927,1,0,0:0:0:0:
473,243,91052,1,2,0:0:0:0:
257,129,91177,2,0,P|230:130|192:181,1,82.5,8|0,0:0|0:0,0:0:0:0:
417,70,91427,1,6,0:0:0:0:
360,220,91552,5,8,0:0:0:0:
360,220,91614,1,8,0:0:0:0:
360,220,91677,1,0,0:0:0:0:
244,48,91802,2,0,P|254:88|256:129,1,82.5,2|0,0:0|0:0,0:0:0:0:
73,89,92052,1,0,0:0:0:0:
46,261,92177,2,0,P|88:259|121:172,1,123.75,8|0,0:0|2:0,0:0:0:0:
176,119,92427,2,0,P|215:117|273:137,1,82.5
339,297,92677,5,6,0:0:0:0:
256,128,92802,1,0,0:0:0:0:
430,71,92927,2,0,P|424:111|426:161,1,82.5,0|2,0:0|0:0,0:0:0:0:
442,326,93177,2,0,P|378:326|311:336,1,123.75,8|0,0:0|2:0,0:0:0:0:
318,334,93427,1,6,0:0:0:0:
206,261,93552,5,8,0:0:0:0:
206,261,93614,1,8,0:0:0:0:
206,261,93677,1,0,0:0:0:0:
110,183,93802,2,0,P|106:137|124:105,1,82.5,8|2,0:0|0:0,0:0:0:0:
372,38,94052,2,0,P|390:74|384:114,1,82.5,8|2,0:0|0:0,0:0:0:0:
188,359,94302,6,0,P|137:350|89:347,1,98.9999969787599,8|0,0:0|0:0,0:0:0:0:
42,265,94677,6,0,P|44:228|79:191,1,82.5,6|0,0:0|0:0,0:0:0:0:
295,216,94927,1,8,0:0:0:0:
153,90,95052,1,2,0:0:0:0:
295,216,95177,2,0,P|361:208|430:195,1,123.75,0|0,0:0|2:0,0:0:0:0:
460,186,95427,1,12,0:0:0:0:
345,64,95552,6,0,P|315:38|265:37,1,82.5
151,349,95802,2,0,P|191:345|222:319,1,82.5,2|8,0:0|0:0,0:0:0:0:
411,333,96052,1,0,0:0:0:0:
145,226,96177,1,2,0:0:0:0:
365,140,96302,1,2,0:0:0:0:
232,70,96427,2,0,B|221:117|221:117|244:204,1,123.75,8|0,0:0|2:0,0:0:0:0:
240,189,96677,5,6,0:0:0:0:
104,110,96802,1,0,0:0:0:0:
336,39,96927,2,0,P|371:55|393:103,1,82.5,6|0,0:0|0:0,0:0:0:0:
247,314,97177,1,8,0:0:0:0:
407,207,97302,2,0,L|403:249,2,41.25,2|2|8,0:0|0:0|0:0,0:0:0:0:
239,112,97552,2,0,L|245:168,1,41.25
143,269,97677,6,0,P|106:266|69:233,2,76.9999976501466
384,345,98177,2,0,L|366:184,1,148.49999546814
424,58,98677,5,2,0:0:0:0:
193,184,98927,2,0,L|199:98,1,70.1250013375282,8|2,0:0|0:0,0:0:0:0:
97,63,99177,6,0,P|74:56|48:53,2,46.7500008916855,8|8|8,0:0|0:0|0:0,0:0:0:0:
193,184,99427,2,0,P|215:178|242:174,2,46.7500008916855,8|8|8,0:0|0:0|0:0,0:0:0:0:
64,267,99677,6,0,P|66:313|111:350,1,93.500001783371,10|0,0:0|0:0,0:0:0:0:
182,324,99927,2,0,P|202:313|219:268,1,70.1250013375282,8|0,0:0|0:0,0:0:0:0:
403,331,100177,1,2,0:0:0:0:
168,161,100427,1,0,0:0:0:0:
406,61,100677,6,0,L|397:173,1,93.500001783371,10|0,0:0|0:0,0:0:0:0:
327,220,100927,1,8,0:0:0:0:
281,211,101010,1,8,0:0:0:0:
248,177,101093,1,8,0:0:0:0:
169,211,101177,6,0,P|121:215|81:254,1,93.500001783371,10|0,0:0|0:0,0:0:0:0:
89,125,101427,2,0,L|87:79,2,46.7500008916855,8|8|8,0:0|0:0|0:0,0:0:0:0:
34,337,101677,5,10,0:0:0:0:
310,285,101927,2,0,B|233:287|271:235|181:243,1,140.250002675056,8|2,0:0|0:0,0:0:0:0:
446,40,102427,5,8,0:0:0:0:
446,40,102510,1,8,0:0:0:0:
446,40,102593,1,8,0:0:0:0:
446,40,102677,2,0,P|454:78|427:128,1,93.500001783371,10|0,0:0|0:0,0:0:0:0:
252,77,102927,2,0,P|229:71|198:69,2,46.7500008916855,8|8|8,0:0|0:0|0:0,0:0:0:0:
233,238,103177,2,0,P|280:229|325:225,1,93.500001783371,10|0,0:0|0:0,0:0:0:0:
432,271,103427,2,0,P|437:300|437:326,1,46.7500008916855,8|8,0:0|0:0,0:0:0:0:
487,179,103593,1,8,0:0:0:0:
487,179,103677,6,0,P|485:142|477:107,1,70.1250013375282,10|8,0:0|0:0,0:0:0:0:
292,168,103927,1,8,0:0:0:0:
368,37,104052,1,8,0:0:0:0:
456,265,104177,1,10,0:0:0:0:
456,265,104302,1,8,0:0:0:0:
292,168,104427,1,8,0:0:0:0:
209,278,104552,5,0,0:0:0:0:
209,278,104614,1,0,0:0:0:0:
209,278,104677,2,0,P|168:275|154:159,1,165,2|0,0:0|0:0,0:0:0:0:
402,88,105052,2,0,P|407:132|402:172,1,82.5,2|2,0:0|0:0,0:0:0:0:
239,96,105302,1,0,0:0:0:0:
388,323,105427,1,0,0:0:0:0:
388,323,105552,1,2,0:0:0:0:
71,304,105677,6,0,B|99:291|126:274|126:274|166:299|166:299|187:284|218:285,1,165,2|0,0:0|0:0,0:0:0:0:
338,185,106052,2,0,P|335:145|310:113,1,82.5
193,79,106302,1,0,0:0:0:0:
394,296,106427,2,0,P|423:280|442:220,1,82.5
140,242,106677,6,0,P|171:237|235:243,1,82.5,6|0,0:0|0:0,0:0:0:0:
363,150,106927,1,8,0:0:0:0:
140,77,107052,2,0,P|136:157|140:253,1,165,6|0,0:0|0:0,0:0:0:0:
361,355,107427,1,8,0:0:0:0:
361,355,107677,6,0,P|398:350|426:292,1,82.5,6|0,0:0|0:0,0:0:0:0:
296,162,107927,1,8,0:0:0:0:
92,279,108052,2,0,P|136:270|245:275,1,123.75,6|0,0:0|2:0,0:0:0:0:
214,269,108302,1,2,0:0:0:0:
124,128,108427,2,0,P|111:118|146:118,1,82.5,8|0,0:0|0:0,0:0:0:0:
313,320,108677,6,0,P|325:293|311:219,1,82.5,6|0,0:0|0:0,0:0:0:0:
234,47,108927,1,8,0:0:0:0:
64,220,109052,2,0,B|167:209|116:276|222:268,1,165,6|2,0:0|0:0,0:0:0:0:
433,128,109427,2,0,P|426:95|378:63,1,82.5,8|0,0:0|0:0,0:0:0:0:
428,320,109677,5,6,0:0:0:0:
315,157,109802,1,2,0:0:0:0:
315,157,109864,1,2,0:0:0:0:
315,157,109927,1,8,0:0:0:0:
153,346,110052,2,0,P|148:307|152:255,1,82.5,2|2,0:0|0:0,0:0:0:0:
150,264,110239,1,2,0:0:0:0:
150,264,110302,1,2,0:0:0:0:
39,154,110427,2,0,P|53:112|139:96,1,123.75,8|0,0:0|2:0,0:0:0:0:
215,51,110677,6,0,P|249:65|271:119,1,82.5,6|0,0:0|0:0,0:0:0:0:
154,239,110927,1,8,0:0:0:0:
319,352,111052,2,0,B|307:312|307:312|322:204,1,123.75,6|0,0:0|2:0,0:0:0:0:
319,231,111302,1,2,0:0:0:0:
483,85,111427,2,0,L|475:177,1,82.5,8|0,0:0|0:0,0:0:0:0:
155,269,111677,6,0,P|114:258|88:216,1,82.5,6|0,0:0|0:0,0:0:0:0:
252,91,111927,1,8,0:0:0:0:
280,348,112052,2,0,P|361:337|442:318,1,165,6|2,0:0|0:0,0:0:0:0:
415,65,112427,2,0,P|412:103|385:158,1,82.5,8|0,0:0|0:0,0:0:0:0:
97,264,112677,6,0,P|131:216|206:226,1,123.75,6|0,0:0|2:0,0:0:0:0:
191,215,112927,1,2,0:0:0:0:
387,322,113052,2,0,P|335:309|319:285,1,82.5,8|0,0:0|0:0,0:0:0:0:
245,87,113302,1,2,0:0:0:0:
410,38,113427,2,0,L|401:174,1,123.75,8|0,0:0|2:0,0:0:0:0:
397,210,113677,5,2,0:0:0:0:
256,192,113708,12,0,114552,2:0:0:0:
116,175,114677,5,4,0:0:0:0:
237,321,114802,1,0,0:0:0:0:
237,321,114864,1,0,0:0:0:0:
237,321,114927,2,0,L|308:326,1,66
417,239,115177,1,0,0:0:0:0:
299,138,115302,1,0,0:0:0:0:
299,138,115427,2,0,P|291:102|264:77,1,66
123,328,115677,1,8,0:0:0:0:
68,143,115802,5,0,0:0:0:0:
92,169,115927,1,0,0:0:0:0:
126,179,116052,1,0,0:0:0:0:
307,61,116177,5,2,0:0:0:0:
215,243,116302,1,0,0:0:0:0:
203,125,116427,5,2,0:0:0:0:
320,303,116552,1,0,0:0:0:0:
133,286,116677,5,2,0:0:0:0:
354,173,116802,1,0,0:0:0:0:
354,173,116864,1,0,0:0:0:0:
354,173,116927,2,0,P|402:177|435:209,1,66
437,342,117177,1,0,0:0:0:0:
223,234,117302,1,2,0:0:0:0:
223,234,117364,1,2,0:0:0:0:
223,234,117427,2,0,L|229:157,1,66,2|0,0:0|0:0,0:0:0:0:
112,169,117677,5,8,0:0:0:0:
296,50,117802,1,0,0:0:0:0:
171,64,117927,5,0,0:0:0:0:
378,187,118052,1,0,0:0:0:0:
132,297,118177,2,0,L|136:246,4,33,8|0|8|0|2,0:0|0:0|3:0|0:0|0:0,0:0:0:0:
279,349,118552,5,8,0:0:0:0:
279,349,118614,1,0,0:0:0:0:
279,349,118677,2,0,P|319:346|362:340,1,66,2|2,0:0|0:0,0:0:0:0:
253,114,118927,1,8,0:0:0:0:
457,148,119052,2,0,P|418:150|380:210,1,99,2|0,0:0|2:0,0:0:0:0:
381,193,119302,1,0,0:0:0:0:
142,219,119427,2,0,P|137:186|140:153,1,66,8|2,0:0|0:0,0:0:0:0:
182,80,119614,5,0,0:0:0:0:
182,80,119677,1,0,0:0:0:0:
381,193,119802,1,2,0:0:0:0:
201,297,119927,5,8,0:0:0:0:
339,82,120052,1,0,0:0:0:0:
422,345,120177,5,2,0:0:0:0:
422,345,120239,1,2,0:0:0:0:
422,345,120302,1,2,0:0:0:0:
422,345,120364,1,2,0:0:0:0:
422,345,120427,2,0,P|380:340|348:351,1,66,8|0,0:0|0:0,0:0:0:0:
80,139,120677,5,6,0:0:0:0:
301,206,120802,1,8,3:0:0:0:
29,267,120927,5,2,0:0:0:0:
232,69,121052,1,8,3:0:0:0:
183,324,121177,6,0,L|178:281,1,44,8|8,0:0|3:0,0:0:0:0:
403,192,121343,2,0,L|398:149,1,44,8|8,3:0|3:0,0:0:0:0:
79,77,121510,2,0,L|84:120,1,44,4|4,3:0|3:0,0:0:0:0:
310,270,121677,1,2,0:0:0:0:
310,270,121802,5,0,0:0:0:0:
236,96,121927,1,0,0:0:0:0:
169,344,122052,1,0,0:0:0:0:
362,133,122177,1,0,0:0:0:0:
110,200,122302,1,0,0:0:0:0:
430,319,122427,1,0,0:0:0:0:
48,341,122552,6,0,B|65:233|65:233|115:196,1,165,6|2,0:0|0:0,0:0:0:0:
359,41,122927,2,0,B|381:71|381:71|391:128,1,82.5,8|0,0:0|0:0,0:0:0:0:
341,352,123177,1,2,0:0:0:0:
242,137,123302,1,2,0:0:0:0:
446,228,123427,1,8,0:0:0:0:
208,291,123552,6,0,P|150:300|98:233,1,123.75,2|0,0:0|2:0,0:0:0:0:
103,260,123802,1,2,0:0:0:0:
325,170,123927,2,0,P|328:212|334:265,1,82.5,8|0,0:0|0:0,0:0:0:0:
161,78,124177,1,2,0:0:0:0:
445,186,124302,1,2,0:0:0:0:
208,291,124427,1,8,0:0:0:0:
356,56,124552,6,0,L|348:227,1,165,6|2,0:0|0:0,0:0:0:0:
88,331,124927,2,0,P|110:291|157:278,1,82.5,8|0,0:0|0:0,0:0:0:0:
430,314,125177,1,2,0:0:0:0:
228,174,125302,1,2,0:0:0:0:
441,77,125427,1,8,0:0:0:0:
228,174,125552,6,0,B|152:160|152:160|117:125,1,123.75,2|0,0:0|2:0,0:0:0:0:
119,127,125802,1,2,0:0:0:0:
230,311,125927,1,8,0:0:0:0:
228,65,126052,1,2,0:0:0:0:
59,240,126177,1,8,0:0:0:0:
330,201,126302,1,2,0:0:0:0:
330,201,126364,1,0,0:0:0:0:
330,201,126427,1,8,0:0:0:0:
100,344,126552,6,0,B|162:326|162:326|187:286|187:286|253:270,1,165,6|2,0:0|0:0,0:0:0:0:
427,45,126927,2,0,L|416:139,1,82.5,8|0,0:0|0:0,0:0:0:0:
343,364,127177,1,2,0:0:0:0:
254,148,127302,1,2,0:0:0:0:
485,265,127427,2,0,P|444:241|401:238,1,82.5,8|2,0:0|0:0,0:0:0:0:
172,316,127677,5,8,0:0:0:0:
217,47,127802,1,2,0:0:0:0:
37,248,127927,1,8,0:0:0:0:
297,160,128052,1,2,0:0:0:0:
78,90,128177,1,8,0:0:0:0:
78,90,128302,2,0,L|94:182,1,82.5,2|0,0:0|0:0,0:0:0:0:
378,336,128552,6,0,B|416:284|416:284|426:180,1,165,6|2,0:0|0:0,0:0:0:0:
161,210,128927,2,0,P|122:198|99:164,1,82.5,8|0,0:0|0:0,0:0:0:0:
306,74,129177,1,2,0:0:0:0:
229,323,129302,1,2,0:0:0:0:
425,183,129427,1,8,0:0:0:0:
151,87,129552,2,0,L|161:213,1,123.75,2|0,0:0|2:0,0:0:0:0:
160,210,129802,5,2,0:0:0:0:
72,344,129927,1,8,0:0:0:0:
151,87,130052,1,2,0:0:0:0:
282,310,130177,1,8,0:0:0:0:
22,168,130302,1,8,3:0:0:0:
337,81,130427,1,8,3:0:0:0:
388,345,130552,6,0,B|318:336|318:336|272:302,1,115.49999647522,6|0,0:0|0:0,0:0:0:0:
36,263,130927,6,0,P|62:249|112:255,1,57.7499982376099,6|0,0:0|0:0,0:0:0:0:
398,77,131177,2,0,L|408:196,1,115.49999647522,8|0,0:0|0:0,0:0:0:0:
99,356,131677,5,6,0:0:0:0:
229,19,131927,1,6,0:0:0:0:
506,339,132177,6,0,P|462:334|417:325,1,82.5,8|0,0:0|0:0,0:0:0:0:
105,85,132552,6,0,P|141:86|193:150,1,115.49999647522,6|0,0:0|0:0,0:0:0:0:
135,353,132927,2,0,P|137:322|146:289,1,57.7499982376099,6|0,0:0|0:0,0:0:0:0:
388,70,133177,2,0,P|394:98|396:126,1,57.7499982376099,8|0,0:0|0:0,0:0:0:0:
45,234,133427,2,0,P|64:209|96:192,1,57.7499982376099
435,304,133677,6,0,P|384:301|342:275,1,82.5,6|0,0:0|0:0,0:0:0:0:
75,69,133927,2,0,P|126:72|168:98,1,82.5,8|2,0:0|0:0,0:0:0:0:
194,352,134177,1,8,0:0:0:0:
196,339,134302,1,8,3:0:0:0:
199,327,134427,1,8,3:0:0:0:
423,162,134552,6,0,P|368:163|334:218,1,123.75,6|0,0:0|2:0,0:0:0:0:
334,216,134802,1,2,0:0:0:0:
111,139,134927,2,0,L|215:151,1,82.5,8|0,0:0|0:0,0:0:0:0:
365,51,135177,1,8,0:0:0:0:
425,323,135302,1,8,0:0:0:0:
65,299,135552,6,0,P|126:289|196:278,1,123.75,6|0,0:0|2:0,0:0:0:0:
187,279,135802,1,2,0:0:0:0:
358,159,135927,2,0,P|380:161|426:199,1,82.5,8|2,0:0|0:0,0:0:0:0:
322,357,136177,5,8,0:0:0:0:
115,179,136302,2,0,L|120:97,1,82.5,2|0,0:0|0:0,0:0:0:0:
28,197,136552,6,0,B|123:176|86:251|179:242,1,165,6|2,0:0|0:0,0:0:0:0:
362,68,136927,1,2,0:0:0:0:
474,276,137177,6,0,P|435:276|382:347,1,123.75
291,296,137427,2,0,P|235:291|159:289,1,123.75
126,317,137677,2,0,P|109:285|167:293,1,123.75
166,288,137927,2,0,P|145:231|82:248,1,123.75
91,236,138177,2,0,B|63:104|63:104|128:140,1,206.25
222,70,138552,6,0,B|271:45|271:45|250:166,1,165,6|2,0:0|0:0,0:0:0:0:
394,327,138927,1,2,0:0:0:0:
47,277,139177,6,0,L|172:260,1,123.75
255,312,139427,2,0,P|291:300|304:213,1,123.75
199,223,139677,6,0,B|79:238|79:238|117:170,1,185.625007081032
110,182,140114,1,0,0:0:0:0:
110,182,140177,1,0,0:0:0:0:
268,75,140302,1,0,0:0:0:0:
268,75,140427,1,0,0:0:0:0:
105,22,140552,6,0,B|87:65|87:65|113:196,1,165,6|2,0:0|0:0,0:0:0:0:
314,360,140927,1,2,0:0:0:0:
56,318,141177,6,0,B|111:283|111:283|173:292,1,123.75,12|0,0:0|0:0,0:0:0:0:
251,242,141427,2,0,B|269:280|269:280|281:187,1,123.75,2|0,0:0|0:0,0:0:0:0:
370,233,141677,2,0,P|405:233|439:307,1,123.75,6|0,0:0|0:0,0:0:0:0:
370,233,141927,2,0,L|385:110,1,123.75,2|0,0:0|0:0,0:0:0:0:
385,110,142177,2,0,P|392:63|419:132,1,206.25,12|0,0:0|0:0,0:0:0:0:
294,158,142552,6,0,P|253:197|285:186,1,165,6|2,0:0|0:0,0:0:0:0:
427,345,142927,1,2,0:0:0:0:
66,278,143177,6,0,P|129:264|192:260,1,123.75,6|0,0:0|0:0,0:0:0:0:
261,197,143427,2,0,P|301:207|331:246,1,82.5,2|0,0:0|0:0,0:0:0:0:
117,132,143677,5,2,0:0:0:0:
117,132,143802,1,8,0:0:0:0:
181,364,143927,1,8,0:0:0:0:
261,197,144052,1,8,0:0:0:0:
66,278,144177,1,6,0:0:0:0:
300,296,144302,2,0,B|407:280|407:280|352:244,1,154.6875,6|0,0:0|2:0,0:0:0:0:
261,197,144552,6,0,P|217:186|181:294,1,165,6|2,0:0|0:0,0:0:0:0:
391,130,144927,1,2,0:0:0:0:
54,48,145177,6,0,B|62:131|62:131|98:168,1,123.75,12|0,0:0|0:0,0:0:0:0:
137,252,145427,2,0,P|171:250|221:175,1,123.75,2|0,0:0|0:0,0:0:0:0:
313,232,145677,2,0,P|369:229|438:257,1,123.75,6|0,0:0|0:0,0:0:0:0:
488,330,145927,2,0,P|441:319|436:246,1,123.75,2|0,0:0|0:0,0:0:0:0:
480,159,146177,1,8,0:0:0:0:
314,330,146302,2,0,P|289:343|205:331,1,82.5
48,178,146552,6,0,P|103:172|156:233,1,123.75,6|0,0:0|0:0,0:0:0:0:
151,215,146802,1,2,0:0:0:0:
405,128,146927,2,0,P|352:127|305:121,1,82.5,2|0,0:0|0:0,0:0:0:0:
116,336,147177,1,12,0:0:0:0:
280,238,147302,2,0,P|290:269|282:320,1,82.5,2|0,0:0|0:0,0:0:0:0:
63,201,147552,5,2,0:0:0:0:
63,201,147614,1,2,0:0:0:0:
63,201,147677,1,12,0:0:0:0:
235,101,147802,1,2,0:0:0:0:
63,201,147927,2,0,P|106:209|165:213,1,82.5,0|2,0:0|0:0,0:0:0:0:
272,303,148177,1,8,0:0:0:0:
63,201,148302,1,8,3:0:0:0:
235,101,148427,1,8,3:0:0:0:
159,342,148552,6,0,P|204:311|307:312,1,123.75,6|0,0:0|2:0,0:0:0:0:
271,302,148802,1,2,0:0:0:0:
446,274,148927,2,0,P|448:314|423:349,1,82.5,2|0,0:0|2:0,0:0:0:0:
235,202,149177,2,0,P|234:160|247:76,1,123.75,12|0,0:0|0:0,0:0:0:0:
145,100,149427,2,0,P|121:97|66:57,1,82.5,2|0,0:0|0:0,0:0:0:0:
349,151,149677,2,0,P|398:138|433:70,1,123.75,6|0,0:0|0:0,0:0:0:0:
349,151,149927,2,0,P|356:198|348:255,1,82.5,2|0,0:0|0:0,0:0:0:0:
68,325,150177,6,0,B|117:289|117:289|184:302,1,115.49999647522,12|0,0:0|0:0,0:0:0:0:
44,315,150552,6,0,B|112:264|112:264|202:284,1,165,6|2,0:0|0:0,0:0:0:0:
392,332,150927,2,0,L|377:210,1,123.75,2|0,0:0|0:0,0:0:0:0:
286,169,151177,2,0,B|294:88|294:88|328:47,1,123.75,12|0,0:0|0:0,0:0:0:0:
406,92,151427,2,0,P|444:101|469:134,1,82.5,2|0,0:0|0:0,0:0:0:0:
268,292,151677,2,0,P|203:288|130:278,1,123.75,6|0,0:0|0:0,0:0:0:0:
88,215,151927,2,0,P|98:172|132:150,1,82.5,2|0,0:0|0:0,0:0:0:0:
383,113,152177,1,8,0:0:0:0:
234,45,152302,6,0,L|244:167,1,99,6|0,0:0|0:0,0:0:0:0:
306,211,152552,6,0,P|355:208|377:106,1,165,6|8,0:0|0:0,0:0:0:0:
380,110,152864,1,8,0:0:0:0:
380,110,152927,1,8,0:0:0:0:
151,187,153052,1,8,0:0:0:0:
305,314,153177,1,8,0:0:0:0:
236,98,153302,1,8,0:0:0:0:
70,315,153427,2,0,P|115:321|178:311,1,82.5,2|6,0:0|0:0,0:0:0:0:
415,182,153677,5,8,0:0:0:0:
124,77,153802,2,0,P|169:71|232:81,1,82.5,2|2,0:0|0:0,0:0:0:0:
341,331,154052,1,12,0:0:0:0:
190,203,154177,1,2,0:0:0:0:
420,99,154302,2,0,L|414:192,1,82.5,2|8,0:0|0:0,0:0:0:0:
195,358,154552,6,0,P|153:365|100:258,1,165,6|2,0:0|0:0,0:0:0:0:
35,115,154927,2,0,P|94:123|180:114,1,123.75,8|0,0:0|0:0,0:0:0:0:
261,84,155177,2,0,B|285:171|236:129|269:236,1,123.75,8|0,0:0|0:0,0:0:0:0:
336,267,155427,2,0,P|360:270|415:189,1,123.75,8|0,0:0|0:0,0:0:0:0:
336,267,155677,6,0,L|347:358,1,82.5,2|0,0:0|0:0,0:0:0:0:
235,325,156177,2,0,P|212:326|181:302,1,55
311,63,156552,6,0,L|467:46,1,148.49999546814,6|2,0:0|0:0,0:0:0:0:
164,176,156927,2,0,L|64:161,1,74.2499977340699,8|0,0:0|0:0,0:0:0:0:
428,289,157177,1,2,0:0:0:0:
311,63,157302,2,0,P|317:103|318:142,1,74.2499977340699,2|8,0:0|0:0,0:0:0:0:
90,360,157552,6,0,P|117:322|227:310,1,148.49999546814,2|2,0:0|0:0,0:0:0:0:
377,241,157927,2,0,P|404:256|437:310,1,74.2499977340699,8|0,0:0|0:0,0:0:0:0:
221,127,158177,1,0,0:0:0:0:
435,74,158302,2,0,L|431:129,2,37.1249988670349,2|2|8,0:0|0:0|0:0,0:0:0:0:
174,10,158552,6,0,L|190:165,1,148.49999546814,6|2,0:0|0:0,0:0:0:0:
33,309,158927,2,0,P|67:324|114:311,1,74.2499977340699,8|0,0:0|0:0,0:0:0:0:
342,237,159177,1,2,0:0:0:0:
338,252,159239,1,0,0:0:0:0:
336,267,159302,1,2,0:0:0:0:
189,157,159427,1,8,0:0:0:0:
312,70,159552,6,0,B|411:62|364:116|473:110,1,148.49999546814,2|2,0:0|0:0,0:0:0:0:
240,347,159927,1,8,0:0:0:0:
463,273,160052,1,2,0:0:0:0:
189,157,160177,5,8,0:0:0:0:
342,237,160302,1,2,0:0:0:0:
342,237,160364,1,2,0:0:0:0:
342,237,160427,1,8,0:0:0:0:
140,324,160552,6,0,P|101:319|68:217,1,148.49999546814,6|2,0:0|0:0,0:0:0:0:
363,29,160927,2,0,P|370:64|366:116,1,74.2499977340699,8|0,0:0|0:0,0:0:0:0:
252,255,161177,1,2,0:0:0:0:
438,313,161302,1,2,0:0:0:0:
223,136,161427,2,0,P|186:143|157:174,1,74.2499977340699,8|2,0:0|0:0,0:0:0:0:
414,126,161677,6,0,L|420:176,2,49.4999984893799
247,329,161927,2,0,L|253:222,1,74.2499977340699,8|2,0:0|0:0,0:0:0:0:
316,47,162177,1,8,0:0:0:0:
402,301,162302,1,8,3:0:0:0:
402,301,162427,2,0,L|447:294,1,37.1249988670349,8|0,3:0|0:0,0:0:0:0:
251,254,162552,6,0,P|208:244|161:329,1,148.49999546814,6|2,0:0|0:0,0:0:0:0:
45,80,162927,2,0,P|90:90|135:90,1,74.2499977340699,8|0,0:0|0:0,0:0:0:0:
429,173,163177,1,2,0:0:0:0:
221,216,163302,1,2,0:0:0:0:
338,49,163427,1,8,0:0:0:0:
457,309,163552,6,0,P|408:307|335:327,1,111.374996601105,2|0,0:0|0:0,0:0:0:0:
261,359,163802,2,0,P|222:345|197:301,1,74.2499977340699,2|8,0:0|0:0,0:0:0:0:
204,99,164052,1,2,0:0:0:0:
95,260,164177,5,8,0:0:0:0:
289,187,164302,1,8,3:0:0:0:
50,112,164427,1,8,3:0:0:0:
386,56,164552,6,0,B|401:105|401:105|390:223,1,165,6|2,0:0|0:0,0:0:0:0:
52,303,164927,2,0,P|85:276|130:273,1,82.5,8|0,0:0|0:0,0:0:0:0:
259,35,165177,1,2,0:0:0:0:
459,250,165302,2,0,P|417:245|385:204,1,82.5,2|8,0:0|0:0,0:0:0:0:
128,149,165552,1,2,0:0:0:0:
259,35,165677,6,0,L|270:128,1,82.5,0|2,0:0|0:0,0:0:0:0:
209,371,165927,1,8,0:0:0:0:
389,217,166052,1,0,0:0:0:0:
137,254,166177,2,0,P|92:240|75:173,1,82.5,0|2,0:0|0:0,0:0:0:0:
116,128,166364,1,2,0:0:0:0:
116,128,166427,1,8,0:0:0:0:
383,54,166552,6,0,B|410:156|361:125|393:235,1,165,6|2,0:0|0:0,0:0:0:0:
168,355,166927,1,8,0:0:0:0:
282,101,167052,1,0,0:0:0:0:
461,293,167177,2,0,P|428:317|387:320,1,82.5,2|2,0:0|0:0,0:0:0:0:
66,143,167427,2,0,P|98:167|139:170,1,82.5,8|2,0:0|0:0,0:0:0:0:
450,131,167677,6,0,L|441:192,2,55
190,40,167927,2,0,L|196:99,1,55,8|0,0:0|0:0,0:0:0:0:
134,252,168083,1,0,0:0:0:0:
229,211,168177,2,0,P|276:217|326:190,1,82.5,8|2,0:0|0:0,0:0:0:0:
308,204,168364,1,2,0:0:0:0:
308,204,168427,1,8,0:0:0:0:
90,65,168552,6,0,P|28:77|26:168,1,165,6|2,0:0|0:0,0:0:0:0:
142,352,168927,2,0,P|163:341|245:344,1,82.5,8|0,0:0|0:0,0:0:0:0:
453,265,169177,1,2,0:0:0:0:
344,66,169302,2,0,L|342:160,1,82.5,2|8,0:0|0:0,0:0:0:0:
42,265,169552,6,0,B|148:239|148:239|188:187,1,165,2|2,0:0|0:0,0:0:0:0:
440,339,169927,2,0,B|394:322|394:322|368:284,1,82.5,8|2,0:0|0:0,0:0:0:0:
210,74,170177,1,8,0:0:0:0:
251,335,170302,1,8,3:0:0:0:
251,335,170427,2,0,L|244:282,1,41.25,8|0,3:0|0:0,0:0:0:0:
340,145,170552,6,0,P|383:133|442:229,1,165,6|2,0:0|0:0,0:0:0:0:
210,74,170927,2,0,P|177:81|143:126,1,82.5,8|0,0:0|0:0,0:0:0:0:
251,335,171177,1,2,0:0:0:0:
16,278,171302,2,0,P|60:272|109:260,1,82.5,2|8,0:0|0:0,0:0:0:0:
411,55,171552,6,0,P|415:93|398:201,1,123.75,2|0,0:0|2:0,0:0:0:0:
406,178,171802,1,2,0:0:0:0:
266,120,171927,1,8,0:0:0:0:
512,96,172052,1,0,0:0:0:0:
345,282,172177,5,8,0:0:0:0:
411,55,172302,1,2,0:0:0:0:
468,353,172427,1,8,0:0:0:0:
229,218,172552,1,2,0:0:0:0:
229,218,172614,1,0,0:0:0:0:
229,218,172677,6,0,P|174:216|135:305,1,165,6|2,0:0|0:0,0:0:0:0:
384,359,173052,2,0,P|429:357|471:348,1,82.5,8|0,0:0|0:0,0:0:0:0:
156,78,173302,2,0,P|196:70|237:68,1,82.5,8|0,0:0|0:0,0:0:0:0:
470,56,173552,6,0,P|477:95|424:167,1,123.75,6|0,0:0|2:0,0:0:0:0:
433,162,173802,1,2,0:0:0:0:
249,264,173927,2,0,P|251:220|258:172,1,82.5,8|0,0:0|0:0,0:0:0:0:
355,84,174177,1,2,0:0:0:0:
418,317,174302,1,2,0:0:0:0:
157,223,174427,2,0,P|109:220|62:294,1,123.75,8|0,0:0|0:0,0:0:0:0:
62,273,174677,6,0,P|87:251|143:258,1,82.5,6|0,0:0|0:0,0:0:0:0:
428,195,174927,1,2,0:0:0:0:
277,358,175052,2,0,L|283:267,1,82.5,8|0,0:0|0:0,0:0:0:0:
232,144,175302,1,2,0:0:0:0:
409,331,175427,1,8,0:0:0:0:
99,292,175552,6,0,P|92:206|89:151,1,123.75,6|0,0:0|2:0,0:0:0:0:
90,168,175802,1,2,0:0:0:0:
230,45,175927,2,0,P|260:45|305:85,1,82.5,8|0,0:0|0:0,0:0:0:0:
402,285,176177,1,0,0:0:0:0:
223,193,176302,1,2,0:0:0:0:
450,45,176427,2,0,L|443:139,1,82.5,8|0,0:0|0:0,0:0:0:0:
170,301,176677,6,0,B|122:262|122:262|56:272,1,123.75,6|0,0:0|2:0,0:0:0:0:
61,272,176927,1,2,0:0:0:0:
310,361,177052,2,0,P|312:320|316:278,1,82.5,8|0,0:0|0:0,0:0:0:0:
103,66,177302,2,0,P|99:108|96:148,1,82.5,2|8,0:0|0:0,0:0:0:0:
478,310,177552,6,0,P|485:254|489:160,1,123.75,6|0,0:0|2:0,0:0:0:0:
488,186,177802,1,2,0:0:0:0:
358,54,177927,2,0,P|321:57|281:106,1,82.5,8|0,0:0|0:0,0:0:0:0:
243,324,178177,1,0,0:0:0:0:
63,168,178302,1,2,0:0:0:0:
63,168,178364,1,2,0:0:0:0:
63,168,178427,2,0,P|123:186|192:194,1,123.75,8|0,0:0|2:0,0:0:0:0:
269,234,178677,6,0,P|302:233|342:198,1,82.5,6|0,0:0|0:0,0:0:0:0:
158,62,178927,2,0,L|166:118,1,41.25,2|0,0:0|2:0,0:0:0:0:
121,300,179052,2,0,P|78:284|30:283,1,82.5,8|0,0:0|0:0,0:0:0:0:
271,145,179302,1,2,0:0:0:0:
299,350,179427,1,8,0:0:0:0:
81,167,179552,6,0,P|103:114|188:118,1,123.75,6|0,0:0|2:0,0:0:0:0:
163,102,179802,1,2,0:0:0:0:
413,231,179927,2,0,P|365:227|305:236,1,82.5,8|0,0:0|0:0,0:0:0:0:
136,318,180177,1,0,0:0:0:0:
299,109,180302,1,2,0:0:0:0:
299,109,180364,1,2,0:0:0:0:
299,109,180427,2,0,P|366:105|446:113,1,123.75,8|0,0:0|2:0,0:0:0:0:
426,27,180677,6,0,P|427:68|422:109,1,82.5,6|0,0:0|0:0,0:0:0:0:
312,291,180927,1,2,0:0:0:0:
109,178,181052,2,0,P|103:137|102:92,1,82.5,8|0,0:0|0:0,0:0:0:0:
89,321,181302,1,2,0:0:0:0:
243,111,181427,1,8,0:0:0:0:
423,216,181552,6,0,P|444:260|406:344,1,123.75,6|0,0:0|2:0,0:0:0:0:
423,328,181802,1,2,0:0:0:0:
221,227,181927,2,0,L|136:216,1,82.5,8|0,0:0|0:0,0:0:0:0:
322,51,182177,1,0,0:0:0:0:
322,51,182260,1,0,0:0:0:0:
322,51,182343,1,0,0:0:0:0:
322,51,182427,2,0,L|453:36,1,123.75,8|0,0:0|2:0,0:0:0:0:
448,117,182677,6,0,B|454:79|454:79|444:36,1,82.5,6|0,0:0|0:0,0:0:0:0:
211,8,182927,1,2,0:0:0:0:
329,284,183052,2,0,L|412:273,1,82.5,8|0,0:0|0:0,0:0:0:0:
181,200,183302,1,2,0:0:0:0:
321,134,183427,2,0,L|318:197,1,41.25,8|0,0:0|0:0,0:0:0:0:
183,331,183552,6,0,P|132:327|81:256,1,123.75,6|0,0:0|2:0,0:0:0:0:
84,275,183802,1,2,0:0:0:0:
154,94,183927,2,0,P|204:97|247:108,1,82.5,8|0,0:0|0:0,0:0:0:0:
28,24,184177,1,8,0:0:0:0:
170,238,184302,1,8,0:0:0:0:
448,29,184552,6,0,L|440:155,1,123.75,6|0,0:0|2:0,0:0:0:0:
440,152,184802,1,2,0:0:0:0:
468,307,184927,2,0,P|431:304|374:337,1,82.5,8|0,0:0|0:0,0:0:0:0:
208,245,185177,1,2,0:0:0:0:
389,321,185302,1,2,0:0:0:0:
299,121,185427,1,8,0:0:0:0:
106,301,185552,6,0,B|96:251|96:251|120:162,1,123.75,6|0,0:0|2:0,0:0:0:0:
114,180,185802,1,2,0:0:0:0:
271,266,185927,1,8,0:0:0:0:
178,39,186052,1,2,0:0:0:0:
398,180,186177,5,8,0:0:0:0:
114,180,186302,1,2,0:0:0:0:
256,90,186427,1,8,3:0:0:0:
256,324,186552,1,2,0:0:0:0:
256,90,186677,1,2,0:0:0:0:
256,192,186708,12,0,188552,2:0:0:0:
45,45,188677,5,8,0:0:0:0:
477,74,188802,1,6,0:0:0:0:
58,182,189052,5,8,0:0:0:0:
454,203,189177,1,8,0:0:0:0:
32,337,189427,5,12,0:0:0:0:
484,322,189552,1,2,0:0:0:0:
229,153,189802,5,0,0:0:0:0:
304,346,189927,1,0,0:0:0:0:
193,54,190052,1,0,0:0:0:0:
148,279,190177,1,0,0:0:0:0:
375,199,190302,1,0,0:0:0:0:
53,313,190427,1,0,0:0:0:0:
320,83,190552,6,0,L|450:68,1,115.49999647522,6|0,0:0|0:0,0:0:0:0:
118,40,190927,2,0,L|128:119,1,57.7499982376099
319,287,191177,1,0,0:0:0:0:
81,243,191427,1,0,0:0:0:0:
416,199,191552,1,2,0:0:0:0:
416,199,191802,5,2,0:0:0:0:
81,243,191927,1,2,0:0:0:0:
240,99,192052,1,0,0:0:0:0:
170,377,192177,1,8,0:0:0:0:
225,6,192302,1,2,0:0:0:0:
348,307,192427,1,2,0:0:0:0:
129,136,192552,6,0,L|2:116,1,115.49999647522,6|2,0:0|0:0,0:0:0:0:
435,261,192927,2,0,L|515:250,1,57.7499982376099,2|0,0:0|0:0,0:0:0:0:
145,348,193177,2,0,P|149:310|174:273,1,57.7499982376099,8|0,0:0|0:0,0:0:0:0:
392,31,193427,2,0,P|409:61|410:92,1,57.7499982376099,2|0,0:0|0:0,0:0:0:0:
93,156,193677,6,0,L|131:164,1,38.4999988250733,8|8,3:0|3:0,0:0:0:0:
256,190,193843,1,8,3:0:0:0:
382,221,193927,2,0,L|421:229,2,38.4999988250733,8|4|4,3:0|3:0|3:0,0:0:0:0:
225,341,194177,5,8,0:0:0:0:
287,12,194302,2,0,L|280:70,1,57.7499982376099,8|0,0:0|0:0,0:0:0:0:
5,319,194552,6,0,P|44:318|78:283,1,82.5,6|6,0:0|0:0,0:0:0:0:
473,233,194927,6,0,P|420:217|340:206,1,105.187502006292,8|0,0:0|2:0,0:0:0:0:
313,149,195177,1,2,0:0:0:0:
439,84,195302,1,2,0:0:0:0:
125,61,195427,2,0,P|114:106|136:155,1,82.5,8|6,0:0|0:0,0:0:0:0:
362,347,195677,5,0,0:0:0:0:
72,255,195802,1,2,0:0:0:0:
72,255,195864,1,0,0:0:0:0:
72,255,195927,1,8,0:0:0:0:
300,153,196052,1,2,0:0:0:0:
200,348,196177,6,0,L|191:286,1,55,8|0,0:0|2:0,0:0:0:0:
402,225,196343,2,0,L|392:170,1,55,2|0,0:0|2:0,0:0:0:0:
100,73,196510,2,0,L|111:137,1,55,2|0,0:0|2:0,0:0:0:0:
76,317,196677,6,0,B|133:287|133:287|221:296,1,123.75,0|0,0:0|2:0,0:0:0:0:
42,300,196927,6,0,B|129:254|129:254|215:267,1,185.625007081032
351,301,197177,2,0,L|339:212,1,82.5,6|0,0:0|0:0,0:0:0:0:
219,77,197427,1,8,0:0:0:0:
219,77,197489,1,8,0:0:0:0:
219,77,197552,1,2,0:0:0:0:
147,346,197677,1,0,0:0:0:0:
339,219,197802,5,2,0:0:0:0:
156,177,197927,1,8,3:0:0:0:
147,175,197989,1,8,3:0:0:0:
138,173,198052,1,8,3:0:0:0:
129,171,198114,1,8,3:0:0:0:
120,169,198177,1,6,0:0:0:0:
429,36,198302,2,0,L|419:132,1,82.5,4|4,0:0|0:0,0:0:0:0:
427,355,198552,6,0,B|356:342|356:342|315:304,1,115.49999647522,6|0,0:0|0:0,0:0:0:0:
21,138,198927,2,0,P|46:120|85:117,1,57.7499982376099,6|0,0:0|0:0,0:0:0:0:
512,253,199177,2,0,P|487:235|448:232,1,57.7499982376099,8|0,0:0|0:0,0:0:0:0:
214,32,199427,2,0,L|224:95,1,57.7499982376099
50,340,199677,5,6,0:0:0:0:
468,100,199927,1,6,0:0:0:0:
4,147,200177,6,0,L|65:154,1,55,8|0,0:0|0:0,0:0:0:0:
179,79,200552,6,0,P|219:79|271:148,1,115.49999647522,6|0,0:0|0:0,0:0:0:0:
124,353,200927,2,0,P|128:315|146:284,1,57.7499982376099,6|0,0:0|0:0,0:0:0:0:
480,160,201177,2,0,P|457:182|420:187,1,57.7499982376099,8|0,0:0|0:0,0:0:0:0:
27,65,201427,2,0,P|62:67|93:87,1,57.7499982376099
424,358,201677,6,0,P|378:347|343:312,1,82.5,6|0,0:0|0:0,0:0:0:0:
215,0,201927,2,0,P|233:37|233:93,1,82.5,12|2,0:0|0:0,0:0:0:0:
76,326,202177,1,8,0:0:0:0:
244,227,202302,1,8,3:0:0:0:
24,156,202427,1,8,3:0:0:0:
375,90,202552,6,0,L|367:239,1,123.75,6|0,0:0|2:0,0:0:0:0:
368,213,202802,1,2,0:0:0:0:
62,70,202927,2,0,P|99:56|162:74,1,82.5,8|0,0:0|0:0,0:0:0:0:
424,351,203177,1,2,0:0:0:0:
122,208,203302,1,2,0:0:0:0:
375,90,203427,1,8,0:0:0:0:
198,311,203552,5,2,0:0:0:0:
174,332,203614,1,2,0:0:0:0:
146,344,203677,1,2,0:0:0:0:
116,346,203739,1,2,0:0:0:0:
86,337,203802,5,8,0:0:0:0:
351,225,203927,1,2,0:0:0:0:
194,118,204052,1,8,0:0:0:0:
318,366,204177,1,2,0:0:0:0:
6,191,204302,1,8,0:0:0:0:
410,42,204427,1,2,0:0:0:0:
112,35,204552,6,0,B|95:104|95:104|114:212,1,181.500005538941,6|2,0:0|0:0,0:0:0:0:
334,128,204927,2,0,L|433:137,1,90.7500027694703,8|0,0:0|0:0,0:0:0:0:
114,212,205177,1,2,0:0:0:0:
230,60,205302,1,2,0:0:0:0:
318,316,205427,1,8,0:0:0:0:
113,122,205552,6,0,P|47:142|31:214,1,136.125004154205,2|0,0:0|2:0,0:0:0:0:
27,200,205802,1,2,0:0:0:0:
267,129,205927,2,0,P|270:84|271:39,1,90.7500027694703,8|0,0:0|0:0,0:0:0:0:
407,304,206177,1,2,0:0:0:0:
206,227,206302,1,2,0:0:0:0:
394,106,206427,1,8,0:0:0:0:
206,227,206552,6,0,B|92:250|92:250|124:177,1,181.500005538941,6|2,0:0|0:0,0:0:0:0:
507,23,206927,2,0,B|517:67|517:67|506:129,1,90.7500027694703,8|0,0:0|0:0,0:0:0:0:
286,333,207177,1,2,0:0:0:0:
349,73,207302,1,2,0:0:0:0:
474,252,207427,1,8,0:0:0:0:
186,250,207552,6,0,B|164:198|164:198|174:116,1,136.125004154205,2|0,0:0|2:0,0:0:0:0:
173,118,207802,1,2,0:0:0:0:
50,349,207927,1,8,0:0:0:0:
286,177,208052,1,2,0:0:0:0:
70,85,208177,1,0,0:0:0:0:
186,250,208302,1,2,0:0:0:0:
186,250,208364,1,2,0:0:0:0:
186,250,208427,1,8,0:0:0:0:
271,49,208552,6,0,B|377:36|377:36|461:55,1,181.500005538941,6|0,0:0|0:0,0:0:0:0:
236,341,208927,2,0,B|130:354|130:354|46:335,1,181.500005538941,8|2,0:0|0:0,0:0:0:0:
118,65,209302,1,2,0:0:0:0:
380,209,209427,2,0,L|384:117,1,90.7500027694703,8|2,0:0|0:0,0:0:0:0:
139,207,209677,5,0,0:0:0:0:
276,43,209802,1,2,0:0:0:0:
259,299,209927,1,8,0:0:0:0:
118,65,210052,1,2,0:0:0:0:
380,209,210177,1,8,0:0:0:0:
380,209,210302,2,0,L|478:199,1,90.7500027694703,2|0,0:0|0:0,0:0:0:0:
203,353,210552,6,0,B|134:342|134:342|107:310|107:310|34:297,1,181.500005538941,6|2,0:0|0:0,0:0:0:0:
233,44,210927,2,0,P|271:71|279:125,1,90.7500027694703,8|0,0:0|0:0,0:0:0:0:
332,304,211177,1,2,0:0:0:0:
160,186,211302,1,2,0:0:0:0:
332,304,211427,2,0,L|433:293,1,90.7500027694703,8|2,0:0|0:0,0:0:0:0:
160,186,211677,5,0,0:0:0:0:
332,304,211802,1,2,0:0:0:0:
251,56,211927,1,8,0:0:0:0:
202,375,212052,1,2,0:0:0:0:
384,178,212177,1,8,0:0:0:0:
54,96,212302,1,8,3:0:0:0:
464,18,212427,1,8,3:0:0:0:
190,252,212552,6,0,L|55:268,1,115.49999647522,6|0,0:0|2:0,0:0:0:0:
296,45,212927,2,0,L|378:56,1,57.7499982376099,6|0,0:0|2:0,0:0:0:0:
431,335,213177,2,0,P|440:311|436:269,1,57.7499982376099,8|0,0:0|2:0,0:0:0:0:
68,33,213427,2,0,P|66:63|75:90,1,57.7499982376099,0|0,0:0|2:0,0:0:0:0:
512,384,213677,5,6,0:0:0:0:
0,384,213927,1,6,0:0:0:0:
512,0,214177,6,0,L|512:58,1,50,8|0,0:0|0:0,0:0:0:0:
442,134,214552,6,0,P|394:136|347:76,1,115.49999647522,6|0,0:0|0:0,0:0:0:0:
74,320,214927,2,0,P|103:318|139:313,1,57.7499982376099,6|0,0:0|0:0,0:0:0:0:
442,134,215177,2,0,P|450:160|444:203,1,57.7499982376099,8|0,0:0|0:0,0:0:0:0:
105,26,215427,2,0,P|99:54|104:83,1,57.7499982376099
365,336,215677,6,0,B|408:342|408:342|452:326,1,82.5,6|0,0:0|0:0,0:0:0:0:
140,202,215927,2,0,B|101:208|101:208|53:192,1,82.5,8|2,0:0|0:0,0:0:0:0:
325,98,216177,1,8,0:0:0:0:
327,85,216302,1,8,3:0:0:0:
330,73,216427,1,8,3:0:0:0:
243,193,216552,6,0,L|254:316,1,123.75,6|0,0:0|2:0,0:0:0:0:
254,316,216802,1,2,0:0:0:0:
117,242,216927,2,0,P|82:254|52:305,1,82.5,8|0,0:0|0:0,0:0:0:0:
376,261,217177,1,2,0:0:0:0:
213,129,217302,1,2,0:0:0:0:
376,261,217427,1,8,0:0:0:0:
213,129,217552,6,0,P|163:131|109:62,1,123.75,6|0,0:0|2:0,0:0:0:0:
112,82,217802,1,2,0:0:0:0:
467,31,217927,2,0,L|461:132,1,82.5,8|2,0:0|0:0,0:0:0:0:
212,254,218177,5,8,0:0:0:0:
339,80,218302,1,2,0:0:0:0:
412,247,218427,1,8,3:0:0:0:
188,54,218552,1,8,3:0:0:0:
127,343,218677,1,2,0:0:0:0:
256,192,218708,12,2,220677,0:0:0:0:
