osu file format v14

[General]
AudioFilename: audio.mp3
AudioLeadIn: 0
PreviewTime: 64612
Countdown: 0
SampleSet: Soft
StackLeniency: 0.7
Mode: 0
LetterboxInBreaks: 0
WidescreenStoryboard: 1

[Editor]
DistanceSpacing: 0.9
BeatDivisor: 4
GridSize: 32
TimelineZoom: 1.7

[Metadata]
Title:White Midnight (Anime Version)
TitleUnicode:白夜 (アニメ・ヴァージョン)
Artist:Reol
ArtistUnicode:Reol
Creator:Esutarosa
Version:Normal
Source:白夜極光
Tags:pop jpop j-pop japanese れをる byakuya kyokkou kujinn reform shime anime game alchemy stars ost official soundtrack ver mobile smartphone video opening intro theme song
BeatmapID:3322861
BeatmapSetID:1627637

[Difficulty]
HPDrainRate:4
CircleSize:3.4
OverallDifficulty:5
ApproachRate:5.5
SliderMultiplier:2
SliderTickRate:1

[Events]
//Background and Video events
0,0,"bg.jpg",0,0
Video,0,"video.mp4"
//Break Periods
//Storyboard Layer 0 (Background)
//Storyboard Layer 1 (Fail)
//Storyboard Layer 2 (Pass)
//Storyboard Layer 3 (Foreground)
//Storyboard Layer 4 (Overlay)
//Storyboard Sound Samples
Sample,24032,2,"normal-hitwhistle32.wav",80

[TimingPoints]
4138,631.578947368421,4,2,1,32,1,0
13295,-100,4,3,1,32,0,0
14243,-100,4,2,91,62,0,0
14559,-100,4,2,1,42,0,0
14716,-100,4,2,1,60,0,0
15190,-100,4,2,1,60,0,0
15427,-100,4,2,1,5,0,0
15506,-100,4,2,1,60,0,0
15664,-100,4,2,1,60,0,0
15901,-100,4,2,1,5,0,0
16138,-100,4,2,1,60,0,0
16611,-100,4,2,1,60,0,0
16769,-100,4,2,1,60,0,0
17085,-100,4,2,1,60,0,0
17322,-100,4,2,1,5,0,0
17559,-100,4,2,1,60,0,0
17795,-100,4,2,1,5,0,0
18032,-100,4,2,1,62,0,0
18269,-100,4,2,1,5,0,0
18506,-100,4,2,1,63,0,0
18743,-100,4,2,1,5,0,0
18980,-100,4,2,1,64,0,0
20243,-100,4,2,1,66,0,0
20401,-100,4,2,1,66,0,0
20559,-100,4,2,1,66,0,0
21190,-100,4,2,1,66,0,0
21506,-100,4,2,1,68,0,0
21664,-100,4,2,1,68,0,0
21980,-100,4,2,1,68,0,0
22453,-100,4,2,1,68,0,0
22690,-100,4,2,1,5,0,0
22927,-100,4,2,1,64,0,0
23085,-100,4,2,1,38,0,0
23401,-100,4,1,44,60,0,0
23559,-100,4,1,44,48,0,0
23874,-100,4,1,23,60,0,0
23953,-100,4,1,23,5,0,0
24032,-100,4,1,32,60,0,0
24190,-100,4,1,32,5,0,0
24348,-100,4,2,1,48,0,0
24980,-100,4,2,1,48,0,0
25611,-100,4,2,27,48,0,0
25690,-100,4,2,1,48,0,0
25848,-100,4,2,1,5,0,0
25927,-100,4,2,1,48,0,0
26716,-100,4,2,1,38,0,0
26874,-100,4,2,1,48,0,0
27032,-100,4,2,1,38,0,0
27190,-100,4,2,1,48,0,0
27348,-100,4,2,1,38,0,0
27506,-100,4,2,1,48,0,0
27743,-100,4,2,1,5,0,0
27822,-100,4,2,1,48,0,0
28059,-100,4,2,1,5,0,0
28138,-100,4,2,27,52,0,0
28216,-100,4,2,1,52,0,0
28374,-100,4,2,1,5,0,0
28453,-100,4,2,1,55,0,0
28611,-100,4,2,1,48,0,0
28769,-100,4,2,1,54,0,0
28927,-100,4,2,1,38,0,0
29085,-100,4,2,1,53,0,0
29243,-100,4,2,1,38,0,0
29401,-100,4,2,1,50,0,0
29716,-100,4,2,1,38,0,0
30032,-100,4,2,1,32,0,0
30190,-100,4,2,1,38,0,0
30348,-100,4,2,1,48,0,0
30506,-100,4,2,1,52,0,0
30664,-100,4,2,27,56,0,0
30743,-100,4,2,1,56,0,0
30901,-100,4,2,1,5,0,0
30980,-100,4,2,1,54,0,0
31216,-100,4,2,1,5,0,0
31295,-100,4,2,1,52,0,0
31532,-100,4,2,1,5,0,0
31611,-100,4,2,1,52,0,0
31690,-100,4,2,1,17,0,0
31769,-100,4,2,1,52,0,0
31848,-100,4,2,1,17,0,0
31927,-100,4,2,1,56,0,0
32164,-100,4,2,1,5,0,0
32243,-100,4,2,1,54,0,0
32480,-100,4,2,1,5,0,0
32559,-100,4,2,1,52,0,0
32795,-100,4,2,1,5,0,0
32874,-100,4,2,1,52,0,0
32953,-100,4,2,1,17,0,0
33032,-100,4,2,1,52,0,0
33111,-100,4,2,27,17,0,0
33190,-100,4,2,27,52,0,0
33269,-100,4,2,1,52,0,0
33427,-100,4,2,1,5,0,0
33506,-100,4,2,1,54,0,0
33743,-100,4,2,1,5,0,0
33822,-100,4,2,1,50,0,0
34059,-100,4,2,1,5,0,0
34138,-100,4,2,1,48,0,0
34374,-100,4,2,1,5,0,0
34453,-100,4,2,1,58,0,0
34690,-100,4,2,1,5,0,0
34769,-100,4,2,1,58,0,0
34822,-100,4,2,1,17,0,0
34874,-100,4,2,1,58,0,0
34927,-100,4,2,1,17,0,0
35006,-100,4,2,1,58,0,0
35401,-100,4,2,1,46,0,0
35480,-100,4,2,1,50,0,0
35559,-100,4,2,1,54,0,0
35638,-100,4,2,1,56,0,0
35716,-100,4,2,27,58,0,0
35795,-100,4,2,1,58,0,0
36032,-100,4,2,1,58,0,0
36269,-100,4,2,1,5,0,0
36348,-100,4,2,1,58,0,0
36980,-100,4,2,1,58,0,0
37216,-100,4,2,1,5,0,0
37295,-100,4,2,1,58,0,0
37374,-100,4,2,1,17,0,0
37453,-100,4,2,1,58,0,0
37532,-100,4,2,1,17,0,0
37611,-100,4,2,1,58,0,0
37927,-100,4,2,1,46,0,0
38006,-100,4,2,1,50,0,0
38085,-100,4,2,1,54,0,0
38164,-100,4,2,1,56,0,0
38243,-100,4,2,27,58,0,0
38322,-100,4,2,1,58,0,0
38559,-100,4,2,1,58,0,0
38874,-100,4,2,1,48,0,0
39190,-100,4,2,1,60,0,0
40769,-100,4,2,27,60,0,0
40848,-100,4,2,1,60,0,0
42032,-100,4,2,1,60,0,0
42269,-100,4,2,1,5,0,0
42348,-100,4,2,1,60,0,0
42585,-100,4,2,1,5,0,0
42664,-100,4,2,1,60,0,0
43138,-100,4,2,1,30,0,0
43216,-100,4,2,1,48,0,0
43295,-100,4,2,27,60,0,0
43374,-100,4,2,1,60,0,0
43611,-100,4,2,1,48,0,0
43769,-100,4,2,1,60,0,0
44006,-100,4,2,1,5,0,0
44085,-100,4,2,1,60,0,0
44164,-100,4,2,1,5,0,0
44243,-100,4,2,1,60,0,0
44480,-100,4,2,1,5,0,0
44559,-100,4,2,91,68,0,0
44638,-100,4,2,1,68,0,0
44795,-100,4,2,1,5,0,0
44874,-100,4,2,1,68,0,0
45190,-100,4,2,1,58,0,0
45506,-100,4,2,1,68,0,0
45822,-100,4,2,1,68,0,0
45980,-100,4,2,1,32,0,0
46138,-100,4,2,1,68,0,0
46295,-100,4,2,1,32,0,0
46453,-100,4,2,1,68,0,0
46611,-100,4,2,1,32,0,0
46927,-100,4,2,1,48,0,0
47085,-100,4,2,1,68,0,0
47874,-100,4,2,1,38,0,0
48032,-100,4,2,1,68,0,0
49611,-100,4,2,1,68,0,0
49927,-100,4,2,1,58,0,0
50243,-100,4,2,1,68,0,0
50559,-100,4,2,1,68,0,0
50874,-100,4,2,1,68,0,0
51032,-100,4,2,1,32,0,0
51190,-100,4,2,1,68,0,0
51348,-100,4,2,1,32,0,0
51506,-100,4,2,1,68,0,0
51664,-100,4,2,1,32,0,0
51822,-100,4,2,1,68,0,0
54664,-100,4,2,1,74,0,0
55295,-100,4,2,1,74,0,0
55927,-100,4,2,1,74,0,0
56559,-100,4,2,1,74,0,0
57190,-100,4,2,1,74,0,0
57822,-100,4,2,1,74,0,0
58453,-100,4,2,1,74,0,0
59085,-100,4,2,1,74,0,0
59401,-100,4,2,1,74,0,0
59716,-100,4,2,1,74,0,0
60348,-100,4,2,1,74,0,0
60980,-100,4,2,1,74,0,0
61611,-100,4,2,1,74,0,0
62243,-100,4,2,1,74,0,0
62348,-100,4,2,1,28,0,0
62453,-100,4,2,1,74,0,0
62559,-100,4,2,1,28,0,0
62664,-100,4,2,1,74,0,0
62769,-100,4,2,1,28,0,0
62874,-100,4,2,1,74,0,0
62980,-100,4,2,1,28,0,0
63085,-100,4,2,1,74,0,0
63190,-100,4,2,1,28,0,0
63295,-100,4,2,1,74,0,0
63401,-100,4,2,1,28,0,0
63506,-100,4,2,1,74,0,0
64769,-95.2380952380952,4,2,2,82,0,1
64848,-95.2380952380952,4,2,27,82,0,1
65006,-95.2380952380952,4,2,27,5,0,1
65085,-95.2380952380952,4,2,27,82,0,1
65322,-95.2380952380952,4,2,27,5,0,1
65401,-95.2380952380952,4,2,27,82,0,1
65638,-95.2380952380952,4,2,27,5,0,1
65716,-95.2380952380952,4,2,27,82,0,1
65953,-95.2380952380952,4,2,27,5,0,1
66032,-95.2380952380952,4,2,27,82,0,1
66269,-95.2380952380952,4,2,27,5,0,1
66348,-95.2380952380952,4,2,27,82,0,1
66585,-95.2380952380952,4,2,27,5,0,1
66664,-95.2380952380952,4,2,27,82,0,1
66901,-95.2380952380952,4,2,27,5,0,1
66980,-95.2380952380952,4,2,27,82,0,1
67216,-95.2380952380952,4,2,27,5,0,1
67295,-95.2380952380952,4,2,27,82,0,1
67532,-95.2380952380952,4,2,27,5,0,1
67611,-95.2380952380952,4,2,27,82,0,1
67690,-95.2380952380952,4,2,27,21,0,1
67769,-95.2380952380952,4,2,27,82,0,1
67848,-95.2380952380952,4,2,27,21,0,1
67927,-95.2380952380952,4,2,27,82,0,1
68164,-95.2380952380952,4,2,27,5,0,1
68243,-95.2380952380952,4,2,27,82,0,1
68322,-95.2380952380952,4,2,27,17,0,1
68401,-95.2380952380952,4,2,27,82,0,1
68480,-95.2380952380952,4,2,27,17,0,1
68559,-95.2380952380952,4,2,27,82,0,1
68638,-95.2380952380952,4,2,27,21,0,1
68716,-95.2380952380952,4,2,27,82,0,1
68795,-95.2380952380952,4,2,27,21,0,1
68874,-95.2380952380952,4,2,27,82,0,1
69111,-95.2380952380952,4,2,27,5,0,1
69190,-95.2380952380952,4,2,27,82,0,1
69427,-95.2380952380952,4,2,27,5,0,1
69506,-95.2380952380952,4,2,27,82,0,1
69743,-95.2380952380952,4,2,27,5,0,0
69822,-95.2380952380952,4,2,2,82,0,1
69901,-95.2380952380952,4,2,27,82,0,1
70059,-95.2380952380952,4,2,27,5,0,1
70138,-95.2380952380952,4,2,27,82,0,1
70374,-95.2380952380952,4,2,27,5,0,1
70453,-95.2380952380952,4,2,27,82,0,1
70690,-95.2380952380952,4,2,27,5,0,1
70769,-95.2380952380952,4,2,27,82,0,1
71006,-95.2380952380952,4,2,27,5,0,1
71085,-95.2380952380952,4,2,27,82,0,1
71322,-95.2380952380952,4,2,27,5,0,1
71401,-95.2380952380952,4,2,27,82,0,1
71638,-95.2380952380952,4,2,27,5,0,1
71716,-95.2380952380952,4,2,27,82,0,1
71953,-95.2380952380952,4,2,27,5,0,1
72032,-95.2380952380952,4,2,27,82,0,1
72269,-95.2380952380952,4,2,27,5,0,1
72348,-95.2380952380952,4,2,27,82,0,1
72585,-95.2380952380952,4,2,27,5,0,1
72664,-95.2380952380952,4,2,27,82,0,1
72743,-95.2380952380952,4,2,27,21,0,1
72822,-95.2380952380952,4,2,27,82,0,1
72901,-95.2380952380952,4,2,27,21,0,1
72980,-95.2380952380952,4,2,27,82,0,1
73216,-95.2380952380952,4,2,27,5,0,1
73295,-95.2380952380952,4,2,27,80,0,1
73532,-95.2380952380952,4,2,27,5,0,1
73611,-95.2380952380952,4,2,27,78,0,1
73690,-95.2380952380952,4,2,27,17,0,1
73769,-95.2380952380952,4,2,27,78,0,1
73848,-95.2380952380952,4,2,27,17,0,1
73927,-95.2380952380952,4,2,27,76,0,1
74006,-95.2380952380952,4,2,27,21,0,1
74085,-95.2380952380952,4,2,27,76,0,1
74164,-95.2380952380952,4,2,27,21,0,1
74243,-95.2380952380952,4,2,27,74,0,1
74480,-95.2380952380952,4,2,27,5,0,1
74559,-95.2380952380952,4,2,27,73,0,1
74795,-95.2380952380952,4,2,27,5,0,1
74874,-100,4,2,2,68,0,0
74953,-100,4,2,27,68,0,0
75427,-100,4,2,27,5,0,0
75506,-100,4,2,27,68,0,0
75743,-100,4,2,27,5,0,0
75822,-100,4,2,27,68,0,0
76059,-100,4,2,27,5,0,0
76138,-100,4,2,27,68,0,0
76374,-100,4,2,27,5,0,0
76453,-100,4,2,27,67,0,0
76690,-100,4,2,27,5,0,0
76769,-100,4,2,27,66,0,0
77006,-100,4,2,27,5,0,0
77085,-100,4,2,27,65,0,0
77322,-100,4,2,27,5,0,0
77401,-100,4,2,27,64,0,0
77559,-100,4,2,27,48,0,0
77716,-100,4,2,27,64,0,0
77874,-100,4,2,27,48,0,0
78032,-100,4,2,27,64,0,0
78269,-100,4,2,27,5,0,0
78348,-100,4,2,27,64,0,0
78585,-100,4,2,27,5,0,0
78664,-100,4,2,27,64,0,0
78743,-100,4,2,27,5,0,0
78822,-100,4,2,27,64,0,0
79138,-100,4,2,27,48,0,0
79295,-100,4,2,27,64,0,0
79453,-100,4,2,27,48,0,0
79611,-100,4,2,27,64,0,0
79769,-100,4,2,27,48,0,0
79927,-100,4,2,27,64,0,0
80164,-100,4,2,27,5,0,0
80243,-100,4,2,27,64,0,0
80480,-100,4,2,27,5,0,0
80559,-100,4,2,27,64,0,0
80638,-100,4,2,27,5,0,0
80716,-100,4,2,27,64,0,0
81111,-100,4,2,27,5,0,0
81190,-100,4,2,27,65,0,0
81743,-100,4,2,27,5,0,0
81822,-100,4,2,27,66,0,0
82059,-100,4,2,27,5,0,0
82138,-100,4,2,27,66,0,0
82374,-100,4,2,27,5,0,0
82453,-100,4,2,27,68,0,0
82690,-100,4,2,27,5,0,0
82769,-100,4,2,27,68,0,0
83006,-100,4,2,27,5,0,0
83085,-100,4,2,27,70,0,0
83322,-100,4,2,27,5,0,0
83401,-100,4,2,27,70,0,0
83638,-100,4,2,27,5,0,0
83716,-100,4,2,27,70,0,0
83953,-100,4,2,27,5,0,0
84032,-100,4,2,27,70,0,0
84269,-100,4,2,27,5,0,0
84348,-100,4,2,27,77,0,0
84585,-100,4,2,27,5,0,0
84664,-100,4,2,1,79,0,0
84743,-100,4,2,27,79,0,0
84901,-100,4,2,27,5,0,0
84980,-90.9090909090909,4,2,91,88,0,1
85059,-90.9090909090909,4,2,27,32,0,1
85138,-90.9090909090909,4,2,27,88,0,1
85216,-90.9090909090909,4,2,27,32,0,1
85295,-90.9090909090909,4,2,27,88,0,1
85532,-90.9090909090909,4,2,27,5,0,1
85611,-90.9090909090909,4,2,27,88,0,1
85848,-90.9090909090909,4,2,27,5,0,1
85927,-90.9090909090909,4,2,27,88,0,1
86006,-90.9090909090909,4,2,27,32,0,1
86085,-90.9090909090909,4,2,27,88,0,1
86164,-90.9090909090909,4,2,27,32,0,1
86243,-90.9090909090909,4,2,27,88,0,1
86322,-90.9090909090909,4,2,27,32,0,1
86401,-90.9090909090909,4,2,27,88,0,1
86480,-90.9090909090909,4,2,27,17,0,1
86559,-90.9090909090909,4,2,27,88,0,1
86795,-90.9090909090909,4,2,27,5,0,1
86874,-90.9090909090909,4,2,27,88,0,1
86953,-90.9090909090909,4,2,27,32,0,1
87032,-90.9090909090909,4,2,27,88,0,1
87111,-90.9090909090909,4,2,27,32,0,1
87190,-90.9090909090909,4,2,27,88,0,1
87427,-90.9090909090909,4,2,27,5,0,1
87506,-90.9090909090909,4,2,27,88,0,1
87585,-90.9090909090909,4,2,27,21,0,1
87664,-90.9090909090909,4,2,27,88,0,1
87743,-90.9090909090909,4,2,27,21,0,1
87822,-90.9090909090909,4,2,27,88,0,1
88059,-90.9090909090909,4,2,27,5,0,1
88138,-90.9090909090909,4,2,27,88,0,1
88374,-90.9090909090909,4,2,27,5,0,1
88453,-90.9090909090909,4,2,27,88,0,1
88690,-90.9090909090909,4,2,27,5,0,1
88769,-90.9090909090909,4,2,27,88,0,1
89006,-90.9090909090909,4,2,27,5,0,1
89085,-90.9090909090909,4,2,27,88,0,1
89322,-90.9090909090909,4,2,27,5,0,1
89401,-90.9090909090909,4,2,27,88,0,1
89638,-90.9090909090909,4,2,27,5,0,1
89716,-90.9090909090909,4,2,27,88,0,1
89953,-90.9090909090909,4,2,27,5,0,0
90032,-90.9090909090909,4,2,2,88,0,1
90111,-90.9090909090909,4,2,27,32,0,1
90190,-90.9090909090909,4,2,27,88,0,1
90269,-90.9090909090909,4,2,27,32,0,1
90348,-90.9090909090909,4,2,27,88,0,1
90585,-90.9090909090909,4,2,27,5,0,1
90664,-90.9090909090909,4,2,27,88,0,1
90901,-90.9090909090909,4,2,27,5,0,1
90980,-90.9090909090909,4,2,27,88,0,1
91059,-90.9090909090909,4,2,27,32,0,1
91138,-90.9090909090909,4,2,27,88,0,1
91216,-90.9090909090909,4,2,27,32,0,1
91295,-90.9090909090909,4,2,27,88,0,1
91374,-90.9090909090909,4,2,27,32,0,1
91453,-90.9090909090909,4,2,27,88,0,1
91532,-90.9090909090909,4,2,27,17,0,1
91611,-90.9090909090909,4,2,27,88,0,1
91848,-90.9090909090909,4,2,27,5,0,1
91927,-90.9090909090909,4,2,27,88,0,1
92006,-90.9090909090909,4,2,27,32,0,1
92085,-90.9090909090909,4,2,27,88,0,1
92164,-90.9090909090909,4,2,27,32,0,1
92243,-90.9090909090909,4,2,27,88,0,1
92480,-90.9090909090909,4,2,27,5,0,1
92559,-90.9090909090909,4,2,27,88,0,1
92638,-90.9090909090909,4,2,27,21,0,1
92716,-90.9090909090909,4,2,27,88,0,1
92795,-90.9090909090909,4,2,27,21,0,1
92874,-90.9090909090909,4,2,27,88,0,1
92953,-90.9090909090909,4,2,27,21,0,1
93032,-90.9090909090909,4,2,27,88,0,1
93111,-90.9090909090909,4,2,27,21,0,1
93190,-90.9090909090909,4,2,27,88,0,1
93427,-90.9090909090909,4,2,27,5,0,1
93506,-90.9090909090909,4,2,27,88,0,1
93743,-90.9090909090909,4,2,27,5,0,1
93822,-90.9090909090909,4,2,27,85,0,1
93901,-90.9090909090909,4,2,27,5,0,1
93980,-90.9090909090909,4,2,27,82,0,1
94059,-90.9090909090909,4,2,27,80,0,1
94138,-90.9090909090909,4,2,27,85,0,1
94374,-90.9090909090909,4,2,27,5,0,1
94453,-90.9090909090909,4,2,27,82,0,1
94690,-90.9090909090909,4,2,27,5,0,1
94769,-90.9090909090909,4,2,27,79,0,1
95006,-90.9090909090909,4,2,27,5,0,1
95085,-100,4,2,1,68,0,0
95164,-100,4,2,27,68,0,0
95638,-100,4,2,27,5,0,0
95716,-100,4,2,27,68,0,0
95953,-100,4,2,27,5,0,0
96032,-100,4,2,27,68,0,0
96269,-100,4,2,27,5,0,0
96348,-100,4,2,27,68,0,0
96427,-100,4,2,27,5,0,0
96506,-100,4,2,27,68,0,0
96585,-100,4,2,27,17,0,0
96664,-100,4,2,27,68,0,0
96901,-100,4,2,27,5,0,0
96980,-100,4,2,27,68,0,0
97216,-100,4,2,27,5,0,0
97295,-100,4,2,27,68,0,0
97532,-100,4,2,27,5,0,0
97611,-100,4,2,27,68,0,0
97690,-100,4,2,27,17,0,0
97769,-100,4,2,27,68,0,0
97848,-100,4,2,27,17,0,0
97927,-100,4,2,27,68,0,0
98164,-100,4,2,27,5,0,0
98243,-100,4,2,27,68,0,0
98480,-100,4,2,27,5,0,0
98559,-100,4,2,27,67,0,0
98638,-100,4,2,27,7,0,0
98716,-100,4,2,27,67,0,0
98795,-100,4,2,27,7,0,0
98874,-100,4,2,27,67,0,0
98953,-100,4,2,27,7,0,0
99032,-100,4,2,27,68,0,0
99111,-100,4,2,27,17,0,0
99190,-100,4,2,27,66,0,0
99427,-100,4,2,27,5,0,0
99506,-100,4,2,27,68,0,0
99664,-100,4,2,27,48,0,0
99822,-100,4,2,27,70,0,0
99980,-100,4,2,27,58,0,0
100138,-100,4,2,2,75,0,0
100216,-100,4,2,27,75,0,0
100374,-100,4,2,27,5,0,0
100453,-100,4,2,27,73,0,0
100690,-100,4,2,27,5,0,0
100769,-100,4,2,27,72,0,0
101006,-100,4,2,27,5,0,0
101085,-100,4,2,27,70,0,0
101322,-100,4,2,27,5,0,0
101401,-100,4,2,27,70,0,0
101480,-100,4,2,27,5,0,0
101559,-100,4,2,27,70,0,0
101638,-100,4,2,27,17,0,0
101716,-100,4,2,27,70,0,0
101953,-100,4,2,27,5,0,0
102032,-100,4,2,27,70,0,0
102269,-100,4,2,27,5,0,0
102348,-100,4,2,27,71,0,0
102585,-100,4,2,27,5,0,0
102664,-100,4,2,27,72,0,0
102743,-100,4,2,27,7,0,0
102822,-100,4,2,27,72,0,0
102901,-100,4,2,27,7,0,0
102980,-100,4,2,27,72,0,0
103059,-100,4,2,27,7,0,0
103138,-100,4,2,27,72,0,0
103216,-100,4,2,27,17,0,0
103295,-100,4,2,27,74,0,0
103532,-100,4,2,27,5,0,0
103611,-100,4,2,27,72,0,0
104164,-100,4,2,27,5,0,0
104243,-100,4,2,27,73,0,0
104480,-100,4,2,27,5,0,0
104559,-100,4,2,27,70,0,0
104795,-100,4,2,27,5,0,0
104874,-100,4,2,27,68,0,0
105190,-100,4,2,27,5,0,0

[Colours]
Combo1 : 127,120,210
Combo2 : 255,170,170
Combo3 : 193,185,236
Combo4 : 255,106,106
Combo5 : 163,158,233
Combo6 : 255,57,57

[HitObjects]
488,58,14243,38,0,P|438:67|386:87,1,100,6|0,0:0|0:0,0:0:0:0:
356,101,14716,1,2,0:0:0:0:
293,203,15190,2,0,P|246:185|196:176,1,100,2|0,0:0|3:2,0:0:0:0:
159,189,15664,2,0,P|117:163|109:115,1,100,2|0,0:0|0:0,0:0:0:0:
132,82,16138,1,2,3:2:0:0:
225,7,16611,6,0,P|269:29|318:34,1,100,2|0,0:0|0:0,0:0:0:0:
359,30,17085,1,2,0:0:0:0:
452,105,17559,2,0,P|432:149|416:213,1,100,2|0,0:0|0:0,0:0:0:0:
428,237,18032,2,0,P|395:273|347:275,1,100,2|0,0:0|0:0,0:0:0:0:
317,249,18506,1,2,0:0:0:0:
211,305,18980,70,0,P|221:330|230:357,2,50,2|0|8,0:0|3:2|3:0,0:0:0:0:
164,240,19611,2,0,P|172:216|181:193,2,50,0|0|0,3:2|3:2|3:2,0:0:0:0:
128,311,20243,2,0,P|100:320|64:334,1,50,2|2,0:0|0:0,0:0:0:0:
43,341,20559,1,0,3:2:0:0:
0,273,20874,2,0,P|13:231|33:172,1,100,0|0,3:2|3:2,0:0:0:0:
93,127,21506,5,2,0:0:0:0:
93,127,21664,2,0,P|131:97|111:37,1,100,2|2,0:0|0:0,0:0:0:0:
235,2,22453,1,2,0:0:0:0:
341,57,22927,1,2,0:0:0:0:
287,164,23401,70,0,P|295:185|306:218,1,50,4|8,2:1|2:1,0:0:0:0:
351,282,23874,1,10,2:1:0:0:
351,282,24032,2,0,P|341:304|331:334,1,50,12|0,2:1|0:0,0:0:0:0:
299,351,24348,70,0,B|207:376|207:376|149:322|201:285,1,200,14|2,3:2|0:0,0:0:0:0:
212,245,25138,2,0,P|193:200|172:145,1,100,2|2,0:0|0:0,0:0:0:0:
156,111,25611,1,6,0:0:0:0:
200,32,25927,2,0,B|271:22|321:80|280:98|326:160|402:150,1,250,10|2,3:2|0:0,0:0:0:0:
443,147,26874,69,2,3:2:0:0:
472,232,27190,1,2,3:2:0:0:
409,296,27506,2,0,P|362:314|318:338,2,100,2|2|6,0:0|3:2|0:0,0:0:0:0:
381,210,28453,2,0,P|282:186|175:148,1,200,10|2,3:2|0:0,0:0:0:0:
192,112,29243,1,2,0:0:0:0:
192,112,29401,6,0,P|222:68|214:6,2,100,10|2|0,3:2|0:0|0:0,0:0:0:0:
147,190,30348,2,0,P|120:199|91:215,1,50,2|10,0:0|3:2,0:0:0:0:
62,233,30664,1,4,0:0:0:0:
103,312,30980,2,0,P|155:327|200:347,1,100,10|2,3:2|0:0,0:0:0:0:
280,311,31611,2,0,P|307:302|340:295,1,50,2|2,0:0|0:0,0:0:0:0:
370,284,31927,70,0,P|391:239|375:193,1,100,10|10,3:2|3:2,0:0:0:0:
416,116,32559,1,2,0:0:0:0:
347,57,32874,2,0,P|320:64|288:76,1,50,2|2,3:2|0:0,0:0:0:0:
257,90,33190,1,4,0:0:0:0:
211,168,33506,2,0,P|164:159|91:147,1,100,10|2,3:2|0:0,0:0:0:0:
53,81,34138,1,2,0:0:0:0:
127,30,34453,38,0,B|172:3|220:38|220:38|220:78|256:111|306:91,1,200,14|0,3:2|0:0,0:0:0:0:
349,159,35401,2,0,P|398:162|446:115,1,100,2|4,0:0|0:0,0:0:0:0:
510,185,36032,2,0,P|491:278|401:310,1,200,10|0,3:2|0:0,0:0:0:0:
326,266,36980,69,10,3:2:0:0:
245,305,37295,2,0,P|196:328|146:367,2,100,2|2|2,3:2|0:0|0:0,0:0:0:0:
326,266,38243,1,4,0:0:0:0:
381,195,38559,2,0,B|390:144|445:125|445:125|435:55|365:55,1,200,10|2,3:2|0:0,0:0:0:0:
303,11,39506,6,0,P|258:22|201:42,1,100,10|2,3:2|0:0,0:0:0:0:
169,60,39980,1,2,0:0:0:0:
169,60,40138,2,0,P|154:112|111:122,1,100,2|2,0:0|0:0,0:0:0:0:
40,174,40769,2,0,P|48:200|56:231,1,50,6|2,0:0|0:0,0:0:0:0:
48,266,41085,2,0,P|94:285|156:322,1,100,10|2,3:2|0:0,0:0:0:0:
175,334,41559,1,2,0:0:0:0:
175,334,41716,1,2,0:0:0:0:
254,292,42032,70,0,P|302:279|359:268,1,100,10|8,3:2|3:2,0:0:0:0:
414,205,42664,2,0,P|404:157|362:133,1,100,2|0,0:0|3:2,0:0:0:0:
279,168,43295,2,0,P|250:163|220:157,1,50,6|2,0:0|3:2,0:0:0:0:
191,135,43611,2,0,B|119:119|89:193|89:193|136:236|103:297,1,200,10|2,3:2|0:0,0:0:0:0:
152,337,44559,70,0,P|221:351|260:365,2,100,6|2|2,0:0|0:0|0:0,0:0:0:0:
76,376,45506,1,2,0:0:0:0:
18,313,45822,2,0,P|8:259|-5:196,1,100,2|2,0:0|0:0,0:0:0:0:
12,177,46295,1,2,0:0:0:0:
12,177,46453,2,0,P|42:135|94:138,1,100,2|0,0:0|0:0,0:0:0:0:
130,207,47085,70,0,P|185:215|235:226,1,100,2|2,0:0|0:0,0:0:0:0:
246,263,47559,2,0,P|294:252|344:245,1,100,2|2,0:0|0:0,0:0:0:0:
386,240,48032,1,2,0:0:0:0:
437,172,48348,2,0,P|420:126|374:109,1,100,2|2,0:0|0:0,0:0:0:0:
344,138,48822,1,2,0:0:0:0:
344,138,48980,1,2,0:0:0:0:
262,114,49295,1,2,0:0:0:0:
215,184,49611,6,0,P|181:219|132:225,2,100,2|2|2,3:2|0:0|0:0,0:0:0:0:
262,114,50559,2,0,P|255:94|244:56,1,50,2|2,0:0|0:0,0:0:0:0:
222,31,50874,2,0,P|173:26|137:58,1,100,2|2,0:0|0:0,0:0:0:0:
124,102,51348,1,2,0:0:0:0:
124,102,51506,1,2,0:0:0:0:
188,160,51822,1,2,0:0:0:0:
149,235,52138,70,0,P|106:251|57:277,1,100,2|0,0:0|0:0,0:0:0:0:
22,299,52611,2,0,P|36:326|47:353,1,50,2|2,0:0|0:0,0:0:0:0:
74,373,52927,1,2,0:0:0:0:
158,382,53243,2,0,P|179:369|210:359,1,50,2|2,0:0|0:0,0:0:0:0:
221,321,53559,2,0,P|274:332|353:344,1,100,2|2,0:0|0:0,0:0:0:0:
364,352,54032,1,2,0:0:0:0:
364,352,54190,1,2,0:0:0:0:
445,321,54506,1,2,0:0:0:0:
445,321,54664,38,0,P|458:272|475:225,1,100,2|0,3:2|0:0,0:0:0:0:
506,199,55138,1,2,0:0:0:0:
506,199,55295,2,0,P|466:126|460:101,1,100,2|2,3:2|0:0,0:0:0:0:
406,39,55927,2,0,P|351:50|326:108,1,100,2|2,3:2|0:0,0:0:0:0:
330,174,56559,1,2,3:2:0:0:
246,214,56874,1,2,0:0:0:0:
158,191,57190,70,0,P|140:147|113:93,1,100,2|2,3:2|0:0,0:0:0:0:
35,138,57822,2,0,P|57:182|76:229,1,100,2|2,3:2|0:0,0:0:0:0:
61,317,58453,2,0,P|93:353|141:357,1,100,2|2,3:2|0:0,0:0:0:0:
204,292,59085,1,2,3:2:0:0:
292,277,59401,1,2,0:0:0:0:
358,337,59716,6,0,P|405:352|452:369,1,100,2|2,3:2|0:0,0:0:0:0:
488,286,60348,2,0,P|441:268|393:253,1,100,2|2,3:2|0:0,0:0:0:0:
310,217,60980,2,0,P|283:176|295:129,1,100,2|2,3:2|0:0,0:0:0:0:
369,77,61611,1,2,3:2:0:0:
453,108,61927,1,2,0:0:0:0:
456,197,62243,70,0,P|480:225|496:253,2,66.6666666666667,2|8|8,3:2|2:1|2:1,0:0:0:0:
396,193,62874,2,0,P|368:169|337:155,2,66.6666666666667,2|8|8,3:2|2:1|2:1,0:0:0:0:
398,253,63506,1,2,0:0:0:0:
65,54,64769,38,0,B|35:91|35:91|62:154,1,104.999996795654,14|2,3:2|3:2,0:0:0:0:
102,172,65243,1,0,3:0:0:0:
102,172,65401,2,0,P|83:222|61:286,1,104.999996795654,4|2,3:2|3:2,0:0:0:0:
116,350,66032,1,10,3:2:0:0:
210,342,66348,1,0,3:0:0:0:
280,278,66664,2,0,B|326:289|326:289|337:298|337:298|380:306,1,104.999996795654,6|2,3:2|3:2,0:0:0:0:
429,321,67138,1,0,3:0:0:0:
429,321,67295,69,8,3:2:0:0:
482,242,67611,1,2,3:2:0:0:
444,155,67927,2,0,P|396:164|320:179,1,104.999996795654,6|2,3:2|3:2,0:0:0:0:
249,199,68559,1,10,3:2:0:0:
163,159,68874,1,2,3:2:0:0:
142,66,69190,2,0,P|165:52|200:40,1,52.4999983978272,6|0,3:2|3:0,0:0:0:0:
234,29,69506,1,2,3:2:0:0:
318,71,69822,6,0,B|382:92|382:92|429:69,1,104.999996795654,14|2,3:2|3:2,0:0:0:0:
463,96,70295,1,0,3:0:0:0:
463,96,70453,2,0,P|446:146|426:213,1,104.999996795654,4|2,3:2|3:2,0:0:0:0:
435,290,71085,1,10,3:2:0:0:
348,328,71401,1,0,3:0:0:0:
258,299,71716,2,0,B|221:291|221:291|136:340,1,104.999996795654,6|2,3:2|3:2,0:0:0:0:
127,355,72190,1,0,3:0:0:0:
127,355,72348,69,8,3:2:0:0:
55,293,72664,1,2,3:2:0:0:
46,198,72980,2,0,P|64:152|88:88,1,104.999996795654,6|2,3:2|3:2,0:0:0:0:
76,57,73453,1,0,3:0:0:0:
76,57,73611,1,10,3:2:0:0:
158,11,73927,1,2,3:2:0:0:
231,70,74243,2,0,P|256:74|291:86,1,52.4999983978272,6|0,3:2|3:0,0:0:0:0:
326,98,74559,1,2,3:2:0:0:
323,191,74874,70,0,P|283:225|251:267,1,100,14|0,3:2|3:2,0:0:0:0:
239,301,75348,1,2,3:2:0:0:
239,301,75506,1,6,3:2:0:0:
278,370,75822,1,2,3:2:0:0:
357,372,76138,2,0,P|402:354|422:310,1,100,10|2,3:2|3:2,0:0:0:0:
475,249,76769,1,6,3:2:0:0:
452,172,77085,1,2,3:2:0:0:
494,104,77401,70,0,P|474:59|428:45,1,100,10|0,3:2|3:2,0:0:0:0:
395,32,77874,1,2,3:2:0:0:
395,32,78032,2,0,P|345:70|299:75,1,100,6|2,3:2|3:2,0:0:0:0:
247,24,78664,2,0,P|199:33|137:52,1,100,10|0,3:2|3:2,0:0:0:0:
94,105,79295,2,0,P|93:165|45:195,1,100,6|0,3:2|3:2,0:0:0:0:
31,205,79769,1,2,3:2:0:0:
31,205,79927,6,0,P|18:260|-2:321,1,100,10|2,3:2|3:2,0:0:0:0:
55,370,80559,1,4,3:2:0:0:
55,370,80716,2,0,P|102:350|160:334,1,100,2|0,3:2|3:2,0:0:0:0:
175,306,81190,2,0,P|223:330|274:303,1,100,10|0,3:2|3:2,0:0:0:0:
287,283,81664,1,2,3:2:0:0:
287,283,81822,1,4,3:2:0:0:
363,307,82138,1,2,3:2:0:0:
439,282,82453,70,0,P|451:233|472:165,1,100,8|2,3:2|3:2,0:0:0:0:
460,105,83085,2,0,P|422:69|366:77,1,100,6|2,3:2|3:2,0:0:0:0:
328,134,83716,1,10,3:2:0:0:
249,119,84032,1,10,3:2:0:0:
179,79,84348,2,0,P|161:93|134:102,1,50,6|0,3:2|3:2,0:0:0:0:
94,106,84664,2,0,P|76:122|63:144,1,50,8|0,3:0|3:2,0:0:0:0:
71,193,84980,38,0,B|120:206|120:206|124:212|124:212|183:227,1,110.000003356934,14|2,3:2|0:0,0:0:0:0:
227,219,85453,1,0,0:0:0:0:
227,219,85611,1,4,3:2:0:0:
296,289,85927,1,10,3:2:0:0:
387,250,86243,2,0,L|413:187,1,55.0000016784668,2|8,0:0|3:2,0:0:0:0:
428,153,86559,1,8,3:2:0:0:
378,67,86874,2,0,B|328:91|328:91|269:74,1,110.000003356934,6|2,3:2|3:2,0:0:0:0:
246,35,87348,1,0,0:0:0:0:
246,35,87506,70,0,L|171:52,1,55.0000016784668,8|0,3:2|3:2,0:0:0:0:
143,57,87822,1,2,3:2:0:0:
73,127,88138,2,0,P|87:177|104:264,1,110.000003356934,6|2,3:2|3:2,0:0:0:0:
77,330,88769,2,0,L|147:358,1,55.0000016784668,2|8,0:0|3:2,0:0:0:0:
175,365,89085,1,10,3:2:0:0:
253,304,89401,2,0,P|300:271|350:286,1,110.000003356934,6|10,3:2|3:2,0:0:0:0:
375,324,89874,1,8,3:2:0:0:
375,324,90032,6,0,B|442:333|442:333|485:288,1,110.000003356934,14|2,3:2|3:2,0:0:0:0:
465,257,90506,1,0,0:0:0:0:
465,257,90664,1,4,3:2:0:0:
505,166,90980,1,10,3:2:0:0:
446,86,91295,2,0,L|394:103,1,55.0000016784668,2|8,0:0|3:2,0:0:0:0:
347,122,91611,1,8,3:2:0:0:
286,200,91927,2,0,B|236:193|236:193|229:194|229:194|162:184,1,110.000003356934,6|2,3:2|3:2,0:0:0:0:
131,186,92401,1,0,0:0:0:0:
131,186,92559,70,0,L|108:236,1,55.0000016784668,10|0,3:2|3:2,0:0:0:0:
63,257,92874,2,0,L|85:307,1,55.0000016784668,2|0,3:2|3:2,0:0:0:0:
98,355,93190,2,0,B|140:376|140:376|217:346,1,110.000003356934,6|0,3:2|3:2,0:0:0:0:
262,277,93822,2,0,L|245:210,1,55.0000016784668,2|8,3:2|3:2,0:0:0:0:
235,175,94138,1,10,3:2:0:0:
281,88,94453,2,0,P|320:61|381:86,1,110.000003356934,14|10,3:2|3:2,0:0:0:0:
430,150,95085,70,0,P|413:207|399:264,1,100,4|2,3:2|0:0,0:0:0:0:
397,289,95559,1,0,0:0:0:0:
397,289,95716,1,4,0:0:0:0:
331,335,96032,1,10,3:2:0:0:
257,302,96348,2,0,P|229:308|201:317,1,50,2|8,0:0|3:2,0:0:0:0:
170,328,96664,1,10,3:2:0:0:
91,313,96980,1,6,0:0:0:0:
60,239,97295,1,10,3:2:0:0:
82,162,97611,70,0,P|95:141|116:113,2,50,10|8|10,3:2|3:2|3:2,0:0:0:0:
4,182,98243,1,4,0:0:0:0:
60,239,98559,2,0,P|94:269|158:262,1,100,10|0,3:2|0:0,0:0:0:0:
187,258,99032,1,12,3:2:0:0:
187,258,99190,1,10,3:2:0:0:
243,201,99506,2,0,P|233:153|189:134,1,100,6|8,0:0|3:2,0:0:0:0:
156,157,99980,1,8,3:2:0:0:
156,157,100138,6,0,P|113:142|49:130,1,100,12|8,3:2|3:2,0:0:0:0:
17,67,100769,1,4,0:0:0:0:
82,21,101085,2,0,P|131:30|178:46,1,100,10|0,3:2|0:0,0:0:0:0:
219,65,101559,1,8,3:2:0:0:
219,65,101716,1,8,3:2:0:0:
271,125,102032,1,6,0:0:0:0:
350,113,102348,1,10,3:2:0:0:
412,163,102664,70,0,P|420:188|427:219,1,50,10|0,3:2|3:2,0:0:0:0:
460,231,102980,2,0,P|452:256|445:287,1,50,2|0,3:2|3:2,0:0:0:0:
423,311,103295,1,6,0:0:0:0:
357,356,103611,2,0,B|316:334|255:331|255:331|228:261|288:241,1,200,10|10,3:2|3:2,0:0:0:0:
352,236,104559,1,4,0:0:0:0:
374,159,104874,2,0,P|356:116|338:60,1,100,10|0,3:2|0:0,0:0:0:0:
