osu file format v14

[General]
AudioFilename: audio.mp3
AudioLeadIn: 0
PreviewTime: 64612
Countdown: 0
SampleSet: Soft
StackLeniency: 0.8
Mode: 0
LetterboxInBreaks: 0
WidescreenStoryboard: 1

[Editor]
DistanceSpacing: 0.9
BeatDivisor: 8
GridSize: 16
TimelineZoom: 2.7

[Metadata]
Title:White Midnight (Anime Version)
TitleUnicode:白夜 (アニメ・ヴァージョン)
Artist:Reol
ArtistUnicode:Reol
Creator:Esutarosa
Version:Moon
Source:白夜極光
Tags:pop jpop j-pop japanese れをる byakuya kyokkou kujinn reform shime anime game alchemy stars ost official soundtrack ver mobile smartphone video opening intro theme song
BeatmapID:3322860
BeatmapSetID:1627637

[Difficulty]
HPDrainRate:5.8
CircleSize:4.3
OverallDifficulty:8.8
ApproachRate:9.4
SliderMultiplier:1.84
SliderTickRate:1

[Events]
//Background and Video events
0,0,"bg.jpg",0,0
Video,0,"video.mp4"
//Break Periods
//Storyboard Layer 0 (Background)
//Storyboard Layer 1 (Fail)
//Storyboard Layer 2 (Pass)
//Storyboard Layer 3 (Foreground)
//Storyboard Layer 4 (Overlay)
//Storyboard Sound Samples
Sample,24032,2,"normal-hitwhistle32.wav",80

[TimingPoints]
4138,631.578947368421,4,2,1,32,1,0
4138,-64.9350649350649,4,2,1,32,0,0
4374,-64.9350649350649,4,2,1,5,0,0
4611,-64.9350649350649,4,2,1,32,0,0
4847,-64.9350649350649,4,2,1,5,0,0
5085,-64.9350649350649,4,2,1,32,0,0
5321,-64.9350649350649,4,2,1,5,0,0
5559,-64.9350649350649,4,2,1,32,0,0
5795,-64.9350649350649,4,2,1,5,0,0
6032,-64.9350649350649,4,2,1,32,0,0
6268,-64.9350649350649,4,2,1,5,0,0
6506,-64.9350649350649,4,2,1,32,0,0
6742,-64.9350649350649,4,2,1,5,0,0
6980,-64.9350649350649,4,2,1,32,0,0
7216,-64.9350649350649,4,2,1,5,0,0
7453,-64.9350649350649,4,2,1,32,0,0
7689,-64.9350649350649,4,2,1,5,0,0
7927,-64.9350649350649,4,2,1,32,0,0
8163,-64.9350649350649,4,2,1,5,0,0
8401,-64.9350649350649,4,2,1,32,0,0
8637,-64.9350649350649,4,2,1,5,0,0
8874,-64.9350649350649,4,2,1,32,0,0
9189,-64.9350649350649,4,2,1,28,0,0
9348,-64.9350649350649,4,2,1,32,0,0
10453,-64.9350649350649,4,2,1,28,0,0
10768,-64.9350649350649,4,2,1,32,0,0
11716,-64.9350649350649,4,2,1,28,0,0
11874,-64.9350649350649,4,2,1,32,0,0
12110,-64.9350649350649,4,2,1,5,0,0
12348,-64.9350649350649,4,2,1,34,0,0
12584,-64.9350649350649,4,2,1,5,0,0
12822,-64.9350649350649,4,2,1,36,0,0
13058,-64.9350649350649,4,2,1,5,0,0
13295,-98.0392156862745,4,3,1,22,0,0
13452,-98.0392156862745,4,3,1,5,0,0
13611,-64.9350649350649,4,3,1,26,0,0
13768,-64.9350649350649,4,3,1,5,0,0
13927,-62.5,4,3,1,30,0,0
14163,-62.5,4,3,1,5,0,0
14243,-37.037037037037,4,2,91,62,0,0
14479,-37.037037037037,4,2,91,5,0,0
14559,-37.037037037037,4,2,1,42,0,0
14716,-50,4,2,1,60,0,0
14952,-50,4,2,1,5,0,0
15190,-50,4,2,1,60,0,0
15426,-50,4,2,1,5,0,0
15506,-50,4,2,1,60,0,0
15900,-50,4,2,1,5,0,0
16138,-50,4,2,1,60,0,0
16374,-50,4,2,1,5,0,0
16453,-50,4,2,1,60,0,0
17401,-50,4,2,1,5,0,0
17559,-50,4,2,1,60,0,0
17795,-50,4,2,1,5,0,0
18032,-45.4545454545455,4,2,1,62,0,0
18268,-45.4545454545455,4,2,1,5,0,0
18506,-41.6666666666667,4,2,1,63,0,0
18742,-41.6666666666667,4,2,1,5,0,0
18980,-41.6666666666667,4,2,1,64,0,0
20243,-41.6666666666667,4,2,1,66,0,0
20874,-50,4,2,1,66,0,0
21190,-66.6666666666667,4,2,1,66,0,0
21426,-66.6666666666667,4,2,1,5,0,0
21506,-66.6666666666667,4,2,1,68,0,0
21980,-50,4,2,1,68,0,0
22689,-50,4,2,1,5,0,0
22927,-66.6666666666667,4,2,1,64,0,0
23084,-66.6666666666667,4,2,1,14,0,0
23401,-29.7619047619048,4,1,44,60,0,0
23558,-29.7619047619048,4,1,44,48,0,0
23874,-125,4,1,23,60,0,0
23952,-125,4,1,23,5,0,0
24032,-35.7142857142857,4,1,32,60,0,0
24268,-35.7142857142857,4,1,32,5,0,0
24348,-53.1914893617021,4,2,1,48,0,0
24980,-86.2068965517241,4,2,1,48,0,0
25611,-40.983606557377,4,2,27,48,0,0
25690,-40.983606557377,4,2,1,48,0,0
25847,-40.983606557377,4,2,1,5,0,0
25927,-56.8181818181818,4,2,1,48,0,0
26716,-56.8181818181818,4,2,1,38,0,0
26874,-43.4782608695652,4,2,1,48,0,0
27031,-43.4782608695652,4,2,1,38,0,0
27190,-42.3728813559322,4,2,1,48,0,0
27347,-42.3728813559322,4,2,1,38,0,0
27506,-40,4,2,1,48,0,0
27742,-40,4,2,1,5,0,0
27822,-40,4,2,1,48,0,0
28058,-40,4,2,1,5,0,0
28138,-38.4615384615385,4,2,27,52,0,0
28216,-38.4615384615385,4,2,1,52,0,0
28374,-38.4615384615385,4,2,1,5,0,0
28453,-60.9756097560976,4,2,1,55,0,0
28610,-60.9756097560976,4,2,1,48,0,0
28769,-86.2068965517241,4,2,1,54,0,0
28926,-86.2068965517241,4,2,1,38,0,0
29085,-86.2068965517241,4,2,1,53,0,0
29243,-86.2068965517241,4,2,1,38,0,0
29401,-40.983606557377,4,2,1,50,0,0
29637,-40.983606557377,4,2,1,5,0,0
29716,-56.8181818181818,4,2,1,38,0,0
30031,-56.8181818181818,4,2,1,32,0,0
30190,-56.8181818181818,4,2,1,38,0,0
30348,-56.8181818181818,4,2,1,48,0,0
30506,-56.8181818181818,4,2,1,52,0,0
30664,-31.25,4,2,27,56,0,0
30743,-31.25,4,2,1,56,0,0
30900,-31.25,4,2,1,5,0,0
30980,-119.047619047619,4,2,1,54,0,0
31216,-119.047619047619,4,2,1,5,0,0
31295,-67.5675675675676,4,2,1,52,0,0
31531,-67.5675675675676,4,2,1,5,0,0
31611,-67.5675675675676,4,2,1,52,0,0
31689,-67.5675675675676,4,2,1,17,0,0
31769,-67.5675675675676,4,2,1,52,0,0
31847,-67.5675675675676,4,2,1,17,0,0
31927,-34.4827586206897,4,2,1,56,0,0
32163,-34.4827586206897,4,2,1,5,0,0
32243,-111.111111111111,4,2,1,54,0,0
32479,-111.111111111111,4,2,1,5,0,0
32559,-67.5675675675676,4,2,1,52,0,0
32795,-67.5675675675676,4,2,1,5,0,0
32874,-67.5675675675676,4,2,1,52,0,0
32952,-67.5675675675676,4,2,1,17,0,0
33032,-67.5675675675676,4,2,1,52,0,0
33110,-67.5675675675676,4,2,27,17,0,0
33190,-26.3157894736842,4,2,27,52,0,0
33269,-26.3157894736842,4,2,1,52,0,0
33426,-26.3157894736842,4,2,1,5,0,0
33506,-100,4,2,1,54,0,0
33742,-100,4,2,1,5,0,0
33822,-67.5675675675676,4,2,1,50,0,0
34058,-67.5675675675676,4,2,1,5,0,0
34138,-71.4285714285714,4,2,1,48,0,0
34374,-71.4285714285714,4,2,1,5,0,0
34453,-33.3333333333333,4,2,1,58,0,0
34689,-33.3333333333333,4,2,1,5,0,0
34769,-45.4545454545455,4,2,1,58,0,0
34821,-45.4545454545455,4,2,1,17,0,0
34874,-45.4545454545455,4,2,1,58,0,0
34926,-45.4545454545455,4,2,1,17,0,0
35032,-55.5555555555556,4,2,1,58,0,0
35401,-55.5555555555556,4,2,1,46,0,0
35479,-55.5555555555556,4,2,1,50,0,0
35558,-55.5555555555556,4,2,1,54,0,0
35637,-55.5555555555556,4,2,1,56,0,0
35716,-55.5555555555556,4,2,27,58,0,0
35795,-55.5555555555556,4,2,1,58,0,0
36032,-45.4545454545455,4,2,1,58,0,0
36268,-45.4545454545455,4,2,1,5,0,0
36348,-55.5555555555556,4,2,1,58,0,0
36663,-55.5555555555556,4,2,1,5,0,0
36743,-55.5555555555556,4,2,1,58,0,0
36980,-62.5,4,2,1,58,0,0
37216,-62.5,4,2,1,5,0,0
37295,-62.5,4,2,1,58,0,0
37373,-62.5,4,2,1,17,0,0
37453,-62.5,4,2,1,58,0,0
37531,-62.5,4,2,1,17,0,0
37611,-62.5,4,2,1,58,0,0
37927,-62.5,4,2,1,46,0,0
38005,-62.5,4,2,1,50,0,0
38084,-62.5,4,2,1,54,0,0
38163,-62.5,4,2,1,56,0,0
38242,-62.5,4,2,27,58,0,0
38322,-62.5,4,2,1,58,0,0
38559,-45.4545454545455,4,2,1,58,0,0
38874,-45.4545454545455,4,2,1,48,0,0
39190,-45.4545454545455,4,2,1,60,0,0
40769,-45.4545454545455,4,2,27,60,0,0
40848,-45.4545454545455,4,2,1,60,0,0
41716,-73.5294117647059,4,2,1,60,0,0
41952,-73.5294117647059,4,2,1,5,0,0
42032,-56.8181818181818,4,2,1,60,0,0
42268,-56.8181818181818,4,2,1,5,0,0
42348,-54.3478260869565,4,2,1,60,0,0
42584,-54.3478260869565,4,2,1,5,0,0
42664,-86.2068965517241,4,2,1,60,0,0
43138,-86.2068965517241,4,2,1,30,0,0
43216,-86.2068965517241,4,2,1,48,0,0
43295,-64.1025641025641,4,2,27,60,0,0
43374,-64.1025641025641,4,2,1,60,0,0
43611,-64.1025641025641,4,2,1,48,0,0
43769,-64.1025641025641,4,2,1,60,0,0
44005,-64.1025641025641,4,2,1,5,0,0
44085,-64.1025641025641,4,2,1,60,0,0
44163,-64.1025641025641,4,2,1,5,0,0
44243,-64.1025641025641,4,2,1,60,0,0
44479,-64.1025641025641,4,2,1,5,0,0
44559,-41.6666666666667,4,2,91,68,0,0
44638,-41.6666666666667,4,2,1,68,0,0
44795,-41.6666666666667,4,2,1,5,0,0
44874,-90.9090909090909,4,2,1,68,0,0
45190,-90.9090909090909,4,2,1,58,0,0
45506,-90.9090909090909,4,2,1,68,0,0
45822,-71.4285714285714,4,2,1,68,0,0
45979,-71.4285714285714,4,2,1,32,0,0
46138,-71.4285714285714,4,2,1,68,0,0
46295,-71.4285714285714,4,2,1,32,0,0
46453,-71.4285714285714,4,2,1,68,0,0
46610,-71.4285714285714,4,2,1,32,0,0
46927,-71.4285714285714,4,2,1,48,0,0
47085,-71.4285714285714,4,2,1,68,0,0
47716,-111.111111111111,4,2,1,68,0,0
47873,-111.111111111111,4,2,1,38,0,0
48032,-111.111111111111,4,2,1,68,0,0
49611,-90.9090909090909,4,2,1,68,0,0
49927,-90.9090909090909,4,2,1,58,0,0
50243,-90.9090909090909,4,2,1,68,0,0
50559,-71.4285714285714,4,2,1,68,0,0
51031,-71.4285714285714,4,2,1,32,0,0
51190,-71.4285714285714,4,2,1,68,0,0
51348,-71.4285714285714,4,2,1,32,0,0
51506,-71.4285714285714,4,2,1,68,0,0
51663,-71.4285714285714,4,2,1,32,0,0
51822,-71.4285714285714,4,2,1,68,0,0
52295,-55.5555555555556,4,2,1,68,0,0
54664,-50,4,2,1,74,0,0
55295,-55.5555555555555,4,2,1,74,0,0
55927,-45.4545454545455,4,2,1,74,0,0
56874,-62.5,4,2,1,74,0,0
57190,-55.5555555555556,4,2,1,74,0,0
57822,-45.4545454545455,4,2,1,74,0,0
58769,-62.5,4,2,1,74,0,0
59085,-55.5555555555555,4,2,1,74,0,0
59401,-45.4545454545455,4,2,1,74,0,0
61611,-62.5,4,2,1,74,0,0
62348,-62.5,4,2,1,28,0,0
62453,-62.5,4,2,1,74,0,0
62558,-62.5,4,2,1,28,0,0
62664,-62.5,4,2,1,74,0,0
62769,-62.5,4,2,1,28,0,0
62874,-62.5,4,2,1,74,0,0
62979,-62.5,4,2,1,28,0,0
63085,-62.5,4,2,1,74,0,0
63190,-62.5,4,2,1,28,0,0
63295,-62.5,4,2,1,74,0,0
63400,-62.5,4,2,1,28,0,0
63506,-166.666666666667,4,2,1,74,0,0
64769,-26.3157894736842,4,2,2,82,0,1
64848,-26.3157894736842,4,2,27,82,0,0
65005,-26.3157894736842,4,2,27,5,0,0
65085,-32.4675324675325,4,2,27,82,0,0
65164,-32.4675324675325,4,2,27,5,0,0
65243,-32.4675324675325,4,2,27,82,0,0
65321,-32.4675324675325,4,2,27,5,0,0
65401,-40.3225806451613,4,2,27,82,0,0
65637,-40.3225806451613,4,2,27,5,0,0
65716,-48.0769230769231,4,2,27,82,0,0
65952,-48.0769230769231,4,2,27,5,0,0
66032,-32.4675324675325,4,2,27,82,0,0
66111,-32.4675324675325,4,2,27,5,0,0
66190,-32.4675324675325,4,2,27,82,0,0
66268,-32.4675324675325,4,2,27,5,0,0
66348,-40.3225806451613,4,2,27,82,0,0
66584,-40.3225806451613,4,2,27,5,0,0
66664,-26.3157894736842,4,2,27,82,0,0
66900,-26.3157894736842,4,2,27,5,0,0
66980,-32.4675324675325,4,2,27,82,0,0
67059,-32.4675324675325,4,2,27,5,0,0
67138,-32.4675324675325,4,2,27,82,0,0
67216,-32.4675324675325,4,2,27,5,0,0
67295,-40.3225806451613,4,2,27,82,0,0
67531,-40.3225806451613,4,2,27,5,0,0
67611,-40.3225806451613,4,2,27,82,0,0
67847,-40.3225806451613,4,2,27,5,0,0
67927,-35.2112676056338,4,2,27,82,0,0
68163,-35.2112676056338,4,2,27,5,0,0
68243,-66.6666666666667,4,2,27,82,0,0
68479,-66.6666666666667,4,2,27,5,0,0
68559,-50,4,2,27,82,0,0
68795,-50,4,2,27,5,0,0
68874,-66.6666666666667,4,2,27,82,0,0
69110,-66.6666666666667,4,2,27,5,0,0
69190,-38.4615384615385,4,2,27,82,0,0
69426,-38.4615384615385,4,2,27,5,0,0
69506,-38.4615384615385,4,2,27,82,0,0
69742,-38.4615384615385,4,2,27,5,0,0
69822,-26.3157894736842,4,2,2,82,0,0
69901,-26.3157894736842,4,2,27,82,0,0
70058,-26.3157894736842,4,2,27,5,0,0
70138,-26.3157894736842,4,2,27,82,0,0
70374,-26.3157894736842,4,2,27,5,0,0
70453,-40.3225806451613,4,2,27,82,0,0
70689,-40.3225806451613,4,2,27,5,0,0
70769,-48.0769230769231,4,2,27,82,0,0
71005,-32.5732899022801,4,2,27,5,0,0
71085,-32.4675324675325,4,2,27,82,0,0
71164,-32.4675324675325,4,2,27,5,0,0
71243,-32.4675324675325,4,2,27,82,0,0
71321,-32.4675324675325,4,2,27,5,0,0
71401,-32.4675324675325,4,2,27,82,0,0
71637,-32.4675324675325,4,2,27,5,0,0
71716,-26.3157894736842,4,2,27,82,0,0
71952,-26.3157894736842,4,2,27,5,0,0
72032,-32.4675324675325,4,2,27,82,0,0
72111,-32.4675324675325,4,2,27,5,0,0
72190,-32.4675324675325,4,2,27,82,0,0
72268,-32.4675324675325,4,2,27,5,0,0
72348,-37.3134328358209,4,2,27,82,0,0
72584,-37.3134328358209,4,2,27,5,0,0
72664,-48.0769230769231,4,2,27,82,0,0
72900,-48.0769230769231,4,2,27,5,0,0
72980,-40.3225806451613,4,2,27,82,0,0
73216,-40.3225806451613,4,2,27,5,0,0
73295,-48.0769230769231,4,2,27,80,0,0
73531,-48.0769230769231,4,2,27,5,0,0
73611,-37.037037037037,4,2,27,78,0,0
73847,-37.037037037037,4,2,27,5,0,0
73927,-52.6315789473684,4,2,27,76,0,0
74084,-52.6315789473684,4,2,27,58,0,0
74243,-41.6666666666667,4,2,27,74,0,0
74479,-41.6666666666667,4,2,27,5,0,0
74559,-66.6666666666667,4,2,27,73,0,0
74716,-66.6666666666667,4,2,27,58,0,0
74874,-55.5555555555555,4,2,2,68,0,0
74953,-55.5555555555555,4,2,27,68,0,0
75269,-55.5555555555555,4,2,27,5,0,0
75348,-55.5555555555555,4,2,27,68,0,0
75506,-50,4,2,27,68,0,0
75742,-50,4,2,27,5,0,0
75822,-66.6666666666667,4,2,27,68,0,0
76138,-47.6190476190476,4,2,27,68,0,0
76374,-47.6190476190476,4,2,27,5,0,0
76453,-80.6451612903226,4,2,27,67,0,0
76689,-80.6451612903226,4,2,27,5,0,0
76769,-50,4,2,27,66,0,0
77005,-50,4,2,27,5,0,0
77085,-66.6666666666667,4,2,27,65,0,0
77401,-62.5,4,2,27,64,0,0
77558,-62.5,4,2,27,48,0,0
77716,-62.5,4,2,27,64,0,0
77873,-62.5,4,2,27,48,0,0
78032,-45.4545454545455,4,2,27,64,0,0
78268,-45.4545454545455,4,2,27,5,0,0
78348,-66.6666666666667,4,2,27,64,0,0
78822,-55.5555555555556,4,2,27,64,0,0
79138,-55.5555555555556,4,2,27,48,0,0
79295,-55.5555555555556,4,2,27,64,0,0
79453,-55.5555555555556,4,2,27,48,0,0
79611,-55.5555555555556,4,2,27,64,0,0
79769,-55.5555555555556,4,2,27,48,0,0
79927,-50,4,2,27,64,0,0
80163,-50,4,2,27,5,0,0
80243,-125,4,2,27,64,0,0
80479,-125,4,2,27,5,0,0
80559,-125,4,2,27,64,0,0
80716,-66.6666666666667,4,2,27,64,0,0
81110,-66.6666666666667,4,2,27,5,0,0
81190,-41.6666666666667,4,2,27,65,0,0
81742,-41.6666666666667,4,2,27,5,0,0
81822,-41.6666666666667,4,2,27,66,0,0
82058,-41.6666666666667,4,2,27,5,0,0
82138,-66.6666666666667,4,2,27,66,0,0
82453,-55.5555555555555,4,2,27,68,0,0
82689,-55.5555555555555,4,2,27,5,0,0
82769,-66.6666666666667,4,2,27,68,0,0
83085,-45.4545454545455,4,2,27,70,0,0
83321,-45.4545454545455,4,2,27,5,0,0
83401,-66.6666666666667,4,2,27,70,0,0
83637,-66.6666666666667,4,2,27,5,0,0
83716,-66.6666666666667,4,2,27,70,0,0
84268,-66.6666666666667,4,2,27,5,0,0
84348,-41.6666666666667,4,2,27,77,0,0
84427,-41.6666666666667,4,2,27,5,0,0
84506,-41.6666666666667,4,2,27,77,0,0
84584,-41.6666666666667,4,2,27,5,0,0
84664,-41.6666666666667,4,2,1,79,0,0
84743,-41.6666666666667,4,2,27,5,0,0
84822,-41.6666666666667,4,2,27,79,0,0
84900,-41.6666666666667,4,2,27,5,0,0
84980,-23.8095238095238,4,2,91,88,0,1
85059,-23.8095238095238,4,2,27,32,0,0
85138,-23.8095238095238,4,2,27,88,0,0
85216,-23.8095238095238,4,2,27,5,0,0
85295,-23.8095238095238,4,2,27,88,0,0
85531,-23.8095238095238,4,2,27,5,0,0
85611,-71.4285714285714,4,2,27,88,0,0
85847,-71.4285714285714,4,2,27,5,0,0
85927,-27.4725274725275,4,2,27,88,0,0
86005,-27.4725274725275,4,2,27,5,0,0
86085,-27.4725274725275,4,2,27,88,0,0
86163,-27.4725274725275,4,2,27,5,0,0
86243,-27.4725274725275,4,2,27,88,0,0
86321,-27.4725274725275,4,2,27,5,0,0
86401,-27.4725274725275,4,2,27,88,0,0
86479,-27.4725274725275,4,2,27,5,0,0
86559,-27.4725274725275,4,2,27,88,0,0
86795,-27.4725274725275,4,2,27,5,0,0
86874,-26.3157894736842,4,2,27,88,0,0
86953,-26.3157894736842,4,2,27,32,0,0
87032,-26.3157894736842,4,2,27,88,0,0
87110,-26.3157894736842,4,2,27,5,0,0
87190,-26.3157894736842,4,2,27,88,0,0
87426,-26.3157894736842,4,2,27,5,0,0
87506,-26.3157894736842,4,2,27,88,0,0
87584,-26.3157894736842,4,2,27,5,0,0
87664,-26.3157894736842,4,2,27,88,0,0
87742,-26.3157894736842,4,2,27,5,0,0
87822,-29.4117647058824,4,2,27,88,0,0
88058,-29.4117647058824,4,2,27,5,0,0
88138,-31.25,4,2,27,88,0,0
88374,-31.25,4,2,27,5,0,0
88453,-66.6666666666667,4,2,27,88,0,0
88689,-66.6666666666667,4,2,27,5,0,0
88769,-45.4545454545455,4,2,27,88,0,0
89005,-45.4545454545455,4,2,27,5,0,0
89085,-71.4285714285714,4,2,27,88,0,0
89321,-71.4285714285714,4,2,27,5,0,0
89401,-33.3333333333333,4,2,27,88,0,0
89637,-33.3333333333333,4,2,27,5,0,0
89716,-33.3333333333333,4,2,27,88,0,0
89795,-33.3333333333333,4,2,27,5,0,0
89874,-33.3333333333333,4,2,27,88,0,0
89952,-33.3333333333333,4,2,27,5,0,0
90032,-23.8095238095238,4,2,2,88,0,1
90111,-23.8095238095238,4,2,27,32,0,0
90190,-23.8095238095238,4,2,27,88,0,0
90268,-23.8095238095238,4,2,27,5,0,0
90348,-23.8095238095238,4,2,27,88,0,0
90584,-23.8095238095238,4,2,27,5,0,0
90664,-71.4285714285714,4,2,27,88,0,0
90900,-71.4285714285714,4,2,27,5,0,0
90980,-27.4725274725275,4,2,27,88,0,0
91058,-27.4725274725275,4,2,27,5,0,0
91138,-27.4725274725275,4,2,27,88,0,0
91216,-27.4725274725275,4,2,27,5,0,0
91296,-27.4725274725275,4,2,27,88,0,0
91374,-27.4725274725275,4,2,27,5,0,0
91454,-27.4725274725275,4,2,27,88,0,0
91532,-27.4725274725275,4,2,27,5,0,0
91611,-27.4725274725275,4,2,27,88,0,0
91847,-27.4725274725275,4,2,27,5,0,0
91927,-26.3157894736842,4,2,27,88,0,0
92006,-26.3157894736842,4,2,27,32,0,0
92085,-26.3157894736842,4,2,27,88,0,0
92163,-26.3157894736842,4,2,27,5,0,0
92243,-26.3157894736842,4,2,27,88,0,0
92479,-26.3157894736842,4,2,27,5,0,0
92559,-26.3157894736842,4,2,27,88,0,0
92637,-26.3157894736842,4,2,27,5,0,0
92716,-26.3157894736842,4,2,27,88,0,0
92794,-26.3157894736842,4,2,27,5,0,0
92874,-26.3157894736842,4,2,27,88,0,0
92952,-26.3157894736842,4,2,27,5,0,0
93031,-26.3157894736842,4,2,27,88,0,0
93109,-26.3157894736842,4,2,27,5,0,0
93190,-29.0697674418605,4,2,27,88,0,0
93426,-29.0697674418605,4,2,27,5,0,0
93506,-29.0697674418605,4,2,27,88,0,0
93585,-29.0697674418605,4,2,27,5,0,0
93664,-29.0697674418605,4,2,27,88,0,0
93742,-29.0697674418605,4,2,27,5,0,0
93822,-29.0697674418605,4,2,27,85,0,0
93900,-29.0697674418605,4,2,27,5,0,0
93980,-29.0697674418605,4,2,27,82,0,0
94058,-29.0697674418605,4,2,27,80,0,0
94138,-35.2112676056338,4,2,27,85,0,0
94374,-35.2112676056338,4,2,27,5,0,0
94453,-29.4117647058824,4,2,27,82,0,0
94689,-29.4117647058824,4,2,27,5,0,0
94769,-35.7142857142857,4,2,27,79,0,0
95005,-35.7142857142857,4,2,27,5,0,0
95085,-45.4545454545455,4,2,1,68,0,0
95164,-45.4545454545455,4,2,27,68,0,0
95637,-45.4545454545455,4,2,27,5,0,0
95716,-50,4,2,27,68,0,0
95952,-50,4,2,27,5,0,0
96032,-66.6666666666667,4,2,27,68,0,0
96268,-66.6666666666667,4,2,27,5,0,0
96348,-66.6666666666667,4,2,27,68,0,0
96426,-66.6666666666667,4,2,27,5,0,0
96506,-50,4,2,27,68,0,0
96584,-50,4,2,27,17,0,0
96664,-41.6666666666667,4,2,27,68,0,0
96900,-41.6666666666667,4,2,27,5,0,0
96980,-50,4,2,27,68,0,0
97216,-50,4,2,27,5,0,0
97295,-50,4,2,27,68,0,0
97531,-50,4,2,27,5,0,0
97611,-41.6666666666667,4,2,27,68,0,0
97689,-41.6666666666667,4,2,27,17,0,0
97769,-41.6666666666667,4,2,27,68,0,0
97847,-41.6666666666667,4,2,27,17,0,0
97927,-41.6666666666667,4,2,27,68,0,0
98163,-41.6666666666667,4,2,27,5,0,0
98243,-50,4,2,27,68,0,0
98479,-50,4,2,27,5,0,0
98559,-41.6666666666667,4,2,27,67,0,0
98637,-41.6666666666667,4,2,27,7,0,0
98716,-41.6666666666667,4,2,27,67,0,0
98794,-41.6666666666667,4,2,27,7,0,0
98874,-41.6666666666667,4,2,27,67,0,0
99032,-41.6666666666667,4,2,27,68,0,0
99110,-41.6666666666667,4,2,27,17,0,0
99190,-50,4,2,27,66,0,0
99426,-50,4,2,27,5,0,0
99506,-37.037037037037,4,2,27,68,0,0
99664,-37.037037037037,4,2,27,48,0,0
99743,-37.037037037037,4,2,27,5,0,0
99822,-41.6666666666667,4,2,27,70,0,0
99901,-41.6666666666667,4,2,27,5,0,0
99980,-41.6666666666667,4,2,27,58,0,0
100059,-41.6666666666667,4,2,27,5,0,0
100138,-41.6666666666667,4,2,2,75,0,0
100216,-41.6666666666667,4,2,27,75,0,0
100374,-41.6666666666667,4,2,27,5,0,0
100453,-41.6666666666667,4,2,27,73,0,0
100689,-41.6666666666667,4,2,27,5,0,0
100769,-41.6666666666667,4,2,27,72,0,0
101005,-41.6666666666667,4,2,27,5,0,0
101085,-66.6666666666667,4,2,27,70,0,0
101321,-66.6666666666667,4,2,27,5,0,0
101401,-66.6666666666667,4,2,27,70,0,0
101479,-66.6666666666667,4,2,27,5,0,0
101559,-50,4,2,27,70,0,0
101637,-50,4,2,27,17,0,0
101716,-41.6666666666667,4,2,27,70,0,0
101952,-41.6666666666667,4,2,27,5,0,0
102032,-50,4,2,27,70,0,0
102268,-50,4,2,27,5,0,0
102348,-62.5,4,2,27,71,0,0
102584,-62.5,4,2,27,5,0,0
102664,-41.6666666666667,4,2,27,72,0,0
102742,-41.6666666666667,4,2,27,7,0,0
102822,-41.6666666666667,4,2,27,72,0,0
102900,-41.6666666666667,4,2,27,7,0,0
102980,-41.6666666666667,4,2,27,72,0,0
103058,-41.6666666666667,4,2,27,7,0,0
103138,-41.6666666666667,4,2,27,72,0,0
103216,-41.6666666666667,4,2,27,17,0,0
103295,-50,4,2,27,74,0,0
103531,-50,4,2,27,5,0,0
103611,-50,4,2,27,72,0,0
103690,-50,4,2,27,5,0,0
103769,-50,4,2,27,72,0,0
103848,-50,4,2,27,5,0,0
103927,-50,4,2,27,72,0,0
104163,-50,4,2,27,5,0,0
104243,-50,4,2,27,73,0,0
104479,-50,4,2,27,5,0,0
104559,-50,4,2,27,70,0,0
104795,-50,4,2,27,5,0,0
104874,-62.5,4,2,27,68,0,0
105189,-62.5,4,2,27,5,0,0

[Colours]
Combo1 : 127,120,210
Combo2 : 255,170,170
Combo3 : 193,185,236
Combo4 : 255,106,106
Combo5 : 163,158,233
Combo6 : 255,57,57

[HitObjects]
404,110,4138,6,0,B|428:111|417:64|417:64|408:91|384:106,1,106.259997892181,2|0,0:0|0:0,0:0:0:0:
260,200,4611,2,0,B|237:201|248:154|248:154|257:181|281:196,1,106.259997892181,2|0,0:0|0:0,0:0:0:0:
411,306,5085,6,0,B|436:298|450:268|450:268|459:306|411:306,1,106.259997892181,2|0,0:0|0:0,0:0:0:0:
364,179,5559,2,0,B|358:204|377:231|377:231|340:220|364:179,1,106.259997892181,2|0,0:0|0:0,0:0:0:0:
498,193,6032,2,0,B|478:175|445:178|445:178|474:151|498:193,1,106.259997892181,2|0,0:0|0:0,0:0:0:0:
292,366,6506,70,0,B|255:366|250:336|250:336|287:275,1,106.259997892181,2|0,0:0|0:0,0:0:0:0:
155,132,6980,2,0,B|118:132|113:162|113:162|150:223,1,106.259997892181,2|0,0:0|0:0,0:0:0:0:
39,360,7453,6,0,B|25:327|8:312|8:312|35:317|39:360,1,106.259997892181,2|0,0:0|0:0,0:0:0:0:
214,242,7927,2,0,B|228:209|245:194|245:194|218:199|214:242,1,106.259997892181,2|0,0:0|0:0,0:0:0:0:
46,63,8401,2,0,B|32:30|15:15|15:15|42:20|46:63,1,106.259997892181,2|0,0:0|0:0,0:0:0:0:
313,224,8874,70,0,B|327:185|308:157|308:157|333:195|368:186,1,141.679997189575,2|0,0:0|0:0,0:0:0:0:
367,187,9348,1,0,0:0:0:0:
163,23,10138,5,2,0:0:0:0:
10,139,10295,1,2,0:0:0:0:
72,242,10453,2,0,B|58:203|77:175|77:175|52:213|14:214,1,141.679997189575
492,185,11401,69,2,0:0:0:0:
366,358,11559,1,2,0:0:0:0:
450,338,11716,1,0,0:0:0:0:
371,59,11874,6,0,B|347:70|338:102|338:102|323:66|371:59,1,106.259997892181,2|0,0:0|0:0,0:0:0:0:
215,20,12348,2,0,B|236:34|269:26|269:26|245:57|215:20,1,106.259997892181,2|0,0:0|0:0,0:0:0:0:
263,171,12822,2,0,B|264:144|241:120|241:120|280:126|263:171,1,106.259997892181,2|0,0:0|0:0,0:0:0:0:
182,315,13295,6,0,L|136:321,1,46.920000286377,2|0,0:0|0:0,0:0:0:0:
242,235,13611,2,0,L|271:144,1,70.8399985947876
311,332,13927,2,0,B|376:342|340:371|404:384,1,110.4,12|0,0:0|0:0,0:0:0:0:
489,279,14243,6,0,P|408:309|299:333,1,186.300000710678,6|0,0:0|0:0,0:0:0:0:
261,384,14559,1,0,0:0:0:0:
162,229,14716,2,0,B|172:197|156:163|156:163|172:197|210:205,1,138,2|0,0:0|0:0,0:0:0:0:
432,5,15190,70,0,P|400:67|370:140,1,138,2|0,0:0|0:0,0:0:0:0:
309,164,15506,1,0,3:2:0:0:
489,279,15664,2,0,B|452:269|428:230|428:230|440:264|422:291,1,138,2|0,0:0|0:0,0:0:0:0:
244,133,16138,6,0,B|162:151|162:151|199:150|226:185,1,138,2|0,3:2|0:0,0:0:0:0:
162,229,16453,1,0,3:2:0:0:
302,26,16611,1,2,0:0:0:0:
311,10,16689,1,0,0:0:0:0:
327,2,16768,1,0,0:0:0:0:
326,2,17085,70,0,P|239:29|149:47,1,184,2|0,0:0|0:0,0:0:0:0:
357,237,17559,2,0,P|425:256|495:281,1,138,2|0,0:0|0:0,0:0:0:0:
126,353,18032,2,0,B|151:325|144:282|144:282|151:325|189:337,1,151.800004632569,2|0,0:0|0:0,0:0:0:0:
357,237,18506,2,0,B|331:209|345:158|345:158|331:209|290:221,1,165.599994946289,2|0,0:0|0:0,0:0:0:0:
195,84,18980,5,2,0:0:0:0:
325,18,19138,1,0,3:2:0:0:
217,269,19295,1,8,3:0:0:0:
217,269,19611,69,0,3:2:0:0:
205,177,19769,1,0,3:2:0:0:
195,84,19927,1,0,3:2:0:0:
195,84,20243,5,2,0:0:0:0:
409,190,20401,1,2,0:0:0:0:
169,326,20559,70,0,P|119:313|50:300,1,110.399996630859,0|0,3:2|0:0,0:0:0:0:
289,215,20874,2,0,P|274:161|257:112,1,92,0|0,3:2|0:0,0:0:0:0:
410,347,21190,6,0,P|427:302|451:245,1,103.500003948212,0|0,3:2|0:0,0:0:0:0:
409,190,21506,1,2,0:0:0:0:
236,277,21664,1,2,0:0:0:0:
252,101,21822,1,0,3:2:0:0:
409,190,21980,70,0,B|442:215|479:198|479:198|453:237|397:229|383:187,1,184,2|0,0:0|3:2,0:0:0:0:
252,101,22453,6,0,B|267:71|225:43|225:43|252:82|230:136,1,138,2|0,0:0|0:0,0:0:0:0:
164,252,22927,70,0,P|131:259|100:274,1,69.0000026321412,2|0,0:0|0:0,0:0:0:0:
379,115,23401,6,0,B|367:95|367:95|417:120|417:120|460:160|399:202,1,154.559995283203,4|8,2:1|2:1,0:0:0:0:
379,118,23874,70,0,L|374:89,1,18.4,10|0,2:1|0:0,0:0:0:0:
312,265,24032,6,0,B|270:266|232:289|232:289|144:251|208:196,1,193.199994104004,12|0,2:1|0:0,0:0:0:0:
396,296,24348,38,0,B|421:324|409:356|409:356|443:334|441:280|395:261,1,172.95999736084,14|2,3:2|0:0,0:0:0:0:
320,161,24822,1,2,0:0:0:0:
379,118,24980,2,0,P|386:95|394:64,2,53.360001628418,2|2|2,0:0|0:0|0:0,0:0:0:0:
462,261,25453,5,2,0:0:0:0:
396,296,25611,2,0,B|358:288|342:252|342:252|326:307|279:319,1,168.359993063782,6|0,0:0|0:0,0:0:0:0:
114,242,25927,70,0,P|74:237|37:222,1,80.9600024707032,10|2,3:2|0:0,0:0:0:0:
161,305,26243,1,2,0:0:0:0:
164,298,26401,1,2,0:0:0:0:
28,132,26559,5,2,0:0:0:0:
48,206,26716,1,2,0:0:0:0:
197,89,26874,70,0,P|246:74|299:41,1,105.800002017975,2|2,3:2|0:0,0:0:0:0:
404,222,27190,2,0,P|366:187|310:156,1,108.559996190064,2|2,3:2|0:0,0:0:0:0:
391,44,27506,6,0,B|426:42|458:17|458:17|515:75|468:145,1,172.5,2|0,0:0|0:0,0:0:0:0:
300,249,27822,2,0,B|265:251|233:276|233:276|176:218|223:148,1,172.5,2|0,3:2|0:0,0:0:0:0:
404,222,28138,70,0,B|425:190|459:194|459:194|429:167|370:177|370:236,1,179.39999178772,6|0,0:0|0:0,0:0:0:0:
402,296,28453,2,0,P|381:326|346:341,1,75.4400011511231,10|2,3:2|0:0,0:0:0:0:
218,237,28769,2,0,P|212:210|204:185,1,53.360001628418,2|2,0:0|0:0,0:0:0:0:
130,352,29085,5,2,0:0:0:0:
124,346,29243,1,2,0:0:0:0:
285,208,29401,70,0,B|320:205|345:233|345:233|392:223|406:181|370:147,1,168.359993063782,10|0,3:2|0:0,0:0:0:0:
216,313,29716,2,0,B|258:318|283:281|283:281|255:323|265:368,1,161.920004941406,2|0,0:0|0:0,0:0:0:0:
218,237,30243,5,0,0:0:0:0:
283,281,30348,1,2,0:0:0:0:
194,384,30506,1,10,3:2:0:0:
63,272,30664,70,0,B|18:219|42:158|111:129|155:190|120:228,1,220.8,4|0,0:0|0:0,0:0:0:0:
124,345,30980,2,0,P|96:356|71:369,1,57.9599982312012,10|0,3:2|0:0,0:0:0:0:
218,237,31295,2,0,P|200:189|197:138,1,102.120002493164,2|0,0:0|0:0,0:0:0:0:
265,297,31611,6,0,P|275:281|293:262,1,34.0400008310547,2|0,0:0|0:0,0:0:0:0:
338,323,31769,2,0,P|356:324|382:329,1,34.0400008310547,2|0,0:0|0:0,0:0:0:0:
471,154,31927,70,0,B|438:107|372:122|354:162|354:162|371:211|324:242,1,200.100006106568,10|0,3:2|0:0,0:0:0:0:
265,297,32243,2,0,P|235:305|207:318,1,62.0999981048585,10|0,3:2|0:0,0:0:0:0:
338,323,32559,2,0,B|366:328|378:351|378:351|366:328|372:301,1,102.120002493164,2|0,0:0|0:0,0:0:0:0:
348,218,32874,6,0,P|334:198|311:179,1,34.0400008310547,2|0,3:2|0:0,0:0:0:0:
329,120,33032,2,0,P|305:122|276:132,1,34.0400008310547,2|4,0:0|0:0,0:0:0:0:
151,233,33190,70,0,B|85:158|-42:150|-57:269|65:287|119:159,1,262.199992998505,4|0,0:0|0:0,0:0:0:0:
219,108,33506,2,0,P|206:76|198:42,1,69,10|0,3:2|0:0,0:0:0:0:
329,120,33822,6,0,B|389:139|352:164|410:181,1,102.120002493164,2|0,0:0|0:0,0:0:0:0:
434,107,34138,2,0,B|485:92|448:67|505:47,1,96.599997052002,2|0,0:0|0:0,0:0:0:0:
401,262,34453,6,0,B|354:261|311:206|311:206|298:202|298:202|337:235|322:280,1,207.000007896424,14|0,3:2|0:0,0:0:0:0:
275,337,34769,6,0,P|257:330|226:323,1,33.733334362793,2|0,0:0|0:0,0:0:0:0:
393,186,34874,2,0,P|409:190|425:196,1,33.733334362793,2|0,0:0|0:0,0:0:0:0:
225,96,35032,70,0,P|212:56|194:19,1,82.7999974731446,2|0,0:0|0:0,0:0:0:0:
135,178,35401,1,2,0:0:0:0:
107,218,35506,1,0,0:0:0:0:
62,235,35611,1,0,0:0:0:0:
14,223,35716,1,4,0:0:0:0:
14,223,36032,6,0,P|88:237|157:267,1,151.800004632569,10|0,3:2|0:0,0:0:0:0:
191,333,36348,2,0,P|241:337|280:243,1,165.599994946289,2|0,0:0|0:0,0:0:0:0:
218,209,36743,1,2,0:0:0:0:
354,328,36980,2,0,P|406:345|460:355,1,110.4,10|0,3:2|0:0,0:0:0:0:
337,193,37295,70,0,P|331:172|322:147,1,36.8,2|0,3:2|0:0,0:0:0:0:
455,273,37453,2,0,P|459:255|465:237,1,36.8,2|0,3:2|0:0,0:0:0:0:
280,336,37611,5,2,0:0:0:0:
380,258,37769,1,2,0:0:0:0:
186,135,37927,1,2,0:0:0:0:
196,170,38005,1,0,0:0:0:0:
205,206,38084,1,0,0:0:0:0:
214,243,38163,1,0,0:0:0:0:
222,279,38242,1,4,0:0:0:0:
222,279,38559,70,0,P|242:195|275:79,1,202.400006176758,10|0,3:2|0:0,0:0:0:0:
121,9,39032,1,2,0:0:0:0:
147,76,39190,1,2,0:0:0:0:
195,21,39348,1,2,0:0:0:0:
67,153,39506,5,10,3:2:0:0:
121,9,39664,1,0,0:0:0:0:
186,175,39822,69,2,0:0:0:0:
121,9,39980,1,2,0:0:0:0:
55,158,40138,5,2,0:0:0:0:
219,92,40295,1,2,0:0:0:0:
117,99,40453,69,2,0:0:0:0:
264,159,40610,1,0,3:0:0:0:
155,302,40769,5,6,0:0:0:0:
298,89,40927,1,2,0:0:0:0:
327,333,41085,69,10,3:2:0:0:
219,92,41243,1,2,0:0:0:0:
401,237,41401,5,2,0:0:0:0:
241,318,41559,1,2,0:0:0:0:
369,150,41716,70,0,P|383:106|407:55,1,93.8400005727539,2|0,0:0|0:0,0:0:0:0:
330,215,42032,6,0,P|271:210|241:159,1,121.440003706055,10|0,3:2|0:0,0:0:0:0:
241,318,42348,70,0,P|196:355|131:330,1,126.959995738037,8|0,3:2|0:0,0:0:0:0:
43,225,42664,6,0,P|29:181|4:126,1,106.720003256836,2|0,0:0|3:2,0:0:0:0:
132,16,43138,1,2,0:0:0:0:
117,26,43216,1,0,0:0:0:0:
107,41,43295,2,0,P|139:55|168:76,1,71.7600024089356,6|2,0:0|3:2,0:0:0:0:
237,61,43611,69,10,3:2:0:0:
201,224,43769,2,0,P|253:227|290:191,1,107.640003613403,2|0,0:0|0:0,0:0:0:0:
354,152,44085,2,0,P|339:132|313:122,1,35.8800012044678,2|0,0:0|0:0,0:0:0:0:
194,232,44243,2,0,P|159:254|95:225,1,107.640003613403,2|0,0:0|0:0,0:0:0:0:
135,39,44559,70,0,B|188:33|224:73|183:91|219:131|272:126,1,165.599994946289,6|0,0:0|0:0,0:0:0:0:
369,244,44874,2,0,P|399:250|435:265,1,50.6000015441895,2|2,0:0|0:0,0:0:0:0:
354,152,45190,2,0,P|376:130|409:110,1,50.6000015441895,2|0,0:0|0:0,0:0:0:0:
440,58,45506,1,2,0:0:0:0:
440,58,45822,70,0,P|426:33|412:-3,1,64.399998034668,2|2,0:0|0:0,0:0:0:0:
276,160,46138,1,2,0:0:0:0:
304,91,46295,1,2,0:0:0:0:
430,225,46453,2,0,P|398:230|361:248,1,64.399998034668,2|0,0:0|0:0,0:0:0:0:
80,345,46927,5,2,0:0:0:0:
35,282,47085,2,0,P|59:247|88:245,1,64.399998034668,2|0,0:0|0:0,0:0:0:0:
227,345,47401,1,2,0:0:0:0:
155,318,47559,1,2,0:0:0:0:
279,214,47716,2,0,L|264:263,1,41.3999987365723,2|2,0:0|0:0,0:0:0:0:
148,149,48032,1,2,0:0:0:0:
152,161,48190,1,2,0:0:0:0:
292,25,48348,69,2,0:0:0:0:
289,33,48822,5,2,0:0:0:0:
231,77,48980,1,2,0:0:0:0:
15,14,49295,69,2,0:0:0:0:
184,226,49611,6,0,P|207:224|244:210,1,50.6000015441895,2|0,3:2|0:0,0:0:0:0:
333,291,49927,2,0,P|356:293|393:307,1,50.6000015441895,2|2,0:0|0:0,0:0:0:0:
443,259,50243,1,2,0:0:0:0:
443,259,50559,70,0,P|457:234|471:198,1,64.399998034668,2|2,0:0|0:0,0:0:0:0:
361,82,50874,2,0,P|368:114|377:144,1,64.399998034668,2|0,0:0|0:0,0:0:0:0:
268,246,51190,1,2,0:0:0:0:
333,212,51348,1,2,0:0:0:0:
228,151,51506,2,0,P|193:139|163:123,1,64.399998034668,2|0,0:0|0:0,0:0:0:0:
337,0,51822,5,2,0:0:0:0:
301,72,51980,1,2,0:0:0:0:
27,150,52138,69,2,0:0:0:0:
59,83,52295,2,0,P|132:110|134:188,1,165.599994946289,2|2,0:0|0:0,0:0:0:0:
38,304,52769,5,2,0:0:0:0:
101,346,52927,2,0,B|205:313|205:313|163:322|125:289,1,165.599994946289,2|2,0:0|0:0,0:0:0:0:
260,361,53401,69,2,0:0:0:0:
188,239,53559,2,0,P|257:203|313:257,1,165.599994946289,2|2,0:0|0:0,0:0:0:0:
490,180,54032,5,2,0:0:0:0:
372,307,54190,2,0,B|398:276|385:225|385:225|395:268|441:283,1,165.599994946289,2|2,0:0|0:0,0:0:0:0:
256,192,54664,6,0,B|244:140|302:106|299:143|351:102|339:33,1,184,2|0,3:2|0:0,0:0:0:0:
282,0,55138,1,2,0:0:0:0:
330,187,55295,2,0,P|370:198|411:208,1,82.7999974731446,2|0,3:2|0:0,0:0:0:0:
208,77,55611,5,2,0:0:0:0:
191,81,55716,1,0,0:0:0:0:
175,85,55822,1,0,0:0:0:0:
101,52,55927,70,0,L|91:13,4,33.733334362793,2|0|0|2|0,3:2|0:0|0:0|0:0|0:0,0:0:0:0:
72,139,56243,5,2,0:0:0:0:
88,180,56348,1,0,0:0:0:0:
131,192,56453,1,0,0:0:0:0:
211,155,56559,69,2,3:2:0:0:
253,167,56664,1,0,0:0:0:0:
270,208,56769,1,0,0:0:0:0:
242,291,56874,6,0,L|221:303,4,24.5333333333333,2|0|0|2|0,0:0|0:0|0:0|0:0|0:0,0:0:0:0:
338,348,57190,70,0,P|369:339|388:312,1,55.1999983154297,2|0,3:2|0:0,0:0:0:0:
411,252,57400,1,0,0:0:0:0:
446,358,57506,6,0,P|462:329|459:297,1,55.1999983154297,2|0,0:0|0:0,0:0:0:0:
411,252,57716,1,0,0:0:0:0:
474,201,57822,70,0,L|486:167,4,33.733334362793,2|0|0|2|0,3:2|0:0|0:0|0:0|0:0,0:0:0:0:
368,141,58138,5,2,0:0:0:0:
320,146,58243,1,0,0:0:0:0:
300,187,58348,1,0,0:0:0:0:
338,276,58453,69,2,3:2:0:0:
316,316,58558,1,0,0:0:0:0:
270,321,58663,1,0,0:0:0:0:
201,261,58769,6,0,L|191:222,4,24.5333333333333,2|0|0|2|0,0:0|0:0|0:0|0:0|0:0,0:0:0:0:
124,353,59085,70,0,P|97:347|78:327,1,55.1999983154297,2|0,3:2|0:0,0:0:0:0:
62,257,59295,1,0,0:0:0:0:
16,372,59401,6,0,P|1:341|3:308,1,67.466668725586,2|0,0:0|0:0,0:0:0:0:
62,257,59611,1,0,0:0:0:0:
175,165,59716,69,2,3:2:0:0:
163,114,59821,1,8,2:1:0:0:
115,94,59926,1,8,2:1:0:0:
46,139,60032,5,2,0:0:0:0:
26,135,60137,1,8,2:1:0:0:
12,122,60242,1,8,2:1:0:0:
147,241,60348,69,2,3:2:0:0:
201,261,60453,1,8,2:1:0:0:
247,225,60558,1,8,2:1:0:0:
277,144,60664,5,2,0:0:0:0:
262,130,60769,1,8,2:1:0:0:
256,111,60874,1,8,2:1:0:0:
338,14,60980,69,2,3:2:0:0:
377,39,61085,1,8,2:1:0:0:
375,86,61190,1,8,2:1:0:0:
354,176,61295,5,2,0:0:0:0:
374,162,61401,1,8,2:1:0:0:
398,162,61505,1,8,2:1:0:0:
489,309,61611,70,0,P|464:308|443:297,1,49.0666666666667,2|8,3:2|2:1,0:0:0:0:
400,240,61822,1,8,2:1:0:0:
393,346,61927,6,0,P|376:327|368:304,1,49.0666666666667,2|8,0:0|2:1,0:0:0:0:
400,240,62138,1,8,2:1:0:0:
295,352,62243,70,0,P|273:344|249:337,1,49.0666666666667,2|0,3:2|0:0,0:0:0:0:
199,174,62453,2,0,P|210:195|226:213,1,49.0666666666667,8|0,2:1|0:0,0:0:0:0:
96,334,62664,2,0,P|109:313|116:290,1,49.0666666666667,8|0,2:1|0:0,0:0:0:0:
303,114,62874,6,0,P|290:135|272:151,1,49.0666666666667,2|0,3:2|0:0,0:0:0:0:
75,227,63085,70,0,P|50:226|27:218,1,49.0666666666667,8|0,2:1|0:0,0:0:0:0:
430,277,63295,6,0,P|417:255|399:239,1,49.0666666666667,8|0,2:1|0:0,0:0:0:0:
214,100,63506,70,0,P|189:100|160:110,1,55.1999983154297,2|2,0:0|0:0,0:0:0:0:
214,100,64769,38,0,B|148:172|43:182|10:91|100:61|159:134,1,262.199992998505,14|0,3:2|0:0,0:0:0:0:
230,238,65085,70,0,P|227:272|201:294,1,70.8399985947876,2|0,3:2|0:0,0:0:0:0:
148,353,65243,2,0,P|113:351|91:325,1,70.8399985947876,0|0,3:0|0:0,0:0:0:0:
296,157,65401,6,0,B|338:162|363:123|363:123|335:167|345:212,1,171.119993211182,4|0,3:2|0:0,0:0:0:0:
435,293,65716,2,0,B|462:247|499:266|499:266|456:271|432:313,1,143.519999124023,2|0,3:2|0:0,0:0:0:0:
392,358,66032,70,0,P|357:358|332:333,1,70.8399985947876,10|0,3:2|0:0,0:0:0:0:
262,311,66190,2,0,P|262:276|287:251,1,70.8399985947876,0|0,3:0|0:0,0:0:0:0:
406,21,66348,6,0,B|466:25|469:78|469:78|445:29|390:26,1,171.119993211182,0|0,3:0|0:0,0:0:0:0:
295,82,66664,70,0,B|239:80|208:121|208:121|120:131|102:12|206:8,1,262.199992998505,6|0,3:2|0:0,0:0:0:0:
366,121,66980,6,0,P|348:152|336:185,1,70.8399985947876,2|0,3:2|0:0,0:0:0:0:
232,246,67138,2,0,P|249:277|262:311,1,70.8399985947876,0|0,3:0|0:0,0:0:0:0:
404,330,67295,70,0,B|471:294|471:294|539:323|486:381,1,171.119993211182,8|0,3:2|0:0,0:0:0:0:
334,372,67611,2,0,B|286:356|262:310|262:310|283:350|269:392,1,171.119993211182,2|0,3:2|0:0,0:0:0:0:
400,232,67927,6,0,B|446:190|422:129|353:100|309:161|344:199,1,195.95999013263,6|0,3:2|0:0,0:0:0:0:
500,204,68243,70,0,P|522:158|501:112,1,103.500003948212,2|0,3:2|0:0,0:0:0:0:
328,259,68559,6,0,P|264:275|223:224,1,138,10|0,3:2|0:0,0:0:0:0:
168,151,68874,70,0,P|197:109|247:104,1,103.500003948212,2|0,3:2|0:0,0:0:0:0:
360,26,69190,6,0,P|323:107|291:191,1,179.39999178772,6|0,3:2|0:0,0:0:0:0:
99,316,69506,70,0,P|135:234|167:150,1,179.39999178772,2|0,3:2|0:0,0:0:0:0:
328,259,69822,6,0,B|394:331|499:341|532:250|442:220|383:293,1,262.199992998505,14|0,3:2|0:0,0:0:0:0:
166,150,70138,70,0,B|100:78|-5:68|-38:159|52:189|111:116,1,262.199992998505,2|0,3:2|0:0,0:0:0:0:
258,52,70453,6,0,B|268:-4|322:-3|322:-3|269:20|262:78,1,171.119993211182,4|0,3:2|0:0,0:0:0:0:
281,124,70769,70,0,P|337:162|402:126,1,143.519999124023,2|0,3:2|0:0,0:0:0:0:
406,57,71085,6,0,P|371:58|342:78,1,70.8399985947876,10|0,3:2|0:0,0:0:0:0:
220,202,71243,2,0,P|191:222|156:223,1,70.8399985947876,0|0,3:0|0:0,0:0:0:0:
3,81,71401,70,0,B|42:16|120:34|120:34|81:44|67:85,1,212.519995784363,0|0,3:0|0:0,0:0:0:0:
220,202,71716,6,0,B|264:202|307:154|307:154|318:151|318:151|239:229|274:320,1,262.199992998505,6|0,3:2|0:0,0:0:0:0:
334,366,72032,70,0,P|368:363|390:337,1,70.8399985947876,2|0,3:2|0:0,0:0:0:0:
449,284,72190,2,0,P|447:249|421:227,1,70.8399985947876,0|0,3:0|0:0,0:0:0:0:
125,304,72348,6,0,B|91:297|59:324|59:324|-31:281|54:221,1,184.919991252869,8|0,3:2|0:0,0:0:0:0:
185,352,72664,2,0,B|208:387|252:372|252:372|200:366|184:334,1,143.519999124023,2|0,3:2|0:0,0:0:0:0:
195,273,72980,70,0,B|234:234|195:173|197:207|152:159|211:90,1,171.119993211182,6|0,3:2|0:0,0:0:0:0:
4,27,73295,6,0,P|44:81|112:69,1,143.519999124023,2|0,3:2|0:0,0:0:0:0:
301,204,73611,70,0,P|391:226|474:268,1,186.300000710678,10|0,3:2|0:0,0:0:0:0:
512,140,73927,2,0,P|468:145|428:162,1,87.3999976661683,2|0,3:2|3:0,0:0:0:0:
234,334,74243,6,0,B|139:362|139:362|183:344|199:304,1,165.599994946289,6|0,3:2|0:0,0:0:0:0:
233,254,74559,2,0,P|217:223|205:191,1,69.0000026321412,2|0,3:2|3:2,0:0:0:0:
359,92,74874,38,0,B|320:26|242:44|242:44|281:54|295:95,1,206.999993682862,14|0,3:2|0:0,0:0:0:0:
222,118,75348,1,2,3:2:0:0:
305,216,75506,6,0,P|369:240|422:283,1,138,6|0,3:2|0:0,0:0:0:0:
498,281,75822,2,0,P|511:249|501:217,1,69.0000026321412,2|0,3:2|3:2,0:0:0:0:
328,308,76138,70,0,P|258:329|187:339,1,144.899995578003,10|0,3:2|0:0,0:0:0:0:
128,290,76453,2,0,B|148:238|147:279|171:217,1,85.559996605591,2|0,3:2|0:0,0:0:0:0:
120,81,76769,6,0,P|187:96|254:109,1,138,6|0,3:2|0:0,0:0:0:0:
368,22,77085,2,0,P|335:33|316:61,1,69.0000026321412,2|0,3:2|3:2,0:0:0:0:
352,184,77401,70,0,P|387:191|419:209,1,73.6,10|0,3:2|3:2,0:0:0:0:
495,98,77716,2,0,P|462:115|427:123,1,73.6,0|2,3:2|3:2,0:0:0:0:
272,249,78032,6,0,P|253:175|233:102,1,151.800004632569,6|0,3:2|0:0,0:0:0:0:
341,7,78348,2,0,P|308:15|293:45,1,69.0000026321412,2|0,3:2|3:2,0:0:0:0:
142,194,78664,69,10,3:2:0:0:
272,249,78822,2,0,P|232:261|194:278,1,82.7999974731446,2|0,3:2|3:2,0:0:0:0:
103,368,79138,1,0,3:2:0:0:
16,227,79295,5,6,3:2:0:0:
86,257,79453,1,0,3:2:0:0:
312,150,79611,69,0,3:2:0:0:
243,180,79769,1,2,3:2:0:0:
73,81,79927,6,0,P|101:21|166:18,1,138,10|0,3:2|0:0,0:0:0:0:
214,75,80243,2,0,P|197:97|190:123,1,55.2,2|0,3:2|0:0,0:0:0:0:
243,180,80559,69,4,3:2:0:0:
147,303,80716,2,0,P|228:274|313:260,1,172.500006580353,2|0,3:2|0:0,0:0:0:0:
452,134,81190,6,0,B|408:95|348:116|327:177|327:177|375:184|389:236,1,220.799993261719,10|0,3:2|3:2,0:0:0:0:
304,353,81664,2,0,P|328:338|354:331,1,55.1999983154297,2|0,3:2|0:0,0:0:0:0:
243,180,81822,70,0,P|204:106|157:38,1,165.599994946289,4|0,3:2|0:0,0:0:0:0:
264,54,82138,2,0,P|290:33|293:0,1,69.0000026321412,2|0,3:2|3:2,0:0:0:0:
155,175,82453,6,0,P|98:201|47:236,1,124.199996209717,8|0,3:2|0:0,0:0:0:0:
82,116,82769,2,0,P|67:85|34:78,1,69.0000026321412,2|0,3:2|3:2,0:0:0:0:
154,294,83085,70,0,P|228:307|300:332,1,151.800004632569,6|0,3:2|0:0,0:0:0:0:
448,314,83401,2,0,B|378:338|435:344|362:367,1,103.500003948212,2|0,3:2|0:0,0:0:0:0:
297,245,83716,6,0,P|285:214|267:167,1,69.0000026321412,10|0,3:2|3:2,0:0:0:0:
458,55,84032,70,0,P|439:103|421:151,1,103.500003948212,10|0,3:2|0:0,0:0:0:0:
268,321,84348,6,0,P|246:337|219:341,1,55.1999983154297,6|0,3:2|0:0,0:0:0:0:
108,177,84506,2,0,P|135:180|156:197,1,55.1999983154297,0|0,3:2|0:0,0:0:0:0:
346,378,84664,70,0,P|373:374|394:357,1,55.1999983154297,8|0,3:0|0:0,0:0:0:0:
506,234,84822,2,0,P|484:217|457:213,1,55.1999983154297,0|0,3:2|0:0,0:0:0:0:
141,297,84980,38,0,B|75:225|-55:196|-54:345|54:377|131:253,1,289.799991156006,14|0,3:2|0:0,0:0:0:0:
259,155,85295,70,0,B|325:83|455:54|454:203|346:235|269:111,1,289.799991156006,2|0,0:0|0:0,0:0:0:0:
97,40,85611,6,0,B|87:14|55:13|55:13|83:26|99:62,1,96.599997052002,4|0,3:2|0:0,0:0:0:0:
109,112,85927,70,0,P|127:148|167:156,1,83.7200028104249,10|0,3:2|0:0,0:0:0:0:
326,91,86085,2,0,P|339:51|354:12,1,83.7200028104249
461,205,86243,6,0,P|442:241|402:249,1,83.7200028104249,2|0,0:0|0:0,0:0:0:0:
259,155,86401,2,0,B|246:127|246:127|243:103|243:103|230:76,1,83.7200028104249,8|0,3:2|0:0,0:0:0:0:
18,351,86559,70,0,B|23:281|99:244|153:293|153:293|105:315|118:397,1,251.160008431275,8|0,3:2|0:0,0:0:0:0:
231,384,86874,6,0,P|119:314|0:263,1,262.199992998505,6|0,3:2|0:0,0:0:0:0:
259,155,87190,70,0,B|268:127|300:116|300:116|227:61|128:98|156:229,1,262.199992998505,2|0,3:2|0:0,0:0:0:0:
289,310,87506,6,0,B|314:308|314:308|330:320|330:320|310:323|310:323|289:310,1,87.3999976661683,8|0,3:2|0:0,0:0:0:0:
69,191,87664,2,0,B|43:192|43:192|27:180|27:180|47:177|47:177|69:191,1,87.3999976661683,0|0,3:2|0:0,0:0:0:0:
359,68,87822,70,0,B|413:75|444:140|409:198|409:198|404:158|345:130,1,234.60000447464,2|0,3:2|0:0,0:0:0:0:
163,96,88138,6,0,B|105:155|29:88|23:40|88:-11|133:17|135:69,1,220.8,6|0,3:2|0:0,0:0:0:0:
263,160,88453,70,0,P|236:204|218:252,1,103.500003948212,2|0,3:2|0:0,0:0:0:0:
156,322,88769,2,0,B|193:308|211:267|211:267|191:314|210:356,1,151.800004632569,2|0,0:0|0:0,0:0:0:0:
120,172,89085,6,0,B|94:162|93:130|93:130|106:158|142:174,1,96.599997052002,10|0,3:2|0:0,0:0:0:0:
163,96,89401,70,0,P|71:143|3:220,1,207.000007896424,6|0,3:2|0:0,0:0:0:0:
9,77,89716,6,0,P|16:43|33:13,1,69.0000026321412,10|0,3:2|0:0,0:0:0:0:
186,207,89874,2,0,P|214:226|247:231,1,69.0000026321412,8|0,3:2|0:0,0:0:0:0:
452,86,90032,70,0,B|473:44|521:49|521:49|464:-9|362:5|346:103,1,289.799991156006,14|0,3:2|0:0,0:0:0:0:
280,296,90348,6,0,B|260:358|158:373|101:314|101:314|149:319|171:278,1,289.799991156006,2|0,3:2|0:0,0:0:0:0:
147,84,90664,70,0,B|146:67|132:54|132:54|167:59|166:108,1,96.599997052002,4|0,3:2|0:0,0:0:0:0:
128,162,90980,6,0,P|146:198|186:206,1,83.7200028104249,10|0,3:2|0:0,0:0:0:0:
345,141,91138,2,0,P|358:101|373:62,1,83.7200028104249
480,255,91295,70,0,P|461:291|421:299,1,83.7200028104249,2|0,0:0|0:0,0:0:0:0:
278,205,91454,2,0,B|265:177|265:177|262:153|262:153|249:126,1,83.7200028104249,8|0,3:2|0:0,0:0:0:0:
37,356,91611,6,0,P|156:317|279:295,1,251.160008431275,8|0,3:2|0:0,0:0:0:0:
128,162,91927,70,0,B|81:135|47:91|47:91|40:90|40:90|94:155|85:238,1,262.199992998505,6|0,3:2|0:0,0:0:0:0:
302,77,92243,6,0,B|349:50|383:6|383:6|390:5|390:5|336:70|345:153,1,262.199992998505,2|0,3:2|0:0,0:0:0:0:
279,294,92559,70,0,B|254:292|254:292|238:304|238:304|258:307|258:307|279:294,1,87.3999976661683,10|0,3:2|0:0,0:0:0:0:
457,252,92716,2,0,B|482:254|482:254|498:242|498:242|478:239|478:239|457:252,1,87.3999976661683,0|0,3:2|0:0,0:0:0:0:
229,214,92874,6,0,B|203:212|203:212|189:199|189:199|209:198|209:198|229:214,1,87.3999976661683,2|0,3:2|0:0,0:0:0:0:
442,332,93032,2,0,B|469:341|469:341|485:367|473:362|463:355|463:355|444:340,1,87.3999976661683,0|0,3:2|0:0,0:0:0:0:
244,119,93190,70,0,B|228:11|343:-29|394:33|327:101|268:69,1,237.360003621826,6|0,3:2|0:0,0:0:0:0:
133,175,93506,6,0,P|94:185|59:203,1,79.1200012072754,0|0,3:2|0:0,0:0:0:0:
37,8,93664,2,0,P|61:39|76:75,1,79.1200012072754
12,273,93822,70,0,P|38:301|76:303,1,79.1200012072754,2|0,3:2|0:0,0:0:0:0:
229,214,93980,5,8,3:2:0:0:
267,216,94058,1,8,3:2:0:0:
293,244,94138,2,0,B|224:243|214:312|231:287|232:368|129:363,1,195.95999013263,10|0,3:2|0:0,0:0:0:0:
146,131,94453,70,0,B|172:86|237:104|237:104|164:116|127:180,1,234.60000447464,14|0,3:2|0:0,0:0:0:0:
105,240,94769,6,0,P|40:239|33:116,1,193.199994104004,10|0,3:2|0:0,0:0:0:0:
180,320,95085,38,0,B|246:346|306:306|270:278|330:239|397:263|369:298|437:322|523:277,1,354.200010809327,4|0,3:2|0:0,0:0:0:0:
466,95,95716,2,0,P|402:110|388:174,1,138,4|0,0:0|0:0,0:0:0:0:
444,225,96032,6,0,P|432:272|383:278,1,103.500003948212,10|0,3:2|0:0,0:0:0:0:
315,311,96348,2,0,P|299:315|283:325,1,34.5000013160706,2|0,0:0|0:0,0:0:0:0:
170,214,96506,70,0,L|151:165,1,46,8|0,3:2|0:0,0:0:0:0:
63,367,96664,6,0,B|52:365|36:376|36:376|-17:355|-13:287|37:273,1,165.599994946289,10|0,3:2|0:0,0:0:0:0:
164,354,96980,70,0,B|179:387|228:376|228:376|193:374|150:335,1,138,6|0,0:0|0:0,0:0:0:0:
117,296,97295,2,0,B|107:260|141:233|132:257|176:216|147:158,1,138,10|0,3:2|0:0,0:0:0:0:
154,102,97611,6,0,P|126:104|104:120,1,55.1999983154297,10|0,3:2|0:0,0:0:0:0:
293,237,97769,2,0,P|265:234|243:218,1,55.1999983154297,8|0,3:2|0:0,0:0:0:0:
330,69,97927,70,0,P|406:69|422:144,1,165.599994946289,10|0,3:2|0:0,0:0:0:0:
366,195,98243,6,0,P|385:257|452:263,1,138,4|0,0:0|0:0,0:0:0:0:
512,232,98559,70,0,P|497:209|472:197,1,55.1999983154297,10|0,3:2|0:0,0:0:0:0:
332,305,98716,2,0,P|306:315|279:321,1,55.1999983154297,4|0,0:0|0:0,0:0:0:0:
216,286,98874,1,0,0:0:0:0:
409,375,99032,6,0,B|415:352|415:352|421:340|421:340|427:313,1,55.1999983154297,12|0,3:2|0:0,0:0:0:0:
366,195,99190,2,0,P|350:130|334:59,1,138,10|0,3:2|0:0,0:0:0:0:
216,286,99506,70,0,B|153:295|150:351|150:351|180:300|235:302,1,186.300000710678,6|0,0:0|0:0,0:0:0:0:
291,292,99822,6,0,P|308:312|312:339,1,55.1999983154297,8|0,3:2|0:0,0:0:0:0:
472,197,99980,2,0,P|451:215|444:241,1,55.1999983154297,8|0,3:2|0:0,0:0:0:0:
292,92,100138,70,0,P|210:78|130:55,1,165.599994946289,12|0,3:2|0:0,0:0:0:0:
95,188,100453,2,0,P|176:201|256:224,1,165.599994946289,8|0,3:2|0:0,0:0:0:0:
411,84,100769,6,0,B|436:75|468:46|468:46|436:81|431:133,1,165.599994946289,4|0,0:0|0:0,0:0:0:0:
471,196,101085,70,0,P|456:244|408:256,1,103.500003948212,10|0,3:2|0:0,0:0:0:0:
350,304,101401,2,0,P|334:308|318:315,1,34.5000013160706
212,179,101559,6,0,L|224:134,1,46,8|0,3:2|0:0,0:0:0:0:
107,300,101716,70,0,P|31:311|5:239,1,165.599994946289,8|0,3:2|0:0,0:0:0:0:
89,89,102032,6,0,B|70:58|37:53|37:53|84:45|103:101,1,138,6|0,0:0|0:0,0:0:0:0:
125,155,102348,2,0,P|178:153|206:108,1,110.4,10|0,3:2|0:0,0:0:0:0:
218,38,102664,70,0,P|190:37|166:50,1,55.1999983154297,10|0,3:2|0:0,0:0:0:0:
327,186,102822,2,0,P|299:186|275:173,1,55.1999983154297,0|0,3:2|0:0,0:0:0:0:
427,82,102980,6,0,P|436:55|447:30,1,55.1999983154297,2|0,3:2|0:0,0:0:0:0:
389,232,103138,2,0,P|399:257|409:283,1,55.1999983154297,0|0,3:2|0:0,0:0:0:0:
206,108,103295,70,0,P|193:175|170:240,1,138,6|0,0:0|0:0,0:0:0:0:
188,313,103611,6,0,P|167:323|150:339,1,46,10|0,3:2|0:0,0:0:0:0:
29,220,103769,2,0,P|45:236|55:257,1,46,4|0,0:0|0:0,0:0:0:0:
46,331,103927,1,0,0:0:0:0:
206,108,104085,70,0,P|185:118|163:125,1,46,4|0,0:0|0:0,0:0:0:0:
43,42,104243,2,0,P|99:10|148:52,1,138,10|0,3:2|0:0,0:0:0:0:
206,108,104559,6,0,B|240:97|265:140|265:140|240:116|182:110,1,138,4|0,0:0|0:0,0:0:0:0:
135,136,104874,70,0,P|64:156|0:190,1,147.2,10|0,3:2|0:0,0:0:0:0:
