osu file format v14

[General]
AudioFilename: audio.mp3
AudioLeadIn: 0
PreviewTime: 64612
Countdown: 0
SampleSet: Soft
StackLeniency: 0.7
Mode: 0
LetterboxInBreaks: 0
WidescreenStoryboard: 1

[Editor]
DistanceSpacing: 0.9
BeatDivisor: 2
GridSize: 32
TimelineZoom: 2.3

[Metadata]
Title:White Midnight (Anime Version)
TitleUnicode:白夜 (アニメ・ヴァージョン)
Artist:Reol
ArtistUnicode:Reol
Creator:Esutarosa
Version:Insane
Source:白夜極光
Tags:pop jpop j-pop japanese れをる byakuya kyokkou kujinn reform shime anime game alchemy stars ost official soundtrack ver mobile smartphone video opening intro theme song
BeatmapID:3322859
BeatmapSetID:1627637

[Difficulty]
HPDrainRate:5
CircleSize:4
OverallDifficulty:8
ApproachRate:9
SliderMultiplier:3.14
SliderTickRate:1

[Events]
//Background and Video events
0,0,"bg.jpg",0,0
Video,0,"video.mp4"
//Break Periods
//Storyboard Layer 0 (Background)
//Storyboard Layer 1 (Fail)
//Storyboard Layer 2 (Pass)
//Storyboard Layer 3 (Foreground)
//Storyboard Layer 4 (Overlay)
//Storyboard Sound Samples
Sample,24032,2,"normal-hitwhistle32.wav",80

[TimingPoints]
4138,631.578947368421,4,2,1,32,1,0
4138,-125,4,2,1,32,0,0
4374,-125,4,2,1,5,0,0
4611,-125,4,2,1,32,0,0
4848,-125,4,2,1,5,0,0
5085,-125,4,2,1,32,0,0
5322,-125,4,2,1,5,0,0
5559,-125,4,2,1,32,0,0
5795,-125,4,2,1,5,0,0
6032,-125,4,2,1,32,0,0
6269,-125,4,2,1,5,0,0
6506,-125,4,2,1,32,0,0
6743,-125,4,2,1,5,0,0
6980,-125,4,2,1,32,0,0
7216,-125,4,2,1,5,0,0
7453,-125,4,2,1,32,0,0
7690,-125,4,2,1,5,0,0
7927,-125,4,2,1,32,0,0
8164,-125,4,2,1,5,0,0
8401,-125,4,2,1,32,0,0
8638,-125,4,2,1,5,0,0
8874,-125,4,2,1,32,0,0
9190,-125,4,2,1,28,0,0
9348,-125,4,2,1,32,0,0
10138,-125,4,2,1,32,0,0
10295,-125,4,2,1,32,0,0
10453,-125,4,2,1,28,0,0
10769,-125,4,2,1,32,0,0
11401,-125,4,2,1,32,0,0
11559,-125,4,2,1,32,0,0
11716,-125,4,2,1,28,0,0
11874,-125,4,2,1,32,0,0
12111,-125,4,2,1,5,0,0
12348,-125,4,2,1,34,0,0
12585,-125,4,2,1,5,0,0
12822,-125,4,2,1,36,0,0
13059,-125,4,2,1,5,0,0
13295,-166.666666666667,4,3,1,22,0,0
13453,-100,4,3,1,5,0,0
13611,-133.333333333333,4,3,1,26,0,0
13769,-100,4,3,1,5,0,0
13927,-100,4,3,1,30,0,0
14164,-100,4,3,1,5,0,0
14243,-100,4,2,91,62,0,0
14559,-100,4,2,1,42,0,0
14716,-100,4,2,1,60,0,0
14953,-100,4,2,1,5,0,0
15190,-100,4,2,1,60,0,0
15427,-100,4,2,1,5,0,0
15506,-100,4,2,1,60,0,0
15664,-100,4,2,1,60,0,0
15901,-100,4,2,1,5,0,0
16138,-100,4,2,1,60,0,0
16374,-100,4,2,1,5,0,0
16453,-100,4,2,1,60,0,0
16611,-100,4,2,1,60,0,0
16690,-100,4,2,1,60,0,0
16769,-100,4,2,1,60,0,0
17085,-100,4,2,1,60,0,0
17322,-100,4,2,1,5,0,0
17559,-100,4,2,1,60,0,0
17795,-100,4,2,1,5,0,0
18032,-100,4,2,1,62,0,0
18269,-100,4,2,1,5,0,0
18506,-100,4,2,1,63,0,0
18743,-100,4,2,1,5,0,0
18980,-100,4,2,1,64,0,0
20243,-100,4,2,1,66,0,0
20401,-100,4,2,1,66,0,0
20559,-100,4,2,1,66,0,0
21190,-100,4,2,1,66,0,0
21506,-100,4,2,1,68,0,0
21664,-100,4,2,1,68,0,0
21822,-100,4,2,1,68,0,0
21980,-100,4,2,1,68,0,0
22295,-100,4,2,1,68,0,0
22453,-100,4,2,1,68,0,0
22690,-100,4,2,1,5,0,0
22927,-100,4,2,1,64,0,0
23085,-100,4,2,1,38,0,0
23401,-83.3333333333333,4,1,44,60,0,0
23559,-100,4,1,44,48,0,0
23874,-125,4,1,23,60,0,0
23953,-100,4,1,23,5,0,0
24032,-66.6666666666667,4,1,32,60,0,0
24269,-100,4,1,32,5,0,0
24348,-133.333333333333,4,2,1,48,0,0
24980,-133.333333333333,4,2,1,48,0,0
25611,-74.0740740740741,4,2,27,48,0,0
25690,-74.0740740740741,4,2,1,48,0,0
25848,-74.0740740740741,4,2,1,5,0,0
25927,-133.333333333333,4,2,1,48,0,0
26401,-133.333333333333,4,2,1,48,0,0
26716,-133.333333333333,4,2,1,38,0,0
26874,-90.0900900900901,4,2,1,48,0,0
27032,-90.0900900900901,4,2,1,38,0,0
27190,-90.0900900900901,4,2,1,48,0,0
27348,-90.0900900900901,4,2,1,38,0,0
27506,-76.9230769230769,4,2,1,48,0,0
27743,-76.9230769230769,4,2,1,5,0,0
27822,-76.9230769230769,4,2,1,48,0,0
28059,-76.9230769230769,4,2,1,5,0,0
28138,-66.6666666666667,4,2,27,52,0,0
28216,-66.6666666666667,4,2,1,52,0,0
28374,-66.6666666666667,4,2,1,5,0,0
28453,-133.333333333333,4,2,1,55,0,0
28611,-133.333333333333,4,2,1,48,0,0
28769,-133.333333333333,4,2,1,54,0,0
28927,-133.333333333333,4,2,1,38,0,0
29085,-133.333333333333,4,2,1,53,0,0
29243,-133.333333333333,4,2,1,38,0,0
29401,-133.333333333333,4,2,1,50,0,0
29716,-133.333333333333,4,2,1,38,0,0
30032,-133.333333333333,4,2,1,32,0,0
30190,-133.333333333333,4,2,1,38,0,0
30348,-133.333333333333,4,2,1,48,0,0
30506,-133.333333333333,4,2,1,52,0,0
30664,-74.0740740740741,4,2,27,56,0,0
30743,-74.0740740740741,4,2,1,56,0,0
30901,-74.0740740740741,4,2,1,5,0,0
30980,-192.307692307692,4,2,1,54,0,0
31216,-192.307692307692,4,2,1,5,0,0
31295,-133.333333333333,4,2,1,52,0,0
31532,-100,4,2,1,5,0,0
31611,-100,4,2,1,52,0,0
31690,-100,4,2,1,17,0,0
31769,-100,4,2,1,52,0,0
31848,-100,4,2,1,17,0,0
31927,-78.125,4,2,1,56,0,0
32164,-78.125,4,2,1,5,0,0
32243,-172.413793103448,4,2,1,54,0,0
32346,-78.125,4,2,1,5,0,0
32480,-178.571428571429,4,2,1,5,0,0
32559,-133.333333333333,4,2,1,52,0,0
32795,-133.333333333333,4,2,1,5,0,0
32874,-100,4,2,1,52,0,0
32953,-100,4,2,1,17,0,0
33032,-100,4,2,1,52,0,0
33111,-100,4,2,27,17,0,0
33190,-74.0740740740741,4,2,27,52,0,0
33269,-74.0740740740741,4,2,1,52,0,0
33348,-74.0740740740741,4,2,1,52,0,0
33427,-74.0740740740741,4,2,1,5,0,0
33506,-172.413793103449,4,2,1,54,0,0
33743,-172.413793103449,4,2,1,5,0,0
33822,-133.333333333333,4,2,1,50,0,0
34059,-133.333333333333,4,2,1,5,0,0
34138,-121.951219512195,4,2,1,48,0,0
34374,-117.647058823529,4,2,1,5,0,0
34453,-90.0900900900901,4,2,1,58,0,0
34690,-66.6666666666667,4,2,1,5,0,0
34769,-108.695652173913,4,2,1,58,0,0
35401,-108.695652173913,4,2,1,46,0,0
35480,-108.695652173913,4,2,1,50,0,0
35559,-108.695652173913,4,2,1,54,0,0
35638,-108.695652173913,4,2,1,56,0,0
35716,-108.695652173913,4,2,27,58,0,0
35795,-108.695652173913,4,2,1,58,0,0
36032,-121.951219512195,4,2,1,58,0,0
36269,-108.695652173913,4,2,1,5,0,0
36348,-138.888888888889,4,2,1,58,0,0
36980,-138.888888888889,4,2,1,58,0,0
37216,-108.695652173913,4,2,1,5,0,0
37295,-108.695652173913,4,2,1,58,0,0
37374,-108.695652173913,4,2,1,17,0,0
37453,-108.695652173913,4,2,1,58,0,0
37532,-108.695652173913,4,2,1,17,0,0
37611,-108.695652173913,4,2,1,58,0,0
37927,-108.695652173913,4,2,1,46,0,0
38006,-108.695652173913,4,2,1,50,0,0
38085,-108.695652173913,4,2,1,54,0,0
38164,-108.695652173913,4,2,1,56,0,0
38243,-108.695652173913,4,2,27,58,0,0
38322,-108.695652173913,4,2,1,58,0,0
38559,-121.951219512195,4,2,1,58,0,0
38874,-108.695652173913,4,2,1,48,0,0
39032,-108.695652173913,4,2,1,48,0,0
39190,-108.695652173913,4,2,1,60,0,0
40769,-108.695652173913,4,2,27,60,0,0
40848,-108.695652173913,4,2,1,60,0,0
41716,-138.888888888889,4,2,1,60,0,0
41953,-138.888888888889,4,2,1,5,0,0
42032,-108.695652173913,4,2,1,60,0,0
42269,-108.695652173913,4,2,1,5,0,0
42348,-108.695652173913,4,2,1,60,0,0
42585,-108.695652173913,4,2,1,5,0,0
42664,-108.695652173913,4,2,1,60,0,0
43138,-108.695652173913,4,2,1,30,0,0
43216,-108.695652173913,4,2,1,48,0,0
43295,-108.695652173913,4,2,27,60,0,0
43374,-108.695652173913,4,2,1,60,0,0
43611,-108.695652173913,4,2,1,48,0,0
43769,-108.695652173913,4,2,1,60,0,0
44006,-108.695652173913,4,2,1,5,0,0
44085,-108.695652173913,4,2,1,60,0,0
44164,-108.695652173913,4,2,1,5,0,0
44243,-108.695652173913,4,2,1,60,0,0
44480,-108.695652173913,4,2,1,5,0,0
44559,-100,4,2,91,68,0,0
44638,-100,4,2,1,68,0,0
44795,-100,4,2,1,5,0,0
44874,-166.666666666667,4,2,1,68,0,0
45190,-166.666666666667,4,2,1,58,0,0
45506,-166.666666666667,4,2,1,68,0,0
45822,-166.666666666667,4,2,1,68,0,0
45980,-166.666666666667,4,2,1,32,0,0
46138,-166.666666666667,4,2,1,68,0,0
46295,-166.666666666667,4,2,1,32,0,0
46453,-166.666666666667,4,2,1,68,0,0
46611,-166.666666666667,4,2,1,32,0,0
46927,-166.666666666667,4,2,1,48,0,0
47085,-142.857142857143,4,2,1,68,0,0
47716,-142.857142857143,4,2,1,68,0,0
47874,-142.857142857143,4,2,1,38,0,0
48032,-133.333333333333,4,2,1,68,0,0
49611,-166.666666666667,4,2,1,68,0,0
49927,-166.666666666667,4,2,1,58,0,0
50243,-166.666666666667,4,2,1,68,0,0
50559,-166.666666666667,4,2,1,68,0,0
50874,-166.666666666667,4,2,1,68,0,0
51032,-166.666666666667,4,2,1,32,0,0
51190,-166.666666666667,4,2,1,68,0,0
51348,-166.666666666667,4,2,1,32,0,0
51506,-166.666666666667,4,2,1,68,0,0
51664,-166.666666666667,4,2,1,32,0,0
51822,-113.636363636364,4,2,1,68,0,0
54664,-90.0900900900901,4,2,1,74,0,0
55295,-100,4,2,1,74,0,0
55927,-125,4,2,1,74,0,0
56559,-133.333333333333,4,2,1,74,0,0
57190,-117.647058823529,4,2,1,74,0,0
57822,-125,4,2,1,74,0,0
58453,-133.333333333333,4,2,1,74,0,0
59085,-111.111111111111,4,2,1,74,0,0
59401,-111.111111111111,4,2,1,74,0,0
59716,-100,4,2,1,74,0,0
60348,-100,4,2,1,74,0,0
60980,-100,4,2,1,74,0,0
61611,-100,4,2,1,74,0,0
62243,-100,4,2,1,74,0,0
62348,-100,4,2,1,28,0,0
62453,-100,4,2,1,74,0,0
62559,-100,4,2,1,28,0,0
62664,-100,4,2,1,74,0,0
62769,-100,4,2,1,28,0,0
62874,-100,4,2,1,74,0,0
62980,-100,4,2,1,28,0,0
63085,-100,4,2,1,74,0,0
63190,-100,4,2,1,28,0,0
63295,-100,4,2,1,74,0,0
63401,-100,4,2,1,28,0,0
63506,-100,4,2,1,74,0,0
64769,-76.9230769230769,4,2,2,82,0,1
64848,-76.9230769230769,4,2,27,82,0,0
65006,-76.9230769230769,4,2,27,5,0,0
65085,-76.9230769230769,4,2,27,82,0,0
65322,-76.9230769230769,4,2,27,5,0,0
65401,-76.9230769230769,4,2,27,82,0,0
65638,-76.9230769230769,4,2,27,5,0,0
65716,-76.9230769230769,4,2,27,82,0,0
65953,-76.9230769230769,4,2,27,5,0,0
66032,-76.9230769230769,4,2,27,82,0,0
66269,-76.9230769230769,4,2,27,5,0,0
66348,-76.9230769230769,4,2,27,82,0,0
66585,-76.9230769230769,4,2,27,5,0,0
66664,-76.9230769230769,4,2,27,82,0,0
66901,-76.9230769230769,4,2,27,5,0,0
66980,-76.9230769230769,4,2,27,82,0,0
67216,-76.9230769230769,4,2,27,5,0,0
67295,-76.9230769230769,4,2,27,82,0,0
67532,-76.9230769230769,4,2,27,5,0,0
67611,-76.9230769230769,4,2,27,82,0,0
67690,-76.9230769230769,4,2,27,21,0,0
67769,-76.9230769230769,4,2,27,82,0,0
67848,-76.9230769230769,4,2,27,5,0,0
67927,-76.9230769230769,4,2,27,82,0,0
68164,-76.9230769230769,4,2,27,5,0,0
68243,-76.9230769230769,4,2,27,82,0,0
68322,-76.9230769230769,4,2,27,17,0,0
68401,-76.9230769230769,4,2,27,82,0,0
68480,-76.9230769230769,4,2,27,5,0,0
68559,-76.9230769230769,4,2,27,82,0,0
68638,-76.9230769230769,4,2,27,21,0,0
68716,-76.9230769230769,4,2,27,82,0,0
68795,-76.9230769230769,4,2,27,5,0,0
68874,-76.9230769230769,4,2,27,82,0,0
69111,-76.9230769230769,4,2,27,5,0,0
69190,-76.9230769230769,4,2,27,82,0,0
69427,-76.9230769230769,4,2,27,5,0,0
69506,-76.9230769230769,4,2,27,82,0,0
69743,-76.9230769230769,4,2,27,5,0,0
69822,-76.9230769230769,4,2,2,82,0,1
69901,-76.9230769230769,4,2,27,82,0,0
70059,-76.9230769230769,4,2,27,5,0,0
70138,-76.9230769230769,4,2,27,82,0,0
70374,-76.9230769230769,4,2,27,5,0,0
70453,-76.9230769230769,4,2,27,82,0,0
70690,-76.9230769230769,4,2,27,5,0,0
70769,-76.9230769230769,4,2,27,82,0,0
71006,-76.9230769230769,4,2,27,5,0,0
71085,-76.9230769230769,4,2,27,82,0,0
71322,-76.9230769230769,4,2,27,5,0,0
71401,-76.9230769230769,4,2,27,82,0,0
71638,-76.9230769230769,4,2,27,5,0,0
71716,-76.9230769230769,4,2,27,82,0,0
71953,-76.9230769230769,4,2,27,5,0,0
72032,-76.9230769230769,4,2,27,82,0,0
72269,-76.9230769230769,4,2,27,5,0,0
72348,-76.9230769230769,4,2,27,82,0,0
72585,-76.9230769230769,4,2,27,5,0,0
72664,-76.9230769230769,4,2,27,82,0,0
72743,-76.9230769230769,4,2,27,21,0,0
72822,-76.9230769230769,4,2,27,82,0,0
72901,-76.9230769230769,4,2,27,5,0,0
72980,-76.9230769230769,4,2,27,82,0,0
73216,-76.9230769230769,4,2,27,5,0,0
73295,-76.9230769230769,4,2,27,80,0,0
73453,-76.9230769230769,4,2,27,58,0,0
73532,-76.9230769230769,4,2,27,5,0,0
73611,-76.9230769230769,4,2,27,78,0,0
73690,-76.9230769230769,4,2,27,17,0,0
73769,-76.9230769230769,4,2,27,78,0,0
73848,-76.9230769230769,4,2,27,17,0,0
73927,-76.9230769230769,4,2,27,76,0,0
74006,-76.9230769230769,4,2,27,58,0,0
74164,-76.9230769230769,4,2,27,21,0,0
74243,-84.7457627118644,4,2,27,74,0,0
74480,-84.7457627118644,4,2,27,5,0,0
74559,-84.7457627118644,4,2,27,73,0,0
74716,-84.7457627118644,4,2,27,58,0,0
74795,-84.7457627118644,4,2,27,5,0,0
74874,-100,4,2,2,68,0,0
74953,-100,4,2,27,68,0,0
75427,-100,4,2,27,5,0,0
75506,-111.111111111111,4,2,27,68,0,0
75743,-125,4,2,27,5,0,0
75822,-125,4,2,27,68,0,0
76059,-125,4,2,27,5,0,0
76138,-125,4,2,27,68,0,0
76374,-125,4,2,27,5,0,0
76453,-125,4,2,27,67,0,0
76690,-125,4,2,27,5,0,0
76769,-125,4,2,27,66,0,0
77006,-125,4,2,27,5,0,0
77085,-125,4,2,27,65,0,0
77322,-125,4,2,27,5,0,0
77401,-125,4,2,27,64,0,0
77559,-125,4,2,27,48,0,0
77716,-125,4,2,27,64,0,0
77874,-125,4,2,27,48,0,0
78032,-125,4,2,27,64,0,0
78269,-125,4,2,27,5,0,0
78348,-125,4,2,27,64,0,0
78585,-125,4,2,27,5,0,0
78664,-125,4,2,27,64,0,0
78743,-125,4,2,27,5,0,0
78822,-125,4,2,27,64,0,0
79138,-125,4,2,27,48,0,0
79295,-125,4,2,27,64,0,0
79453,-125,4,2,27,48,0,0
79611,-125,4,2,27,64,0,0
79769,-125,4,2,27,48,0,0
79927,-125,4,2,27,64,0,0
80164,-125,4,2,27,5,0,0
80243,-119.047619047619,4,2,27,64,0,0
80480,-119.047619047619,4,2,27,5,0,0
80559,-119.047619047619,4,2,27,64,0,0
80638,-119.047619047619,4,2,27,5,0,0
80716,-119.047619047619,4,2,27,64,0,0
81111,-119.047619047619,4,2,27,5,0,0
81190,-111.111111111111,4,2,27,65,0,0
81743,-111.111111111111,4,2,27,5,0,0
81822,-111.111111111111,4,2,27,66,0,0
82059,-111.111111111111,4,2,27,5,0,0
82138,-111.111111111111,4,2,27,66,0,0
82374,-111.111111111111,4,2,27,5,0,0
82453,-111.111111111111,4,2,27,68,0,0
82690,-111.111111111111,4,2,27,5,0,0
82769,-111.111111111111,4,2,27,68,0,0
83006,-111.111111111111,4,2,27,5,0,0
83085,-111.111111111111,4,2,27,70,0,0
83322,-111.111111111111,4,2,27,5,0,0
83401,-111.111111111111,4,2,27,70,0,0
83638,-111.111111111111,4,2,27,5,0,0
83716,-107.52688172043,4,2,27,70,0,0
83953,-107.52688172043,4,2,27,5,0,0
84032,-107.52688172043,4,2,27,70,0,0
84269,-107.52688172043,4,2,27,5,0,0
84348,-100,4,2,27,77,0,0
84585,-100,4,2,27,5,0,0
84664,-100,4,2,1,79,0,0
84743,-100,4,2,27,79,0,0
84901,-100,4,2,27,5,0,0
84980,-66.6666666666667,4,2,91,88,0,1
85059,-66.6666666666667,4,2,27,32,0,0
85138,-66.6666666666667,4,2,27,88,0,0
85216,-66.6666666666667,4,2,27,5,0,0
85295,-66.6666666666667,4,2,27,88,0,0
85532,-66.6666666666667,4,2,27,5,0,0
85611,-125,4,2,27,88,0,0
85848,-125,4,2,27,5,0,0
85927,-66.6666666666667,4,2,27,88,0,0
86006,-66.6666666666667,4,2,27,32,0,0
86085,-66.6666666666667,4,2,27,88,0,0
86164,-66.6666666666667,4,2,27,32,0,0
86243,-66.6666666666667,4,2,27,88,0,0
86322,-66.6666666666667,4,2,27,32,0,0
86401,-66.6666666666667,4,2,27,88,0,0
86480,-66.6666666666667,4,2,27,17,0,0
86559,-66.6666666666667,4,2,27,88,0,0
86795,-66.6666666666667,4,2,27,5,0,0
86874,-66.6666666666667,4,2,27,88,0,0
86953,-66.6666666666667,4,2,27,32,0,0
87032,-66.6666666666667,4,2,27,88,0,0
87111,-66.6666666666667,4,2,27,32,0,0
87190,-66.6666666666667,4,2,27,88,0,0
87427,-66.6666666666667,4,2,27,5,0,0
87506,-66.6666666666667,4,2,27,88,0,0
87585,-66.6666666666667,4,2,27,21,0,0
87664,-66.6666666666667,4,2,27,88,0,0
87743,-66.6666666666667,4,2,27,21,0,0
87822,-66.6666666666667,4,2,27,88,0,0
88059,-66.6666666666667,4,2,27,5,0,0
88138,-66.6666666666667,4,2,27,88,0,0
88374,-66.6666666666667,4,2,27,5,0,0
88453,-83.3333333333333,4,2,27,88,0,0
88690,-83.3333333333333,4,2,27,5,0,0
88769,-100,4,2,27,88,0,0
89006,-100,4,2,27,5,0,0
89085,-90.9090909090909,4,2,27,88,0,0
89322,-90.9090909090909,4,2,27,5,0,0
89401,-83.3333333333333,4,2,27,88,0,0
89638,-83.3333333333333,4,2,27,5,0,0
89716,-83.3333333333333,4,2,27,88,0,0
89953,-83.3333333333333,4,2,27,5,0,0
90032,-66.6666666666667,4,2,2,88,0,1
90111,-66.6666666666667,4,2,27,32,0,0
90190,-66.6666666666667,4,2,27,88,0,0
90269,-66.6666666666667,4,2,27,5,0,0
90348,-66.6666666666667,4,2,27,88,0,0
90585,-66.6666666666667,4,2,27,5,0,0
90664,-83.3333333333333,4,2,27,88,0,0
90901,-83.3333333333333,4,2,27,5,0,0
90980,-66.6666666666667,4,2,27,88,0,0
91059,-66.6666666666667,4,2,27,32,0,0
91138,-66.6666666666667,4,2,27,88,0,0
91216,-66.6666666666667,4,2,27,32,0,0
91295,-66.6666666666667,4,2,27,88,0,0
91374,-66.6666666666667,4,2,27,32,0,0
91453,-66.6666666666667,4,2,27,88,0,0
91532,-66.6666666666667,4,2,27,17,0,0
91611,-66.6666666666667,4,2,27,88,0,0
91848,-66.6666666666667,4,2,27,5,0,0
91927,-66.6666666666667,4,2,27,88,0,0
92006,-66.6666666666667,4,2,27,32,0,0
92085,-66.6666666666667,4,2,27,88,0,0
92164,-66.6666666666667,4,2,27,32,0,0
92243,-66.6666666666667,4,2,27,88,0,0
92480,-66.6666666666667,4,2,27,5,0,0
92559,-66.6666666666667,4,2,27,88,0,0
92638,-66.6666666666667,4,2,27,5,0,0
92716,-66.6666666666667,4,2,27,88,0,0
92795,-66.6666666666667,4,2,27,5,0,0
92874,-66.6666666666667,4,2,27,88,0,0
92953,-66.6666666666667,4,2,27,5,0,0
93032,-66.6666666666667,4,2,27,88,0,0
93111,-66.6666666666667,4,2,27,5,0,0
93190,-66.6666666666667,4,2,27,88,0,0
93427,-66.6666666666667,4,2,27,5,0,0
93506,-66.6666666666667,4,2,27,88,0,0
93743,-66.6666666666667,4,2,27,5,0,0
93822,-66.6666666666667,4,2,27,85,0,0
93901,-66.6666666666667,4,2,27,5,0,0
93980,-66.6666666666667,4,2,27,82,0,0
94059,-66.6666666666667,4,2,27,80,0,0
94138,-66.6666666666667,4,2,27,85,0,0
94374,-66.6666666666667,4,2,27,5,0,0
94453,-76.9230769230769,4,2,27,82,0,0
94690,-76.9230769230769,4,2,27,5,0,0
94769,-90.9090909090909,4,2,27,79,0,0
95006,-90.9090909090909,4,2,27,5,0,0
95085,-100,4,2,1,68,0,0
95164,-100,4,2,27,68,0,0
95638,-100,4,2,27,5,0,0
95716,-111.111111111111,4,2,27,68,0,0
95953,-111.111111111111,4,2,27,5,0,0
96032,-125,4,2,27,68,0,0
96269,-125,4,2,27,5,0,0
96348,-125,4,2,27,68,0,0
96427,-125,4,2,27,5,0,0
96506,-125,4,2,27,68,0,0
96585,-125,4,2,27,17,0,0
96664,-125,4,2,27,68,0,0
96901,-125,4,2,27,5,0,0
96980,-125,4,2,27,68,0,0
97216,-125,4,2,27,5,0,0
97295,-125,4,2,27,68,0,0
97532,-125,4,2,27,5,0,0
97611,-125,4,2,27,68,0,0
97690,-125,4,2,27,17,0,0
97769,-125,4,2,27,68,0,0
97848,-125,4,2,27,17,0,0
97927,-125,4,2,27,68,0,0
98164,-125,4,2,27,5,0,0
98243,-125,4,2,27,68,0,0
98480,-125,4,2,27,5,0,0
98559,-125,4,2,27,67,0,0
98638,-125,4,2,27,7,0,0
98716,-125,4,2,27,67,0,0
98795,-125,4,2,27,7,0,0
98874,-125,4,2,27,67,0,0
98953,-125,4,2,27,7,0,0
99032,-125,4,2,27,68,0,0
99111,-125,4,2,27,17,0,0
99190,-125,4,2,27,66,0,0
99427,-125,4,2,27,5,0,0
99506,-125,4,2,27,68,0,0
99664,-125,4,2,27,48,0,0
99822,-117.647058823529,4,2,27,70,0,0
99980,-117.647058823529,4,2,27,58,0,0
100138,-111.111111111111,4,2,2,75,0,0
100216,-111.111111111111,4,2,27,75,0,0
100374,-111.111111111111,4,2,27,5,0,0
100453,-111.111111111111,4,2,27,73,0,0
100690,-111.111111111111,4,2,27,5,0,0
100769,-125,4,2,27,72,0,0
101006,-125,4,2,27,5,0,0
101085,-125,4,2,27,70,0,0
101322,-125,4,2,27,5,0,0
101401,-125,4,2,27,70,0,0
101480,-125,4,2,27,5,0,0
101559,-125,4,2,27,70,0,0
101638,-125,4,2,27,17,0,0
101716,-125,4,2,27,70,0,0
101953,-125,4,2,27,5,0,0
102032,-125,4,2,27,70,0,0
102269,-125,4,2,27,5,0,0
102348,-125,4,2,27,71,0,0
102585,-125,4,2,27,5,0,0
102664,-125,4,2,27,72,0,0
102743,-125,4,2,27,7,0,0
102822,-125,4,2,27,72,0,0
102901,-125,4,2,27,7,0,0
102980,-125,4,2,27,72,0,0
103059,-125,4,2,27,7,0,0
103138,-125,4,2,27,72,0,0
103216,-125,4,2,27,17,0,0
103295,-125,4,2,27,74,0,0
103532,-125,4,2,27,5,0,0
103611,-125,4,2,27,72,0,0
104164,-125,4,2,27,5,0,0
104243,-125,4,2,27,73,0,0
104480,-125,4,2,27,5,0,0
104559,-125,4,2,27,70,0,0
104795,-125,4,2,27,5,0,0
104874,-100,4,2,27,68,0,0
105190,-100,4,2,27,5,0,0

[Colours]
Combo1 : 127,120,210
Combo2 : 255,170,170
Combo3 : 193,185,236
Combo4 : 255,106,106
Combo5 : 163,158,233
Combo6 : 255,57,57

[HitObjects]
48,103,4138,6,0,B|50:68|89:68|89:68|70:92|73:123,1,94.2,2|0,0:0|0:0,0:0:0:0:
88,196,4611,2,0,B|56:211|37:177|37:177|67:182|92:164,1,94.2,2|0,0:0|0:0,0:0:0:0:
146,114,5085,2,0,B|175:133|155:167|155:167|144:138|116:125,1,94.2,2|0,0:0|0:0,0:0:0:0:
158,39,5559,2,0,P|198:14|257:43,1,94.2,2|0,0:0|0:0,0:0:0:0:
316,7,6032,2,0,P|341:47|312:106,1,94.2,2|0,0:0|0:0,0:0:0:0:
230,188,6506,6,0,B|244:167|238:142|238:142|244:167|279:181,1,94.2,2|0,0:0|0:0,0:0:0:0:
370,201,6980,2,0,B|344:199|326:217|326:217|344:199|339:162,1,94.2,2|0,0:0|0:0,0:0:0:0:
264,256,7453,2,0,B|275:278|299:285|299:285|275:278|245:301,1,94.2,2|0,0:0|0:0,0:0:0:0:
294,363,7927,2,0,P|338:370|371:338,1,94.2,2|0,0:0|0:0,0:0:0:0:
445,308,8401,2,0,P|452:263|420:230,1,94.2,2|0,0:0|0:0,0:0:0:0:
380,155,8874,70,0,B|352:166|341:197|341:197|334:150|381:153,1,125.6,2|0,0:0|0:0,0:0:0:0:
420,230,9348,1,0,0:0:0:0:
431,23,10138,5,2,0:0:0:0:
330,77,10295,1,2,0:0:0:0:
449,116,10453,2,0,B|477:127|488:158|488:158|495:111|448:114,1,125.6
162,195,11401,69,2,0:0:0:0:
254,265,11559,1,2,0:0:0:0:
183,351,11716,1,0,0:0:0:0:
189,344,11874,6,0,P|167:303|122:294,1,94.2,2|0,0:0|0:0,0:0:0:0:
254,265,12348,2,0,P|277:226|263:182,1,94.2,2|0,0:0|0:0,0:0:0:0:
352,296,12822,2,0,P|397:297|428:263,1,94.2,2|0,0:0|0:0,0:0:0:0:
401,51,13295,6,0,P|378:57|358:70,1,47.0999985626221,2|0,0:0|0:0,0:0:0:0:
393,179,13611,2,0,P|410:156|411:127,1,58.8750022459031
310,16,13927,2,0,B|274:0|243:28|243:28|245:62|209:81,1,117.75,12|0,0:0|0:0,0:0:0:0:
199,97,14243,6,0,B|154:99|133:58|133:58|123:56|123:56|148:74|150:122,1,157,6|0,0:0|0:0,0:0:0:0:
63,216,14716,2,0,P|40:164|70:116,1,117.75,2|0,0:0|0:0,0:0:0:0:
63,216,15190,2,0,P|121:226|175:250,1,117.75,2|0,0:0|0:0,0:0:0:0:
182,223,15506,1,0,3:2:0:0:
255,342,15664,2,0,P|310:330|336:279,1,117.75,2|0,0:0|0:0,0:0:0:0:
444,106,16138,70,0,P|400:145|367:193,1,117.75,2|0,3:2|0:0,0:0:0:0:
341,183,16453,1,0,3:2:0:0:
433,318,16611,1,2,0:0:0:0:
437,324,16689,1,0,0:0:0:0:
441,331,16768,1,0,0:0:0:0:
438,340,17085,6,0,P|473:296|452:244,1,117.75,2|0,0:0|0:0,0:0:0:0:
341,183,17559,2,0,P|305:139|326:87,1,117.75,2|0,0:0|0:0,0:0:0:0:
454,8,18032,70,0,P|489:51|468:103,1,117.75,2|0,0:0|0:0,0:0:0:0:
341,183,18506,2,0,P|305:226|326:278,1,117.75,2|0,0:0|0:0,0:0:0:0:
496,350,18980,2,0,P|459:361|414:381,1,78.5,2|0,0:0|3:2,0:0:0:0:
512,213,19295,1,8,3:0:0:0:
512,213,19611,5,0,3:2:0:0:
341,183,19769,1,0,3:2:0:0:
392,241,19927,1,0,3:2:0:0:
392,241,20243,69,2,0:0:0:0:
293,124,20401,1,2,0:0:0:0:
341,183,20559,2,0,P|378:176|398:144,1,78.5,0|0,3:2|0:0,0:0:0:0:
246,253,20874,2,0,P|208:246|188:214,1,78.5,0|0,3:2|0:0,0:0:0:0:
332,370,21190,2,0,P|352:332|377:301,1,78.5,0|0,3:2|0:0,0:0:0:0:
246,253,21506,5,2,0:0:0:0:
367,109,21664,2,0,P|351:145|340:182,1,78.5,2|0,0:0|3:2,0:0:0:0:
232,46,21980,70,0,B|184:3|131:50|131:50|133:86|104:105,1,157,2|0,0:0|3:2,0:0:0:0:
0,145,22453,2,0,B|44:136|62:181|62:181|54:236|112:253,1,157,2|0,0:0|0:0,0:0:0:0:
54,50,22927,1,2,0:0:0:0:
54,50,23401,6,0,B|65:49|72:36|72:36|115:23|127:85,1,94.1999971252442,4|8,2:1|2:1,0:0:0:0:
54,50,23874,70,0,P|37:64|11:78,1,31.4,10|0,2:1|0:0,0:0:0:0:
120,210,24032,6,0,B|165:182|164:128|133:85|65:111|83:149,1,176.625006737709,12|0,2:1|0:0,0:0:0:0:
124,289,24348,38,0,P|174:304|244:343,1,117.750004491806,14|2,3:2|0:0,0:0:0:0:
301,303,24822,1,2,0:0:0:0:
301,303,24980,2,0,P|321:286|357:279,2,58.8750022459031,2|2|2,0:0|0:0|0:0,0:0:0:0:
293,217,25453,1,2,0:0:0:0:
356,352,25611,2,0,B|369:355|379:370|379:370|408:345|443:342|443:342|476:288|403:284,1,158.962500606394,6|0,0:0|0:0,0:0:0:0:
427,274,25927,6,0,P|436:242|450:205,1,58.8750022459031,10|2,3:2|0:0,0:0:0:0:
366,151,26243,2,0,P|357:122|347:95,1,58.8750022459031,2|2,0:0|0:0,0:0:0:0:
451,17,26559,1,2,0:0:0:0:
449,23,26716,1,2,0:0:0:0:
366,151,26874,70,0,P|325:167|290:192,1,87.1350021273194,2|2,3:2|0:0,0:0:0:0:
194,54,27190,2,0,P|228:80|267:99,1,87.1350021273194,2|2,3:2|0:0,0:0:0:0:
183,248,27506,6,0,B|180:214|153:188|153:188|201:209|189:258,1,153.074992992783,2|0,0:0|0:0,0:0:0:0:
151,321,27822,70,0,B|120:335|84:325|84:325|126:356|162:321,1,153.074992992783,2|0,3:2|0:0,0:0:0:0:
233,315,28138,6,0,B|261:360|315:359|358:328|332:260|294:278,1,176.625006737709,6|0,0:0|0:0,0:0:0:0:
288,247,28453,70,0,P|299:212|340:199,1,58.8750022459031,10|2,3:2|0:0,0:0:0:0:
434,173,28769,2,0,P|406:163|382:146,1,58.8750022459031,2|2,0:0|0:0,0:0:0:0:
298,60,29085,1,2,0:0:0:0:
300,66,29242,1,2,0:0:0:0:
236,167,29401,6,0,P|188:186|118:232,2,117.750004491806,10|2|0,3:2|0:0|0:0,0:0:0:0:
149,117,30243,1,0,0:0:0:0:
149,117,30348,2,0,P|114:95|76:91,1,58.8750022459031,2|10,0:0|3:2,0:0:0:0:
243,51,30664,70,0,B|267:47|294:-2|294:-2|276:34|277:84,1,158.962500606394,4|0,0:0|0:0,0:0:0:0:
258,149,30980,6,0,P|283:166|302:190,1,61.2299996262817,10|0,3:2|0:0,0:0:0:0:
370,234,31295,2,0,P|340:256|327:316,1,88.3125033688546,2|0,0:0|0:0,0:0:0:0:
350,324,31611,1,2,0:0:0:0:
350,324,31769,1,2,0:0:0:0:
222,261,31927,70,0,B|161:283|161:283|103:247|149:205,1,150.72,10|0,3:2|0:0,0:0:0:0:
204,175,32243,6,0,P|203:142|183:115,1,68.295002084198,10|0,3:2|0:0,0:0:0:0:
151,49,32559,2,0,P|109:59|87:96,1,88.3125033688546,2|0,0:0|0:0,0:0:0:0:
68,85,32874,1,2,3:2:0:0:
68,85,33032,1,2,0:0:0:0:
274,205,33190,70,0,B|300:203|323:182|323:182|333:180|333:180|288:211|269:272,1,158.962500606394,4|0,0:0|0:0,0:0:0:0:
272,328,33506,6,0,P|297:349|331:353,1,68.295002084198,10|0,3:2|0:0,0:0:0:0:
407,367,33822,2,0,P|421:338|442:318,1,58.8750022459031,2|0,0:0|0:0,0:0:0:0:
500,251,34138,2,0,P|493:219|474:193,1,64.3700009822083,2|0,0:0|0:0,0:0:0:0:
384,134,34453,6,0,B|349:126|324:150|324:150|321:187|266:199,1,130.702503190979,14|0,3:2|0:0,0:0:0:0:
212,161,34769,1,2,0:0:0:0:
377,214,34874,1,2,0:0:0:0:
331,279,35032,2,0,P|285:290|240:307,1,72.2199975756226,2|0,0:0|0:0,0:0:0:0:
212,161,35401,2,0,P|218:144|234:111,2,48.1466650504151,2|0|0,0:0|0:0|0:0,0:0:0:0:
164,274,35716,1,4,0:0:0:0:
164,274,36032,6,0,P|118:289|77:315,1,96.5550014733124,10|0,3:2|0:0,0:0:0:0:
43,315,36348,2,0,P|9:292|23:200,1,141.300003449707,2|2,0:0|0:0,0:0:0:0:
164,274,36980,2,0,P|193:246|188:189,1,84.7800020698243,10|0,3:2|0:0,0:0:0:0:
142,153,37295,69,2,3:2:0:0:
297,103,37453,1,2,3:2:0:0:
244,48,37611,2,0,P|209:56|191:86,1,72.2199975756226,2|2,0:0|0:0,0:0:0:0:
271,229,37927,2,0,P|283:245|293:260,3,36.1099987878113,2|0|0|0,0:0|0:0|0:0|0:0,0:0:0:0:
297,103,38243,1,4,0:0:0:0:
297,103,38559,6,0,B|332:99|371:131|330:150|369:182|405:178,1,128.740001964417,10|0,3:2|0:0,0:0:0:0:
474,149,39032,1,2,0:0:0:0:
409,262,39190,1,2,0:0:0:0:
486,144,39348,1,2,0:0:0:0:
337,193,39506,69,10,3:2:0:0:
483,225,39664,1,0,0:0:0:0:
362,327,39822,2,0,P|329:339|296:355,1,72.2199975756226,2|2,0:0|0:0,0:0:0:0:
197,254,40138,5,2,0:0:0:0:
221,328,40295,1,2,0:0:0:0:
337,193,40453,69,2,0:0:0:0:
311,268,40610,1,0,3:0:0:0:
169,180,40769,6,0,P|135:168|100:175,1,72.2199975756226,6|2,0:0|0:0,0:0:0:0:
266,127,41085,1,10,3:2:0:0:
197,254,41243,1,2,0:0:0:0:
143,92,41401,70,0,P|131:54|120:16,1,72.2199975756226,2|2,0:0|0:0,0:0:0:0:
266,127,41716,2,0,P|321:143|366:160,1,84.7800020698243,2|0,0:0|0:0,0:0:0:0:
374,160,42032,6,0,P|413:126|399:77,1,108.329996363434,10|0,3:2|0:0,0:0:0:0:
412,50,42348,2,0,P|378:10|329:24,1,108.329996363434,8|0,3:2|0:0,0:0:0:0:
299,25,42664,2,0,P|235:35|133:68,1,144.439995151245,2|0,0:0|3:2,0:0:0:0:
75,121,43138,1,2,0:0:0:0:
68,119,43216,1,0,0:0:0:0:
61,116,43295,70,0,P|48:98|-2:52,1,72.2199975756226,6|2,0:0|3:2,0:0:0:0:
162,97,43611,1,10,3:2:0:0:
101,205,43769,2,0,P|75:252|56:303,1,108.329996363434,2|0,0:0|0:0,0:0:0:0:
32,309,44085,1,2,0:0:0:0:
152,266,44243,2,0,P|191:252|236:247,1,72.2199975756226,2|0,0:0|0:0,0:0:0:0:
303,151,44559,70,0,B|384:159|323:205|429:223,1,117.75,6|0,0:0|0:0,0:0:0:0:
471,207,44874,2,0,P|494:177|467:119,2,94.1999971252442,2|2|2,0:0|0:0|0:0,0:0:0:0:
442,279,45822,2,0,P|447:301|458:322,1,47.0999985626221,2|2,0:0|0:0,0:0:0:0:
395,214,46138,2,0,P|372:207|348:206,1,47.0999985626221,2|2,0:0|0:0,0:0:0:0:
478,126,46453,2,0,P|466:105|450:88,1,47.0999985626221,2|0,0:0|0:0,0:0:0:0:
259,257,46927,69,2,0:0:0:0:
259,257,47085,2,0,P|238:208|205:142,1,109.899996646118,2|2,0:0|0:0,0:0:0:0:
225,16,47559,1,2,0:0:0:0:
196,84,47716,2,0,P|169:98|146:120,1,54.9499983230591,2|2,0:0|0:0,0:0:0:0:
72,143,48032,6,0,P|46:133|26:110,1,58.8750022459031,2|2,0:0|0:0,0:0:0:0:
140,195,48348,2,0,P|153:237|127:330,1,117.750004491806,2|2,0:0|0:0,0:0:0:0:
140,308,48822,1,2,0:0:0:0:
193,365,48980,2,0,P|224:371|258:380,1,58.8750022459031,2|2,0:0|0:0,0:0:0:0:
304,270,49295,2,0,P|273:263|239:255,1,58.8750022459031,2|2,0:0|0:0,0:0:0:0:
387,370,49611,70,0,P|427:348|436:303,2,94.1999971252442,2|2|2,3:2|0:0|0:0,0:0:0:0:
435,303,50559,2,0,P|441:280|453:259,1,47.0999985626221,2|2,0:0|0:0,0:0:0:0:
363,217,50874,2,0,P|357:239|345:260,1,47.0999985626221,2|0,0:0|0:0,0:0:0:0:
431,159,51190,6,0,P|453:156|482:143,1,47.0999985626221,2|2,0:0|0:0,0:0:0:0:
364,336,51506,2,0,P|340:339|319:348,1,47.0999985626221,2|0,0:0|0:0,0:0:0:0:
230,277,51822,69,2,0:0:0:0:
232,283,51979,1,2,0:0:0:0:
197,352,52138,1,2,0:0:0:0:
315,255,52295,6,0,B|320:251|328:251|328:251|349:217|307:159|241:178,1,138.160004216309,2|2,0:0|0:0,0:0:0:0:
218,112,52769,1,2,0:0:0:0:
145,216,52927,70,0,B|120:242|88:246|88:246|123:262|154:218,1,138.160004216309,2|2,0:0|0:0,0:0:0:0:
84,163,53401,1,2,0:0:0:0:
13,286,53559,6,0,P|61:332|128:328,1,138.160004216309,2|2,0:0|0:0,0:0:0:0:
194,363,54032,1,2,0:0:0:0:
294,289,54190,2,0,P|313:226|345:134,1,138.160004216309,2|2,0:0|0:0,0:0:0:0:
437,44,54664,6,0,B|481:15|520:51|511:109|451:137|382:105|430:77|382:32|305:62,1,261.405006381958,2|2,3:2|0:0,0:0:0:0:
262,117,55295,2,0,P|226:133|193:155,1,78.5,2|0,3:2|0:0,0:0:0:0:
152,221,55611,2,0,P|113:215|88:186,1,78.5,2|0,0:0|0:0,0:0:0:0:
266,200,55927,6,0,P|270:230|257:259,1,62.8,2|2,3:2|0:0,0:0:0:0:
152,221,56243,2,0,P|139:192|143:161,1,62.8,2|0,0:0|0:0,0:0:0:0:
236,328,56559,70,0,P|208:338|182:351,1,58.8750022459031,2|0,3:2|0:0,0:0:0:0:
266,200,56874,2,0,P|293:210|319:223,1,58.8750022459031,2|2,0:0|0:0,0:0:0:0:
391,314,57190,6,0,P|423:306|445:282,1,66.7250012726784,2|0,3:2|0:0,0:0:0:0:
508,230,57506,2,0,P|500:197|476:175,1,66.7250012726784,2|0,0:0|0:0,0:0:0:0:
391,314,57822,70,0,P|406:341|417:370,1,62.8,2|2,3:2|0:0,0:0:0:0:
476,175,58138,2,0,P|486:145|502:118,1,62.8,2|0,0:0|0:0,0:0:0:0:
399,23,58453,6,0,P|366:10|334:15,1,58.8750022459031,2|0,3:2|0:0,0:0:0:0:
328,90,58769,2,0,P|354:102|383:101,1,58.8750022459031,2|2,0:0|0:0,0:0:0:0:
255,40,59085,70,0,P|222:52|201:80,1,70.6499978439332,2|0,3:2|0:0,0:0:0:0:
116,119,59401,2,0,P|110:153|124:185,1,70.6499978439332,2|0,0:0|0:0,0:0:0:0:
209,295,59716,6,0,P|231:282|256:276,1,52.3333333333333,2|8,3:2|2:1,0:0:0:0:
313,225,59927,1,8,2:1:0:0:
308,215,60032,2,0,P|314:189|331:170,2,52.3333333333333,2|8|8,0:0|2:1|2:1,0:0:0:0:
329,305,60348,1,2,3:2:0:0:
336,312,60453,2,0,P|361:317|384:329,1,52.3333333333333,8|8,2:1|2:1,0:0:0:0:
447,378,60664,2,0,P|493:357|506:309,1,104.666666666667,2|8,0:0|2:1,0:0:0:0:
512,218,60980,70,0,P|484:173|466:124,1,104.666666666667,2|8,3:2|2:1,0:0:0:0:
481,49,61295,2,0,P|461:32|435:28,1,52.3333333333333,2|8,0:0|2:1,0:0:0:0:
368,72,61506,1,8,2:1:0:0:
357,73,61611,2,0,P|333:61|317:41,2,52.3333333333333,2|8|8,3:2|2:1|2:1,0:0:0:0:
395,148,61927,5,2,0:0:0:0:
375,194,62032,1,8,2:1:0:0:
327,208,62137,1,8,2:1:0:0:
244,149,62243,70,0,P|218:135|190:129,1,52.3333333333333,2|0,3:2|0:0,0:0:0:0:
191,209,62453,2,0,P|166:224|147:245,1,52.3333333333333,8|0,2:1|0:0,0:0:0:0:
214,280,62664,2,0,P|215:309|224:336,1,52.3333333333333,8|0,2:1|0:0,0:0:0:0:
301,289,62874,6,0,P|324:276|355:267,1,52.3333333333333,2|0,3:2|0:0,0:0:0:0:
375,194,63085,2,0,P|398:207|422:229,1,52.3333333333333,8|0,2:1|0:0,0:0:0:0:
494,206,63295,2,0,P|494:232|487:263,1,52.3333333333333,8|0,2:1|0:0,0:0:0:0:
422,367,63506,69,2,0:0:0:0:
512,94,64769,38,0,B|462:90|432:35|432:35|421:29|421:29|462:73|437:130,1,204.099990657044,14|2,3:2|3:2,0:0:0:0:
265,222,65243,1,0,3:0:0:0:
218,159,65401,2,0,P|251:123|301:126,1,102.049995328522,4|0,3:2|3:0,0:0:0:0:
458,274,65716,70,0,B|422:264|422:264|341:293|341:293|312:283,1,153.074992992783,2|0,3:2|0:0,0:0:0:0:
265,222,66032,1,10,3:2:0:0:
108,298,66190,1,0,3:0:0:0:
42,261,66348,2,0,P|22:211|58:158,1,102.049995328522,0|0,3:0|3:0,0:0:0:0:
100,48,66664,6,0,B|150:4|213:54|213:54|181:101|245:149,1,204.099990657044,6|2,3:2|3:2,0:0:0:0:
439,48,67138,1,0,3:0:0:0:
385,0,67295,2,0,P|341:23|336:72,1,102.049995328522,8|0,3:2|3:0,0:0:0:0:
463,256,67611,70,0,B|509:252|511:202|511:202|489:234|431:245,1,153.074992992783,2|0,3:2|0:0,0:0:0:0:
398,319,67927,2,0,B|366:351|313:343|288:296|315:260|346:269,1,153.074992992783,6|0,3:2|0:0,0:0:0:0:
370,185,68243,6,0,B|340:149|374:112|374:112|367:151|400:199,1,153.074992992783,2|0,3:2|0:0,0:0:0:0:
309,249,68559,2,0,P|236:274|169:311,1,153.074992992783,10|0,3:2|0:0,0:0:0:0:
90,299,68874,70,0,P|68:229|123:183,1,153.074992992783,2|0,3:2|0:0,0:0:0:0:
203,121,69190,6,0,B|215:79|179:39|151:41|151:41|168:59|169:87,1,153.074992992783,6|0,3:2|0:0,0:0:0:0:
284,156,69506,2,0,B|322:135|325:81|304:63|304:63|303:88|284:108,1,153.074992992783,2|0,3:2|0:0,0:0:0:0:
371,308,69822,70,0,B|408:274|465:289|465:289|503:234|469:194,1,204.099990657044,14|2,3:2|3:2,0:0:0:0:
325,57,70295,1,0,3:0:0:0:
376,1,70453,2,0,P|420:21|431:69,1,102.049995328522,4|0,3:2|3:0,0:0:0:0:
296,259,70769,6,0,B|227:244|227:244|219:247|219:247|143:230,1,153.074992992783,2|0,3:2|0:0,0:0:0:0:
93,175,71085,1,10,3:2:0:0:
325,57,71243,1,0,3:0:0:0:
208,7,71401,2,0,B|220:53|220:53|223:58|223:58|240:120,1,102.049995328522,0|0,3:0|3:0,0:0:0:0:
296,259,71716,70,0,B|334:239|341:169|341:169|344:169|344:169|335:240|380:282,1,204.099990657044,6|2,3:2|3:2,0:0:0:0:
346,144,72190,1,0,3:0:0:0:
296,259,72348,2,0,P|253:284|207:267,1,102.049995328522,8|0,3:2|3:0,0:0:0:0:
346,144,72664,6,0,B|378:112|370:59|323:34|287:61|296:92,1,153.074992992783,2|0,3:2|0:0,0:0:0:0:
296,259,72980,2,0,P|347:286|388:329,1,102.049995328522,6|0,3:2|3:0,0:0:0:0:
478,146,73295,2,0,B|471:132|457:124|457:124|496:129|497:190,1,102.049995328522,2|0,3:2|3:0,0:0:0:0:
402,329,73611,70,0,P|366:362|316:357,1,102.049995328522,10|0,3:2|3:0,0:0:0:0:
236,381,73927,2,0,P|202:345|207:295,1,102.049995328522,2|0,3:2|3:0,0:0:0:0:
276,165,74243,6,0,P|256:124|214:108,1,92.6299967491304,6|0,3:2|3:0,0:0:0:0:
181,38,74559,2,0,P|135:34|100:63,1,92.6299967491304,2|0,3:2|3:2,0:0:0:0:
54,247,74874,38,0,B|100:264|151:234|124:209|175:180|229:203|204:232|259:256|312:232,1,274.75,14|0,3:2|0:0,0:0:0:0:
378,194,75506,6,0,B|385:164|419:166|419:166|394:176|384:201,1,105.9749967659,6|0,3:2|0:0,0:0:0:0:
383,274,75822,70,0,P|408:311|453:318,1,94.2,2|0,3:2|0:0,0:0:0:0:
481,302,76138,2,0,P|442:317|426:349,1,62.8,10|0,3:2|3:2,0:0:0:0:
367,372,76453,2,0,P|336:377|309:363,1,62.8,2|0,3:2|3:2,0:0:0:0:
230,261,76769,6,0,P|244:213|263:152,1,94.2,6|0,3:2|0:0,0:0:0:0:
242,145,77085,2,0,P|246:179|301:206,1,94.2,2|0,3:2|0:0,0:0:0:0:
363,236,77401,70,0,P|390:220|420:210,1,62.8,10|0,3:2|3:2,0:0:0:0:
369,83,77716,2,0,P|341:98|311:108,1,62.8,0|2,3:2|3:2,0:0:0:0:
158,47,78032,6,0,P|111:37|55:24,1,94.2,6|0,3:2|0:0,0:0:0:0:
48,0,78348,2,0,P|82:32|78:79,1,94.2,2|0,3:2|0:0,0:0:0:0:
26,126,78664,69,10,3:2:0:0:
66,241,78822,2,0,B|146:261|93:285|176:306,1,125.6,2|0,3:2|3:2,0:0:0:0:
335,198,79295,6,0,P|324:228|316:258,1,62.8,6|0,3:2|3:2,0:0:0:0:
204,192,79611,1,0,3:2:0:0:
236,262,79769,1,2,3:2:0:0:
326,336,79927,70,0,B|403:316|350:292|430:272,1,125.6,10|2,3:2|3:2,0:0:0:0:
500,302,80401,1,0,3:2:0:0:
406,201,80559,2,0,P|418:169|447:151,1,65.939997987671,4|2,3:2|3:2,0:0:0:0:
487,86,80874,1,0,3:2:0:0:
487,86,81032,1,0,3:2:0:0:
362,13,81190,6,0,B|287:-3|244:64|285:82|243:150|151:134,1,247.274992453766,10|0,3:2|0:0,0:0:0:0:
106,96,81822,70,0,B|113:80|131:71|131:71|94:79|93:125,1,105.9749967659,4|0,3:2|0:0,0:0:0:0:
82,201,82138,6,0,P|121:223|166:271,1,105.9749967659,2|0,3:2|0:0,0:0:0:0:
216,321,82453,70,0,P|195:348|161:357,1,70.6499978439332,8|0,3:2|3:2,0:0:0:0:
84,384,82769,2,0,P|56:363|47:329,1,70.6499978439332,2|0,3:2|3:2,0:0:0:0:
11,172,83085,6,0,P|41:130|92:122,1,105.9749967659,6|0,3:2|0:0,0:0:0:0:
152,172,83401,70,0,P|187:179|236:199,1,70.6499978439332,2|0,3:2|3:2,0:0:0:0:
352,108,83716,2,0,P|366:74|385:43,1,73.0050022836343,10|0,3:2|3:2,0:0:0:0:
407,285,84032,2,0,P|445:330|499:316,1,109.507503425451,10|0,3:2|0:0,0:0:0:0:
511,300,84348,6,0,P|473:312|451:348,1,78.5,6|0,3:2|3:2,0:0:0:0:
245,119,84664,2,0,P|210:112|166:96,1,78.5,8|0,3:0|3:2,0:0:0:0:
13,263,84980,6,0,B|40:289|40:289|91:283|91:283|99:275|99:275|147:270|147:270|177:295,1,176.625006737709,14|0,3:2|0:0,0:0:0:0:
279,374,85295,2,0,B|343:349|343:349|365:286|365:286|309:309,1,176.625006737709,2|0,0:0|0:0,0:0:0:0:
229,195,85611,2,0,L|248:100,1,94.2,4|0,3:2|0:0,0:0:0:0:
207,33,85927,5,10,3:2:0:0:
368,116,86085,1,0,0:0:0:0:
229,195,86243,1,2,0:0:0:0:
347,18,86401,70,0,L|359:79,1,58.8750022459031,8|0,3:2|0:0,0:0:0:0:
467,223,86559,2,0,B|514:211|530:153|503:119|503:119|495:148|468:164,1,176.625006737709,8|0,3:2|0:0,0:0:0:0:
393,266,86874,6,0,B|351:257|351:257|318:269|318:269|266:258,1,117.750004491806,6|0,3:2|0:0,0:0:0:0:
138,111,87190,2,0,B|148:50|201:49|201:49|162:79|166:131,1,176.625006737709,2|0,3:2|0:0,0:0:0:0:
133,186,87506,70,0,P|118:197|73:195,1,58.8750022459031,8|0,3:2|0:0,0:0:0:0:
209,47,87664,2,0,P|226:54|246:94,1,58.8750022459031,0|0,3:2|0:0,0:0:0:0:
278,260,87822,6,0,B|266:271|266:271|188:283|188:283|133:332|201:358,1,176.625006737709,2|0,3:2|0:0,0:0:0:0:
256,374,88138,2,0,B|286:324|244:276|247:307|202:270|231:201,1,176.625006737709,6|0,3:2|0:0,0:0:0:0:
228,135,88453,70,0,B|256:123|270:82|270:82|255:124|281:155,1,141.299995687866,2|0,3:2|0:0,0:0:0:0:
226,212,88769,2,0,P|172:236|124:269,1,117.75,2|0,0:0|0:0,0:0:0:0:
47,256,89085,6,0,P|20:194|67:148,1,129.525003952789,10|0,3:2|0:0,0:0:0:0:
226,212,89401,70,0,B|264:193|294:218|294:218|288:248|302:276|345:283,1,141.299995687866,6|0,3:2|0:0,0:0:0:0:
358,344,89716,2,0,P|420:318|431:251,1,141.299995687866,10|0,3:2|0:0,0:0:0:0:
355,81,90032,6,0,B|393:96|393:96|307:132|307:132|266:112,1,176.625006737709,14|0,3:2|0:0,0:0:0:0:
134,21,90348,2,0,B|128:29|128:29|37:51|37:51|80:44|114:67,1,176.625006737709,2|0,3:2|0:0,0:0:0:0:
226,212,90664,2,0,B|213:253|161:272|114:243|121:210|149:199,1,141.299995687866,4|0,3:2|0:0,0:0:0:0:
177,144,90980,69,10,3:2:0:0:
267,323,91138,1,0,0:0:0:0:
66,258,91295,1,2,0:0:0:0:
293,68,91453,6,0,L|278:125,1,58.8750022459031,8|0,3:2|0:0,0:0:0:0:
226,212,91611,2,0,B|261:186|273:139|273:139|278:140|278:140|266:187|293:227,1,176.625006737709,8|0,3:2|0:0,0:0:0:0:
468,344,91927,70,0,B|428:336|428:336|388:352|388:352|355:345,1,117.750004491806,6|0,3:2|0:0,0:0:0:0:
226,212,92243,2,0,B|213:232|213:232|135:251|135:251|84:293|171:324,1,176.625006737709,2|0,3:2|0:0,0:0:0:0:
184,368,92559,6,0,P|207:365|236:338,1,58.8750022459031,10|0,3:2|0:0,0:0:0:0:
162,108,92716,2,0,P|153:129|161:168,1,58.8750022459031,0|0,3:2|0:0,0:0:0:0:
369,232,92874,70,0,P|354:213|317:201,1,58.8750022459031,2|0,3:2|0:0,0:0:0:0:
90,277,93032,2,0,P|109:299|137:308,1,58.8750022459031,0|0,3:2|0:0,0:0:0:0:
292,119,93190,6,0,B|297:70|249:35|207:48|207:48|232:65|237:96,1,176.625006737709,6|0,3:2|0:0,0:0:0:0:
90,277,93506,2,0,B|51:227|79:169|130:159|163:206|145:231,1,176.625006737709,0|0,3:2|0:0,0:0:0:0:
160,297,93822,69,2,3:2:0:0:
322,201,93980,1,8,3:2:0:0:
326,197,94059,1,8,3:2:0:0:
330,193,94138,2,0,B|366:166|406:179|419:213|419:213|393:263|457:297,1,176.625006737709,10|0,3:2|0:0,0:0:0:0:
498,233,94453,6,0,B|442:227|423:268|444:278|426:319|355:312,1,153.074992992783,14|0,3:2|0:0,0:0:0:0:
324,370,94769,2,0,P|269:341|267:279,1,129.525003952789,10|0,3:2|0:0,0:0:0:0:
472,135,95085,38,0,B|405:162|367:135|385:112|339:85|289:106|303:131|262:152|192:115,1,274.75,4|0,3:2|0:0,0:0:0:0:
149,81,95716,6,0,B|157:63|180:52|180:52|142:50|137:92,1,105.9749967659,4|0,0:0|0:0,0:0:0:0:
148,164,96032,70,0,P|116:196|70:194,1,94.2,10|0,3:2|0:0,0:0:0:0:
38,129,96348,1,2,0:0:0:0:
136,266,96506,6,0,L|127:235,1,31.4,8|0,3:2|0:0,0:0:0:0:
148,164,96664,70,0,B|206:165|169:197|230:199,1,94.2,10|0,3:2|0:0,0:0:0:0:
329,128,96980,2,0,B|329:115|345:106|345:106|307:113|309:176,1,94.2,6|0,0:0|0:0,0:0:0:0:
352,224,97295,2,0,P|397:234|441:251,1,94.2,10|0,3:2|0:0,0:0:0:0:
465,268,97611,6,0,P|467:283|477:299,1,31.4,10|0,3:2|0:0,0:0:0:0:
426,358,97769,2,0,P|411:353|396:353,1,31.4,8|0,3:2|0:0,0:0:0:0:
352,224,97927,70,0,P|378:190|407:133,1,94.2,10|0,3:2|0:0,0:0:0:0:
342,33,98243,2,0,B|284:41|324:69|264:78,1,94.2,4|0,0:0|0:0,0:0:0:0:
205,35,98559,1,10,3:2:0:0:
286,153,98716,6,0,L|269:201,1,31.4,4|0,0:0|0:0,0:0:0:0:
217,229,98874,1,0,0:0:0:0:
325,342,99032,2,0,L|314:312,1,31.4,12|0,3:2|0:0,0:0:0:0:
217,229,99190,70,0,P|183:256|116:237,1,94.2,10|0,3:2|0:0,0:0:0:0:
79,122,99506,6,0,P|112:140|119:186,1,62.8,6|0,0:0|0:0,0:0:0:0:
9,318,99822,2,0,P|31:293|62:281,1,66.7250012726784,8|8,3:2|3:2,0:0:0:0:
217,137,100138,70,0,P|250:148|285:152,1,70.6499978439332,12|0,3:2|0:0,0:0:0:0:
325,342,100453,2,0,P|291:330|256:326,1,70.6499978439332,8|0,3:2|0:0,0:0:0:0:
415,146,100769,6,0,B|423:127|453:121|453:121|430:135|417:170,1,94.2,4|0,0:0|0:0,0:0:0:0:
391,219,101085,70,0,P|423:251|469:249,1,94.2,10|0,3:2|0:0,0:0:0:0:
501,184,101401,1,0,0:0:0:0:
403,321,101559,6,0,L|412:290,1,31.4,8|0,3:2|0:0,0:0:0:0:
391,219,101717,70,0,B|333:220|370:252|309:254,1,94.2,8|0,3:2|0:0,0:0:0:0:
230,169,102032,6,0,B|233:154|245:141|245:141|210:148|208:205,1,94.2,6|0,0:0|0:0,0:0:0:0:
173,259,102348,2,0,P|201:296|224:337,1,94.2,10|0,3:2|0:0,0:0:0:0:
289,369,102664,70,0,P|302:359|311:346,1,31.4,10|0,3:2|0:0,0:0:0:0:
373,299,102822,2,0,P|371:283|364:269,1,31.4,0|0,3:2|0:0,0:0:0:0:
230,169,102980,1,2,3:2:0:0:
263,237,103138,1,0,3:2:0:0:
415,120,103295,2,0,B|415:107|399:98|399:98|437:105|435:168,1,94.2,6|0,0:0|0:0,0:0:0:0:
391,219,103611,6,0,B|312:219|279:266|320:284|285:345|205:337,1,219.8,10|0,3:2|0:0,0:0:0:0:
112,203,104243,2,0,P|146:233|150:279,1,94.2,10|0,3:2|0:0,0:0:0:0:
104,339,104559,2,0,P|74:349|47:365,1,62.8,4|0,0:0|0:0,0:0:0:0:
112,203,104874,70,0,B|134:169|125:122|75:100|36:140|52:172,1,157,10|0,3:2|0:0,0:0:0:0:
