osu file format v14

[General]
AudioFilename: audio.mp3
AudioLeadIn: 0
PreviewTime: 64612
Countdown: 0
SampleSet: Soft
StackLeniency: 0.7
Mode: 0
LetterboxInBreaks: 0
WidescreenStoryboard: 1

[Editor]
DistanceSpacing: 0.9
BeatDivisor: 8
GridSize: 16
TimelineZoom: 1.7

[Metadata]
Title:White Midnight (Anime Version)
TitleUnicode:白夜 (アニメ・ヴァージョン)
Artist:Reol
ArtistUnicode:Reol
Creator:Esutarosa
Version:Easy
Source:白夜極光
Tags:pop jpop j-pop japanese れをる byakuya kyokkou kujinn reform shime anime game alchemy stars ost official soundtrack ver mobile smartphone video opening intro theme song
BeatmapID:3322855
BeatmapSetID:1627637

[Difficulty]
HPDrainRate:3
CircleSize:2.5
OverallDifficulty:3
ApproachRate:4
SliderMultiplier:1.6
SliderTickRate:0.5

[Events]
//Background and Video events
0,0,"bg.jpg",0,0
Video,0,"video.mp4"
//Break Periods
//Storyboard Layer 0 (Background)
//Storyboard Layer 1 (Fail)
//Storyboard Layer 2 (Pass)
//Storyboard Layer 3 (Foreground)
//Storyboard Layer 4 (Overlay)
//Storyboard Sound Samples

[TimingPoints]
4138,631.578947368421,4,2,1,32,1,0
13295,-100,4,3,1,32,0,0
14243,-100,4,2,91,62,0,0
14559,-100,4,2,1,62,0,0
14716,-100,4,2,1,60,0,0
15190,-100,4,2,1,60,0,0
15664,-100,4,2,1,60,0,0
16138,-100,4,2,1,60,0,0
16611,-100,4,2,1,60,0,0
17085,-100,4,2,1,60,0,0
17559,-100,4,2,1,60,0,0
18032,-100,4,2,1,62,0,0
18506,-100,4,2,1,63,0,0
18980,-100,4,2,1,64,0,0
20243,-100,4,2,1,66,0,0
20559,-100,4,2,1,66,0,0
21190,-100,4,2,1,66,0,0
21506,-100,4,2,1,68,0,0
21980,-100,4,2,1,68,0,0
22453,-100,4,2,1,68,0,0
22927,-100,4,2,1,64,0,0
23401,-100,4,1,44,64,0,0
23874,-100,4,1,23,64,0,0
24032,-100,4,1,32,64,0,0
24348,-100,4,2,1,48,0,0
25611,-100,4,2,27,48,0,0
25690,-100,4,2,1,48,0,0
25927,-100,4,2,1,48,0,0
26874,-100,4,2,1,48,0,0
27190,-100,4,2,1,48,0,0
27506,-100,4,2,1,48,0,0
27822,-100,4,2,1,48,0,0
28138,-100,4,2,27,52,0,0
28216,-100,4,2,1,52,0,0
28453,-100,4,2,1,55,0,0
28769,-100,4,2,1,48,0,0
29401,-100,4,2,1,50,0,0
30032,-100,4,2,1,48,0,0
30664,-100,4,2,27,56,0,0
30743,-100,4,2,1,56,0,0
30980,-100,4,2,1,54,0,0
31295,-100,4,2,1,48,0,0
31927,-100,4,2,1,56,0,0
32243,-100,4,2,1,54,0,0
32559,-100,4,2,1,52,0,0
32874,-100,4,2,1,52,0,0
33111,-100,4,2,27,52,0,0
33190,-100,4,2,27,52,0,0
33269,-100,4,2,1,52,0,0
33506,-100,4,2,1,54,0,0
33822,-100,4,2,1,48,0,0
34453,-100,4,2,1,58,0,0
35401,-100,4,2,1,46,0,0
35716,-100,4,2,27,58,0,0
35795,-100,4,2,1,58,0,0
36032,-100,4,2,1,58,0,0
36348,-100,4,2,1,58,0,0
36980,-100,4,2,1,58,0,0
37295,-100,4,2,1,58,0,0
37611,-100,4,2,1,58,0,0
37927,-100,4,2,1,46,0,0
38243,-100,4,2,27,58,0,0
38322,-100,4,2,1,58,0,0
38559,-100,4,2,1,58,0,0
39190,-100,4,2,1,60,0,0
40769,-100,4,2,27,60,0,0
40848,-100,4,2,1,60,0,0
42032,-100,4,2,1,60,0,0
42664,-100,4,2,1,60,0,0
43295,-100,4,2,27,60,0,0
43374,-100,4,2,1,60,0,0
43611,-100,4,2,1,48,0,0
44243,-100,4,2,1,60,0,0
44559,-100,4,2,91,68,0,0
44638,-100,4,2,1,68,0,0
45190,-100,4,2,1,58,0,0
45506,-100,4,2,1,68,0,0
45822,-100,4,2,1,68,0,0
46138,-100,4,2,1,68,0,0
46453,-100,4,2,1,68,0,0
47085,-100,4,2,1,68,0,0
48032,-100,4,2,1,68,0,0
49611,-100,4,2,1,68,0,0
50243,-100,4,2,1,68,0,0
50559,-100,4,2,1,68,0,0
50874,-100,4,2,1,68,0,0
51190,-100,4,2,1,68,0,0
51506,-100,4,2,1,68,0,0
51822,-100,4,2,1,68,0,0
54664,-100,4,2,1,74,0,0
55295,-100,4,2,1,74,0,0
55927,-100,4,2,1,74,0,0
56559,-100,4,2,1,74,0,0
57190,-100,4,2,1,74,0,0
57822,-100,4,2,1,74,0,0
58453,-100,4,2,1,74,0,0
59085,-100,4,2,1,74,0,0
59401,-100,4,2,1,74,0,0
59716,-100,4,2,1,74,0,0
60348,-100,4,2,1,74,0,0
60980,-100,4,2,1,74,0,0
61611,-100,4,2,1,74,0,0
62243,-100,4,2,1,74,0,0
63506,-100,4,2,1,74,0,0
64769,-100,4,2,2,82,0,1
64848,-100,4,2,27,82,0,1
65085,-100,4,2,27,82,0,1
65401,-100,4,2,27,82,0,1
65716,-100,4,2,27,82,0,1
66032,-100,4,2,27,82,0,1
66348,-100,4,2,27,82,0,1
66664,-100,4,2,27,82,0,1
66980,-100,4,2,27,82,0,1
67295,-100,4,2,27,82,0,1
67611,-100,4,2,27,82,0,1
67769,-100,4,2,27,82,0,1
67927,-100,4,2,27,82,0,1
68243,-100,4,2,27,82,0,1
68559,-100,4,2,27,82,0,1
68874,-100,4,2,27,82,0,1
69190,-100,4,2,27,82,0,1
69506,-100,4,2,27,82,0,1
69822,-100,4,2,2,82,0,1
69901,-100,4,2,27,82,0,1
70138,-100,4,2,27,82,0,1
70453,-100,4,2,27,82,0,1
70769,-100,4,2,27,82,0,1
71085,-100,4,2,27,82,0,1
71401,-100,4,2,27,82,0,1
71716,-100,4,2,27,82,0,1
72032,-100,4,2,27,82,0,1
72348,-100,4,2,27,82,0,1
72664,-100,4,2,27,82,0,1
72980,-100,4,2,27,82,0,1
73295,-100,4,2,27,80,0,1
73611,-100,4,2,27,78,0,1
73927,-100,4,2,27,76,0,1
74243,-100,4,2,27,74,0,1
74559,-100,4,2,27,73,0,1
74874,-100,4,2,2,68,0,0
74953,-100,4,2,27,68,0,0
75822,-100,4,2,27,68,0,0
76138,-100,4,2,27,68,0,0
76453,-100,4,2,27,67,0,0
76769,-100,4,2,27,66,0,0
77085,-100,4,2,27,65,0,0
77401,-100,4,2,27,64,0,0
77874,-100,4,2,27,48,0,0
78348,-100,4,2,27,64,0,0
78664,-100,4,2,27,64,0,0
79295,-100,4,2,27,64,0,0
79611,-100,4,2,27,64,0,0
79927,-100,4,2,27,64,0,0
80243,-100,4,2,27,64,0,0
80559,-100,4,2,27,64,0,0
81190,-100,4,2,27,65,0,0
81822,-100,4,2,27,66,0,0
82138,-100,4,2,27,66,0,0
82453,-100,4,2,27,68,0,0
83085,-100,4,2,27,70,0,0
83401,-100,4,2,27,70,0,0
83716,-100,4,2,27,70,0,0
84032,-100,4,2,27,70,0,0
84348,-100,4,2,27,77,0,0
84664,-100,4,2,1,79,0,0
84743,-100,4,2,27,79,0,0
84980,-100,4,2,91,88,0,1
85059,-100,4,2,27,88,0,1
85295,-100,4,2,27,88,0,1
85611,-100,4,2,27,88,0,1
85927,-100,4,2,27,88,0,1
86243,-100,4,2,27,88,0,1
86559,-100,4,2,27,88,0,1
86874,-100,4,2,27,88,0,1
87190,-100,4,2,27,88,0,1
87506,-100,4,2,27,88,0,1
87822,-100,4,2,27,88,0,1
88138,-100,4,2,27,88,0,1
88453,-100,4,2,27,88,0,1
88769,-100,4,2,27,88,0,1
89085,-100,4,2,27,88,0,1
89401,-100,4,2,27,88,0,1
89716,-100,4,2,27,88,0,1
90032,-100,4,2,2,88,0,1
90111,-100,4,2,27,88,0,1
90348,-100,4,2,27,88,0,1
90664,-100,4,2,27,88,0,1
90980,-100,4,2,27,88,0,1
91295,-100,4,2,27,88,0,1
91611,-100,4,2,27,88,0,1
91927,-100,4,2,27,88,0,1
92243,-100,4,2,27,88,0,1
92559,-100,4,2,27,88,0,1
92874,-100,4,2,27,88,0,1
93190,-100,4,2,27,88,0,1
93506,-100,4,2,27,88,0,1
93822,-100,4,2,27,85,0,1
94138,-100,4,2,27,85,0,1
94453,-100,4,2,27,82,0,1
94769,-100,4,2,27,79,0,1
95085,-100,4,2,1,68,0,0
95164,-100,4,2,27,68,0,0
95716,-100,4,2,27,68,0,0
96032,-100,4,2,27,68,0,0
96348,-100,4,2,27,68,0,0
96664,-100,4,2,27,68,0,0
96980,-100,4,2,27,68,0,0
97295,-100,4,2,27,68,0,0
97611,-100,4,2,27,68,0,0
97927,-100,4,2,27,68,0,0
98243,-100,4,2,27,68,0,0
98559,-100,4,2,27,67,0,0
98874,-100,4,2,27,67,0,0
99190,-100,4,2,27,66,0,0
99506,-100,4,2,27,68,0,0
99822,-100,4,2,27,70,0,0
100138,-100,4,2,2,75,0,0
100216,-100,4,2,27,75,0,0
100453,-100,4,2,27,73,0,0
100769,-100,4,2,27,72,0,0
101085,-100,4,2,27,70,0,0
101716,-100,4,2,27,70,0,0
102032,-100,4,2,27,70,0,0
102348,-100,4,2,27,71,0,0
102664,-100,4,2,27,72,0,0
102980,-100,4,2,27,72,0,0
103295,-100,4,2,27,74,0,0
103611,-100,4,2,27,72,0,0
104243,-100,4,2,27,73,0,0
104559,-100,4,2,27,70,0,0
104874,-100,4,2,27,68,0,0
105190,-100,4,2,27,5,0,0

[Colours]
Combo1 : 127,120,210
Combo2 : 255,170,170
Combo3 : 193,185,236
Combo4 : 255,106,106
Combo5 : 163,158,233
Combo6 : 255,57,57

[HitObjects]
175,44,14243,54,0,P|202:95|259:106,1,120,6|2,0:0|0:0,0:0:0:0:
389,80,15190,2,0,P|446:90|473:142,1,120,2|2,0:0|0:0,0:0:0:0:
434,268,16138,1,2,3:2:0:0:
331,351,16611,70,0,P|272:358|213:367,1,120,2|2,0:0|0:0,0:0:0:0:
102,293,17559,2,0,P|61:335|3:336,2,120,2|2|2,0:0|0:0|0:0,0:0:0:0:
48,172,18980,1,2,0:0:0:0:
87,93,19295,1,8,3:0:0:0:
343,156,20243,5,2,0:0:0:0:
409,212,20559,2,0,P|439:237|478:241,2,80,0|0|0,3:2|3:2|3:2,0:0:0:0:
471,149,21506,1,2,0:0:0:0:
381,51,21980,2,0,P|322:60|242:81,2,120,2|2|2,0:0|0:0|0:0,0:0:0:0:
383,364,24348,38,0,P|313:338|214:334,1,160,14|2,3:2|0:0,0:0:0:0:
53,314,25611,1,6,0:0:0:0:
24,230,25927,2,0,P|30:194|44:149,1,80,10|2,3:2|0:0,0:0:0:0:
146,9,26874,5,2,3:2:0:0:
203,82,27190,2,0,P|233:107|272:111,2,80,2|2|2,3:2|0:0|3:2,0:0:0:0:
265,19,28138,1,6,0:0:0:0:
350,37,28453,2,0,P|384:16|422:6,1,80,10|2,3:2|0:0,0:0:0:0:
511,158,29401,70,0,B|470:155|432:193|473:211|437:252|384:246,1,160,10|0,3:2|0:0,0:0:0:0:
254,355,30664,1,4,0:0:0:0:
178,310,30980,2,0,P|166:271|154:233,1,80,10|2,3:2|0:0,0:0:0:0:
193,62,31927,5,10,3:2:0:0:
116,18,32243,2,0,P|77:43|28:38,2,80,10|2|2,3:2|0:0|3:2,0:0:0:0:
193,62,33190,1,4,0:0:0:0:
262,7,33506,2,0,P|302:17|346:23,1,80,10|2,3:2|0:0,0:0:0:0:
338,198,34453,6,0,P|218:229|98:269,1,240,14|2,3:2|0:0,0:0:0:0:
29,225,35716,1,4,0:0:0:0:
82,152,36032,2,0,P|164:124|242:104,1,160,10|0,3:2|0:0,0:0:0:0:
297,43,36980,5,10,3:2:0:0:
366,96,37295,2,0,P|393:124|439:129,2,80,2|2|2,3:2|0:0|0:0,0:0:0:0:
297,43,38243,1,4,0:0:0:0:
243,113,38559,2,0,P|264:192|286:280,1,160,10|2,3:2|0:0,0:0:0:0:
337,337,39506,70,0,P|372:354|409:342,1,80,10|2,3:2|0:0,0:0:0:0:
491,308,40138,2,0,P|508:272|496:235,1,80,2|2,0:0|0:0,0:0:0:0:
429,178,40769,1,6,0:0:0:0:
358,230,41085,2,0,P|280:244|182:274,1,160,10|2,3:2|0:0,0:0:0:0:
118,294,42032,1,10,3:2:0:0:
13,152,42664,6,0,P|28:117|44:61,1,80,2|0,0:0|3:2,0:0:0:0:
118,36,43295,1,6,0:0:0:0:
178,100,43611,2,0,P|259:116|345:140,1,160,10|2,3:2|0:0,0:0:0:0:
411,94,44559,38,0,P|465:148|452:223,1,160,6|2,0:0|0:0,0:0:0:0:
448,312,45506,1,2,0:0:0:0:
367,346,45822,2,0,P|330:333|266:317,2,80,2|2|2,0:0|0:0|0:0,0:0:0:0:
316,177,47085,6,0,P|278:183|223:198,1,80,2|2,0:0|0:0,0:0:0:0:
182,263,47716,2,0,P|143:260|117:231,1,80,2|2,0:0|0:0,0:0:0:0:
52,170,48348,2,0,P|86:101|163:93,1,160,2|2,0:0|0:0,0:0:0:0:
244,59,49295,1,2,0:0:0:0:
281,138,49611,70,0,P|370:158|445:185,1,160,2|2,3:2|0:0,0:0:0:0:
489,250,50559,1,2,0:0:0:0:
415,298,50874,2,0,P|385:323|376:362,2,80,2|2|2,0:0|0:0|0:0,0:0:0:0:
347,240,51822,5,2,0:0:0:0:
273,287,52138,2,0,P|203:254|198:178,1,160,2|2,0:0|0:0,0:0:0:0:
256,12,53401,2,0,P|187:52|110:75,1,160,2|2,0:0|0:0,0:0:0:0:
46,239,54664,6,0,B|28:271|1:284|1:284|40:317|72:369,1,160,2|2,3:2|3:2,0:0:0:0:
151,362,55611,1,2,0:0:0:0:
222,310,55927,2,0,P|259:303|304:294,1,80,2|2,3:2|0:0,0:0:0:0:
365,355,56559,2,0,P|404:363|443:370,1,80,2|2,3:2|0:0,0:0:0:0:
507,310,57190,6,0,P|489:272|470:220,1,80,2|2,3:2|0:0,0:0:0:0:
430,160,57822,1,2,3:2:0:0:
345,182,58138,1,2,0:0:0:0:
299,257,58453,2,0,P|260:261|220:153,1,160,2|2,3:2|3:2,0:0:0:0:
280,113,59401,1,2,0:0:0:0:
237,36,59716,70,0,P|202:17|163:22,1,80,2|2,3:2|0:0,0:0:0:0:
75,33,60348,2,0,P|56:68|61:107,1,80,2|2,3:2|0:0,0:0:0:0:
99,186,60980,2,0,P|144:193|190:211,1,80,2|2,3:2|0:0,0:0:0:0:
227,275,61611,5,2,3:2:0:0:
314,265,61927,1,2,0:0:0:0:
379,323,62243,2,0,P|458:353|483:226,1,240,2|0,3:2|0:0,0:0:0:0:
410,198,63506,1,2,0:0:0:0:
470,26,64769,6,0,P|434:42|390:55,1,80,14|2,3:2|3:2,0:0:0:0:
324,104,65401,1,4,3:2:0:0:
259,42,65716,2,0,P|226:21|187:18,2,80,2|10|0,3:2|3:2|3:0,0:0:0:0:
324,104,66664,6,0,P|304:142|285:192,1,80,6|2,3:2|3:2,0:0:0:0:
301,263,67295,1,8,3:2:0:0:
229,314,67611,1,2,3:2:0:0:
150,354,67927,70,0,P|112:341|94:307,1,80,6|2,3:2|3:2,0:0:0:0:
17,263,68559,2,0,P|9:223|29:191,1,80,10|2,3:2|3:2,0:0:0:0:
5,106,69190,2,0,P|35:79|73:81,1,80,6|2,3:2|3:2,0:0:0:0:
133,145,69822,6,0,P|178:150|231:161,1,80,14|2,3:2|3:2,0:0:0:0:
294,125,70453,1,4,3:2:0:0:
343,197,70769,2,0,P|370:228|417:236,2,80,2|10|0,3:2|3:2|3:0,0:0:0:0:
294,125,71716,70,0,P|308:91|330:49,1,80,6|2,3:2|3:2,0:0:0:0:
399,0,72348,1,8,3:2:0:0:
481,30,72664,1,2,3:2:0:0:
509,113,72980,6,0,P|496:150|462:169,1,80,6|2,3:2|3:2,0:0:0:0:
416,244,73611,2,0,P|360:260|329:277,1,80,10|2,3:2|3:2,0:0:0:0:
277,331,74243,2,0,P|239:320|216:288,1,80,6|2,3:2|3:2,0:0:0:0:
179,208,74874,38,0,P|205:154|229:83,2,120,14|2|2,3:2|3:2|3:2,0:0:0:0:
114,268,76138,1,10,3:2:0:0:
31,238,76453,1,2,3:2:0:0:
15,151,76769,2,0,P|49:115|65:80,1,80,6|2,3:2|3:2,0:0:0:0:
132,34,77401,6,0,P|179:24|251:72,2,120,10|2|2,3:2|3:2|3:2,0:0:0:0:
62,87,78664,1,10,3:2:0:0:
98,167,78980,1,0,3:2:0:0:
147,238,79295,2,0,P|146:281|202:311,1,80,6|0,3:2|3:2,0:0:0:0:
257,297,79927,69,10,3:2:0:0:
323,354,80243,2,0,P|362:347|400:335,1,80,2|4,3:2|3:2,0:0:0:0:
441,257,80874,1,0,3:2:0:0:
442,168,81190,2,0,P|472:143|511:135,2,80,10|0|4,3:2|3:2|3:2,0:0:0:0:
365,124,82138,1,2,3:2:0:0:
293,70,82453,6,0,P|225:86|126:108,1,160,8|6,3:2|3:2,0:0:0:0:
68,161,83401,1,2,3:2:0:0:
112,236,83716,2,0,P|150:262|168:308,1,80,10|10,3:2|3:2,0:0:0:0:
229,352,84348,1,6,3:2:0:0:
315,337,84664,1,8,3:0:0:0:
395,372,84980,6,0,P|429:352|444:316,1,80,14|2,3:2|0:0,0:0:0:0:
394,243,85611,1,4,3:2:0:0:
442,169,85927,2,0,P|474:145|513:139,2,80,10|2|8,3:2|0:0|3:2,0:0:0:0:
394,243,86874,6,0,P|356:251|311:269,1,80,6|2,3:2|3:2,0:0:0:0:
266,337,87506,1,8,3:2:0:0:
179,322,87822,1,2,3:2:0:0:
114,261,88138,70,0,P|108:224|94:174,1,80,6|2,3:2|3:2,0:0:0:0:
99,94,88769,2,0,P|129:68|168:68,1,80,2|10,0:0|3:2,0:0:0:0:
242,20,89401,2,0,P|274:42|284:80,1,80,6|10,3:2|3:2,0:0:0:0:
244,158,90032,6,0,P|282:183|321:214,1,80,14|2,3:2|3:2,0:0:0:0:
354,279,90664,1,4,3:2:0:0:
431,237,90980,2,0,P|457:192|451:155,2,80,10|2|8,3:2|0:0|3:2,0:0:0:0:
354,279,91927,70,0,P|330:311|315:348,1,80,6|2,3:2|3:2,0:0:0:0:
231,377,92559,1,10,3:2:0:0:
149,345,92874,1,2,3:2:0:0:
111,265,93190,6,0,P|140:230|192:232,1,80,6|0,3:2|3:2,0:0:0:0:
251,186,93822,2,0,P|262:151|279:110,1,80,2|10,3:2|3:2,0:0:0:0:
204,62,94453,2,0,P|189:99|176:137,1,80,14|10,3:2|3:2,0:0:0:0:
89,164,95085,38,0,P|53:185|39:223,1,80,4|2,3:2|0:0,0:0:0:0:
66,303,95716,1,4,0:0:0:0:
142,346,96032,2,0,P|180:355|215:374,2,80,10|2|10,3:2|0:0|3:2,0:0:0:0:
66,303,96980,5,6,0:0:0:0:
134,248,97295,1,10,3:2:0:0:
209,202,97611,2,0,P|246:215|292:227,1,80,10|10,3:2|3:2,0:0:0:0:
339,295,98243,1,4,0:0:0:0:
411,245,98559,70,0,P|445:217|486:220,2,80,10|0|10,3:2|0:0|3:2,0:0:0:0:
475,305,99506,1,6,0:0:0:0:
408,362,99822,1,8,3:2:0:0:
322,340,100138,6,0,P|283:327|229:313,1,80,12|8,3:2|3:2,0:0:0:0:
159,333,100769,1,4,0:0:0:0:
95,272,101085,2,0,P|74:206|30:101,1,160,10|8,3:2|3:2,0:0:0:0:
80,44,102032,1,6,0:0:0:0:
164,17,102348,1,10,3:2:0:0:
232,72,102664,70,0,P|269:81|315:95,1,80,10|2,3:2|3:2,0:0:0:0:
383,46,103295,1,6,0:0:0:0:
463,81,103611,2,0,P|469:157|411:208,1,160,10|10,3:2|3:2,0:0:0:0:
324,191,104559,1,4,0:0:0:0:
263,254,104874,2,0,P|226:263|172:285,1,80,10|0,3:2|0:0,0:0:0:0:
