osu file format v14

[General]
AudioFilename: audio.mp3
AudioLeadIn: 0
PreviewTime: 64612
Countdown: 0
SampleSet: Soft
StackLeniency: 0.7
Mode: 0
LetterboxInBreaks: 0
WidescreenStoryboard: 1

[Editor]
DistanceSpacing: 0.9
BeatDivisor: 8
GridSize: 32
TimelineZoom: 3.899998

[Metadata]
Title:White Midnight (Anime Version)
TitleUnicode:白夜 (アニメ・ヴァージョン)
Artist:Reol
ArtistUnicode:Reol
Creator:Esutarosa
Version:Collab Expert
Source:白夜極光
Tags:pop jpop j-pop japanese れをる byakuya kyokkou kujinn reform shime anime game alchemy stars ost official soundtrack ver mobile smartphone video opening intro theme song
BeatmapID:3322856
BeatmapSetID:1627637

[Difficulty]
HPDrainRate:5.5
CircleSize:4
OverallDifficulty:8.4
ApproachRate:9.2
SliderMultiplier:3.48
SliderTickRate:1

[Events]
//Background and Video events
0,0,"bg.jpg",0,0
Video,0,"video.mp4"
//Break Periods
//Storyboard Layer 0 (Background)
//Storyboard Layer 1 (Fail)
//Storyboard Layer 2 (Pass)
//Storyboard Layer 3 (Foreground)
//Storyboard Layer 4 (Overlay)
//Storyboard Sound Samples
Sample,24032,2,"normal-hitwhistle32.wav",80

[TimingPoints]
4138,631.578947368421,4,2,1,32,1,0
4138,-133.333333333333,4,2,1,32,0,0
4374,-133.333333333333,4,2,1,5,0,0
4611,-133.333333333333,4,2,1,32,0,0
4848,-133.333333333333,4,2,1,5,0,0
5085,-133.333333333333,4,2,1,32,0,0
5322,-133.333333333333,4,2,1,5,0,0
5559,-133.333333333333,4,2,1,32,0,0
5795,-133.333333333333,4,2,1,5,0,0
6032,-133.333333333333,4,2,1,32,0,0
6269,-133.333333333333,4,2,1,5,0,0
6506,-133.333333333333,4,2,1,32,0,0
6743,-133.333333333333,4,2,1,5,0,0
6980,-133.333333333333,4,2,1,32,0,0
7216,-133.333333333333,4,2,1,5,0,0
7453,-133.333333333333,4,2,1,32,0,0
7690,-133.333333333333,4,2,1,5,0,0
7927,-133.333333333333,4,2,1,32,0,0
8164,-133.333333333333,4,2,1,5,0,0
8401,-133.333333333333,4,2,1,32,0,0
8638,-133.333333333333,4,2,1,5,0,0
8874,-133.333333333333,4,2,1,32,0,0
9190,-133.333333333333,4,2,1,28,0,0
9348,-133.333333333333,4,2,1,32,0,0
10138,-133.333333333333,4,2,1,32,0,0
10295,-133.333333333333,4,2,1,32,0,0
10453,-133.333333333333,4,2,1,28,0,0
10769,-133.333333333333,4,2,1,32,0,0
11401,-133.333333333333,4,2,1,32,0,0
11559,-133.333333333333,4,2,1,32,0,0
11716,-133.333333333333,4,2,1,28,0,0
11874,-133.333333333333,4,2,1,32,0,0
12111,-133.333333333333,4,2,1,5,0,0
12348,-133.333333333333,4,2,1,34,0,0
12585,-133.333333333333,4,2,1,5,0,0
12822,-133.333333333333,4,2,1,36,0,0
13059,-133.333333333333,4,2,1,5,0,0
13295,-142.857142857143,4,3,1,22,0,0
13453,-142.857142857143,4,3,1,5,0,0
13611,-200,4,3,1,26,0,0
13769,-200,4,3,1,5,0,0
13927,-121.951219512195,4,3,1,30,0,0
14164,-121.951219512195,4,3,1,5,0,0
14243,-100,4,2,91,62,0,0
14559,-100,4,2,1,42,0,0
14716,-100,4,2,1,60,0,0
14953,-100,4,2,1,5,0,0
15190,-100,4,2,1,60,0,0
15427,-100,4,2,1,5,0,0
15506,-100,4,2,1,60,0,0
15664,-100,4,2,1,60,0,0
15901,-100,4,2,1,5,0,0
16138,-100,4,2,1,60,0,0
16374,-100,4,2,1,5,0,0
16453,-100,4,2,1,60,0,0
16611,-100,4,2,1,60,0,0
16690,-100,4,2,1,60,0,0
16769,-100,4,2,1,60,0,0
17085,-100,4,2,1,60,0,0
17322,-100,4,2,1,5,0,0
17559,-100,4,2,1,60,0,0
17795,-100,4,2,1,5,0,0
18032,-100,4,2,1,62,0,0
18269,-100,4,2,1,5,0,0
18506,-100,4,2,1,63,0,0
18743,-100,4,2,1,5,0,0
18980,-100,4,2,1,64,0,0
20243,-100,4,2,1,66,0,0
20401,-100,4,2,1,66,0,0
20559,-100,4,2,1,66,0,0
21190,-133.333333333333,4,2,1,66,0,0
21506,-100,4,2,1,68,0,0
21664,-100,4,2,1,68,0,0
21822,-100,4,2,1,68,0,0
21980,-111.111111111111,4,2,1,68,0,0
22295,-111.111111111111,4,2,1,68,0,0
22453,-125,4,2,1,68,0,0
22690,-125,4,2,1,5,0,0
22927,-100,4,2,1,64,0,0
23085,-100,4,2,1,38,0,0
23401,-66.6666666666667,4,1,44,60,0,0
23559,-66.6666666666667,4,1,44,48,0,0
23874,-100,4,1,23,60,0,0
23953,-100,4,1,23,5,0,0
24032,-62.5,4,1,32,60,0,0
24269,-62.5,4,1,32,5,0,0
24348,-125,4,2,1,48,0,0
24980,-142.857142857143,4,2,1,48,0,0
25611,-74.0740740740741,4,2,27,48,0,0
25690,-74.0740740740741,4,2,1,48,0,0
25848,-74.0740740740741,4,2,1,5,0,0
25927,-125,4,2,1,48,0,0
26401,-125,4,2,1,48,0,0
26716,-125,4,2,1,38,0,0
26874,-121.951219512195,4,2,1,48,0,0
27032,-121.951219512195,4,2,1,38,0,0
27190,-121.951219512195,4,2,1,48,0,0
27348,-121.951219512195,4,2,1,38,0,0
27506,-108.695652173913,4,2,1,48,0,0
27743,-108.695652173913,4,2,1,5,0,0
27822,-108.695652173913,4,2,1,48,0,0
28059,-108.695652173913,4,2,1,5,0,0
28138,-83.3333333333333,4,2,27,52,0,0
28216,-83.3333333333333,4,2,1,52,0,0
28374,-83.3333333333333,4,2,1,5,0,0
28453,-125,4,2,1,55,0,0
28611,-125,4,2,1,48,0,0
28769,-125,4,2,1,54,0,0
28927,-100,4,2,1,38,0,0
29085,-100,4,2,1,53,0,0
29243,-100,4,2,1,38,0,0
29401,-100,4,2,1,50,0,0
29638,-100,4,2,1,5,0,0
29716,-142.857142857143,4,2,1,38,0,0
30032,-142.857142857143,4,2,1,32,0,0
30190,-100,4,2,1,38,0,0
30348,-133.333333333333,4,2,1,48,0,0
30506,-133.333333333333,4,2,1,52,0,0
30664,-66.6666666666667,4,2,27,56,0,0
30743,-66.6666666666667,4,2,1,56,0,0
30901,-66.6666666666667,4,2,1,5,0,0
30980,-200,4,2,1,54,0,0
31216,-200,4,2,1,5,0,0
31295,-166.666666666667,4,2,1,52,0,0
31532,-166.666666666667,4,2,1,5,0,0
31611,-100,4,2,1,52,0,0
31690,-100,4,2,1,17,0,0
31769,-100,4,2,1,52,0,0
31848,-100,4,2,1,17,0,0
31927,-74.0740740740741,4,2,1,56,0,0
32164,-74.0740740740741,4,2,1,5,0,0
32243,-181.818181818182,4,2,1,54,0,0
32480,-181.818181818182,4,2,1,5,0,0
32559,-166.666666666667,4,2,1,52,0,0
32795,-166.666666666667,4,2,1,5,0,0
32874,-100,4,2,1,52,0,0
32953,-100,4,2,1,17,0,0
33032,-100,4,2,1,52,0,0
33111,-100,4,2,27,17,0,0
33190,-62.5,4,2,27,52,0,0
33269,-62.5,4,2,1,52,0,0
33348,-62.5,4,2,1,52,0,0
33427,-62.5,4,2,1,5,0,0
33506,-200,4,2,1,54,0,0
33743,-200,4,2,1,5,0,0
33822,-153.846153846153,4,2,1,50,0,0
34059,-153.846153846153,4,2,1,5,0,0
34138,-133.333333333333,4,2,1,48,0,0
34374,-133.333333333333,4,2,1,5,0,0
34453,-70.4225352112676,4,2,1,58,0,0
34690,-70.4225352112676,4,2,1,5,0,0
34769,-100,4,2,1,58,0,0
34822,-100,4,2,1,17,0,0
34874,-100,4,2,1,58,0,0
34927,-100,4,2,1,17,0,0
35032,-119.047619047619,4,2,1,58,0,0
35401,-100,4,2,1,46,0,0
35480,-100,4,2,1,50,0,0
35559,-100,4,2,1,54,0,0
35638,-100,4,2,1,56,0,0
35716,-100,4,2,27,58,0,0
35795,-100,4,2,1,58,0,0
36032,-119.047619047619,4,2,1,58,0,0
36269,-119.047619047619,4,2,1,5,0,0
36348,-135.135135135135,4,2,1,58,0,0
36980,-119.047619047619,4,2,1,58,0,0
37216,-119.047619047619,4,2,1,5,0,0
37295,-100,4,2,1,58,0,0
37374,-100,4,2,1,17,0,0
37453,-100,4,2,1,58,0,0
37532,-100,4,2,1,17,0,0
37611,-119.047619047619,4,2,1,58,0,0
37927,-100,4,2,1,46,0,0
38006,-100,4,2,1,50,0,0
38085,-100,4,2,1,54,0,0
38164,-100,4,2,1,56,0,0
38243,-100,4,2,27,58,0,0
38322,-100,4,2,1,58,0,0
38559,-113.636363636364,4,2,1,58,0,0
38874,-113.636363636364,4,2,1,48,0,0
39032,-100,4,2,1,48,0,0
39190,-100,4,2,1,60,0,0
40769,-113.636363636364,4,2,27,60,0,0
40848,-113.636363636364,4,2,1,60,0,0
41953,-113.636363636364,4,2,1,5,0,0
42032,-100,4,2,1,60,0,0
42269,-100,4,2,1,5,0,0
42348,-100,4,2,1,60,0,0
42585,-100,4,2,1,5,0,0
42664,-142.857142857143,4,2,1,60,0,0
43138,-100,4,2,1,30,0,0
43216,-100,4,2,1,48,0,0
43295,-100,4,2,27,60,0,0
43374,-100,4,2,1,60,0,0
43611,-125,4,2,1,48,0,0
43769,-125,4,2,1,60,0,0
44006,-125,4,2,1,5,0,0
44085,-100,4,2,1,60,0,0
44164,-100,4,2,1,5,0,0
44243,-100,4,2,1,60,0,0
44480,-100,4,2,1,5,0,0
44559,-90.0900900900901,4,2,91,68,0,0
44638,-90.0900900900901,4,2,1,68,0,0
44795,-90.0900900900901,4,2,1,5,0,0
44874,-238.095238095238,4,2,1,68,0,0
45190,-238.095238095238,4,2,1,58,0,0
45506,-238.095238095238,4,2,1,68,0,0
45822,-161.290322580645,4,2,1,68,0,0
45980,-161.290322580645,4,2,1,32,0,0
46138,-161.290322580645,4,2,1,68,0,0
46295,-153.846153846154,4,2,1,32,0,0
46453,-153.846153846154,4,2,1,68,0,0
46611,-153.846153846154,4,2,1,32,0,0
46927,-142.857142857143,4,2,1,48,0,0
47085,-142.857142857143,4,2,1,68,0,0
47716,-153.846153846154,4,2,1,68,0,0
47874,-153.846153846154,4,2,1,38,0,0
48032,-153.846153846154,4,2,1,68,0,0
49611,-238.095238095238,4,2,1,68,0,0
49927,-238.095238095238,4,2,1,58,0,0
50243,-238.095238095238,4,2,1,68,0,0
50559,-161.290322580645,4,2,1,68,0,0
50874,-161.290322580645,4,2,1,68,0,0
51032,-161.290322580645,4,2,1,32,0,0
51190,-161.290322580645,4,2,1,68,0,0
51348,-161.290322580645,4,2,1,32,0,0
51506,-153.846153846154,4,2,1,68,0,0
51664,-153.846153846154,4,2,1,32,0,0
51822,-133.333333333333,4,2,1,68,0,0
54664,-90.0900900900901,4,2,1,74,0,0
55295,-121.951219512195,4,2,1,74,0,0
55927,-121.951219512195,4,2,1,74,0,0
56559,-121.951219512195,4,2,1,74,0,0
57190,-121.951219512195,4,2,1,74,0,0
57822,-121.951219512195,4,2,1,74,0,0
58453,-121.951219512195,4,2,1,74,0,0
59085,-121.951219512195,4,2,1,74,0,0
59401,-121.951219512195,4,2,1,74,0,0
59716,-111.111111111111,4,2,1,74,0,0
60348,-111.111111111111,4,2,1,74,0,0
60980,-111.111111111111,4,2,1,74,0,0
61611,-111.111111111111,4,2,1,74,0,0
62243,-117.647058823529,4,2,1,74,0,0
62348,-117.647058823529,4,2,1,28,0,0
62453,-117.647058823529,4,2,1,74,0,0
62559,-117.647058823529,4,2,1,28,0,0
62664,-117.647058823529,4,2,1,74,0,0
62769,-117.647058823529,4,2,1,28,0,0
62874,-117.647058823529,4,2,1,74,0,0
62980,-117.647058823529,4,2,1,28,0,0
63085,-117.647058823529,4,2,1,74,0,0
63190,-117.647058823529,4,2,1,28,0,0
63295,-117.647058823529,4,2,1,74,0,0
63401,-117.647058823529,4,2,1,28,0,0
63506,-117.647058823529,4,2,1,74,0,0
64769,-68.9655172413793,4,2,2,82,0,1
64848,-68.9655172413793,4,2,27,82,0,0
65006,-68.9655172413793,4,2,27,5,0,0
65085,-68.9655172413793,4,2,27,82,0,0
65164,-68.9655172413793,4,2,27,5,0,0
65243,-68.9655172413793,4,2,27,82,0,0
65322,-68.9655172413793,4,2,27,5,0,0
65401,-68.9655172413793,4,2,27,82,0,0
65638,-68.9655172413793,4,2,27,5,0,0
65716,-80,4,2,27,82,0,0
65953,-80,4,2,27,5,0,0
66032,-68.9655172413793,4,2,27,82,0,0
66269,-68.9655172413793,4,2,27,5,0,0
66348,-68.9655172413793,4,2,27,82,0,0
66585,-68.9655172413793,4,2,27,5,0,0
66664,-68.9655172413793,4,2,27,82,0,0
66901,-68.9655172413793,4,2,27,5,0,0
66980,-68.9655172413793,4,2,27,82,0,0
67059,-68.9655172413793,4,2,27,5,0,0
67138,-68.9655172413793,4,2,27,82,0,0
67216,-68.9655172413793,4,2,27,5,0,0
67295,-80,4,2,27,82,0,0
67532,-80,4,2,27,5,0,0
67611,-80,4,2,27,82,0,0
67690,-80,4,2,27,21,0,0
67769,-80,4,2,27,82,0,0
67848,-80,4,2,27,21,0,0
67927,-68.9655172413793,4,2,27,82,0,0
68164,-68.9655172413793,4,2,27,5,0,0
68243,-86.9565217391304,4,2,27,82,0,0
68322,-86.9565217391304,4,2,27,17,0,0
68401,-86.9565217391304,4,2,27,82,0,0
68480,-86.9565217391304,4,2,27,5,0,0
68559,-83.3333333333333,4,2,27,82,0,0
68638,-83.3333333333333,4,2,27,21,0,0
68716,-83.3333333333333,4,2,27,82,0,0
68795,-83.3333333333333,4,2,27,5,0,0
68874,-68.9655172413793,4,2,27,82,0,0
69111,-68.9655172413793,4,2,27,5,0,0
69190,-68.9655172413793,4,2,27,82,0,0
69427,-68.9655172413793,4,2,27,5,0,0
69506,-68.9655172413793,4,2,27,82,0,0
69743,-68.9655172413793,4,2,27,5,0,0
69822,-68.9655172413793,4,2,2,82,0,1
69901,-68.9655172413793,4,2,27,82,0,0
70059,-68.9655172413793,4,2,27,5,0,0
70138,-68.9655172413793,4,2,27,82,0,0
70216,-68.9655172413793,4,2,27,5,0,0
70295,-68.9655172413793,4,2,27,82,0,0
70374,-68.9655172413793,4,2,27,5,0,0
70453,-68.9655172413793,4,2,27,82,0,0
70690,-68.9655172413793,4,2,27,5,0,0
70769,-68.9655172413793,4,2,27,82,0,0
71006,-68.9655172413793,4,2,27,5,0,0
71085,-68.9655172413793,4,2,27,82,0,0
71322,-68.9655172413793,4,2,27,5,0,0
71401,-68.9655172413793,4,2,27,82,0,0
71638,-68.9655172413793,4,2,27,5,0,0
71716,-68.9655172413793,4,2,27,82,0,0
71953,-68.9655172413793,4,2,27,5,0,0
72032,-68.9655172413793,4,2,27,82,0,0
72111,-68.9655172413793,4,2,27,5,0,0
72190,-68.9655172413793,4,2,27,82,0,0
72269,-68.9655172413793,4,2,27,5,0,0
72348,-68.9655172413793,4,2,27,82,0,0
72585,-68.9655172413793,4,2,27,5,0,0
72664,-68.9655172413793,4,2,27,82,0,0
72743,-68.9655172413793,4,2,27,21,0,0
72822,-68.9655172413793,4,2,27,82,0,0
72901,-68.9655172413793,4,2,27,5,0,0
72980,-68.9655172413793,4,2,27,82,0,0
73216,-68.9655172413793,4,2,27,5,0,0
73295,-68.9655172413793,4,2,27,80,0,0
73532,-100,4,2,27,5,0,0
73611,-100,4,2,27,78,0,0
73690,-100,4,2,27,17,0,0
73769,-100,4,2,27,78,0,0
73848,-100,4,2,27,5,0,0
73927,-100,4,2,27,76,0,0
74006,-100,4,2,27,21,0,0
74085,-100,4,2,27,58,0,0
74164,-100,4,2,27,21,0,0
74243,-100,4,2,27,74,0,0
74480,-100,4,2,27,5,0,0
74559,-100,4,2,27,73,0,0
74716,-100,4,2,27,58,0,0
74795,-100,4,2,27,5,0,0
74874,-100,4,2,2,68,0,0
74953,-100,4,2,27,68,0,0
75427,-100,4,2,27,5,0,0
75506,-100,4,2,27,68,0,0
75743,-100,4,2,27,5,0,0
75822,-100,4,2,27,68,0,0
76059,-100,4,2,27,5,0,0
76138,-100,4,2,27,68,0,0
76374,-100,4,2,27,5,0,0
76453,-100,4,2,27,67,0,0
76690,-100,4,2,27,5,0,0
76769,-100,4,2,27,66,0,0
77006,-100,4,2,27,5,0,0
77085,-100,4,2,27,65,0,0
77322,-100,4,2,27,5,0,0
77401,-100,4,2,27,64,0,0
77559,-100,4,2,27,48,0,0
77716,-100,4,2,27,64,0,0
77874,-100,4,2,27,48,0,0
78032,-100,4,2,27,64,0,0
78269,-100,4,2,27,5,0,0
78348,-100,4,2,27,64,0,0
78585,-100,4,2,27,5,0,0
78664,-100,4,2,27,64,0,0
78743,-100,4,2,27,5,0,0
78822,-100,4,2,27,64,0,0
79059,-100,4,2,27,5,0,0
79138,-100,4,2,27,48,0,0
79295,-100,4,2,27,64,0,0
79453,-100,4,2,27,48,0,0
79611,-100,4,2,27,64,0,0
79769,-100,4,2,27,48,0,0
79927,-100,4,2,27,64,0,0
80164,-100,4,2,27,5,0,0
80243,-100,4,2,27,64,0,0
80480,-100,4,2,27,5,0,0
80559,-100,4,2,27,64,0,0
80638,-100,4,2,27,5,0,0
80716,-100,4,2,27,64,0,0
81111,-100,4,2,27,5,0,0
81190,-100,4,2,27,65,0,0
81743,-100,4,2,27,5,0,0
81822,-100,4,2,27,66,0,0
82059,-100,4,2,27,5,0,0
82138,-100,4,2,27,66,0,0
82374,-100,4,2,27,5,0,0
82453,-100,4,2,27,68,0,0
82690,-100,4,2,27,5,0,0
82769,-100,4,2,27,68,0,0
83006,-100,4,2,27,5,0,0
83085,-100,4,2,27,70,0,0
83322,-100,4,2,27,5,0,0
83401,-100,4,2,27,70,0,0
83638,-100,4,2,27,5,0,0
83716,-100,4,2,27,70,0,0
83953,-100,4,2,27,5,0,0
84032,-200,4,2,27,70,0,0
84269,-100,4,2,27,5,0,0
84348,-71.4285714285714,4,2,27,77,0,0
84427,-71.4285714285714,4,2,27,5,0,0
84506,-71.4285714285714,4,2,27,77,0,0
84585,-71.4285714285714,4,2,27,5,0,0
84664,-71.4285714285714,4,2,1,79,0,0
84743,-71.4285714285714,4,2,27,5,0,0
84822,-71.4285714285714,4,2,27,79,0,0
84901,-71.4285714285714,4,2,27,5,0,0
84980,-55.5555555555556,4,2,91,88,0,1
85059,-55.5555555555556,4,2,27,5,0,0
85138,-55.5555555555556,4,2,27,88,0,0
85216,-55.5555555555556,4,2,27,5,0,0
85295,-55.5555555555556,4,2,27,88,0,0
85532,-55.5555555555556,4,2,27,5,0,0
85611,-142.857142857143,4,2,27,88,0,0
85848,-142.857142857143,4,2,27,5,0,0
85927,-71.4285714285715,4,2,27,88,0,0
86006,-71.4285714285715,4,2,27,32,0,0
86085,-71.4285714285715,4,2,27,88,0,0
86164,-71.4285714285715,4,2,27,5,0,0
86243,-58.8235294117647,4,2,27,88,0,0
86322,-58.8235294117647,4,2,27,32,0,0
86401,-58.8235294117647,4,2,27,88,0,0
86480,-58.8235294117647,4,2,27,17,0,0
86559,-58.8235294117647,4,2,27,88,0,0
86795,-58.8235294117647,4,2,27,5,0,0
86874,-58.8235294117647,4,2,27,88,0,0
86953,-58.8235294117647,4,2,27,32,0,0
87032,-58.8235294117647,4,2,27,88,0,0
87111,-58.8235294117647,4,2,27,5,0,0
87190,-58.8235294117647,4,2,27,88,0,0
87427,-58.8235294117647,4,2,27,5,0,0
87506,-58.8235294117647,4,2,27,88,0,0
87585,-58.8235294117647,4,2,27,5,0,0
87664,-58.8235294117647,4,2,27,88,0,0
87743,-58.8235294117647,4,2,27,5,0,0
87822,-58.8235294117647,4,2,27,88,0,0
88059,-58.8235294117647,4,2,27,5,0,0
88138,-66.6666666666667,4,2,27,88,0,0
88374,-66.6666666666667,4,2,27,5,0,0
88453,-71.4285714285714,4,2,27,88,0,0
88690,-71.4285714285714,4,2,27,5,0,0
88769,-71.4285714285714,4,2,27,88,0,0
89006,-71.4285714285714,4,2,27,5,0,0
89085,-125,4,2,27,88,0,0
89322,-125,4,2,27,5,0,0
89401,-55.5555555555556,4,2,27,88,0,0
89638,-55.5555555555556,4,2,27,5,0,0
89716,-71.4285714285714,4,2,27,88,0,0
89795,-71.4285714285714,4,2,27,5,0,0
89874,-71.4285714285714,4,2,27,88,0,0
89953,-71.4285714285714,4,2,27,5,0,0
90032,-52.6315789473684,4,2,2,88,0,0
90111,-52.6315789473684,4,2,27,32,0,0
90190,-52.6315789473684,4,2,27,88,0,0
90269,-52.6315789473684,4,2,27,5,0,0
90348,-45.4545454545455,4,2,27,88,0,0
90585,-45.4545454545455,4,2,27,5,0,0
90664,-166.666666666667,4,2,27,88,0,0
90901,-166.666666666667,4,2,27,5,0,0
90980,-71.4285714285714,4,2,27,88,0,0
91059,-71.4285714285714,4,2,27,32,0,0
91138,-71.4285714285714,4,2,27,88,0,0
91216,-71.4285714285714,4,2,27,5,0,0
91295,-71.4285714285714,4,2,27,88,0,0
91374,-71.4285714285714,4,2,27,5,0,0
91453,-71.4285714285714,4,2,27,88,0,0
91532,-71.4285714285714,4,2,27,5,0,0
91611,-52.6315789473684,4,2,27,88,0,0
91848,-52.6315789473684,4,2,27,5,0,0
91927,-71.4285714285714,4,2,27,88,0,0
92006,-71.4285714285714,4,2,27,32,0,0
92085,-71.4285714285714,4,2,27,88,0,0
92164,-71.4285714285714,4,2,27,5,0,0
92243,-71.4285714285714,4,2,27,88,0,0
92480,-71.4285714285714,4,2,27,5,0,0
92559,-58.8235294117647,4,2,27,88,0,0
92638,-58.8235294117647,4,2,27,5,0,0
92716,-58.8235294117647,4,2,27,88,0,0
92795,-58.8235294117647,4,2,27,5,0,0
92874,-58.8235294117647,4,2,27,88,0,0
92953,-58.8235294117647,4,2,27,5,0,0
93032,-58.8235294117647,4,2,27,88,0,0
93111,-58.8235294117647,4,2,27,5,0,0
93190,-62.5,4,2,27,88,0,0
93427,-62.5,4,2,27,5,0,0
93506,-62.5,4,2,27,88,0,0
93585,-62.5,4,2,27,5,0,0
93664,-62.5,4,2,27,88,0,0
93743,-62.5,4,2,27,5,0,0
93822,-62.5,4,2,27,85,0,0
93901,-62.5,4,2,27,5,0,0
93980,-62.5,4,2,27,82,0,0
94059,-76.9230769230769,4,2,27,80,0,0
94138,-76.9230769230769,4,2,27,85,0,0
94374,-76.9230769230769,4,2,27,5,0,0
94453,-45.4545454545455,4,2,27,82,0,0
94690,-45.4545454545455,4,2,27,5,0,0
94769,-166.666666666667,4,2,27,79,0,0
95006,-166.666666666667,4,2,27,5,0,0
95085,-90.0900900900901,4,2,1,68,0,0
95164,-90.0900900900901,4,2,27,68,0,0
95638,-90.0900900900901,4,2,27,5,0,0
95716,-90.0900900900901,4,2,27,68,0,0
95953,-90.0900900900901,4,2,27,5,0,0
96032,-147.058823529412,4,2,27,68,0,0
96269,-147.058823529412,4,2,27,5,0,0
96348,-147.058823529412,4,2,27,68,0,0
96427,-147.058823529412,4,2,27,5,0,0
96506,-147.058823529412,4,2,27,68,0,0
96585,-147.058823529412,4,2,27,17,0,0
96664,-90.0900900900901,4,2,27,68,0,0
96901,-90.0900900900901,4,2,27,5,0,0
96980,-128.205128205128,4,2,27,68,0,0
97216,-128.205128205128,4,2,27,5,0,0
97295,-172.413793103449,4,2,27,68,0,0
97532,-172.413793103449,4,2,27,5,0,0
97611,-90.0900900900901,4,2,27,68,0,0
97690,-90.0900900900901,4,2,27,5,0,0
97769,-90.0900900900901,4,2,27,68,0,0
97848,-90.0900900900901,4,2,27,5,0,0
97927,-90.0900900900901,4,2,27,68,0,0
98164,-90.0900900900901,4,2,27,5,0,0
98243,-102.040816326531,4,2,27,68,0,0
98480,-102.040816326531,4,2,27,5,0,0
98559,-128.205128205129,4,2,27,67,0,0
98638,-128.205128205129,4,2,27,7,0,0
98716,-128.205128205129,4,2,27,67,0,0
98795,-128.205128205129,4,2,27,7,0,0
98874,-128.205128205129,4,2,27,67,0,0
98953,-128.205128205129,4,2,27,7,0,0
99032,-147.058823529413,4,2,27,68,0,0
99111,-147.058823529413,4,2,27,17,0,0
99190,-90.0900900900901,4,2,27,66,0,0
99427,-90.0900900900901,4,2,27,5,0,0
99506,-82.6446280991736,4,2,27,68,0,0
99664,-82.6446280991736,4,2,27,48,0,0
99743,-82.6446280991736,4,2,27,5,0,0
99822,-82.6446280991736,4,2,27,70,0,0
99901,-82.6446280991736,4,2,27,5,0,0
99980,-82.6446280991736,4,2,27,58,0,0
100059,-82.6446280991736,4,2,27,5,0,0
100138,-80,4,2,2,75,0,0
100216,-80,4,2,27,75,0,0
100374,-80,4,2,27,5,0,0
100453,-80,4,2,27,73,0,0
100690,-80,4,2,27,5,0,0
100769,-80,4,2,27,72,0,0
101006,-80,4,2,27,5,0,0
101085,-113.636363636364,4,2,27,70,0,0
101322,-113.636363636364,4,2,27,5,0,0
101401,-128.205128205129,4,2,27,70,0,0
101480,-128.205128205129,4,2,27,5,0,0
101559,-147.058823529412,4,2,27,70,0,0
101638,-147.058823529412,4,2,27,17,0,0
101716,-90.0900900900901,4,2,27,70,0,0
101953,-90.0900900900901,4,2,27,5,0,0
102032,-147.058823529412,4,2,27,70,0,0
102269,-147.058823529412,4,2,27,5,0,0
102348,-208.333333333334,4,2,27,71,0,0
102585,-208.333333333334,4,2,27,5,0,0
102664,-90.0900900900901,4,2,27,72,0,0
102743,-90.0900900900901,4,2,27,7,0,0
102822,-90.0900900900901,4,2,27,72,0,0
102901,-90.0900900900901,4,2,27,7,0,0
102980,-90.0900900900901,4,2,27,72,0,0
103059,-90.0900900900901,4,2,27,7,0,0
103138,-90.0900900900901,4,2,27,72,0,0
103216,-90.0900900900901,4,2,27,17,0,0
103295,-90.0900900900901,4,2,27,74,0,0
103532,-90.0900900900901,4,2,27,5,0,0
103611,-147.058823529412,4,2,27,72,0,0
104164,-147.058823529412,4,2,27,5,0,0
104243,-147.058823529412,4,2,27,73,0,0
104480,-147.058823529412,4,2,27,5,0,0
104559,-90.0900900900901,4,2,27,70,0,0
104795,-90.0900900900901,4,2,27,5,0,0
104874,-113.636363636364,4,2,27,68,0,0
105190,-100,4,2,27,5,0,0

[Colours]
Combo1 : 127,120,210
Combo2 : 255,170,170
Combo3 : 193,185,236
Combo4 : 255,106,106
Combo5 : 163,158,233
Combo6 : 255,57,57

[HitObjects]
483,35,4138,6,0,P|435:35|402:70,1,97.8750037336351,2|0,0:0|0:0,0:0:0:0:
324,69,4611,2,0,P|300:110|313:156,1,97.8750037336351,2|0,0:0|0:0,0:0:0:0:
453,209,5085,6,0,B|467:181|498:190|498:190|475:197|451:228,1,97.8750037336351,2|0,0:0|0:0,0:0:0:0:
419,308,5559,2,0,P|384:332|332:297,1,97.8750037336351,2|0,0:0|0:0,0:0:0:0:
286,250,6032,2,0,P|244:227|204:252,1,97.8750037336351,2|0,0:0|0:0,0:0:0:0:
95,360,6506,70,0,B|108:338|102:310|102:310|108:338|135:348,1,97.8750037336351,2|0,0:0|0:0,0:0:0:0:
289,250,6980,2,0,B|275:228|281:200|281:200|275:228|248:238,1,97.8750037336351,2|0,0:0|0:0,0:0:0:0:
131,121,7453,6,0,P|146:76|191:60,1,97.8750037336351,2|0,0:0|0:0,0:0:0:0:
289,250,7927,2,0,P|242:258|206:227,1,97.8750037336351,2|0,0:0|0:0,0:0:0:0:
325,69,8401,2,0,P|355:104|346:151,1,97.8750037336351,2|0,0:0|0:0,0:0:0:0:
206,227,8874,70,0,P|147:254|100:300,1,130.50000497818,2|0,0:0|0:0,0:0:0:0:
100,299,9348,1,0,0:0:0:0:
447,179,10138,5,2,0:0:0:0:
264,130,10295,1,2,0:0:0:0:
341,112,10453,2,0,B|397:97|397:97|428:44|372:30,1,130.50000497818
30,72,11401,69,2,0:0:0:0:
68,259,11559,1,2,0:0:0:0:
121,201,11716,1,0,0:0:0:0:
17,321,11874,6,0,P|50:354|98:355,1,97.8750037336351,2|0,0:0|0:0,0:0:0:0:
248,242,12348,2,0,P|235:195|194:171,1,97.8750037336351,2|0,0:0|0:0,0:0:0:0:
172,369,12822,2,0,P|207:348|283:333,1,97.8750037336351,2|0,0:0|0:0,0:0:0:0:
442,108,13295,6,0,P|431:137|419:178,1,60.8999981414796,2|0,0:0|0:0,0:0:0:0:
329,69,13611,2,0,L|315:19,1,43.5
270,153,13927,2,0,P|225:172|156:208,1,107.010001632843,12|0,0:0|0:0,0:0:0:0:
121,260,14243,6,0,B|98:244|60:248|60:248|11:180|90:159,1,174,6|0,0:0|0:0,0:0:0:0:
218,206,14716,2,0,B|255:189|270:151|270:151|257:191|285:214,1,130.5,2|0,0:0|0:0,0:0:0:0:
429,313,15190,70,0,B|477:292|477:292|508:241|456:220,1,130.5,2|0,0:0|0:0,0:0:0:0:
396,203,15506,1,0,3:2:0:0:
209,339,15664,2,0,B|158:328|158:328|135:336|135:336|73:322,1,130.5,2|0,0:0|0:0,0:0:0:0:
209,339,16138,6,0,B|221:302|270:307|270:307|230:316|213:359,1,130.5,2|0,3:2|0:0,0:0:0:0:
286,383,16453,1,0,3:2:0:0:
161,208,16611,1,2,0:0:0:0:
155,201,16689,1,0,0:0:0:0:
148,196,16769,1,0,0:0:0:0:
148,196,17085,70,0,B|156:148|197:154|197:154|155:176|154:215,1,130.5,2|0,0:0|0:0,0:0:0:0:
50,111,17559,2,0,B|53:62|12:58|12:58|48:89|39:127,1,130.5,2|0,0:0|0:0,0:0:0:0:
148,196,18032,6,0,B|221:226|221:226|188:225|166:243,1,130.5,2|0,0:0|0:0,0:0:0:0:
323,116,18506,2,0,B|396:86|396:86|363:87|341:69,1,130.5,2|0,0:0|0:0,0:0:0:0:
512,236,18980,69,2,0:0:0:0:
445,273,19138,1,0,3:2:0:0:
323,116,19295,1,8,3:0:0:0:
323,116,19611,5,0,3:2:0:0:
396,137,19769,1,0,3:2:0:0:
377,308,19926,1,0,3:2:0:0:
377,308,20243,69,2,0:0:0:0:
247,361,20401,1,2,0:0:0:0:
195,301,20559,6,0,P|209:261|249:247,1,87,0|0,3:2|0:0,0:0:0:0:
377,308,20874,2,0,P|416:293|430:253,1,87,0|0,3:2|0:0,0:0:0:0:
358,84,21190,2,0,P|381:107|396:137,1,65.2500024890901,0|0,3:2|0:0,0:0:0:0:
457,174,21506,69,2,0:0:0:0:
248,246,21664,1,2,0:0:0:0:
377,308,21822,1,0,3:2:0:0:
274,116,21980,6,0,B|248:82|199:87|172:122|172:122|187:157|164:189,1,156.599995220947,2|0,0:0|3:2,0:0:0:0:
94,292,22453,2,0,P|48:279|72:183,1,139.2,2|0,0:0|0:0,0:0:0:0:
94,292,22927,69,2,0:0:0:0:
325,57,23401,6,0,B|315:53|305:43|305:43|261:54|263:105|263:105|283:105|296:121,1,130.50000497818,4|8,2:1|2:1,0:0:0:0:
325,57,23874,70,0,L|307:5,1,43.5,10|0,2:1|0:0,0:0:0:0:
265,143,24032,6,0,B|212:193|142:184|115:118|164:76|197:97,1,208.8,12|0,2:1|0:0,0:0:0:0:
352,141,24348,38,0,B|395:140|416:174|395:183|416:217|460:216,1,139.2,14|2,3:2|0:0,0:0:0:0:
360,248,24822,1,2,0:0:0:0:
360,248,24980,2,0,P|331:257|310:278,2,60.8999981414796,2|2|2,0:0|0:0|0:0,0:0:0:0:
457,216,25453,1,2,0:0:0:0:
352,141,25611,2,0,B|325:100|348:33|419:31|441:92|410:116,1,176.175000672054,6|0,0:0|0:0,0:0:0:0:
360,248,25927,6,0,P|294:270|232:302,1,139.2,10|2,3:2|0:0,0:0:0:0:
232,301,26401,1,2,0:0:0:0:
263,155,26559,69,2,0:0:0:0:
260,163,26716,1,2,0:0:0:0:
158,292,26874,6,0,P|124:282|101:256,1,71.340001088562,2|2,3:2|0:0,0:0:0:0:
297,354,27190,2,0,P|330:344|353:318,1,71.340001088562,2|2,3:2|0:0,0:0:0:0:
260,163,27506,70,0,B|243:154|223:139|223:139|249:172|267:224,1,120.059995969666,2|0,0:0|0:0,0:0:0:0:
359,89,27822,2,0,B|374:77|392:60|392:60|371:96|359:150,1,120.059995969666,2|0,3:2|0:0,0:0:0:0:
274,281,28138,2,0,B|184:317|184:317|211:301|228:269,1,156.599995220947,6|0,0:0|0:0,0:0:0:0:
274,281,28453,6,0,P|308:291|356:300,1,69.6,10|2,3:2|0:0,0:0:0:0:
260,163,28769,2,0,P|247:127|230:78,1,69.6,2|2,0:0|0:0,0:0:0:0:
385,16,29085,1,2,0:0:0:0:
359,89,29243,1,2,0:0:0:0:
203,0,29401,70,0,B|161:11|161:11|110:67|185:96,1,130.5,10|0,3:2|0:0,0:0:0:0:
236,97,29716,2,0,B|268:75|277:49|277:49|286:47|286:47|262:72|273:117,1,121.799996282959,2|0,0:0|0:0,0:0:0:0:
366,187,30243,1,0,0:0:0:0:
334,256,30348,2,0,P|303:265|274:280,1,65.2500024890901,2|10,0:0|3:2,0:0:0:0:
95,203,30664,6,0,B|52:161|73:94|142:77|178:131|153:161,1,195.75000746727,4|0,0:0|0:0,0:0:0:0:
95,203,30980,2,0,P|66:219|47:245,1,65.25,10|0,3:2|0:0,0:0:0:0:
68,320,31295,2,0,P|89:351|128:359,1,78.2999976104737,2|0,0:0|0:0,0:0:0:0:
228,297,31611,70,0,P|236:279|250:255,1,43.5,2|0,0:0|0:0,0:0:0:0:
193,204,31769,2,0,P|184:186|171:162,1,43.5,2|0,0:0|0:0,0:0:0:0:
229,51,31927,6,0,B|244:1|295:-13|339:13|339:13|314:39|319:79,1,176.175000672054,10|0,3:2|0:0,0:0:0:0:
352,117,32243,2,0,P|384:131|410:156,1,71.7750021903992,10|0,3:2|0:0,0:0:0:0:
490,152,32559,2,0,P|515:124|510:86,1,78.2999976104737,2|0,0:0|0:0,0:0:0:0:
352,117,32874,70,0,P|332:124|308:135,1,43.5,2|0,3:2|0:0,0:0:0:0:
252,178,33032,2,0,P|231:170|211:161,1,43.5,2|4,0:0|0:0,0:0:0:0:
106,78,33190,6,0,B|69:71|50:28|50:28|41:24|41:24|87:77|59:157,1,208.8,4|0,0:0|0:0,0:0:0:0:
16,198,33506,2,0,P|32:229|78:246,1,65.25,10|0,3:2|0:0,0:0:0:0:
141,204,33822,70,0,B|154:192|170:173|170:173|160:199|156:226,1,84.8249961170198,2|0,0:0|0:0,0:0:0:0:
115,330,34138,2,0,B|128:308|122:280|122:280|128:308|155:318,1,97.8750037336351,2|0,0:0|0:0,0:0:0:0:
141,204,34453,38,0,B|101:153|153:101|141:129|193:77|153:16,1,185.3099906689,14|0,3:2|0:0,0:0:0:0:
97,0,34769,70,0,P|91:13|90:27,1,29,2|0,0:0|0:0,0:0:0:0:
236,35,34874,2,0,P|235:20|229:7,1,29,2|0,0:0|0:0,0:0:0:0:
46,109,35032,6,0,P|13:96|-1:64,1,73.0799977697755,2|0,0:0|0:0,0:0:0:0:
168,184,35401,1,2,0:0:0:0:
194,205,35506,1,0,0:0:0:0:
229,207,35611,1,0,0:0:0:0:
259,191,35716,1,4,0:0:0:0:
259,191,36032,70,0,P|285:236|337:242,1,109.619996654663,10|0,3:2|0:0,0:0:0:0:
398,190,36348,2,0,B|412:153|399:114|399:114|412:152|453:176,1,160.950003929443,2|2,0:0|0:0,0:0:0:0:
390,85,36980,2,0,P|411:37|463:32,1,109.619996654663,10|0,3:2|0:0,0:0:0:0:
329,149,37295,6,0,P|307:147|287:140,1,43.5,2|0,3:2|0:0,0:0:0:0:
398,190,37453,2,0,P|410:207|419:227,1,43.5,2|0,3:2|0:0,0:0:0:0:
390,85,37611,2,0,P|374:54|322:49,1,73.0799977697755,2|2,0:0|0:0,0:0:0:0:
202,136,37927,1,2,0:0:0:0:
185,150,38005,1,0,0:0:0:0:
165,158,38084,1,0,0:0:0:0:
143,159,38163,1,0,0:0:0:0:
127,156,38242,1,4,0:0:0:0:
123,153,38559,70,0,B|170:141|197:193|170:182|204:233|262:214,1,153.120004672852,10|0,3:2|0:0,0:0:0:0:
356,189,39032,1,2,0:0:0:0:
379,111,39190,1,2,0:0:0:0:
302,130,39348,1,2,0:0:0:0:
438,173,39506,5,10,3:2:0:0:
300,269,39664,1,0,0:0:0:0:
462,301,39822,69,2,0:0:0:0:
356,189,39980,1,2,0:0:0:0:
374,380,40138,5,2,0:0:0:0:
408,245,40295,1,2,0:0:0:0:
277,345,40453,69,2,0:0:0:0:
240,217,40610,1,0,3:0:0:0:
374,380,40769,6,0,P|383:339|398:298,1,76.5600023364259,6|2,0:0|0:0,0:0:0:0:
284,151,41085,1,10,3:2:0:0:
316,221,41243,1,2,0:0:0:0:
470,118,41401,69,2,0:0:0:0:
446,190,41559,1,2,0:0:0:0:
345,62,41716,6,0,B|357:37|350:6|350:6|357:37|386:49,1,114.840003504639,2|0,0:0|0:0,0:0:0:0:
279,24,42032,2,0,P|214:31|160:67,1,130.5,10|0,3:2|0:0,0:0:0:0:
43,122,42348,2,0,P|107:129|161:165,1,130.5,8|0,3:2|0:0,0:0:0:0:
192,234,42664,2,0,P|249:224|273:171,1,121.799996282959,2|0,0:0|3:2,0:0:0:0:
244,313,43138,1,2,0:0:0:0:
249,319,43216,1,0,0:0:0:0:
255,324,43295,70,0,P|299:334|348:361,1,87,6|2,0:0|3:2,0:0:0:0:
411,336,43611,1,10,3:2:0:0:
316,221,43769,2,0,P|301:164|289:115,1,104.4,2|0,0:0|0:0,0:0:0:0:
340,61,44085,5,2,0:0:0:0:
233,192,44243,2,0,B|199:188|172:219|197:234|168:266|107:260,1,130.5,2|0,0:0|0:0,0:0:0:0:
49,203,44559,38,0,P|75:138|143:126,1,144.855003536499,6|0,0:0|0:0,0:0:0:0:
215,92,44874,2,0,P|228:58|220:21,2,73.0799977697755,2|2|2,0:0|0:0|0:0,0:0:0:0:
215,92,45822,6,0,P|242:97|269:111,1,53.9399978600465,2|2,0:0|0:0,0:0:0:0:
349,85,46138,1,2,0:0:0:0:
349,85,46295,1,2,0:0:0:0:
315,187,46453,2,0,P|333:226|338:252,1,56.5499974113466,2|0,0:0|0:0,0:0:0:0:
195,351,46927,69,2,0:0:0:0:
154,288,47085,2,0,P|161:260|177:232,1,60.8999981414796,2|0,0:0|0:0,0:0:0:0:
135,143,47401,1,2,0:0:0:0:
139,150,47558,1,2,0:0:0:0:
244,191,47716,6,0,P|302:176|368:159,1,113.099994822693,2|2,0:0|0:0,0:0:0:0:
353,162,48190,1,2,0:0:0:0:
439,221,48348,2,0,P|464:172|446:120,1,113.099994822693,2|2,0:0|0:0,0:0:0:0:
445,119,48822,1,2,0:0:0:0:
366,243,48980,70,0,P|335:250|301:265,1,56.5499974113466,2|2,0:0|0:0,0:0:0:0:
256,121,49295,2,0,P|283:115|309:104,1,56.5499974113466,2|2,0:0|0:0,0:0:0:0:
155,245,49611,6,0,B|116:225|125:246|85:225,2,73.0799977697755,2|2|2,3:2|0:0|0:0,0:0:0:0:
155,245,50559,2,0,P|167:223|190:196,1,53.9399978600465,2|2,0:0|0:0,0:0:0:0:
135,128,50874,2,0,P|126:101|118:67,1,53.9399978600465,2|0,0:0|0:0,0:0:0:0:
185,8,51190,1,2,0:0:0:0:
185,8,51348,1,2,0:0:0:0:
238,93,51506,2,0,P|267:101|297:112,1,56.5499974113466,2|0,0:0|0:0,0:0:0:0:
413,52,51822,69,2,0:0:0:0:
409,59,51979,1,2,0:0:0:0:
451,171,52138,5,2,0:0:0:0:
412,236,52295,2,0,P|349:252|281:274,1,130.50000497818,2|2,0:0|0:0,0:0:0:0:
215,357,52769,69,2,0:0:0:0:
176,292,52927,2,0,P|113:276|45:254,1,130.50000497818,2|2,0:0|0:0,0:0:0:0:
156,159,53401,5,2,0:0:0:0:
223,199,53559,2,0,P|271:158|264:96,1,130.50000497818,2|2,0:0|0:0,0:0:0:0:
93,50,54032,69,2,0:0:0:0:
53,117,54190,2,0,P|93:165|155:158,1,130.50000497818,2|2,0:0|0:0,0:0:0:0:
264,48,54664,38,0,B|326:37|359:84|318:103|352:150|414:139,1,193.140004715332,2|0,3:2|0:0,0:0:0:0:
480,107,55138,1,2,0:0:0:0:
424,226,55295,2,0,P|388:244|360:267,1,71.340001088562,2|0,3:2|0:0,0:0:0:0:
313,323,55611,2,0,P|279:312|256:286,1,71.340001088562,2|0,0:0|0:0,0:0:0:0:
222,120,55927,70,0,P|192:140|158:148,1,71.340001088562,2|2,3:2|0:0,0:0:0:0:
192,230,56243,2,0,P|221:209|255:201,1,71.340001088562,2|0,0:0|0:0,0:0:0:0:
359,99,56559,6,0,P|369:63|383:17,1,71.340001088562,2|0,3:2|0:0,0:0:0:0:
427,135,56874,2,0,P|437:170|451:216,1,71.340001088562,2|2,0:0|0:0,0:0:0:0:
373,364,57190,70,0,P|337:338|305:326,1,71.340001088562,2|0,3:2|0:0,0:0:0:0:
262,266,57506,2,0,P|228:277|209:306,1,71.340001088562,2|0,0:0|0:0,0:0:0:0:
381,256,57822,6,0,P|413:241|441:219,1,71.340001088562,2|2,3:2|0:0,0:0:0:0:
512,278,58138,2,0,P|479:292|451:314,1,71.340001088562,2|0,0:0|0:0,0:0:0:0:
374,175,58453,70,0,P|366:140|378:107,1,71.340001088562,2|0,3:2|0:0,0:0:0:0:
320,65,58769,2,0,P|345:41|380:35,1,71.340001088562,2|2,0:0|0:0,0:0:0:0:
332,247,59085,6,0,P|303:267|268:265,1,71.340001088562,2|0,3:2|0:0,0:0:0:0:
199,306,59401,2,0,P|171:284|164:250,1,71.340001088562,2|0,0:0|0:0,0:0:0:0:
99,120,59716,69,2,3:2:0:0:
130,86,59821,1,8,2:1:0:0:
175,75,59926,1,8,2:1:0:0:
219,92,60031,1,2,0:0:0:0:
259,115,60137,1,8,2:1:0:0:
305,122,60242,1,8,2:1:0:0:
348,99,60348,5,2,3:2:0:0:
311,63,60453,1,8,2:1:0:0:
260,60,60558,1,8,2:1:0:0:
219,92,60663,1,2,0:0:0:0:
209,142,60769,1,8,2:1:0:0:
234,186,60874,1,8,2:1:0:0:
284,200,60980,69,2,3:2:0:0:
302,230,61085,1,8,2:1:0:0:
304,266,61190,1,8,2:1:0:0:
288,299,61295,1,2,0:0:0:0:
259,320,61401,1,8,2:1:0:0:
223,323,61506,1,8,2:1:0:0:
189,308,61611,6,0,P|182:282|169:250,2,52.1999984069825,2|8|8,3:2|2:1|2:1,0:0:0:0:
234,186,61927,2,0,P|240:160|249:136,2,52.1999984069825,2|8|8,0:0|2:1|2:1,0:0:0:0:
112,310,62243,70,0,P|88:304|70:287,1,49.3000009403229,2|0,3:2|0:0,0:0:0:0:
14,232,62453,2,0,P|6:208|12:185,1,49.3000009403229,8|0,2:1|0:0,0:0:0:0:
0,107,62664,2,0,P|16:89|40:82,1,49.3000009403229,8|0,2:1|0:0,0:0:0:0:
185,228,62874,6,0,P|208:222|226:205,1,49.3000009403229,2|0,3:2|0:0,0:0:0:0:
283,150,63084,2,0,P|290:126|284:103,1,49.3000009403229,8|0,2:1|0:0,0:0:0:0:
297,25,63295,2,0,P|280:7|256:0,1,49.3000009403229,8|0,2:1|0:0,0:0:0:0:
107,115,63506,69,2,0:0:0:0:
399,326,64769,38,0,B|410:345|405:371|405:371|469:360|488:286|442:250,1,189.225005774689,14|0,3:2|0:0,0:0:0:0:
336,178,65085,2,0,P|356:205|398:207,1,63.0750019248963,2|0,3:2|0:0,0:0:0:0:
472,167,65243,1,0,3:0:0:0:
364,43,65401,70,0,B|301:22|274:94|294:78|265:150|191:113,1,189.225005774689,4|0,3:2|0:0,0:0:0:0:
92,20,65716,2,0,B|75:-5|46:-5|46:-5|130:-19|145:60,1,163.125,2|0,3:2|0:0,0:0:0:0:
73,95,66032,1,10,3:2:0:0:
178,184,66190,1,0,3:0:0:0:
115,251,66348,2,0,B|44:220|11:299|11:299|56:303|75:356,1,189.225005774689,0|0,3:0|0:0,0:0:0:0:
0,384,66664,6,0,P|88:340|225:311,1,189.225005774689,6|0,3:2|0:0,0:0:0:0:
316,363,66980,2,0,P|282:355|255:306,1,63.0750019248963,2|0,3:2|0:0,0:0:0:0:
370,257,67138,1,0,3:0:0:0:
236,148,67295,70,0,B|216:112|161:119|161:119|211:119|240:167,1,163.125,8|0,3:2|0:0,0:0:0:0:
300,208,67611,1,2,3:2:0:0:
209,268,67769,1,0,3:0:0:0:
335,117,67927,6,0,B|355:56|439:59|439:59|401:72|399:112,1,189.225005774689,6|0,3:2|0:0,0:0:0:0:
312,216,68243,70,0,P|294:136|260:40,1,150.075002862454,2|0,3:2|0:0,0:0:0:0:
67,65,68559,6,0,B|47:40|11:45|11:45|66:65|84:117,1,156.599995220947,10|0,3:2|0:0,0:0:0:0:
168,123,68874,70,0,B|111:99|71:161|98:148|64:226|-9:182,1,189.225005774689,2|0,3:2|0:0,0:0:0:0:
84,320,69190,6,0,B|136:312|166:359|166:359|144:309|198:253,1,189.225005774689,6|0,3:2|0:0,0:0:0:0:
327,205,69506,70,0,B|379:213|409:166|409:166|387:216|441:272,1,189.225005774689,2|0,3:2|0:0,0:0:0:0:
209,184,69822,6,0,B|120:165|140:54|217:65|235:100|227:134,1,189.225005774689,14|0,3:2|0:0,0:0:0:0:
230,308,70138,2,0,P|209:284|181:271,1,63.0750019248963,2|0,3:2|0:0,0:0:0:0:
155,353,70295,1,0,3:0:0:0:
335,303,70453,70,0,B|361:244|423:251|423:251|364:254|347:312,1,189.225005774689,4|0,3:2|0:0,0:0:0:0:
317,376,70769,6,0,B|341:319|279:279|292:306|214:272|258:199,1,189.225005774689,2|0,3:2|0:0,0:0:0:0:
293,157,71085,1,10,3:2:0:0:
212,80,71243,1,0,3:0:0:0:
330,5,71401,2,0,B|294:68|216:50|216:50|255:40|269:-1,1,189.225005774689,0|0,3:0|0:0,0:0:0:0:
132,39,71716,70,0,P|223:61|306:106,1,189.225005774689,6|0,3:2|0:0,0:0:0:0:
465,90,72032,2,0,P|471:68|471:91,1,63.0750019248963,2|0,3:2|0:0,0:0:0:0:
414,165,72190,1,0,3:0:0:0:
402,32,72348,6,0,P|440:116|473:233,1,189.225005774689,8|0,3:2|0:0,0:0:0:0:
355,268,72664,70,0,B|244:232|244:232|286:252|288:300,1,189.225005774689,2|0,3:2|0:0,0:0:0:0:
128,351,72980,2,0,B|17:387|17:387|59:367|61:319,1,189.225005774689,6|0,3:2|0:0,0:0:0:0:
170,122,73295,6,0,B|185:200|185:200|188:201|188:201|214:333,1,189.225005774689,2|0,3:2|0:0,0:0:0:0:
328,342,73611,70,0,P|378:334|444:383,1,130.5,10|0,3:2|0:0,0:0:0:0:
440,377,73927,2,0,P|455:321|460:264,1,87,2|0,3:2|3:0,0:0:0:0:
267,158,74243,6,0,P|317:166|383:117,1,130.5,6|0,3:2|0:0,0:0:0:0:
379,122,74559,2,0,P|366:80|360:37,1,87,2|0,3:2|3:2,0:0:0:0:
131,77,74874,38,0,B|95:37|39:58|39:58|90:53|145:91|166:185,1,261,14|2,3:2|3:2,0:0:0:0:
101,332,75506,6,0,B|92:370|51:371|51:371|86:360|103:322,1,130.5,6|0,3:2|0:0,0:0:0:0:
242,231,75822,2,0,B|251:193|292:192|292:192|257:203|240:241,1,130.5,2|0,3:2|0:0,0:0:0:0:
286,369,76138,70,0,P|237:376|191:300,1,130.5,10|0,3:2|0:0,0:0:0:0:
150,247,76453,2,0,P|132:229|63:247,1,87,2|0,3:2|3:2,0:0:0:0:
193,67,76769,6,0,P|223:105|180:183,1,130.5,6|0,3:2|0:0,0:0:0:0:
74,233,77085,2,0,P|67:257|117:308,1,87,2|0,3:2|3:2,0:0:0:0:
455,320,77401,70,0,B|409:314|377:354|377:354|392:301|348:257,1,174,10|0,3:2|3:2,0:0:0:0:
295,318,77874,1,2,3:2:0:0:
246,207,78032,2,0,P|251:156|291:133,1,87,6|0,3:2|3:2,0:0:0:0:
482,81,78348,6,0,P|419:79|391:24,1,130.5,2|0,3:2|0:0,0:0:0:0:
378,19,78664,1,10,3:2:0:0:
195,73,78822,70,0,P|132:75|103:130,1,130.5,2|0,3:2|0:0,0:0:0:0:
86,137,79138,1,0,3:2:0:0:
153,318,79295,5,6,3:2:0:0:
223,259,79453,1,0,3:2:0:0:
371,148,79611,69,0,3:2:0:0:
442,214,79769,1,2,3:2:0:0:
295,359,79927,6,0,P|280:281|254:200,1,130.5,10|0,3:2|0:0,0:0:0:0:
135,86,80243,70,0,P|153:148|232:146,1,130.5,2|0,3:2|0:0,0:0:0:0:
275,107,80559,2,0,P|280:78|286:52,1,43.5,4|0,3:2|0:0,0:0:0:0:
474,229,80716,6,0,B|403:203|352:262|352:262|377:197|429:207,1,217.5,2|0,3:2|0:0,0:0:0:0:
431,313,81190,70,0,P|366:285|231:232,1,174,10|0,3:2|3:2,0:0:0:0:
175,366,81664,2,0,P|201:342|232:334,1,43.5,2|0,3:2|0:0,0:0:0:0:
117,155,81822,6,0,P|121:221|194:242,1,130.5,4|0,3:2|0:0,0:0:0:0:
180,100,82138,2,0,P|138:105|115:141,1,87,2|0,3:2|3:2,0:0:0:0:
324,330,82453,70,0,P|381:347|463:386,1,130.5,8|0,3:2|0:0,0:0:0:0:
445,376,82769,2,0,P|403:361|392:307,1,87,2|0,3:2|3:2,0:0:0:0:
192,189,83085,6,0,P|256:196|290:134,1,130.5,6|0,3:2|0:0,0:0:0:0:
290,146,83401,2,0,P|278:102|266:44,1,87,2|0,3:2|3:2,0:0:0:0:
281,51,83716,69,10,3:2:0:0:
191,178,84032,5,10,3:2:0:0:
341,329,84348,70,0,P|369:352|416:347,1,60.8999981414796,6|0,3:2|0:0,0:0:0:0:
462,162,84506,2,0,P|433:168|400:199,1,60.8999981414796,0|0,3:2|0:0,0:0:0:0:
179,356,84664,6,0,P|151:379|107:377,1,60.8999981414796,8|0,3:0|0:0,0:0:0:0:
73,191,84822,2,0,P|101:197|127:223,1,60.8999981414796,0|0,3:2|0:0,0:0:0:0:
276,373,84980,6,0,B|241:341|249:273|292:240|275:289|333:241|337:168|280:137,1,234.899992831421,14|0,3:2|0:0,0:0:0:0:
228,136,85295,2,0,B|211:174|229:232|301:248|264:210|346:225|363:273|340:347,1,234.899992831421,2|0,0:0|0:0,0:0:0:0:
429,360,85611,6,0,B|446:383|469:379|469:379|458:355|433:357,1,91.3499972122193,4|0,3:2|0:0,0:0:0:0:
479,289,85927,70,0,P|381:328|261:368,1,182.699994424439,10|0,3:2|0:0,0:0:0:0:
74,364,86243,6,0,P|108:357|132:298,1,73.9500014104843,2|0,0:0|0:0,0:0:0:0:
244,211,86401,2,0,P|233:157|225:92,1,73.9500014104843,8|0,3:2|0:0,0:0:0:0:
145,26,86559,70,0,B|102:-5|24:3|16:75|16:75|67:59|112:129,1,221.850004231453,8|0,3:2|0:0,0:0:0:0:
18,157,86874,6,0,P|77:109|223:48,1,221.850004231453,6|0,3:2|0:0,0:0:0:0:
321,25,87190,70,0,B|326:117|427:118|464:87|448:22|397:-4|361:34,1,221.850004231453,2|0,3:2|0:0,0:0:0:0:
243,146,87506,6,0,P|233:160|242:142,1,73.9500014104843,8|0,3:2|0:0,0:0:0:0:
396,261,87664,2,0,P|407:223|429:170,1,73.9500014104843,0|0,3:2|0:0,0:0:0:0:
477,355,87822,70,0,B|421:385|358:329|404:297|348:249|273:282,1,221.850004231453,2|0,3:2|0:0,0:0:0:0:
134,360,88138,6,0,B|108:314|48:328|48:328|11:258|91:227,1,195.75000746727,6|0,3:2|0:0,0:0:0:0:
79,127,88453,70,0,B|113:99|106:42|106:42|129:91|191:92,1,182.699994424439,2|0,3:2|0:0,0:0:0:0:
373,111,88769,6,0,B|407:139|396:196|396:196|423:147|485:146,1,182.699994424439,2|0,0:0|0:0,0:0:0:0:
298,7,89085,70,0,B|280:25|280:25|282:51|282:51|301:31|301:31|296:-2,1,104.4,10|0,3:2|0:0,0:0:0:0:
403,23,89401,6,0,P|285:66|137:149,1,234.899992831421,6|0,3:2|0:0,0:0:0:0:
105,129,89716,2,0,P|106:99|120:73,1,60.8999981414796,10|0,3:2|0:0,0:0:0:0:
76,270,89874,2,0,P|49:284|19:285,1,60.8999981414796,8|0,3:2|0:0,0:0:0:0:
360,368,90032,70,0,B|332:321|270:332|270:332|223:279|269:209|326:224,1,247.949993379021,14|0,3:2|0:0,0:0:0:0:
473,180,90348,6,0,B|536:158|526:63|418:59|368:141|414:242,1,287.100008761597,2|0,3:2|0:0,0:0:0:0:
443,329,90664,70,0,P|476:336|518:369,1,78.2999976104737,4|0,3:2|0:0,0:0:0:0:
512,276,90980,6,0,P|438:300|315:349,1,182.699994424439,10|0,3:2|0:0,0:0:0:0:
269,366,91295,70,0,P|264:336|271:306,1,60.8999981414796,2|0,0:0|0:0,0:0:0:0:
321,189,91453,2,0,P|310:144|298:100,1,60.8999981414796,8|0,3:2|0:0,0:0:0:0:
148,65,91611,6,0,B|106:39|25:67|21:147|21:147|48:96|104:101,1,247.949993379021,8|0,3:2|0:0,0:0:0:0:
188,4,91927,70,0,P|158:102|135:226,1,182.699994424439,6|0,3:2|0:0,0:0:0:0:
142,352,92243,2,0,P|122:262|95:175,1,182.699994424439,2|0,3:2|0:0,0:0:0:0:
180,122,92559,6,0,P|213:142|274:149,1,73.9500014104843,10|0,3:2|0:0,0:0:0:0:
298,227,92716,2,0,P|333:218|365:199,1,73.9500014104843,0|0,3:2|0:0,0:0:0:0:
385,43,92874,2,0,P|375:92|359:134,1,73.9500014104843,2|0,3:2|0:0,0:0:0:0:
480,182,93032,2,0,P|490:231|506:273,1,73.9500014104843,0|0,3:2|0:0,0:0:0:0:
348,344,93190,70,0,B|293:324|251:380|251:380|183:350|219:277,1,208.8,6|0,3:2|0:0,0:0:0:0:
163,235,93506,2,0,P|140:218|93:215,1,69.6,0|0,3:2|0:0,0:0:0:0:
226,126,93664,2,0,P|260:123|288:104,1,69.6
40,8,93822,6,0,L|63:104,1,69.6,2|0,3:2|0:0,0:0:0:0:
18,263,93980,1,8,3:2:0:0:
17,274,94059,1,8,3:2:0:0:
16,288,94138,2,0,B|61:311|109:274|71:256|131:206|185:246,1,169.64999223404,10|0,3:2|0:0,0:0:0:0:
307,129,94453,70,0,B|310:83|357:71|357:71|283:36|193:86|213:184,1,287.100008761597,14|0,3:2|0:0,0:0:0:0:
274,257,94769,6,0,P|333:277|357:300,1,78.2999976104737,10|0,3:2|0:0,0:0:0:0:
150,345,95085,38,0,B|84:317|90:205|144:188|139:230|224:171|208:71|126:53,1,337.995008251831,4|0,3:2|0:0,0:0:0:0:
66,45,95716,2,0,B|34:48|9:11|9:11|24:62|70:63,1,144.855003536499,4|0,0:0|0:0,0:0:0:0:
108,131,96032,6,0,P|73:142|55:198,1,88.740000541626,10|0,3:2|0:0,0:0:0:0:
39,195,96348,1,2,0:0:0:0:
33,376,96506,70,0,L|19:331,1,29.580000180542,8|0,3:2|0:0,0:0:0:0:
224,280,96664,6,0,P|278:291|356:346,1,144.855003536499,10|0,3:2|0:0,0:0:0:0:
360,343,96980,2,0,P|371:292|417:239,1,101.790003417023,6|0,0:0|0:0,0:0:0:0:
474,244,97295,2,0,P|462:211|420:185,1,75.6900023098756,10|0,3:2|0:0,0:0:0:0:
328,24,97611,70,0,P|306:42|269:47,1,48.285001178833,10|0,3:2|0:0,0:0:0:0:
134,165,97769,2,0,P|120:129|104:99,1,48.285001178833,8|0,3:2|0:0,0:0:0:0:
303,227,97927,6,0,P|282:286|265:389,1,144.855003536499,10|0,3:2|0:0,0:0:0:0:
266,366,98243,2,0,P|222:384|171:300,1,127.889998829132,4|0,0:0|0:0,0:0:0:0:
178,322,98559,1,10,3:2:0:0:
101,198,98716,2,0,P|42:182|-1:242,1,135.72000455603,4|12,0:0|3:2,0:0:0:0:
237,235,99190,70,0,P|311:250|399:285,1,144.855003536499,10|0,3:2|0:0,0:0:0:0:
484,179,99506,2,0,P|459:235|350:198,1,157.904995542538,6|0,0:0|0:0,0:0:0:0:
320,177,99822,6,0,P|332:140|350:104,1,52.6349985141793,8|0,3:2|0:0,0:0:0:0:
175,11,99980,2,0,P|184:35|192:60,1,52.6349985141793,8|0,3:2|0:0,0:0:0:0:
79,183,100138,70,0,B|60:151|13:152|13:152|70:136|108:183,1,163.125,12|0,3:2|0:0,0:0:0:0:
195,285,100453,2,0,B|220:318|277:302|277:302|229:301|211:271,1,163.125,8|0,3:2|0:0,0:0:0:0:
148,120,100769,6,0,P|123:197|101:276,1,163.125,4|0,0:0|0:0,0:0:0:0:
109,358,101085,70,0,B|138:305|74:257|86:287|15:254|57:178,1,191.400005841065,10|0,3:2|0:0,0:0:0:0:
95,122,101559,2,0,P|93:115|95:118,1,29.580000180542,8|0,3:2|0:0,0:0:0:0:
18,61,101716,6,0,P|84:88|154:108,1,144.855003536499,8|0,3:2|0:0,0:0:0:0:
325,15,102032,70,0,P|292:59|302:102,1,88.740000541626,6|0,0:0|0:0,0:0:0:0:
273,238,102348,6,0,P|286:268|296:309,1,62.6400015292969,10|0,3:2|0:0,0:0:0:0:
240,363,102664,70,0,P|214:363|181:337,1,48.285001178833,10|0,3:2|0:0,0:0:0:0:
376,257,102822,2,0,P|404:265|438:281,1,48.285001178833,0|0,3:2|0:0,0:0:0:0:
204,125,102980,6,0,P|205:102|227:65,1,48.285001178833,2|0,3:2|0:0,0:0:0:0:
139,226,103138,2,0,P|116:235|93:241,1,48.285001178833,0|0,3:2|0:0,0:0:0:0:
354,104,103295,70,0,P|411:120|493:159,1,144.855003536499,6|0,0:0|0:0,0:0:0:0:
479,168,103611,1,10,3:2:0:0:
263,273,103769,6,0,P|235:230|268:163,1,118.320000722168,4|4,0:0|0:0,0:0:0:0:
354,18,104243,2,0,P|364:63|376:99,1,59.160000361084,10|0,3:2|0:0,0:0:0:0:
56,129,104559,70,0,B|91:109|128:141|128:141|138:185|186:186,1,144.855003536499,4|0,0:0|0:0,0:0:0:0:
245,188,104874,2,0,P|180:213|93:273,1,153.120004672852,10|0,3:2|0:0,0:0:0:0:
