osu file format v14

[General]
AudioFilename: Reol - WAVE.mp3
AudioLeadIn: 0
PreviewTime: 48012
Countdown: 0
SampleSet: Normal
StackLeniency: 0.7
Mode: 0
LetterboxInBreaks: 1
WidescreenStoryboard: 0

[Editor]
DistanceSpacing: 1.5
BeatDivisor: 4
GridSize: 32
TimelineZoom: 1.5

[Metadata]
Title:WAVE
TitleUnicode:WAVE
Artist:Reol
ArtistUnicode:れをる
Creator:ffstar0716
Version:Insane
Source:
Tags:niki EZFG Lily
BeatmapID:807362
BeatmapSetID:368227

[Difficulty]
HPDrainRate:6.5
CircleSize:4
OverallDifficulty:8
ApproachRate:9
SliderMultiplier:2
SliderTickRate:1

[Events]
//Background and Video events
0,0,"BG.jpg",0,0
//Break Periods
2,67250,80989
2,118942,119758
2,120789,121604
//Storyboard Layer 0 (Background)
//Storyboard Layer 1 (Fail)
//Storyboard Layer 2 (Pass)
//Storyboard Layer 3 (Foreground)
//Storyboard Sound Samples

[TimingPoints]
589,461.538461538462,4,1,0,60,1,0
14781,-100,4,1,0,15,0,0
14896,-50,4,1,0,60,0,0
15358,-100,4,1,0,60,0,0
21819,-50,4,1,0,60,0,0
22742,-100,4,1,0,60,0,0
29665,-50,4,1,0,60,0,0
30127,-100,4,1,0,60,0,0
48127,-125,4,1,0,60,0,0
48589,-83.3333333333333,4,1,0,60,0,1
65089,-83.3333333333333,4,1,0,60,0,0
65204,-83.3333333333333,4,1,0,60,0,1
65319,-83.3333333333333,4,1,0,60,0,0
65665,-83.3333333333333,4,1,0,60,0,1
65781,-83.3333333333333,4,1,0,60,0,0
66127,-83.3333333333333,4,1,0,60,0,1
66242,-83.3333333333333,4,1,0,60,0,0
66589,-50,4,1,0,60,0,0
67050,-100,4,1,0,60,0,0
100281,-83.3333333333333,4,1,0,60,0,1
116781,-83.3333333333333,4,1,0,60,0,0
116896,-83.3333333333333,4,1,0,60,0,1
117012,-83.3333333333333,4,1,0,60,0,0
117358,-83.3333333333333,4,1,0,60,0,1
117473,-83.3333333333333,4,1,0,60,0,0
117819,-83.3333333333333,4,1,0,60,0,1
117935,-83.3333333333333,4,1,0,60,0,0
118281,-50,4,1,0,60,0,0
118742,-100,4,1,0,60,0,0
125896,-100,4,1,0,15,0,0
126127,-100,4,1,0,60,0,0
146896,-66.6666666666667,4,1,0,60,0,0
147358,-50,4,1,0,60,0,0
148281,-83.3333333333333,4,1,0,60,0,1
155550,-83.3333333333333,4,1,0,60,0,0
155665,-83.3333333333333,4,1,0,60,0,1
155781,-83.3333333333333,4,1,0,60,0,0
156012,-83.3333333333333,4,1,0,60,0,1
156127,-83.3333333333333,4,1,0,60,0,0
156358,-83.3333333333333,4,1,0,60,0,1
156473,-83.3333333333333,4,1,0,60,0,0
157512,-83.3333333333333,4,1,0,60,0,1
157627,-83.3333333333333,4,1,0,60,0,0
157858,-83.3333333333333,4,1,0,60,0,1
157973,-83.3333333333333,4,1,0,60,0,0
158204,-83.3333333333333,4,1,0,60,0,1
158319,-83.3333333333333,4,1,0,60,0,0
159358,-83.3333333333333,4,1,0,60,0,1
159473,-83.3333333333333,4,1,0,60,0,0
159704,-83.3333333333333,4,1,0,60,0,1
159819,-83.3333333333333,4,1,0,60,0,0
160050,-83.3333333333333,4,1,0,60,0,1
160165,-83.3333333333333,4,1,0,60,0,0
163050,-83.3333333333333,4,1,0,60,0,1
168589,-83.3333333333333,4,1,0,60,0,0
170435,-83.3333333333333,4,1,0,60,0,1
185204,-83.3333333333333,4,1,0,60,0,0

[HitObjects]
256,192,11665,12,0,14781,0:0:0:0:
440,104,14896,6,2,B|476:132|424:156|424:156|376:184|348:232|376:360|476:212|308:224,1,300,2|0,0:0|0:0,0:0:0:0:
316,216,15358,6,0,P|296:168|320:124,1,100,4|0,0:0|0:0,0:0:0:0:
368,72,15704,1,0,0:0:0:0:
312,24,15819,1,8,0:0:0:0:
80,120,16050,2,0,P|144:136|220:92,1,150
233,25,16512,1,0,0:0:0:0:
22,301,16742,1,8,0:0:0:0:
22,301,16973,1,0,0:0:0:0:
93,278,17089,1,0,0:0:0:0:
164,300,17204,6,0,P|213:316|266:291,1,100,4|0,3:0|0:0,0:0:0:0:
428,258,17550,2,0,P|379:242|326:267,1,100,4|0,3:0|0:0,0:0:0:0:
183,171,17896,2,0,L|275:233,1,100,4|0,3:0|0:0,0:0:0:0:
265,226,18242,1,0,0:0:0:0:
265,226,18358,1,0,0:0:0:0:
48,106,18589,1,8,0:0:0:0:
298,88,18819,2,0,L|352:82,1,50
396,24,19050,6,0,L|363:159,1,100
389,194,19396,1,0,0:0:0:0:
418,263,19512,1,8,0:0:0:0:
121,230,19742,2,0,P|189:209|276:241,1,150
319,279,20204,1,0,0:0:0:0:
182,70,20435,1,8,0:0:0:0:
182,70,20550,2,0,P|142:83|81:63,1,100,2|0,0:0|0:0,0:0:0:0:
22,30,20896,6,0,L|43:132,1,100,4|0,3:0|0:0,0:0:0:0:
152,265,21242,2,0,L|131:167,1,100,4|0,3:0|0:0,0:0:0:0:
88,338,21589,1,4,3:0:0:0:
22,30,21819,6,0,L|43:132,1,100
152,265,22050,2,0,L|131:167,1,100
88,338,22281,2,0,P|171:368|244:295,1,200,8|0,0:0|0:0,0:0:0:0:
365,79,22742,5,4,0:0:0:0:
426,323,22973,1,0,0:0:0:0:
451,252,23089,1,0,0:0:0:0:
376,260,23204,2,0,L|278:277,1,100,8|0,0:0|0:0,0:0:0:0:
123,194,23550,2,0,L|221:211,1,100,8|0,0:0|0:0,0:0:0:0:
365,79,23896,1,0,0:0:0:0:
124,194,24127,1,8,0:0:0:0:
376,260,24358,1,0,0:0:0:0:
451,252,24473,1,0,0:0:0:0:
426,323,24589,6,0,P|372:342|329:323,1,100,4|0,3:0|0:0,0:0:0:0:
190,228,24935,2,0,P|246:238|274:276,1,100,4|0,3:0|0:0,0:0:0:0:
95,269,25281,2,0,P|51:231|46:184,1,100,4|0,3:0|0:0,0:0:0:0:
55,117,25627,1,0,0:0:0:0:
114,71,25742,1,0,0:0:0:0:
365,79,25973,2,0,P|329:109|274:103,1,100,8|0,0:0|0:0,0:0:0:0:
218,59,26319,1,0,0:0:0:0:
278,105,26435,5,0,0:0:0:0:
374,336,26665,1,0,0:0:0:0:
400,265,26781,1,0,0:0:0:0:
426,194,26896,2,0,L|474:295,1,100,8|0,0:0|0:0,0:0:0:0:
340,164,27242,2,0,L|403:71,1,100,8|0,0:0|0:0,0:0:0:0:
357,253,27589,2,0,L|245:244,1,100,0|8,0:0|0:0,0:0:0:0:
426,194,28050,1,0,0:0:0:0:
400,265,28165,1,0,0:0:0:0:
374,336,28281,5,4,3:0:0:0:
137,77,28512,1,0,0:0:0:0:
206,105,28627,1,4,3:0:0:0:
267,62,28742,2,0,P|315:46|363:67,1,100,8|4,0:0|3:0,0:0:0:0:
265,350,29204,2,0,L|236:293,2,50
58,208,29665,6,0,P|107:197|157:215,1,100,8|0,0:0|0:0,0:0:0:0:
400,265,29896,2,0,P|351:276|301:258,1,100,0|0,0:0|0:0,0:0:0:0:
235,72,30127,6,0,L|241:181,1,100
272,240,30473,1,0,0:0:0:0:
315,301,30589,2,0,L|309:201,1,100
120,21,31050,1,0,0:0:0:0:
187,52,31165,1,0,0:0:0:0:
243,273,31396,1,0,0:0:0:0:
168,261,31512,1,0,0:0:0:0:
127,324,31627,1,0,0:0:0:0:
53,313,31742,1,0,0:0:0:0:
33,240,31858,1,0,0:0:0:0:
80,182,31973,6,0,P|129:194|176:183,1,100
428,187,32319,1,0,0:0:0:0:
372,136,32435,2,0,P|324:123|276:136,1,100
263,210,32781,2,0,L|272:53,1,150
22,58,33242,1,0,0:0:0:0:
90,89,33358,2,0,P|140:105|189:84,1,100
428,40,33819,6,0,P|378:59|332:47,1,100
260,31,34165,1,0,0:0:0:0:
202,79,34281,2,0,L|185:182,1,100
378,338,34742,1,0,0:0:0:0:
308,308,34858,2,0,P|255:296|203:325,1,100
159,365,35204,1,0,0:0:0:0:
88,341,35319,1,0,0:0:0:0:
72,267,35435,1,0,0:0:0:0:
123,212,35550,1,0,0:0:0:0:
192,240,35665,6,0,L|142:146,1,100
292,12,36012,1,0,0:0:0:0:
224,52,36127,2,0,P|176:63|123:47,1,100
302,151,36473,1,0,0:0:0:0:
377,150,36589,2,0,P|406:161|422:178,1,50
435,246,36819,5,0,0:0:0:0:
382,300,36935,1,0,0:0:0:0:
308,315,37050,1,0,0:0:0:0:
236,294,37165,1,0,0:0:0:0:
164,269,37281,2,0,P|137:264|110:269,1,50
69,327,37512,6,0,L|61:222,1,100
166,86,37858,1,0,0:0:0:0:
103,127,37973,2,0,P|50:143|7:130,1,100
166,86,38319,1,0,0:0:0:0:
233,120,38434,2,0,P|273:157|283:201,1,100
274,275,38781,1,0,0:0:0:0:
324,329,38896,2,0,P|347:334|378:329,1,50
508,265,39127,2,0,P|485:260|454:265,1,50
324,329,39358,6,0,L|335:228,1,100
303,57,39704,1,0,0:0:0:0:
303,57,39819,2,0,L|292:156,1,100
104,84,40165,1,0,0:0:0:0:
104,84,40281,2,0,P|156:75|200:97,1,100
395,133,40627,1,0,0:0:0:0:
341,184,40742,2,0,P|315:199|287:200,1,50
175,177,40973,2,0,P|194:191|218:197,1,50
444,194,41204,6,0,P|474:143|465:101,1,100
374,224,41550,1,0,0:0:0:0:
394,295,41665,2,0,P|423:346|464:359,1,100
379,146,42012,1,0,0:0:0:0:
307,127,42127,2,0,P|247:126|215:155,1,100
21,43,42473,1,0,0:0:0:0:
21,43,42589,2,0,L|78:59,1,50
113,199,42819,2,0,L|78:163,1,50
62,313,43050,6,0,P|111:333|158:313,1,100
326,290,43396,1,0,0:0:0:0:
326,290,43512,2,0,P|277:270|230:290,1,100
473,363,43973,2,0,L|479:206,2,150
411,20,44896,6,0,L|405:169,2,150
275,84,45819,2,0,P|225:94|176:76,1,100
39,24,46281,1,0,0:0:0:0:
229,187,46512,1,0,0:0:0:0:
411,20,46742,6,0,L|408:89,1,50
325,307,47089,2,0,L|327:257,1,50
78,229,47435,1,0,0:0:0:0:
78,229,47550,1,0,0:0:0:0:
78,229,47665,2,0,P|118:261|165:252,1,100
282,235,48127,6,0,L|209:330,1,120
255,156,48589,6,0,P|317:157|355:197,1,119.999996337891
174,187,48935,2,0,P|112:186|74:146,1,119.999996337891
370,267,49281,1,0,0:0:0:0:
59,76,49512,1,0,0:0:0:0:
59,76,49627,1,0,0:0:0:0:
59,76,49742,1,0,0:0:0:0:
190,347,49973,1,0,0:0:0:0:
358,30,50204,1,0,0:0:0:0:
393,112,50319,1,0,0:0:0:0:
428,195,50435,6,0,L|474:307,1,119.999996337891
260,316,50781,2,0,L|370:267,1,119.999996337891
190,347,51127,1,0,0:0:0:0:
393,112,51358,1,0,0:0:0:0:
393,112,51473,1,0,0:0:0:0:
393,112,51589,1,0,0:0:0:0:
59,76,51819,1,0,0:0:0:0:
190,347,52050,1,0,0:0:0:0:
260,316,52165,1,0,0:0:0:0:
330,285,52281,6,0,L|212:256,1,119.999996337891
11,194,52627,2,0,L|129:165,1,119.999996337891
103,345,52973,1,0,0:0:0:0:
264,25,53204,1,0,0:0:0:0:
304,105,53319,1,0,0:0:0:0:
393,112,53435,1,0,0:0:0:0:
38,77,53665,1,0,0:0:0:0:
393,112,53896,1,0,0:0:0:0:
304,105,54012,1,0,0:0:0:0:
215,93,54127,6,0,L|266:219,1,119.999996337891
471,223,54473,2,0,P|416:202|360:223,1,119.999996337891
152,188,54819,1,0,0:0:0:0:
492,310,55050,1,0,0:0:0:0:
414,354,55165,1,0,0:0:0:0:
338,303,55281,1,0,0:0:0:0:
152,188,55512,1,0,0:0:0:0:
414,354,55742,1,0,0:0:0:0:
492,310,55857,1,0,0:0:0:0:
471,223,55973,6,0,P|416:202|360:223,1,119.999996337891
199,88,56319,2,0,L|311:141,1,119.999996337891
96,121,56665,1,0,0:0:0:0:
417,279,56896,1,0,0:0:0:0:
417,279,57012,1,0,0:0:0:0:
417,279,57127,1,0,0:0:0:0:
124,346,57358,1,0,0:0:0:0:
459,105,57589,1,0,0:0:0:0:
438,192,57704,1,0,0:0:0:0:
417,279,57819,6,0,P|361:296|301:278,1,119.999996337891
57,256,58165,2,0,L|166:198,1,119.999996337891
43,336,58512,1,0,0:0:0:0:
224,27,58742,1,0,0:0:0:0:
224,27,58858,1,0,0:0:0:0:
224,27,58973,1,0,0:0:0:0:
34,174,59204,1,0,0:0:0:0:
43,336,59435,1,0,0:0:0:0:
57,256,59550,1,0,0:0:0:0:
34,174,59665,6,0,P|12:113|43:62,1,119.999996337891
209,125,60012,2,0,P|148:147|97:116,1,119.999996337891
276,70,60358,2,0,P|298:131|267:182,1,119.999996337891
273,176,60704,1,0,0:0:0:0:
273,176,60819,1,0,0:0:0:0:
94,20,61050,1,0,0:0:0:0:
344,283,61281,1,0,0:0:0:0:
429,309,61396,1,0,0:0:0:0:
339,321,61512,6,0,L|213:336,1,119.999996337891
43,219,61858,2,0,P|100:237|137:285,1,119.999996337891
117,103,62204,1,0,0:0:0:0:
474,64,62435,1,0,0:0:0:0:
406,122,62550,1,0,0:0:0:0:
319,96,62665,1,0,0:0:0:0:
493,261,62896,1,0,0:0:0:0:
212,39,63127,1,0,0:0:0:0:
229,341,63358,6,0,P|290:354|336:322,1,119.999996337891
372,241,63704,1,0,0:0:0:0:
313,173,63819,1,0,0:0:0:0:
33,280,64050,1,0,0:0:0:0:
313,173,64281,6,0,P|326:112|294:66,1,119.999996337891
213,30,64627,1,0,0:0:0:0:
145,89,64742,1,0,0:0:0:0:
252,369,64973,1,0,0:0:0:0:
33,280,65204,5,0,0:0:0:0:
474,89,65665,1,0,0:0:0:0:
145,89,66127,1,0,0:0:0:0:
361,349,66589,2,0,B|388:331|420:351|420:351|481:316|381:271|444:197|444:197|508:141|469:229|460:209,1,300
361,349,67050,5,0,0:0:0:0:
412,122,81589,5,0,0:0:0:0:
412,122,81819,2,0,P|368:144|320:133,1,100
150,93,82165,1,0,0:0:0:0:
150,93,82281,2,0,L|230:182,1,100
424,308,82742,2,0,P|387:304|374:311,1,50
227,328,83089,1,0,0:0:0:0:
266,264,83204,1,0,0:0:0:0:
230,198,83319,1,0,0:0:0:0:
154,198,83435,1,0,0:0:0:0:
116,262,83550,1,0,0:0:0:0:
190,259,83665,6,0,L|192:156,1,100
100,38,84012,1,0,0:0:0:0:
100,38,84127,2,0,L|98:137,1,100
44,190,84473,2,0,P|97:143|163:170,1,150
289,294,84935,1,0,0:0:0:0:
289,294,85050,2,0,L|358:217,1,100
176,311,85512,6,0,L|80:357,1,100
190,212,85858,1,0,0:0:0:0:
190,212,85973,2,0,L|259:135,1,100
79,44,86435,1,0,0:0:0:0:
150,66,86550,2,0,P|199:76|247:50,1,100
311,25,86896,1,0,0:0:0:0:
386,30,87012,1,0,0:0:0:0:
417,97,87127,1,0,0:0:0:0:
376,160,87242,1,0,0:0:0:0:
300,162,87358,6,0,P|337:201|333:245,1,100
279,384,87704,1,0,0:0:0:0:
279,384,87819,2,0,P|242:345|246:301,1,100
395,324,88165,1,0,0:0:0:0:
395,324,88281,6,0,L|425:349,1,25
467,255,88396,6,0,L|437:280,1,25
395,186,88512,6,0,L|425:211,1,25
467,117,88627,6,0,L|437:142,1,25
395,48,88742,6,0,P|356:26|306:49,1,100
58,69,89204,6,0,P|112:82|150:61,1,100
260,164,89550,1,0,0:0:0:0:
260,164,89665,2,0,P|268:212|243:253,1,100
393,238,90012,1,0,0:0:0:0:
393,238,90127,2,0,P|434:212|482:221,1,100
195,196,90473,1,0,0:0:0:0:
195,196,90589,2,0,L|145:189,1,50
8,247,90819,2,0,L|58:254,1,50
361,133,91050,6,0,L|261:117,1,100
459,74,91396,1,0,0:0:0:0:
459,74,91512,2,0,L|359:58,1,100
130,162,91858,1,0,0:0:0:0:
130,162,91973,2,0,L|228:177,1,100
108,50,92319,1,0,0:0:0:0:
108,50,92435,2,0,P|74:66|67:82,1,50
108,271,92665,2,0,P|84:264|68:245,1,50
159,158,92896,6,0,L|257:173,1,100
389,384,93242,1,0,0:0:0:0:
359,314,93358,2,0,L|322:221,1,100
436,7,93703,1,0,0:0:0:0:
390,67,93819,2,0,L|328:144,1,100
108,50,94165,1,0,0:0:0:0:
179,26,94281,2,0,P|206:22|233:28,1,50
358,105,94512,2,0,P|331:109|304:103,1,50
130,194,94742,6,0,L|211:133,1,100
44,199,95089,1,0,0:0:0:0:
44,199,95204,2,0,P|55:250|96:274,1,100
391,230,95665,2,0,L|240:230,2,150
110,118,96589,6,0,L|261:118,2,150
290,29,97512,2,0,L|357:109,1,100
169,30,97973,1,0,0:0:0:0:
303,242,98204,1,0,0:0:0:0:
474,59,98435,5,0,0:0:0:0:
415,11,98550,1,0,0:0:0:0:
487,251,98781,5,0,0:0:0:0:
428,203,98896,1,0,0:0:0:0:
369,155,99012,1,0,0:0:0:0:
486,292,99242,5,0,0:0:0:0:
427,244,99357,1,0,0:0:0:0:
169,30,99589,2,0,L|186:55,1,25
303,242,99819,2,0,L|323:210,1,25
415,11,100050,2,0,L|379:19,1,25
110,165,100281,6,0,P|168:142|227:175,1,119.999996337891
428,159,100627,2,0,P|392:112|334:105,1,119.999996337891
487,251,100973,1,0,0:0:0:0:
248,72,101204,1,0,0:0:0:0:
248,72,101319,1,0,0:0:0:0:
248,72,101435,1,0,0:0:0:0:
378,338,101665,1,0,0:0:0:0:
82,144,101896,1,0,0:0:0:0:
165,108,102011,1,0,0:0:0:0:
248,72,102127,6,0,P|307:54|364:74,1,119.999996337891
155,26,102473,2,0,P|96:44|39:24,1,119.999996337891
434,123,102819,1,0,0:0:0:0:
192,242,103050,1,0,0:0:0:0:
220,157,103166,1,0,0:0:0:0:
248,72,103281,1,0,0:0:0:0:
378,338,103512,1,0,0:0:0:0:
248,72,103742,1,0,0:0:0:0:
220,157,103857,1,0,0:0:0:0:
192,242,103973,6,0,B|128:264|98:229|98:229|122:219,1,119.999996337891
108,42,104319,2,0,B|159:86|143:129|143:129|123:114,1,119.999996337891
323,37,104665,1,0,0:0:0:0:
18,165,104896,1,0,0:0:0:0:
18,165,105012,1,0,0:0:0:0:
18,165,105127,1,0,0:0:0:0:
323,37,105358,1,0,0:0:0:0:
483,211,105589,1,0,0:0:0:0:
403,170,105704,1,0,0:0:0:0:
392,259,105819,6,0,L|379:382,1,119.999996337891
323,129,106165,2,0,L|310:252,1,119.999996337891
253,4,106512,1,0,0:0:0:0:
483,211,106742,1,0,0:0:0:0:
403,170,106857,1,0,0:0:0:0:
323,129,106973,1,0,0:0:0:0:
157,304,107204,1,0,0:0:0:0:
392,259,107435,1,0,0:0:0:0:
403,170,107550,1,0,0:0:0:0:
414,81,107665,6,0,B|350:21|350:21|365:57,1,119.999996337891
213,79,108012,2,0,B|125:76|125:76|155:63,1,119.999996337891
20,130,108358,1,0,0:0:0:0:
323,129,108589,1,0,0:0:0:0:
323,129,108704,1,0,0:0:0:0:
323,129,108819,1,0,0:0:0:0:
40,30,109050,1,0,0:0:0:0:
146,311,109281,1,0,0:0:0:0:
146,311,109396,1,0,0:0:0:0:
146,311,109512,6,0,L|252:241,1,119.999996337891
441,325,109858,2,0,P|382:338|330:312,1,119.999996337891
208,140,110204,1,0,0:0:0:0:
486,258,110435,1,0,0:0:0:0:
486,258,110550,1,0,0:0:0:0:
486,258,110665,1,0,0:0:0:0:
256,333,110896,1,0,0:0:0:0:
413,77,111127,1,0,0:0:0:0:
432,164,111242,1,0,0:0:0:0:
447,74,111358,6,0,L|357:216,1,119.999996337891
220,254,111704,2,0,L|284:152,1,119.999996337891
57,332,112050,1,0,0:0:0:0:
77,93,112281,2,0,L|100:155,2,59.9999981689454
168,377,112742,1,0,0:0:0:0:
111,23,112973,1,0,0:0:0:0:
146,106,113089,1,0,0:0:0:0:
181,189,113204,6,0,P|224:152|229:88,1,119.999996337891
351,266,113550,2,0,P|297:247|239:274,1,119.999996337891
332,80,113896,2,0,P|342:135|395:172,1,119.999996337891
391,171,114242,1,0,0:0:0:0:
391,171,114358,1,0,0:0:0:0:
157,273,114589,1,0,0:0:0:0:
271,17,114819,1,0,0:0:0:0:
435,244,115050,6,0,L|458:124,1,119.999996337891
473,215,115396,1,0,0:0:0:0:
488,303,115512,1,0,0:0:0:0:
112,143,115742,1,0,0:0:0:0:
391,171,115973,6,0,L|298:250,1,119.999996337891
385,218,116319,1,0,0:0:0:0:
469,187,116435,1,0,0:0:0:0:
112,143,116665,1,0,0:0:0:0:
488,303,116896,5,0,0:0:0:0:
271,17,117358,1,0,0:0:0:0:
99,333,117819,1,0,0:0:0:0:
181,66,118281,2,0,B|207:96|200:135|200:135|244:95|319:99|353:130|353:130|315:162|298:128,1,300
98,38,118742,5,0,0:0:0:0:
98,38,120358,5,0,0:0:0:0:
98,38,120589,1,0,0:0:0:0:
414,346,122204,5,0,0:0:0:0:
414,346,122435,1,0,0:0:0:0:
414,346,123819,5,0,0:0:0:0:
256,192,124281,12,0,125896,0:0:0:0:
418,74,126127,6,0,P|363:89|322:66,1,100
219,137,126473,1,0,0:0:0:0:
219,137,126589,2,0,L|254:41,1,100
304,159,126935,2,0,L|269:252,1,100
135,71,127281,1,0,0:0:0:0:
269,252,127512,1,0,0:0:0:0:
21,235,127742,1,0,0:0:0:0:
80,281,127858,1,0,0:0:0:0:
149,254,127973,6,0,P|184:217|176:162,1,100
307,165,128319,2,0,P|274:200|225:201,1,100
146,104,128665,1,0,0:0:0:0:
399,267,128896,2,0,L|357:241,2,50
383,18,129358,1,0,0:0:0:0:
399,267,129589,1,0,0:0:0:0:
446,209,129704,1,0,0:0:0:0:
421,138,129819,6,0,P|373:116|327:129,1,100
276,181,130165,1,0,0:0:0:0:
276,181,130281,2,0,L|278:81,1,100
276,257,130627,1,0,0:0:0:0:
139,113,130858,2,0,L|123:62,2,50
177,178,131204,2,0,L|212:71,1,100
223,156,131550,1,0,0:0:0:0:
238,230,131665,6,0,P|282:250|329:231,1,100
474,191,132012,2,0,P|430:171|383:190,1,100
500,93,132358,1,0,0:0:0:0:
312,24,132589,1,0,0:0:0:0:
312,24,132704,1,0,0:0:0:0:
312,24,132819,1,0,0:0:0:0:
238,230,133050,1,0,0:0:0:0:
53,61,133281,2,0,L|106:66,1,50
162,20,133512,6,0,L|131:156,1,100
65,218,133858,1,0,0:0:0:0:
65,218,133973,2,0,P|114:219|144:257,1,100
221,356,134319,2,0,L|227:247,1,100
263,136,134665,2,0,L|297:184,2,50
387,50,135127,1,0,0:0:0:0:
400,123,135242,1,0,0:0:0:0:
413,196,135358,6,0,L|431:301,1,100
297,365,135704,2,0,L|354:283,1,100
255,296,136050,2,0,L|156:312,1,100
156,312,136396,1,0,0:0:0:0:
156,312,136512,1,0,0:0:0:0:
402,357,136742,1,0,0:0:0:0:
243,165,136973,1,0,0:0:0:0:
243,165,137089,1,0,0:0:0:0:
243,165,137204,5,0,0:0:0:0:
69,67,137435,1,0,0:0:0:0:
80,140,137550,1,0,0:0:0:0:
91,213,137665,2,0,L|108:313,1,100
173,233,138012,2,0,L|156:134,1,100
25,291,138358,2,0,L|33:347,2,50
69,67,138819,1,0,0:0:0:0:
80,140,138934,1,0,0:0:0:0:
91,213,139050,6,0,L|108:313,1,100
236,196,139396,2,0,L|143:162,1,100
177,331,139742,2,0,L|254:268,1,100
69,67,140204,1,0,0:0:0:0:
169,248,140435,1,0,0:0:0:0:
275,70,140665,1,0,0:0:0:0:
69,67,140896,6,0,P|114:109|196:98,2,150
275,70,141819,2,0,P|324:66|364:99,1,100
415,236,142281,2,0,L|455:141,1,100
336,237,142742,6,0,P|351:290|481:281,1,200
256,37,143435,2,0,L|256:240,1,200
415,236,144127,1,0,0:0:0:0:
37,93,144358,6,0,P|126:67|176:147,1,200
256,312,145050,1,0,0:0:0:0:
484,49,145281,6,0,P|421:80|299:47,1,200
97,148,145973,1,0,0:0:0:0:
415,236,146204,1,0,0:0:0:0:
256,312,146435,6,0,P|218:269|258:185,1,150
261,182,146896,6,0,P|293:118|190:23,1,225.000008583069
181,25,147358,6,0,B|267:89|387:18|387:18|396:68|330:56,1,300
336,57,147819,5,0,0:0:0:0:
336,57,148050,1,0,0:0:0:0:
417,285,148281,6,0,B|454:229|426:195|426:195|415:235,1,119.999996337891
512,82,148627,2,0,B|445:77|429:119|429:119|469:108,1,119.999996337891
288,101,148973,2,0,B|317:161|361:153|361:153|332:124,1,119.999996337891
347,228,149319,1,0,0:0:0:0:
417,285,149435,1,0,0:0:0:0:
512,82,149665,1,0,0:0:0:0:
288,101,149896,1,0,0:0:0:0:
239,339,150127,6,0,L|186:222,1,119.999996337891
158,113,150473,2,0,L|83:217,1,119.999996337891
2,296,150819,2,0,L|129:308,1,119.999996337891
140,210,151165,1,0,0:0:0:0:
158,113,151281,1,0,0:0:0:0:
2,296,151512,1,0,0:0:0:0:
239,339,151742,1,0,0:0:0:0:
342,120,151973,6,0,P|371:172|429:171,1,119.999996337891
258,94,152319,2,0,P|290:45|347:29,1,119.999996337891
185,112,152665,2,0,P|211:163|273:172,1,119.999996337891
342,120,153012,1,0,0:0:0:0:
348,30,153127,1,0,0:0:0:0:
185,112,153358,1,0,0:0:0:0:
426,172,153589,1,0,0:0:0:0:
185,192,153819,6,0,B|97:185|97:185|150:225,1,119.999996337891
267,247,154165,2,0,L|251:128,1,119.999996337891
194,269,154512,2,0,P|232:318|293:319,1,119.999996337891
356,264,154858,1,0,0:0:0:0:
331,177,154973,1,0,0:0:0:0:
81,343,155204,1,0,0:0:0:0:
164,54,155435,1,0,0:0:0:0:
251,341,155665,6,0,L|266:303,1,29.9999990844727
410,86,155896,1,0,0:0:0:0:
410,86,156012,2,0,L|391:108,1,29.9999990844727
145,207,156242,1,0,0:0:0:0:
145,207,156358,2,0,L|182:190,1,29.9999990844727
440,240,156589,1,0,0:0:0:0:
473,323,156704,1,0,0:0:0:0:
496,236,156819,2,0,L|416:327,1,119.999996337891
291,52,157281,1,0,0:0:0:0:
40,266,157512,6,0,L|69:248,1,29.9999990844727
380,220,157742,1,0,0:0:0:0:
380,220,157858,2,0,L|341:213,1,29.9999990844727
92,34,158089,1,0,0:0:0:0:
92,34,158204,2,0,L|114:64,1,29.9999990844727
285,324,158435,1,0,0:0:0:0:
295,234,158550,1,0,0:0:0:0:
218,280,158665,2,0,L|98:348,1,119.999996337891
451,367,159127,1,0,0:0:0:0:
424,69,159358,6,0,L|392:78,1,29.9999990844727
165,221,159589,1,0,0:0:0:0:
254,217,159704,2,0,L|287:215,1,29.9999990844727
92,25,159935,1,0,0:0:0:0:
60,109,160050,2,0,L|40:150,1,29.9999990844727
361,170,160281,1,0,0:0:0:0:
361,170,160396,1,0,0:0:0:0:
361,170,160512,2,0,P|416:189|476:171,1,119.999996337891
286,324,160973,1,0,0:0:0:0:
206,97,161204,6,0,L|138:208,1,119.999996337891
354,212,161550,2,0,P|300:185|242:205,1,119.999996337891
170,27,161896,2,0,P|224:17|273:54,1,119.999996337891
337,118,162242,1,0,0:0:0:0:
424,96,162358,1,0,0:0:0:0:
100,71,162589,1,0,0:0:0:0:
424,96,162819,1,0,0:0:0:0:
254,343,163050,6,0,L|219:212,1,119.999996337891
150,281,163396,1,0,0:0:0:0:
77,335,163512,1,0,0:0:0:0:
435,335,163742,1,0,0:0:0:0:
258,41,163973,6,0,L|293:172,1,119.999996337891
362,103,164319,1,0,0:0:0:0:
435,49,164435,1,0,0:0:0:0:
77,49,164665,1,0,0:0:0:0:
254,343,164896,5,0,0:0:0:0:
77,49,165358,1,0,0:0:0:0:
435,49,165819,1,0,0:0:0:0:
254,343,166281,1,0,0:0:0:0:
258,41,166742,6,0,L|258:72,1,29.9999990844727
77,335,167089,2,0,L|102:309,1,29.9999990844727
435,335,167435,2,0,L|410:309,1,29.9999990844727
77,49,167665,6,0,L|102:75,1,29.9999990844727
254,343,168012,2,0,L|254:302,1,29.9999990844727
435,49,168358,2,0,L|410:75,1,29.9999990844727
73,195,168589,5,0,0:0:0:0:
439,195,169050,1,0,0:0:0:0:
73,195,169512,1,0,0:0:0:0:
439,195,169973,5,0,0:0:0:0:
73,195,170204,1,0,0:0:0:0:
424,109,170435,6,0,B|367:45|367:45|381:82,1,119.999996337891
439,195,170781,2,0,B|522:177|522:177|483:171,1,119.999996337891
358,165,171127,2,0,B|331:246|331:246|356:215,1,119.999996337891
268,186,171473,1,0,0:0:0:0:
180,209,171589,1,0,0:0:0:0:
462,307,171819,1,0,0:0:0:0:
180,209,172050,1,0,0:0:0:0:
268,186,172166,1,0,0:0:0:0:
358,165,172281,6,0,L|473:130,1,119.999996337891
205,92,172627,2,0,L|325:87,1,119.999996337891
63,18,172973,1,0,0:0:0:0:
138,310,173204,1,0,0:0:0:0:
167,225,173319,1,0,0:0:0:0:
196,140,173435,1,0,0:0:0:0:
5,369,173665,1,0,0:0:0:0:
301,329,173896,1,0,0:0:0:0:
301,329,174012,1,0,0:0:0:0:
301,329,174127,6,0,B|333:301|370:313|370:313|302:283|312:171|384:76|421:107|421:107|399:161|320:194|249:34|249:34|272:152|272:152|179:57|156:133,1,839.999974365235
141,329,175973,2,0,B|224:250|100:179|172:103,1,239.999992675781
297,233,176665,2,0,L|58:248,1,239.999992675781
297,233,177358,5,0,0:0:0:0:
58,248,177589,1,0,0:0:0:0:
349,173,177819,6,0,P|410:172|444:215,1,119.999996337891
366,85,178165,2,0,P|328:40|270:42,1,119.999996337891
420,14,178512,1,0,0:0:0:0:
349,173,178742,1,0,0:0:0:0:
366,85,178858,1,0,0:0:0:0:
420,14,178973,1,0,0:0:0:0:
405,315,179204,1,0,0:0:0:0:
292,35,179435,1,0,0:0:0:0:
366,85,179550,1,0,0:0:0:0:
349,173,179665,6,0,P|295:205|241:187,1,119.999996337891
32,175,180012,2,0,P|86:143|140:161,1,119.999996337891
182,365,180358,2,0,P|150:311|168:257,1,119.999996337891
165,259,180704,1,0,0:0:0:0:
165,259,180819,1,0,0:0:0:0:
440,135,181050,1,0,0:0:0:0:
360,361,181281,1,0,0:0:0:0:
360,361,181396,1,0,0:0:0:0:
360,361,181512,6,0,B|406:308|406:308|342:349|283:258|252:291|252:291|297:324|343:192|235:163|235:163|221:116|268:88|268:88|409:162|363:272,1,719.999978027344
252,372,183127,1,0,0:0:0:0:
93,286,183358,2,0,L|70:168,2,119.999996337891
190,134,184050,6,0,P|260:136|256:45,1,179.999994506836
257,46,184512,2,0,L|387:56,1,119.999996337891
376,55,184973,1,0,0:0:0:0:
376,55,185204,1,0,0:0:0:0:
