osu file format v14

[General]
AudioFilename: WAVE-Reol.mp3
AudioLeadIn: 0
PreviewTime: 48102
Countdown: 1
SampleSet: Soft
StackLeniency: 0.7
Mode: 0
LetterboxInBreaks: 0
WidescreenStoryboard: 1

[Editor]
Bookmarks: 9830,15332,30102,37486,48102,67025,81794,99794,118717,126102,140871,147794,185179
DistanceSpacing: 1
BeatDivisor: 4
GridSize: 4
TimelineZoom: 3

[Metadata]
Title:WAVE
TitleUnicode:WAVE
Artist:Reol
ArtistUnicode:Reol
Creator:Intone
Version:Hard
Source:
Tags:reol wave intone electronic
BeatmapID:882051
BeatmapSetID:401313

[Difficulty]
HPDrainRate:6
CircleSize:4
OverallDifficulty:7
ApproachRate:9
SliderMultiplier:2
SliderTickRate:1

[Events]
//Background and Video events
0,0,"rwby2.jpg",0,0
//Break Periods
2,15558,22143
2,67250,73836
2,126558,132912
//Storyboard Layer 0 (Background)
//Storyboard Layer 1 (Fail)
//Storyboard Layer 2 (Pass)
//Storyboard Layer 3 (Foreground)
//Storyboard Sound Samples

[TimingPoints]
6128,461.538461538462,4,2,0,5,1,0
6128,-133.333333333333,4,2,0,5,0,0
6228,-133.333333333333,4,2,0,15,0,0
7974,-133.333333333333,4,2,0,25,0,0
8897,-133.333333333333,4,2,0,35,0,0
10743,-133.333333333333,4,2,0,45,0,0
11666,-133.333333333333,4,2,0,55,0,0
12589,-133.333333333333,4,2,0,65,0,0
13512,-133.333333333333,4,2,0,75,0,0
14435,-133.333333333333,4,2,0,85,0,0
14897,-50,4,2,0,85,0,0
22707,-66.6666666666667,4,1,0,100,0,0
30092,-100,4,1,0,100,0,0
48092,-66.6666666666667,4,1,0,100,0,1
66553,-50,4,1,0,100,0,1
67015,-100,4,1,0,100,0,0
74399,-66.6666666666667,4,1,0,100,0,0
81784,-66.6666666666667,4,1,0,100,0,0
87358,-100,4,1,0,100,0,0
99784,-66.6666666666667,4,1,0,100,0,1
118246,-50,4,1,0,100,0,1
118707,-100,4,1,0,100,0,0
123589,-50,4,1,0,100,0,0
126589,-100,4,1,0,100,0,0
140861,-100,4,1,0,100,0,0
147784,-66.6666666666667,4,1,0,100,0,1
185169,-100,4,1,0,100,0,0

[HitObjects]
120,336,6128,6,0,L|72:360,4,37.5000014305115
120,336,6704,2,0,P|168:312|192:288,1,75.0000028610231
372,264,7051,6,0,L|404:292,4,37.5000014305115
372,264,7627,2,0,P|324:240|288:220,1,75.0000028610231
120,200,7974,6,0,L|92:232,4,37.5000014305115
120,200,8550,2,0,P|168:176|200:160,1,75.0000028610231
372,128,8897,6,0,L|400:168,4,37.5000014305115
372,128,9473,2,0,P|320:112|292:104,1,75.0000028610231
120,56,9820,6,0,L|100:96,4,37.5000014305115
120,56,10396,2,0,P|144:104|172:136,1,75.0000028610231
192,308,10743,6,0,L|144:336,4,37.5000014305115
192,308,11319,2,0,P|216:260|228:232,1,75.0000028610231
300,80,11666,6,0,L|240:56,4,37.5000014305115
300,80,12242,2,0,P|324:128|344:168,1,75.0000028610231
376,328,12589,6,0,L|336:352,4,37.5000014305115
376,328,13165,2,0,P|400:280|400:244,1,75.0000028610231
324,84,13512,6,0,L|368:60,4,37.5000014305115
324,84,14088,2,0,P|276:60|220:60,1,75.0000028610231
69,157,14435,6,0,L|104:172,3,37.5000014305115
104,172,14897,2,0,B|120:196|120:196|148:172|148:172|180:200|180:200|216:160|216:160|264:220|264:220|304:136|304:136|388:136,1,400
250,354,22743,6,0,L|169:369,1,75.0000028610231
185,294,22974,2,0,L|112:275,1,75.0000028610231
93,186,23205,6,0,L|78:105,1,75.0000028610231
153,121,23436,2,0,L|172:48,1,75.0000028610231
261,29,23666,6,0,L|342:14,1,75.0000028610231
326,89,23897,2,0,L|399:108,1,75.0000028610231
418,197,24128,6,0,L|433:278,1,75.0000028610231
358,262,24359,2,0,L|339:335,1,75.0000028610231
175,332,24589,6,0,L|96:307,1,75.0000028610231
146,249,24820,2,0,L|90:198,1,75.0000028610231
164,172,25051,2,0,B|116:152|132:64|224:76|224:76|224:156,1,225.000008583069
336,51,25513,6,0,L|415:76,1,75.0000028610231
365,134,25743,2,0,L|421:185,1,75.0000028610231
348,212,25974,2,0,B|396:232|380:320|288:308|288:308|288:228,1,225.000008583069
48,148,26436,6,0,L|132:128,1,75.0000028610231
128,52,26666,2,0,L|216:76,1,75.0000028610231
344,32,26897,2,0,L|372:56,4,37.5000014305115
466,162,27359,6,0,L|394:209,1,75.0000028610231
424,279,27589,2,0,L|333:287,1,75.0000028610231
288,372,27820,2,0,B|247:346|247:346|253:294|253:294|204:283|204:283|204:200|204:200,1,225.000008583069
100,47,28282,6,0,L|182:73,1,75.0000028610231
218,6,28513,2,0,L|281:71,1,75.0000028610231
413,100,28743,2,0,B|388:152|388:152|444:180|444:180|420:216|420:216|420:288|420:288,1,225.000008583069
60,275,29205,6,0,L|117:210,1,75.0000028610231
70,150,29436,2,0,L|156:119,1,75.0000028610231
236,8,29666,2,0,B|268:52|268:52|316:8|316:8|340:48|340:48|416:48|416:48,1,225.000008583069
484,52,30128,5,4,0:0:0:0:
488,152,30358,2,0,L|488:232,1,50
380,148,30589,5,4,0:0:0:0:
384,248,30820,2,0,L|384:328,1,50
268,252,31051,5,4,0:0:0:0:
268,348,31281,2,0,L|188:348,1,50
112,288,31512,5,4,0:0:0:0:
112,288,31628,2,0,L|52:244,2,50
72,164,31974,6,2,L|20:136,1,50
72,128,32204,2,2,L|32:80,1,50
80,92,32435,2,4,B|80:36|80:36|136:36,1,100
324,36,32781,1,0,0:0:0:0:
324,36,32897,1,0,0:0:0:0:
324,36,33012,6,0,P|320:96|264:120,1,100
192,116,33358,2,0,P|216:184|272:204,1,100
412,296,33820,6,8,P|412:192|412:196,1,100
312,192,34166,2,8,L|312:80,1,100
412,92,34512,1,2,0:0:0:0:
412,92,34743,6,8,B|412:32|412:32|324:32,1,100
272,32,35089,2,8,L|144:32,1,100
168,132,35435,1,4,0:0:0:0:
68,136,35666,6,8,L|68:256,1,100
168,244,36128,2,8,L|168:344,1,100
268,340,36589,2,2,B|340:360|392:360|436:336|436:336|436:280,1,200
160,20,37512,5,4,0:0:0:0:
68,56,37743,2,0,L|92:108,1,50
80,200,38089,2,0,L|132:256,1,50
116,336,38435,2,2,B|172:356|172:356|292:360|312:324,1,200
408,340,39012,5,2,0:0:0:0:
456,324,39128,1,2,0:0:0:0:
484,284,39243,1,2,0:0:0:0:
408,240,39358,2,4,B|416:180|444:164|520:164|520:164|520:100,1,200
508,20,40050,1,0,0:0:0:0:
408,16,40281,6,4,B|408:88|408:88|392:140|276:168,1,200
116,100,40974,1,0,0:0:0:0:
112,0,41204,5,4,0:0:0:0:
12,0,41435,2,0,L|12:88,1,50
12,152,41781,2,0,B|12:212|12:212|176:180|172:284,1,250
100,284,42704,5,2,0:0:0:0:
52,292,42820,1,2,0:0:0:0:
28,332,42935,1,0,0:0:0:0:
96,360,43051,6,0,B|188:360|188:360|188:284|224:252|224:252|332:248,1,300
288,328,43974,6,0,B|396:328|396:328|396:212|396:212|372:164|328:136,1,300
256,192,44897,12,0,47666,0:0:0:0:
380,48,48128,6,0,L|380:232,1,150.000005722046
208,212,48589,1,0,0:0:0:0:
500,140,48820,1,0,0:0:0:0:
380,48,48936,1,0,0:0:0:0:
468,336,49166,1,0,0:0:0:0:
316,328,49282,2,0,B|152:332|152:332|64:240|64:176,1,300.000011444092
73,221,49974,6,0,L|222:113,1,150.000005722046
307,264,50436,1,0,0:0:0:0:
77,70,50666,1,0,0:0:0:0:
73,221,50782,1,0,0:0:0:0:
254,0,51013,1,0,0:0:0:0:
332,132,51128,2,0,B|280:76|280:76|408:76|408:76|408:-24,1,300.000011444092
488,16,51820,6,0,L|488:192,1,150.000005722046
388,280,52282,1,0,0:0:0:0:
276,4,52513,1,0,0:0:0:0:
408,72,52628,1,0,0:0:0:0:
124,164,52859,1,0,0:0:0:0:
244,252,52974,1,0,0:0:0:0:
408,222,53205,2,0,L|408:72,1,150.000005722046
124,164,53666,6,0,L|0:60,1,150.000005722046
304,4,54128,1,0,0:0:0:0:
436,272,54359,2,0,L|520:272,1,75.0000028610231
244,136,54705,2,0,L|156:136,1,75.0000028610231
360,368,55051,1,0,0:0:0:0:
476,92,55282,1,0,0:0:0:0:
232,268,55513,6,0,L|362:137,1,150.000005722046
469,273,55974,1,0,0:0:0:0:
212,118,56205,1,0,0:0:0:0:
232,268,56320,1,0,0:0:0:0:
373,2,56551,1,0,0:0:0:0:
476,112,56666,2,0,B|509:198|509:198|427:218|427:218|413:339|326:308,1,300.000011444092
208,60,57359,6,0,L|48:64,1,150.000005722046
156,348,57820,1,0,0:0:0:0:
320,96,58051,1,0,0:0:0:0:
180,144,58166,1,0,0:0:0:0:
428,312,58397,1,0,0:0:0:0:
496,180,58513,1,0,0:0:0:0:
220,296,58743,2,0,B|143:295|143:295|139:171,1,150.000005722046
320,96,59205,6,0,B|397:97|397:97|401:221,1,150.000005722046
108,304,59666,1,0,0:0:0:0:
180,12,59897,1,0,0:0:0:0:
60,104,60013,1,0,0:0:0:0:
332,232,60243,1,0,0:0:0:0:
292,88,60359,1,0,0:0:0:0:
156,356,60589,1,0,0:0:0:0:
60,104,60820,1,0,0:0:0:0:
308,328,61051,6,0,L|308:144,1,150.000005722046
136,164,61513,1,0,0:0:0:0:
428,236,61743,1,0,0:0:0:0:
308,328,61859,1,0,0:0:0:0:
396,40,62089,1,0,0:0:0:0:
244,40,62205,2,0,B|80:40|80:40|-8:132|-8:196,1,300.000011444092
192,220,62897,6,0,L|328:116,1,150.000005722046
440,100,63359,6,0,B|492:189|437:258|394:256|394:256|323:215|323:215|319:311|319:311|256:272|256:272|227:256,1,450.000017166138
72,284,64282,6,0,B|19:194|74:125|117:127|117:127|188:168|188:168|192:72|192:72|255:111|255:111|284:127,1,450.000017166138
256,192,65205,5,0,0:0:0:0:
256,192,65666,5,0,0:0:0:0:
256,192,66128,5,0,0:0:0:0:
256,192,66589,6,0,B|240:216|240:216|212:192|212:192|180:220|180:220|144:180|144:180|96:240|96:240|56:156|56:156|-36:220,1,400
56,68,74436,6,0,L|172:68,1,75.0000028610231
96,216,74666,2,0,L|-4:216,1,75.0000028610231
160,156,74897,6,0,L|256:156,1,75.0000028610231
204,304,75128,2,0,L|120:304,1,75.0000028610231
264,236,75359,6,0,L|380:236,1,75.0000028610231
304,88,75589,2,0,L|204:88,1,75.0000028610231
368,148,75820,6,0,L|464:148,1,75.0000028610231
412,0,76051,2,0,L|328:0,1,75.0000028610231
400,92,76282,6,0,L|468:160,1,75.0000028610231
112,292,76513,2,0,L|44:224,1,75.0000028610231
420,132,76743,6,0,L|469:215,1,75.0000028610231
91,251,76974,2,0,L|42:168,1,75.0000028610231
430,177,77205,6,0,L|455:270,1,75.0000028610231
81,206,77436,2,0,L|56:113,1,75.0000028610231
428,223,77666,6,0,L|428:319,1,75.0000028610231
83,160,77897,2,0,L|83:64,1,75.0000028610231
356,336,78128,6,0,L|288:404,1,75.0000028610231
156,48,78359,2,0,L|224:-20,1,75.0000028610231
315,356,78589,6,0,L|232:405,1,75.0000028610231
196,27,78820,2,0,L|279:-21,1,75.0000028610231
270,366,79051,6,0,L|177:391,1,75.0000028610231
241,17,79282,2,0,L|334:-7,1,75.0000028610231
224,364,79513,6,0,L|128:364,1,75.0000028610231
287,19,79743,2,0,L|383:19,1,75.0000028610231
460,80,79974,6,0,L|384:116,1,75.0000028610231
332,208,80205,2,0,L|220:152,1,75.0000028610231
196,84,80436,2,0,B|164:40|164:40|116:84|116:84|92:44|92:44|16:44|16:44,1,225.000008583069
20,188,80897,6,0,L|96:224,1,75.0000028610231
148,316,81128,2,0,L|260:260,1,75.0000028610231
280,188,81359,2,0,B|312:232|312:232|360:188|360:188|384:228|384:228|460:228|460:228,1,225.000008583069
212,28,81820,5,0,0:0:0:0:
166,48,81935,1,0,0:0:0:0:
126,77,82050,1,0,0:0:0:0:
94,116,82166,1,0,0:0:0:0:
76,162,82281,1,0,0:0:0:0:
68,211,82397,2,0,L|176:212,1,75.0000028610231
443,172,82743,5,0,0:0:0:0:
435,221,82858,1,0,0:0:0:0:
417,267,82973,1,0,0:0:0:0:
385,306,83089,1,0,0:0:0:0:
345,335,83204,1,0,0:0:0:0:
300,356,83320,2,0,L|300:248,1,75.0000028610231
160,332,83666,5,0,0:0:0:0:
221,289,83781,1,0,0:0:0:0:
256,224,83896,1,0,0:0:0:0:
277,152,84012,1,0,0:0:0:0:
304,82,84127,1,0,0:0:0:0:
356,30,84242,1,0,0:0:0:0:
428,8,84358,1,0,0:0:0:0:
428,8,84589,5,0,0:0:0:0:
399,72,84704,1,0,0:0:0:0:
347,126,84819,1,0,0:0:0:0:
277,152,84935,1,0,0:0:0:0:
205,172,85050,1,0,0:0:0:0:
139,206,85165,1,0,0:0:0:0:
96,267,85281,1,0,0:0:0:0:
248,308,85512,5,0,0:0:0:0:
322,306,85627,1,0,0:0:0:0:
393,283,85742,1,0,0:0:0:0:
401,214,85858,1,0,0:0:0:0:
350,161,85973,1,0,0:0:0:0:
286,121,86088,1,0,0:0:0:0:
232,71,86204,1,0,0:0:0:0:
248,308,86435,5,0,0:0:0:0:
173,306,86550,1,0,0:0:0:0:
102,283,86665,1,0,0:0:0:0:
94,214,86781,1,0,0:0:0:0:
145,161,86896,1,0,0:0:0:0:
209,121,87011,1,0,0:0:0:0:
263,71,87127,1,0,0:0:0:0:
428,232,87358,6,0,L|428:132,1,100
344,234,87820,6,0,L|344:84,1,150
264,236,88281,6,0,L|264:36,1,200
264,36,89204,5,0,0:0:0:0:
215,48,89319,1,0,0:0:0:0:
166,60,89434,1,0,0:0:0:0:
118,72,89550,1,0,0:0:0:0:
69,84,89666,2,0,L|24:84,4,25
208,136,90128,5,0,0:0:0:0:
257,148,90243,1,0,0:0:0:0:
306,160,90358,1,0,0:0:0:0:
354,172,90474,1,0,0:0:0:0:
403,184,90590,2,0,L|448:184,4,25
400,284,91051,6,0,L|400:360,1,50
200,336,91397,2,0,L|172:300,2,25
32,80,91743,5,0,0:0:0:0:
232,80,91974,2,0,L|232:164,1,50
52,220,92320,2,0,L|8:220,2,25
208,344,92666,5,0,0:0:0:0:
348,204,92897,1,0,0:0:0:0:
228,44,93128,2,0,L|152:44,1,50
372,96,93474,2,0,L|456:96,1,50
268,224,93820,1,0,0:0:0:0:
436,332,94051,2,0,L|316:332,1,100
236,352,94397,6,0,B|192:328|192:328|164:280,1,100
268,224,94743,2,0,L|312:224,15,25
316,156,95666,2,0,L|360:156,5,25
352,88,96012,2,0,L|396:88,5,25
392,24,96358,2,0,L|424:24,15,25
417,24,97281,2,0,P|480:104|464:168,2,150
376,116,98204,1,0,0:0:0:0:
312,196,98435,6,0,L|300:196,15,12.5
288,224,98897,2,0,L|276:224,11,12.5
256,260,99243,2,0,L|244:260,12,12.5
64,224,99820,6,2,P|160:168|208:168,1,150.000005722046,2|0,0:0|0:0,0:0:0:0:
320,208,100281,5,4,0:2:0:0:
212,332,100512,1,0,0:0:0:0:
212,332,100627,1,0,0:0:0:0:
404,284,100858,1,8,0:2:0:0:
404,284,100973,2,0,B|484:236|484:236|412:204|428:124,1,225.000008583069,8|0,0:2|0:0,0:0:0:0:
424,40,101435,1,2,0:2:0:0:
272,208,101666,5,8,0:2:0:0:
128,40,101896,1,0,0:0:0:0:
96,336,102127,6,0,P|48:288|64:208,1,150.000005722046
104,152,102473,1,8,0:2:0:0:
416,336,102704,1,0,0:0:0:0:
416,336,102820,2,0,P|464:288|448:208,1,150.000005722046,8|0,0:2|0:0,0:0:0:0:
408,152,103166,1,2,0:2:0:0:
408,152,103281,1,2,0:2:0:0:
256,320,103512,5,8,0:2:0:0:
336,112,103743,1,0,0:0:0:0:
196,284,103973,1,0,0:0:0:0:
272,72,104204,1,0,0:0:0:0:
272,72,104320,1,8,0:2:0:0:
136,248,104550,1,0,0:0:0:0:
136,248,104666,1,8,0:2:0:0:
64,200,104896,2,0,P|128:164|192:200,1,150.000005722046,0|2,0:0|0:2,0:0:0:0:
400,304,105358,2,0,P|336:340|272:304,1,150.000005722046,8|2,0:2|0:2,0:0:0:0:
332,256,105704,1,0,0:0:0:0:
332,256,105820,1,0,0:0:0:0:
176,320,106050,5,0,0:0:0:0:
176,320,106166,1,8,0:2:0:0:
136,196,106396,1,0,0:0:0:0:
136,196,106512,1,8,0:2:0:0:
40,216,106743,2,0,B|40:136|40:136|96:88,1,150.000005722046,2|0,0:2|0:0,0:0:0:0:
472,168,107204,2,0,B|472:248|472:248|416:296,1,150.000005722046,8|0,0:2|0:0,0:0:0:0:
352,328,107550,1,0,0:0:0:0:
280,304,107666,6,0,B|280:224|280:224|336:176,1,150.000005722046,4|2,0:2|0:2,0:0:0:0:
288,120,108012,2,0,L|228:172,2,75.0000028610231,8|0|0,0:2|0:0|0:0,0:0:0:0:
176,216,108358,1,0,0:0:0:0:
104,348,108589,2,0,P|232:320|260:284,1,150.000005722046
344,248,109050,2,0,L|424:216,1,75.0000028610231,8|0,0:2|0:0,0:0:0:0:
368,160,109281,2,0,L|448:128,1,75.0000028610231,2|0,0:2|0:0,0:0:0:0:
432,56,109512,6,0,B|363:84|363:84|291:56,1,150.000005722046,0|2,0:0|0:2,0:0:0:0:
224,32,109858,1,0,0:0:0:0:
184,96,109973,2,0,L|144:168,1,75.0000028610231,8|0,0:2|0:0,0:0:0:0:
184,312,110204,2,0,L|224:240,1,75.0000028610231,2|0,0:2|0:0,0:0:0:0:
256,176,110435,1,0,0:0:0:0:
440,312,110666,1,2,0:2:0:0:
408,136,110896,1,8,0:2:0:0:
280,344,111127,1,0,0:0:0:0:
208,360,111243,1,0,0:0:0:0:
136,352,111358,5,2,0:2:0:0:
136,352,111473,2,0,P|96:344|64:320,1,75.0000028610231
136,232,111704,1,2,0:2:0:0:
136,232,111820,2,0,P|104:208|96:176,1,75.0000028610231,8|0,0:2|0:0,0:0:0:0:
200,136,112050,1,0,0:0:0:0:
384,272,112281,2,0,B|408:240|408:192|408:192|400:128,1,150.000005722046
304,336,112743,2,0,B|296:272|296:272|296:224|320:192,1,150.000005722046,8|2,0:2|0:2,0:0:0:0:
288,120,113089,1,0,0:0:0:0:
240,64,113204,6,0,P|200:56|168:64,1,75.0000028610231,2|0,0:2|0:0,0:0:0:0:
80,136,113435,1,0,0:0:0:0:
144,232,113550,2,0,P|180:240|216:231,1,75.0000028610231,2|8,0:2|0:2,0:0:0:0:
184,160,113781,1,0,0:0:0:0:
112,336,113896,1,0,0:0:0:0:
112,336,114127,2,0,B|168:304|200:368|256:336,1,150.000005722046,2|0,0:2|0:0,0:0:0:0:
384,256,114589,1,10,0:2:0:0:
288,56,114820,1,0,0:0:0:0:
306,245,115050,6,0,B|272:232|272:232|272:192|328:144|384:192|384:256,2,225.000008583069,2|0|2,0:0|0:0|0:0,0:0:0:0:
120,116,115973,2,0,B|120:180|176:228|232:180|232:140|232:140|192:124,2,225.000008583069,2|0|2,0:0|0:0|0:0,0:0:0:0:
144,48,116896,5,4,0:0:0:0:
160,56,117358,1,4,0:0:0:0:
176,64,117820,1,4,0:0:0:0:
192,72,118281,2,2,B|308:44|308:44|256:152|256:152|344:152|344:152|344:256,1,400,2|4,0:0|0:2,0:0:0:0:
360,344,120359,5,0,0:0:0:0:
360,344,120589,5,0,0:0:0:0:
360,344,122204,5,0,0:0:0:0:
360,344,122435,5,0,0:0:0:0:
360,344,123704,6,0,B|360:192|360:192|304:48|160:48,1,400
120,188,124281,2,0,L|64:168,23,50
120,188,125666,2,0,B|276:312|276:312|404:324|440:236|420:112|420:112|312:48,1,600
80,140,133512,5,0,0:0:0:0:
432,240,133974,1,0,0:0:0:0:
168,32,134435,1,0,0:0:0:0:
344,352,134897,2,0,P|292:380|224:372,1,100
308,16,135358,5,0,0:0:0:0:
208,364,135820,1,0,0:0:0:0:
416,104,136281,1,0,0:0:0:0:
96,280,136743,2,0,P|56:236|80:168,1,100
432,244,137204,5,0,0:0:0:0:
80,144,137666,1,0,0:0:0:0:
344,352,138127,1,0,0:0:0:0:
168,32,138589,2,0,P|220:4|288:12,1,100
432,104,139051,6,0,L|356:104,1,50
278,188,139281,2,0,L|328:188,1,50
212,112,139512,2,0,L|48:112,1,150
56,212,139974,6,0,L|132:212,1,50
210,296,140204,2,0,L|160:296,1,50
276,220,140435,2,0,L|440:220,1,150
100,42,140897,6,0,B|124:134|124:134|59:152|21:212,1,200
36,188,141589,2,0,B|38:302|38:302|36:288|94:238|134:254,1,200
196,212,142281,1,0,0:0:0:0:
196,312,142512,1,0,0:0:0:0:
196,212,142743,2,0,B|312:212|308:360|308:360,1,200
307,351,143435,2,0,B|411:351|411:351|411:251|411:251|491:251|491:179,1,300
487,206,144358,6,0,B|488:80|488:80|440:120|388:80|368:44|368:44|320:44,1,300
339,44,145281,6,0,B|264:44|208:44|156:52|108:68|64:92|64:144,1,300
160,164,146435,6,0,P|116:212|72:224,1,100
8,248,146896,6,0,P|40:300|100:296,1,100
160,356,147358,6,0,L|272:356,1,100
380,306,147820,6,0,L|380:122,1,150.000005722046
208,142,148281,1,0,0:0:0:0:
500,214,148512,1,0,0:0:0:0:
380,306,148628,1,0,0:0:0:0:
468,18,148858,1,0,0:0:0:0:
316,26,148974,2,0,B|152:24|152:24,2,150.000005722046
73,133,149551,1,0,0:0:0:0:
73,133,149666,6,0,L|222:241,1,150.000005722046
307,90,150128,1,0,0:0:0:0:
77,284,150358,1,0,0:0:0:0:
73,133,150474,1,0,0:0:0:0:
254,354,150705,1,0,0:0:0:0:
254,354,150820,2,0,B|336:356|336:356|336:256,2,150.000005722046
488,338,151397,1,0,0:0:0:0:
488,338,151512,6,0,L|488:162,1,150.000005722046
388,74,151974,1,0,0:0:0:0:
276,350,152205,1,0,0:0:0:0:
408,282,152320,1,0,0:0:0:0:
124,190,152551,1,0,0:0:0:0:
244,102,152666,1,0,0:0:0:0:
408,132,152897,2,0,L|408:282,1,150.000005722046
124,190,153358,2,0,L|0:294,1,150.000005722046
304,350,153820,5,0,0:0:0:0:
436,82,154051,2,0,L|520:82,1,75.0000028610231
244,218,154397,2,0,L|156:218,1,75.0000028610231
360,0,154743,1,0,0:0:0:0:
476,262,154974,1,0,0:0:0:0:
232,86,155205,6,0,L|362:217,1,150.000005722046
469,81,155666,1,0,0:0:0:0:
212,236,155897,1,0,0:0:0:0:
232,86,156012,1,0,0:0:0:0:
373,352,156243,1,0,0:0:0:0:
476,242,156358,2,0,B|509:156|509:156|427:136|427:136|413:15|326:46,1,300.000011444092
208,294,157051,6,0,L|48:292,1,150.000005722046
156,6,157512,1,0,0:0:0:0:
320,258,157743,1,0,0:0:0:0:
180,210,157858,1,0,0:0:0:0:
428,42,158089,1,0,0:0:0:0:
496,174,158205,1,0,0:0:0:0:
220,58,158435,2,0,B|143:59|143:59|139:183,1,150.000005722046
320,258,158897,6,0,B|397:257|397:257|401:133,1,150.000005722046
108,50,159358,1,0,0:0:0:0:
180,342,159589,1,0,0:0:0:0:
60,250,159705,1,0,0:0:0:0:
332,122,159935,1,0,0:0:0:0:
292,266,160051,1,0,0:0:0:0:
156,0,160281,1,0,0:0:0:0:
60,250,160512,1,0,0:0:0:0:
308,26,160743,6,0,L|308:210,1,150.000005722046
136,190,161205,1,0,0:0:0:0:
428,118,161435,1,0,0:0:0:0:
308,26,161551,1,0,0:0:0:0:
396,314,161781,1,0,0:0:0:0:
244,314,161897,2,0,B|80:314|80:314|-8:222|-8:158,1,300.000011444092
192,134,162589,6,0,L|328:238,1,150.000005722046
384,234,163051,6,0,B|180:234|180:234|80:306,1,300
100,86,163974,6,0,B|304:86|304:86|382:30,1,300
416,266,164897,6,0,P|344:258|264:298,1,150
136,190,165359,6,0,P|200:142|272:134,1,150
392,42,165820,6,0,P|320:6|240:2,1,150
180,16,166282,6,0,B|186:45|186:45|149:48|149:48|147:90|147:90|93:87|93:87|92:168|92:168,1,225.000008583069
110,268,166743,5,0,0:0:0:0:
326,330,167089,1,0,0:0:0:0:
419,123,167435,1,0,0:0:0:0:
168,330,167666,5,0,0:0:0:0:
386,276,168012,1,0,0:0:0:0:
364,52,168359,1,0,0:0:0:0:
84,44,168589,6,0,B|148:76|148:76|216:36,1,150.000005722046
152,172,169051,5,0,0:0:0:0:
460,212,169512,5,0,0:0:0:0:
460,364,169974,5,0,0:0:0:0:
460,364,170089,1,0,0:0:0:0:
460,364,170205,1,0,0:0:0:0:
460,212,170436,2,0,L|460:52,1,150.000005722046
356,256,170782,2,0,L|248:152,1,150.000005722046
308,364,171128,2,0,L|148:364,1,150.000005722046
52,20,171820,5,0,0:0:0:0:
52,20,171936,1,0,0:0:0:0:
52,20,172051,1,0,0:0:0:0:
52,172,172282,2,0,L|52:332,1,150.000005722046
156,128,172628,2,0,L|264:232,1,150.000005722046
204,20,172974,2,0,L|364:20,1,150.000005722046
456,40,173666,5,0,0:0:0:0:
456,40,173782,1,0,0:0:0:0:
456,40,173897,1,0,0:0:0:0:
508,156,174128,2,0,L|364:216,1,150.000005722046
444,212,174474,2,0,L|280:244,1,150.000005722046
368,260,174820,2,0,L|212:260,1,150.000005722046
56,344,175513,5,0,0:0:0:0:
52,340,175628,1,0,0:0:0:0:
56,344,175743,1,0,0:0:0:0:
4,228,175974,2,0,L|148:168,1,150.000005722046
68,172,176320,2,0,L|232:140,1,150.000005722046
144,124,176666,2,0,L|300:124,1,150.000005722046
388,32,177358,6,0,L|452:69,2,75.0000028610231
312,76,177820,2,0,L|233:211,1,150.000005722046
302,245,178166,2,0,L|377:115,1,150.000005722046
445,157,178512,2,0,L|367:292,1,150.000005722046
124,352,179204,6,0,L|59:314,2,75.0000028610231
200,308,179666,2,0,L|278:172,1,150.000005722046
210,139,180012,2,0,L|135:268,1,150.000005722046
67,227,180358,2,0,L|145:91,1,150.000005722046
440,72,181051,5,0,0:0:0:0:
292,164,181281,2,0,L|180:164,1,75.0000028610231
100,68,181513,2,0,L|184:68,1,75.0000028610231
100,196,181743,2,0,L|16:196,1,75.0000028610231
100,328,181974,2,0,L|212:328,1,75.0000028610231
292,232,182206,2,0,L|208:232,1,75.0000028610231
292,360,182436,2,0,L|376:360,1,75.0000028610231
476,296,182666,2,0,L|476:216,1,75.0000028610231
400,56,182897,2,0,L|400:152,1,75.0000028610231
308,296,183128,2,0,B|232:344|120:340|120:340|120:24|120:24|212:24|296:36|356:96|372:120|400:188|424:244|424:340|316:368,1,1050.00004005432
256,192,185204,12,0,192589,0:0:0:0:
