osu file format v14

[General]
AudioFilename: audio.mp3
AudioLeadIn: 0
PreviewTime: 135003
Countdown: 1
SampleSet: None
StackLeniency: 0.7
Mode: 0
LetterboxInBreaks: 0
WidescreenStoryboard: 0

[Editor]
Bookmarks: 13403,19803,26203,32603,39003,44003,58203,71003,77403,83803,90203,96603,103003,109403,122203,135003,141403,147803,154203,160603,163803,176603,189403,195803,202203,208603,215003
DistanceSpacing: 0.8
BeatDivisor: 4
GridSize: 4
TimelineZoom: 2.3

[Metadata]
Title:VIORA
TitleUnicode:VIORA
Artist:Reol
ArtistUnicode:れをる
Creator:-Smine-
Version:Insane
Source:
Tags:girl loli viola reoru eletronic pop Seto Kousuke senpai Ataraxia victorfernando
BeatmapID:1580245
BeatmapSetID:750418

[Difficulty]
HPDrainRate:6
CircleSize:4
OverallDifficulty:8
ApproachRate:9
SliderMultiplier:1.8
SliderTickRate:1

[Events]
//Background and Video events
0,0,"2886033-anime-anime-girls-mecha-girls-white-hair-original-characters-blue-eyes-school-uniform___anime-wallpapers.jpg",0,0
//Break Periods
2,45603,51203
2,109603,115203
//Storyboard Layer 0 (Background)
//Storyboard Layer 1 (Fail)
//Storyboard Layer 2 (Pass)
//Storyboard Layer 3 (Foreground)
//Storyboard Sound Samples

[TimingPoints]
603,800,4,2,1,60,1,0
13403,400,4,3,1,60,1,0
13403,-83.3333333333333,4,3,1,60,0,0
16203,-125,4,3,1,60,0,0
16603,-83.3333333333333,4,3,1,60,0,0
29003,-125,4,3,1,80,0,0
29403,-83.3333333333333,4,3,1,80,0,0
41803,-125,4,3,1,80,0,0
42203,-83.3333333333333,4,3,1,80,0,0
43803,-100,4,3,1,80,0,0
51803,-125,4,2,1,80,0,0
61403,-100,4,2,1,80,0,0
69403,-200,4,2,1,80,0,0
71003,-83.3333333333333,4,3,1,100,0,1
77303,-83.3333333333333,4,3,1,100,0,0
77403,-66.6666666666667,4,3,1,100,0,1
77803,-55.5555555555556,4,3,1,100,0,1
78203,-83.3333333333333,4,3,1,100,0,1
83803,-100,4,3,1,80,0,0
95003,-83.3333333333333,4,3,1,80,0,0
95803,-100,4,3,1,80,0,0
97003,-83.3333333333333,4,3,1,80,0,0
99403,-133.333333333333,4,3,1,80,0,0
99803,-83.3333333333333,4,3,1,80,0,0
105803,-133.333333333333,4,3,1,80,0,0
106203,-83.3333333333333,4,3,1,80,0,0
115803,-125,4,2,1,70,0,0
122203,-125,4,3,1,80,0,0
125403,-100,4,3,1,80,0,0
133403,-200,4,3,1,80,0,0
135003,-83.3333333333333,4,3,1,100,0,1
141303,-83.3333333333333,4,3,1,100,0,0
141403,-66.6666666666667,4,3,1,100,0,1
141803,-55.5555555555556,4,3,1,100,0,1
142203,-83.3333333333333,4,3,1,100,0,1
160603,-200,4,2,1,70,0,0
162803,-100,4,3,1,90,0,0
163803,-66.6666666666667,4,3,1,100,0,1
164403,-83.3333333333333,4,3,1,100,0,1
170203,-66.6666666666667,4,3,1,100,0,1
170803,-83.3333333333333,4,3,1,100,0,1
176603,-100,4,3,1,80,0,0
179803,-100,4,3,1,70,0,0
180603,-125,4,3,1,70,0,0
181403,-166.666666666667,4,3,1,70,0,0
183003,-250,4,3,1,60,0,0
184603,-500,4,3,1,50,0,0
187003,-100,4,3,1,60,0,0
187403,-100,4,3,1,80,0,0
187803,-66.6666666666667,4,3,1,90,0,0
188103,-83.3333333333333,4,3,1,90,0,0
189403,-83.3333333333333,4,3,1,100,0,1
195803,-66.6666666666667,4,3,1,100,0,1
196203,-55.5555555555556,4,3,1,100,0,1
196603,-83.3333333333333,4,3,1,100,0,1
199003,-66.6666666666667,4,3,1,100,0,1
199403,-83.3333333333333,4,3,1,100,0,1
209203,-83.3333333333333,4,3,1,100,0,0
210203,-83.3333333333333,4,3,1,100,0,1
210803,-83.3333333333333,4,3,1,100,0,0
211003,-133.333333333333,4,3,1,100,0,0
211803,-83.3333333333333,4,3,1,100,0,0
215003,-133.333333333333,4,2,1,80,0,0

[Colours]
Combo1 : 0,128,192
Combo2 : 128,128,192
Combo3 : 0,255,255
Combo4 : 143,54,177

[HitObjects]
88,188,603,6,0,B|75:215|91:259,2,45
144,102,1403,1,0,0:0:0:0:
213,120,1803,1,0,0:0:0:0:
281,140,2203,2,0,L|274:161,1,22.5
292,119,2403,2,0,P|348:210|280:299,1,225
88,295,3803,5,0,0:0:0:0:
124,295,4003,1,0,0:0:0:0:
159,296,4203,1,0,0:0:0:0:
88,295,5203,2,0,L|88:253,1,22.5
114,300,5403,2,0,B|254:244|254:346|376:295,1,270
479,237,7003,6,0,P|427:193|411:125,1,135
411,18,7803,1,0,0:0:0:0:
340,30,8203,1,0,0:0:0:0:
269,44,8603,2,0,P|246:98|272:178,1,135
317,225,9403,1,0,0:0:0:0:
171,293,10203,6,0,L|139:325,2,45
232,228,11003,1,0,0:0:0:0:
78,153,11603,2,0,L|78:185,1,22.5
78,124,11803,2,0,P|141:94|203:118,1,135
246,201,12603,2,0,P|288:154|284:66,1,135
199,114,13403,6,0,B|149:173|149:173|165:259,1,161.999995056153
277,283,13803,2,0,L|295:334,2,53.9999983520508
251,203,14103,1,0,0:0:0:0:
251,203,14203,2,0,B|342:203,1,53.9999983520508
366,123,14403,2,0,L|281:123,1,53.9999983520508
268,125,14603,1,0,0:0:0:0:
442,203,14803,1,0,0:0:0:0:
442,203,15003,5,0,0:0:0:0:
433,300,15203,2,0,L|376:300,1,53.9999983520508
337,300,15403,1,0,0:0:0:0:
269,218,15603,1,0,0:0:0:0:
186,321,15803,2,0,B|146:280|146:280|146:220,1,107.999996704102
92,109,16203,6,0,P|143:93|198:109,1,108
261,70,16603,6,0,B|227:118|227:118|269:181,1,107.999996704102
436,284,17003,2,0,L|398:231,1,53.9999983520508
313,243,17203,2,0,L|344:286,1,53.9999983520508
312,366,17403,5,0,0:0:0:0:
131,311,17603,2,0,B|94:262|94:262|89:209,1,107.999996704102
145,64,18003,5,0,0:0:0:0:
145,64,18103,1,0,0:0:0:0:
145,64,18203,2,0,L|144:129,1,53.9999983520508
228,174,18403,2,0,L|228:100,1,53.9999983520508
291,62,18603,6,0,B|331:31|331:31|394:31|394:31|451:85,1,161.999995056153
442,194,19003,2,0,L|512:179,2,71.9999978027344
355,136,19403,2,0,B|401:206|401:206|382:293,1,161.999995056153
344,359,19803,6,0,L|280:347,1,53.9999983520508
227,302,20003,2,0,L|254:242,1,53.9999983520508
142,290,20203,2,0,L|115:350,1,53.9999983520508
65,250,20403,1,0,0:0:0:0:
65,250,20503,1,0,0:0:0:0:
65,250,20603,2,0,B|69:188|69:188|91:139,1,107.999996704102
175,57,21003,1,0,0:0:0:0:
175,57,21203,5,0,0:0:0:0:
287,103,21403,2,0,L|299:222,1,107.999996704102
466,246,21803,2,0,L|353:258,1,107.999996704102
264,120,22203,2,0,L|276:252,1,107.999996704102
441,277,22603,6,0,P|383:300|329:289,1,108
274,228,23003,6,0,B|242:273|242:273|193:291,1,107.999996704102
39,328,23403,1,0,0:0:0:0:
130,236,23603,1,0,0:0:0:0:
49,71,23803,1,0,0:0:0:0:
53,202,24003,1,0,0:0:0:0:
226,140,24203,1,0,0:0:0:0:
130,236,24403,1,0,0:0:0:0:
149,115,24603,5,0,0:0:0:0:
173,79,24703,1,0,0:0:0:0:
211,59,24803,1,0,0:0:0:0:
253,65,24903,1,0,0:0:0:0:
287,91,25003,2,0,L|340:52,1,53.9999983520508
359,146,25203,1,0,0:0:0:0:
324,172,25303,1,0,0:0:0:0:
292,201,25403,2,0,L|245:240,1,53.9999983520508
194,307,25603,2,0,L|194:351,2,35.9999989013672
352,296,25803,2,0,L|352:341,6,35.9999989013672
353,368,26203,6,0,B|293:367|293:367|236:347,1,107.999996704102,0|0,3:0|3:0,3:0:0:0:
129,301,26503,1,0,3:0:0:0:
129,301,26603,2,0,L|56:309,1,53.9999983520508,0|0,3:0|3:0,3:0:0:0:
108,200,26803,2,0,L|176:189,1,53.9999983520508,0|0,3:0|3:0,3:0:0:0:
30,241,27003,2,0,B|10:188|10:188|32:130,1,107.999996704102
141,70,27403,2,0,L|262:66,1,107.999996704102
405,78,27803,6,0,L|317:173,1,107.999996704102
207,171,28103,1,0,0:0:0:0:
207,171,28203,2,0,B|186:225|186:225|209:302,1,107.999996704102
273,352,28603,1,0,0:0:0:0:
425,275,28803,2,0,L|425:329,1,53.9999983520508
486,221,29003,6,0,P|437:192|385:202,1,108
338,267,29403,6,0,B|347:210|347:210|301:163,1,107.999996704102
198,52,29803,1,0,0:0:0:0:
207,180,30003,1,0,0:0:0:0:
7,157,30203,1,0,0:0:0:0:
79,49,30403,1,0,0:0:0:0:
99,249,30603,1,0,0:0:0:0:
7,157,30803,1,0,0:0:0:0:
146,115,31003,5,0,0:0:0:0:
189,103,31103,1,0,0:0:0:0:
231,117,31203,1,0,0:0:0:0:
264,144,31303,1,0,0:0:0:0:
273,186,31403,2,0,L|242:239,1,53.9999983520508
300,322,31603,2,0,L|331:268,1,53.9999983520508
436,252,31803,5,0,0:0:0:0:
436,252,31903,1,0,0:0:0:0:
436,252,32003,2,0,L|459:282,2,26.9999991760254
360,167,32203,2,0,L|337:134,6,26.9999991760254
352,214,32603,6,0,B|314:253|314:253|220:278,1,107.999996704102
80,258,33003,2,0,B|75:207|75:207|110:154|110:154|186:136,1,161.999995056153
199,136,33403,2,0,B|211:81|211:81|196:31,1,107.999996704102
368,123,33803,2,0,L|351:205,1,53.9999983520508
390,201,34003,6,0,L|447:181,2,53.9999983520508
272,240,34403,1,0,0:0:0:0:
100,177,34603,1,0,0:0:0:0:
140,300,34803,1,0,0:0:0:0:
215,133,35003,2,0,B|186:180|186:180|189:232,1,107.999996704102
250,353,35403,2,0,B|278:305|278:305|275:253,1,107.999996704102
361,116,35803,6,0,L|361:233,1,107.999996704102
414,339,36203,2,0,B|447:346|447:346|469:321|469:321|460:288|460:288|428:278|428:278|405:299|405:299,1,161.999995056153
344,339,36603,2,0,L|248:272,1,107.999996704102
121,180,37003,2,0,B|121:118|121:118|174:75,1,107.999996704102
288,63,37403,5,0,0:0:0:0:
331,61,37503,1,0,0:0:0:0:
368,82,37603,1,0,0:0:0:0:
388,120,37703,1,0,0:0:0:0:
381,162,37803,2,0,L|321:165,1,53.9999983520508
208,245,38003,1,0,0:0:0:0:
251,246,38103,1,0,0:0:0:0:
294,244,38203,2,0,L|363:244,1,53.9999983520508
400,326,38403,2,0,L|331:326,1,53.9999983520508
265,345,38603,2,0,L|265:372,6,26.9999991760254
240,331,39003,6,0,B|196:351|196:351|124:339,1,107.999996704102
61,241,39403,1,0,0:0:0:0:
61,241,39503,1,0,0:0:0:0:
61,241,39603,2,0,L|121:192,1,53.9999983520508
136,178,39803,1,0,0:0:0:0:
288,83,40003,1,0,0:0:0:0:
202,57,40203,2,0,L|214:173,1,107.999996704102
147,285,40603,2,0,L|135:169,1,107.999996704102
221,346,40903,5,0,0:0:0:0:
221,346,41003,2,0,B|278:336|278:336|368:352,1,107.999996704102
135,370,41403,1,0,0:0:0:0:
316,237,41603,1,0,0:0:0:0:
316,237,41703,1,0,0:0:0:0:
316,237,41803,6,0,P|266:251|216:248,1,72
284,149,42203,6,0,B|326:135|326:135|366:158|432:128,1,107.999996704102
387,349,42603,1,0,0:0:0:0:
260,267,42803,2,0,L|273:320,1,53.9999983520508
180,293,43003,2,0,L|167:240,1,53.9999983520508
158,197,43203,1,0,0:0:0:0:
259,75,43403,2,0,B|204:96|204:96|151:77,1,107.999996704102,0|0,3:0|3:0,3:0:0:0:
77,155,43803,5,0,0:0:0:0:
69,190,43903,1,0,0:0:0:0:
74,225,44003,1,0,0:0:0:0:
91,256,44103,1,0,0:0:0:0:
117,280,44203,6,0,L|163:280,1,45
274,328,44403,1,0,0:0:0:0:
274,292,44503,1,0,0:0:0:0:
274,256,44603,6,0,L|274:163,1,90
306,50,45003,2,0,L|337:43,6,22.5
372,38,45403,1,0,0:0:0:0:
139,277,51803,6,0,L|60:310,2,72
311,199,52603,1,0,0:0:0:0:
141,103,53003,1,0,0:0:0:0:
192,202,53403,6,0,P|241:151|241:68,1,144
371,144,54203,2,0,P|322:195|322:278,1,144
174,325,55003,6,0,L|92:359,2,72
307,266,55803,1,0,0:0:0:0:
212,159,56203,1,0,0:0:0:0:
344,116,56403,2,0,L|309:127,1,36
371,107,56603,6,0,B|389:150|357:200,1,72
440,197,57003,2,0,B|422:240|364:252,1,72
420,312,57403,2,0,B|377:330|326:298,1,72
226,238,57803,2,0,B|269:219|319:251,1,72
147,272,58203,6,0,B|128:229|160:178,1,72
205,114,58603,1,0,0:0:0:0:
398,316,59003,2,0,L|325:316,1,72
353,231,59403,2,0,L|426:231,1,72
263,232,59803,5,0,0:0:0:0:
297,162,60003,1,0,0:0:0:0:
365,124,60203,5,0,0:0:0:0:
365,124,60603,6,0,L|365:217,1,72
366,282,61003,5,0,0:0:0:0:
366,282,61403,6,0,L|313:304,1,45
267,238,61603,2,0,L|300:225,2,22.5
235,256,61803,1,0,0:0:0:0:
201,268,61903,1,0,0:0:0:0:
165,262,62003,1,0,0:0:0:0:
135,240,62103,1,0,0:0:0:0:
121,206,62203,2,0,L|77:196,2,45
144,122,62503,1,0,0:0:0:0:
144,122,62603,2,0,L|188:132,1,45
159,38,62803,6,0,L|130:30,3,30
281,60,63203,1,0,0:0:0:0:
359,157,63403,1,0,0:0:0:0:
367,281,63603,1,0,0:0:0:0:
257,338,63803,2,0,L|325:378,2,60
178,349,64203,2,0,P|186:301|234:258,1,90
93,272,64603,6,0,B|81:228|81:228|85:154,1,90
126,91,65003,1,0,0:0:0:0:
300,39,65203,1,0,0:0:0:0:
138,86,65403,1,0,0:0:0:0:
314,34,65603,1,0,0:0:0:0:
190,164,65803,6,0,B|161:125|161:125|146:64,1,90
348,168,66203,1,0,0:0:0:0:
425,295,66403,1,0,0:0:0:0:
269,294,66603,1,0,0:0:0:0:
428,208,66803,1,0,0:0:0:0:
348,346,67003,1,0,0:0:0:0:
273,205,67203,1,0,0:0:0:0:
344,87,67403,2,0,B|382:76|382:76|432:83,1,90
128,48,67803,6,0,L|96:90,1,45
152,140,68003,2,0,L|120:182,1,45
102,212,68203,1,0,0:0:0:0:
108,253,68303,1,0,0:0:0:0:
133,287,68403,1,0,0:0:0:0:
172,300,68503,1,0,0:0:0:0:
214,296,68603,2,0,L|241:260,2,45
350,263,68903,1,0,0:0:0:0:
350,263,69003,2,0,L|322:298,1,45
287,196,69203,2,0,L|314:160,1,45
420,105,69403,6,0,P|415:153|403:79,1,315
463,220,71003,6,0,B|439:269|439:269|370:294,1,107.999996704102
260,334,71403,2,0,L|191:362,1,53.9999983520508
138,295,71603,1,0,0:0:0:0:
138,295,71703,1,0,0:0:0:0:
138,295,71803,2,0,B|188:272,1,53.9999983520508
138,205,72003,2,0,B|188:178|188:178|197:111,1,107.999996704102
362,40,72403,2,0,L|310:56,1,53.9999983520508
308,130,72603,6,0,B|368:165,1,53.9999983520508
425,196,72803,1,0,0:0:0:0:
425,196,72903,1,0,0:0:0:0:
425,196,73003,2,0,B|376:254|376:254|377:328,1,107.999996704102
195,281,73403,2,0,B|195:248|195:248|146:190,1,107.999996704102
376,178,73803,2,0,L|376:254,1,53.9999983520508
283,273,74003,2,0,L|283:197,1,53.9999983520508
196,176,74203,6,0,L|195:233,1,53.9999983520508
119,290,74403,1,0,0:0:0:0:
119,290,74503,1,0,0:0:0:0:
119,290,74603,2,0,L|119:213,1,53.9999983520508
58,184,74803,2,0,B|85:167|85:167|93:139,1,53.9999983520508
104,55,75003,5,0,0:0:0:0:
104,55,75103,1,0,0:0:0:0:
104,55,75203,2,0,L|188:55,1,53.9999983520508
201,56,75403,1,0,0:0:0:0:
354,57,75603,6,0,L|353:93,3,35.9999989013672
439,125,75903,1,0,0:0:0:0:
439,125,76003,2,0,L|477:163,1,53.9999983520508
402,236,76204,2,0,L|363:197,1,53.9999983520508
493,244,76403,5,0,0:0:0:0:
479,285,76503,1,0,0:0:0:0:
447,314,76603,1,0,0:0:0:0:
404,323,76703,1,0,0:0:0:0:
360,325,76803,2,0,L|306:325,1,53.9999983520508
166,339,77003,2,0,L|149:368,6,26.9999991760254
150,287,77403,6,0,B|111:226|111:226|144:135,1,135.000005149842
204,55,77803,2,0,B|229:32|229:32|260:43|260:43|269:76|269:76|246:100|246:100|216:94|216:94,1,161.999995056153
388,103,78203,2,0,L|388:217,1,107.999996704102
361,319,78603,2,0,L|247:319,1,107.999996704102
157,313,79003,6,0,L|111:349,1,53.9999983520508
106,260,79203,2,0,L|157:220,1,53.9999983520508
33,282,79403,2,0,B|27:229|27:229|79:185,1,107.999996704102
144,121,79803,2,0,B|197:137|197:137|288:108,1,107.999996704102
251,227,80203,2,0,B|197:210|197:210|106:239,1,107.999996704102
340,300,80603,6,0,L|340:152,1,107.999996704102
345,66,81003,1,0,0:0:0:0:
306,45,81103,1,0,0:0:0:0:
261,44,81203,1,0,0:0:0:0:
221,61,81303,1,0,0:0:0:0:
197,97,81403,2,0,L|217:162,1,53.9999983520508
145,227,81603,2,0,L|125:162,1,53.9999983520508
197,298,81803,1,0,0:0:0:0:
240,295,81903,1,0,0:0:0:0:
283,293,82003,2,0,L|283:364,1,53.9999983520508
370,250,82203,6,0,L|413:282,2,53.9999983520508
298,210,82503,1,0,0:0:0:0:
225,171,82603,2,0,L|192:214,2,53.9999983520508
269,106,82903,1,0,0:0:0:0:
315,48,83003,6,0,L|271:16,2,53.9999983520508
315,48,83403,6,0,B|266:72|266:72|206:72,1,107.999996704102
119,75,83803,5,0,0:0:0:0:
119,75,84203,6,0,L|119:174,1,90
180,240,84603,1,0,0:0:0:0:
249,169,84803,2,0,L|249:70,2,90
341,272,85803,6,0,P|280:293|219:270,1,90
186,216,86203,2,0,P|247:195|308:218,1,90
105,270,86603,2,0,P|90:228|112:154,1,90
148,81,87003,5,0,0:0:0:0:
148,81,87403,6,0,B|264:94,1,90
342,161,87803,2,0,B|230:177,1,90
133,202,88203,1,0,0:0:0:0:
133,202,88403,6,0,L|133:305,1,90
375,265,89003,2,0,P|383:220|345:174,1,90
392,114,89303,2,0,P|346:105|301:143,1,90
238,99,89603,2,0,P|230:144|267:189,1,90
213,256,89903,2,0,P|278:260|333:206,1,135
400,86,90603,6,0,P|352:86|312:42,1,90
460,142,91003,1,0,0:0:0:0:
460,226,91203,1,0,0:0:0:0:
398,278,91403,2,0,P|309:278|248:344,1,180
142,221,92003,2,0,B|92:248|92:248|63:304,2,90
220,116,92603,2,0,P|209:155|228:204,1,90
314,221,93003,2,0,P|325:182|306:133,1,90
373,281,93403,6,0,L|306:306,1,45
244,282,93603,2,0,L|177:257,1,45
117,309,93803,1,0,0:0:0:0:
49,234,94003,1,0,0:0:0:0:
122,159,94203,1,0,0:0:0:0:
44,84,94403,1,0,0:0:0:0:
164,34,94603,2,0,L|190:78,1,45
292,74,94803,2,0,L|266:30,1,45
364,33,95003,6,0,B|405:45|405:45|452:92|452:92|401:145|401:145|355:152,1,215.999993408203
252,157,95603,1,0,0:0:0:0:
128,169,95803,2,0,B|102:216|126:267,1,90
189,315,96203,2,0,B|242:314|274:267,1,90
356,206,96603,6,0,L|356:314,1,90
359,135,97003,2,0,B|359:83|359:83|318:38|318:38|253:38,1,161.999995056153
200,75,97403,6,0,L|154:159,1,53.9999983520508
115,200,97603,2,0,L|81:157,1,53.9999983520508
134,270,97803,2,0,L|123:323,1,53.9999983520508
187,215,98003,2,0,L|235:190,1,53.9999983520508
309,150,98203,5,0,0:0:0:0:
463,184,98403,2,0,L|384:241,1,53.9999983520508
391,238,98603,1,0,0:0:0:0:
257,318,98803,1,0,0:0:0:0:
325,129,99003,2,0,B|335:189|335:189|305:249,1,107.999996704102
177,143,99403,6,0,B|166:188|187:231,1,67.5000025749208
250,72,99803,6,0,L|250:208,1,107.999996704102
369,193,100203,2,0,B|402:186|402:186|424:211|424:211|415:244|415:244|383:254|383:254|360:233|360:233,1,161.999995056153
314,324,100603,6,0,L|221:324,1,53.9999983520508
216,321,100803,1,0,0:0:0:0:
108,235,101003,1,0,0:0:0:0:
115,97,101203,1,0,0:0:0:0:
246,51,101403,5,0,0:0:0:0:
289,54,101503,1,0,0:0:0:0:
319,83,101603,1,0,0:0:0:0:
326,125,101703,1,0,0:0:0:0:
318,167,101803,2,0,L|265:209,1,53.9999983520508
294,329,102003,2,0,L|252:276,1,53.9999983520508
155,148,102203,6,0,L|197:201,1,53.9999983520508
136,307,102403,2,0,L|189:265,1,53.9999983520508
274,208,102603,2,0,L|248:203,6,26.9999991760254
304,238,103003,6,0,B|322:290|322:290|378:317,1,107.999996704102
427,192,103403,1,0,0:0:0:0:
335,91,103603,2,0,L|277:91,1,53.9999983520508
237,94,103803,1,0,0:0:0:0:
115,170,104003,1,0,0:0:0:0:
115,170,104203,5,0,0:0:0:0:
232,183,104403,2,0,L|201:229,1,53.9999983520508
180,265,104603,1,0,0:0:0:0:
297,243,104803,2,0,L|293:298,1,53.9999983520508
292,339,105003,1,0,0:0:0:0:
383,262,105203,2,0,L|407:311,1,53.9999983520508
426,347,105403,1,0,0:0:0:0:
416,183,105603,2,0,L|462:214,1,53.9999983520508
502,202,105803,6,0,P|470:159|482:108,1,101.250003862381
471,72,106203,6,0,B|411:81|411:81|349:55,1,107.999996704102
239,23,106603,1,0,0:0:0:0:
150,64,106803,2,0,L|126:120,1,53.9999983520508
112,153,107003,1,0,0:0:0:0:
66,263,107203,1,0,0:0:0:0:
226,287,107403,1,0,0:0:0:0:
65,310,107603,1,0,0:0:0:0:
230,365,107803,5,0,0:0:0:0:
271,353,107903,1,0,0:0:0:0:
297,319,108003,1,0,0:0:0:0:
304,276,108103,1,0,0:0:0:0:
284,237,108203,6,0,L|239:192,1,53.9999983520508
142,175,108403,2,0,L|187:130,1,53.9999983520508
224,69,108603,2,0,B|268:101|268:101|326:101|326:101|368:73,1,161.999995056153
438,72,109003,2,0,L|449:34,6,26.9999991760254
431,107,109403,1,0,0:0:0:0:
144,252,115803,6,0,L|62:303,2,72
290,168,116603,1,0,0:0:0:0:
142,96,117003,1,0,0:0:0:0:
290,169,117403,2,0,P|348:157|377:66,1,144
468,206,118203,2,0,P|401:224|376:289,1,144
287,341,119003,5,0,0:0:0:0:
287,341,119203,1,0,0:0:0:0:
287,341,119403,2,0,P|247:361|189:334,1,108
190,308,119803,2,0,P|143:284|94:304,1,108
88,331,120203,1,0,0:0:0:0:
76,200,120403,5,0,0:0:0:0:
94,178,120503,1,0,0:0:0:0:
121,167,120603,2,0,P|154:188|210:188,1,72
259,132,121003,2,0,P|226:111|175:111,1,72
186,192,121403,2,0,P|165:225|165:281,1,72
222,324,121803,2,0,P|243:291|243:240,1,72
337,165,122203,6,0,L|337:268,1,72
338,328,122603,1,0,0:0:0:0:
158,319,123003,2,0,P|156:255|67:220,1,144
201,76,123803,1,0,0:0:0:0:
223,158,124003,1,0,0:0:0:0:
304,188,124203,1,0,0:0:0:0:
330,37,124603,2,0,P|330:76|358:118,1,72
440,128,125003,2,0,P|439:88|411:46,1,72
344,104,125403,6,0,L|312:141,1,45
314,217,125603,2,0,L|343:231,2,22.5
273,203,125803,1,0,0:0:0:0:
243,171,125903,1,0,0:0:0:0:
236,128,126003,1,0,0:0:0:0:
253,88,126103,1,0,0:0:0:0:
286,60,126203,6,0,L|237:35,1,45
112,57,126403,2,0,L|154:80,1,45
162,180,126603,2,0,L|117:155,1,45
36,135,126803,2,0,L|36:90,3,30
50,238,127203,1,0,0:0:0:0:
146,299,127403,1,0,0:0:0:0:
252,254,127603,1,0,0:0:0:0:
287,153,127803,6,0,L|239:114,2,60
366,170,128203,2,0,B|374:119|327:81,1,90
410,255,128603,6,0,B|310:278,1,90
200,299,129003,1,0,0:0:0:0:
118,203,129203,1,0,0:0:0:0:
200,110,129403,1,0,0:0:0:0:
279,204,129603,1,0,0:0:0:0:
200,299,129803,2,0,L|200:172,1,90
201,46,130203,5,0,0:0:0:0:
350,48,130403,1,0,0:0:0:0:
203,73,130603,1,0,0:0:0:0:
351,76,130803,1,0,0:0:0:0:
393,160,131003,1,0,0:0:0:0:
286,262,131203,1,0,0:0:0:0:
412,178,131403,2,0,L|412:279,1,90
380,361,131803,6,0,L|345:328,1,45
286,262,132003,2,0,L|230:315,1,45
181,353,132203,1,0,0:0:0:0:
144,330,132303,1,0,0:0:0:0:
121,293,132403,1,0,0:0:0:0:
124,249,132503,1,0,0:0:0:0:
152,216,132603,2,0,L|190:244,2,45
80,166,132903,1,0,0:0:0:0:
80,166,133003,2,0,L|46:204,1,45
184,110,133203,2,0,L|144:157,1,45
271,65,133403,6,0,B|357:65|357:65|327:128|327:128|358:190|358:190|268:190,1,315
116,177,135003,6,0,B|80:216|80:216|88:281,1,107.999996704102
216,343,135403,2,0,L|239:295,1,53.9999983520508
363,244,135603,1,0,0:0:0:0:
363,244,135703,1,0,0:0:0:0:
363,244,135803,2,0,L|265:233,1,53.9999983520508
229,207,136003,2,0,B|206:163|206:163|285:129,1,107.999996704102
389,100,136403,2,0,B|354:40,1,53.9999983520508
431,167,136603,6,0,L|431:256,1,53.9999983520508
378,277,136803,1,0,0:0:0:0:
378,277,136903,1,0,0:0:0:0:
378,277,137003,2,0,B|325:264|325:264|271:283,1,107.999996704102
176,339,137303,1,0,0:0:0:0:
176,339,137403,2,0,B|126:309|126:309|86:240,1,107.999996704102
210,218,137703,1,0,0:0:0:0:
210,218,137803,2,0,B|200:186|200:186|219:155,1,53.9999983520508
177,51,138003,2,0,B|186:82|186:82|167:113,1,53.9999983520508
69,148,138203,6,0,B|100:138|100:138|131:157,1,53.9999983520508
210,218,138403,1,0,0:0:0:0:
210,218,138503,1,0,0:0:0:0:
210,218,138603,2,0,L|304:218,1,53.9999983520508
317,293,138803,1,0,0:0:0:0:
317,293,138903,1,0,0:0:0:0:
317,293,139003,2,0,B|290:318|290:318|169:318,1,107.999996704102
54,356,139403,1,0,0:0:0:0:
50,199,139603,6,0,L|70:169,3,35.9999989013672
110,99,139903,1,0,0:0:0:0:
110,99,140003,2,0,L|162:129,1,53.9999983520508
177,204,140203,2,0,L|142:255,1,53.9999983520508
186,56,140403,2,0,L|241:87,1,53.9999983520508
226,282,140603,5,0,0:0:0:0:
226,282,140703,1,0,0:0:0:0:
226,282,140803,2,0,L|257:231,1,53.9999983520508
305,149,141003,2,0,L|279:156,6,26.9999991760254
347,139,141403,6,0,L|347:281,1,135.000005149842
214,339,141803,2,0,B|247:346|247:346|269:321|269:321|260:288|260:288|228:278|228:278|205:299|205:299,1,161.999995056153
94,238,142203,2,0,L|187:168,1,107.999996704102
66,147,142603,2,0,L|159:77,1,107.999996704102
410,84,143003,6,0,L|446:130,1,53.9999983520508
357,135,143203,2,0,L|317:84,1,53.9999983520508
379,208,143403,2,0,B|326:214|326:214|282:162,1,107.999996704102
175,97,143803,2,0,B|123:113|123:113|56:89,1,107.999996704102
73,200,144203,2,0,B|125:183|125:183|186:205,1,107.999996704102
280,212,144603,6,0,L|280:104,1,107.999996704102
311,301,145003,1,0,0:0:0:0:
350,283,145103,1,0,0:0:0:0:
372,245,145203,1,0,0:0:0:0:
374,201,145303,1,0,0:0:0:0:
353,162,145403,2,0,L|412:145,2,53.9999983520508
321,84,145703,1,0,0:0:0:0:
321,84,145803,2,0,L|230:66,1,53.9999983520508
164,72,146003,2,0,L|164:137,1,53.9999983520508
219,213,146203,6,0,L|313:223,2,53.9999983520508
141,214,146503,1,0,0:0:0:0:
63,229,146603,2,0,L|-31:239,2,53.9999983520508
141,230,146903,1,0,0:0:0:0:
229,231,147003,6,0,L|224:284,2,53.9999983520508
439,172,147403,2,0,B|383:147|383:147|354:64,1,107.999996704102
257,63,147803,6,0,B|191:47|191:47|151:100,1,107.999996704102
91,184,148203,2,0,L|53:241,1,53.9999983520508
167,313,148403,2,0,L|161:259,1,53.9999983520508
249,186,148603,1,0,0:0:0:0:
316,345,148803,1,0,0:0:0:0:
340,204,149003,1,0,0:0:0:0:
432,292,149203,1,0,0:0:0:0:
432,292,149303,1,0,0:0:0:0:
432,292,149403,6,0,B|371:296|371:296|305:257,1,107.999996704102
269,86,149803,2,0,B|273:147|273:147|234:213,1,107.999996704102
79,237,150203,2,0,B|140:233|140:233|206:272,1,107.999996704102
305,329,150603,1,0,0:0:0:0:
180,256,150803,1,0,0:0:0:0:
305,329,151003,6,0,B|351:233,1,53.9999983520508
349,242,151203,1,0,0:0:0:0:
411,118,151403,2,0,L|343:94,1,53.9999983520508
253,145,151603,2,0,L|321:169,1,53.9999983520508
190,46,151803,1,0,0:0:0:0:
82,163,152003,1,0,0:0:0:0:
82,163,152103,1,0,0:0:0:0:
82,163,152203,2,0,L|82:83,1,53.9999983520508
156,186,152403,6,0,L|156:239,3,35.9999989013672
335,239,152803,1,0,0:0:0:0:
434,151,153003,2,0,L|363:151,1,53.9999983520508
336,151,153203,1,0,0:0:0:0:
238,63,153403,2,0,L|309:63,1,53.9999983520508
336,63,153603,1,0,0:0:0:0:
335,239,153803,1,0,0:0:0:0:
336,63,154003,1,0,0:0:0:0:
218,230,154203,6,0,L|174:271,1,53.9999983520508
88,253,154403,2,0,L|132:212,1,53.9999983520508
129,105,154603,2,0,B|83:139|83:139|5:133,1,107.999996704102
66,61,154903,1,0,0:0:0:0:
66,61,155003,2,0,B|118:23|118:23|176:33,1,107.999996704102
390,121,155403,2,0,B|337:83|337:83|279:93,1,107.999996704102
166,182,155803,6,0,L|222:291,1,107.999996704102
199,318,156103,1,0,0:0:0:0:
155,315,156203,2,0,L|99:206,1,107.999996704102
63,135,156503,1,0,0:0:0:0:
63,135,156603,2,0,L|150:97,1,53.9999983520508
126,18,156803,2,0,L|38:55,1,53.9999983520508
210,69,157003,2,0,B|251:114|251:114|328:122,1,107.999996704102
416,167,157403,6,0,B|354:204|354:204|354:282,1,107.999996704102
191,327,157803,2,0,L|245:327,1,53.9999983520508
125,265,158003,2,0,L|71:265,1,53.9999983520508
105,172,158203,2,0,B|105:137|105:137|43:100,1,107.999996704102
200,150,158503,1,0,0:0:0:0:
200,150,158603,2,0,L|262:106,1,53.9999983520508
269,209,158803,2,0,L|344:195,1,53.9999983520508
406,187,159003,5,0,0:0:0:0:
402,230,159103,1,0,0:0:0:0:
378,266,159203,1,0,0:0:0:0:
337,281,159303,1,0,0:0:0:0:
291,278,159403,2,0,L|291:352,1,53.9999983520508
155,296,159603,2,0,L|207:243,1,53.9999983520508
133,180,159803,2,0,L|79:180,1,53.9999983520508
68,68,160003,1,0,0:0:0:0:
68,68,160203,5,0,0:0:0:0:
348,59,160603,6,0,L|409:56,2,45
196,90,161403,2,0,L|190:147,1,45
303,227,161803,2,0,L|309:170,1,45
178,233,162203,2,0,L|135:233,1,22.5
187,258,162403,2,0,P|191:301|237:345,1,90
319,349,163003,5,0,0:0:0:0:
416,272,163203,1,0,0:0:0:0:
313,188,163403,1,0,0:0:0:0:
420,101,163603,1,0,0:0:0:0:
301,48,163803,6,0,B|273:29|247:85|247:85|248:49|228:12|179:-2|130:14|111:56,1,270.000010299683
77,138,164303,1,0,0:0:0:0:
77,138,164403,2,0,L|58:198,1,53.9999983520508
155,162,164603,2,0,L|169:110,1,53.9999983520508
232,185,164803,2,0,L|215:236,1,53.9999983520508
364,239,165003,5,0,0:0:0:0:
245,333,165203,1,0,0:0:0:0:
375,245,165403,1,0,0:0:0:0:
255,343,165603,1,0,0:0:0:0:
385,251,165803,2,0,B|373:199|373:199|397:136,1,107.999996704102
207,63,166203,2,0,L|154:126,1,53.9999983520508
75,185,166403,2,0,L|134:207,1,53.9999983520508
237,236,166603,2,0,L|229:178,1,53.9999983520508
301,78,166803,2,0,L|311:140,1,53.9999983520508
401,172,167003,6,0,B|348:224|348:224|348:314,1,161.999995056153
349,354,167403,2,0,B|287:354|287:354|237:314,1,107.999996704102
102,298,167803,1,0,0:0:0:0:
102,298,167903,2,0,L|36:311,1,53.9999983520508
147,189,168203,2,0,B|206:178|206:178|246:89,1,107.999996704102
148,107,168603,6,0,L|120:51,1,53.9999983520508
223,43,168803,2,0,L|306:43,1,53.9999983520508
339,82,169003,2,0,L|256:82,1,53.9999983520508
403,169,169203,2,0,L|403:252,1,53.9999983520508
364,285,169403,2,0,L|364:202,1,53.9999983520508
277,339,169603,2,0,L|194:339,1,53.9999983520508
161,300,169803,2,0,L|244:300,1,53.9999983520508
107,211,170003,2,0,L|107:128,1,53.9999983520508
146,95,170203,6,0,B|177:123|177:123|226:116|226:116|222:185|222:185|281:171|281:171|315:209,1,270.000010299683
374,258,170703,1,0,0:0:0:0:
374,258,170803,2,0,L|326:310,1,53.9999983520508
241,287,171003,2,0,L|327:192,1,107.999996704102
330,62,171403,2,0,B|276:43|276:43|228:62,1,107.999996704102
107,142,171803,6,0,L|107:259,1,107.999996704102
193,315,172103,1,0,0:0:0:0:
193,315,172203,2,0,L|193:198,1,107.999996704102
283,141,172503,1,0,0:0:0:0:
283,141,172603,2,0,L|308:209,1,53.9999983520508
407,234,172803,2,0,L|422:182,1,53.9999983520508
260,257,173003,2,0,L|285:325,1,53.9999983520508
443,338,173203,2,0,L|458:286,1,53.9999983520508
175,238,173403,6,0,L|216:360,1,107.999996704102
119,345,173703,1,0,0:0:0:0:
119,345,173803,2,0,L|78:223,1,107.999996704102
33,113,174203,1,0,0:0:0:0:
160,55,174403,1,0,0:0:0:0:
160,55,174603,6,0,L|278:55,1,107.999996704102
360,88,175003,5,0,0:0:0:0:
385,122,175103,1,0,0:0:0:0:
389,164,175203,1,0,0:0:0:0:
367,201,175303,1,0,0:0:0:0:
349,240,175403,1,0,0:0:0:0:
348,283,175503,1,0,0:0:0:0:
372,318,175603,6,0,L|318:318,1,53.9999983520508
295,240,175803,2,0,L|349:240,1,53.9999983520508
292,162,176003,2,0,L|168:162,1,107.999996704102
103,81,176603,5,0,0:0:0:0:
52,164,176803,1,0,0:0:0:0:
155,167,177003,2,0,P|194:134|203:82,1,90
307,97,177403,2,0,P|321:139|357:167,1,90
445,172,177803,1,0,0:0:0:0:
408,85,178003,1,0,0:0:0:0:
355,166,178203,6,0,P|326:199|325:243,1,90
408,234,178603,1,0,0:0:0:0:
246,227,178803,1,0,0:0:0:0:
424,234,179003,1,0,0:0:0:0:
236,228,179203,1,0,0:0:0:0:
439,235,179403,2,0,L|315:235,1,90
163,257,179803,6,0,L|112:345,1,90
132,189,180203,2,0,L|43:240,1,90
107,120,180603,2,0,L|18:120,1,72
193,69,181003,2,0,L|111:22,1,72
246,148,181403,6,0,L|187:181,1,53.9999983520508
307,60,181803,2,0,L|261:31,1,53.9999983520508
358,169,182203,2,0,L|299:202,1,53.9999983520508
444,86,182603,2,0,L|444:149,1,53.9999983520508
391,241,183003,6,0,L|436:218,1,36
307,303,183403,2,0,L|352:326,1,36
241,230,183803,2,0,L|286:207,1,36
178,316,184203,2,0,L|223:339,1,36
77,241,184603,6,0,L|76:263,1,18
174,199,185003,2,0,L|174:181,1,18
78,111,185403,2,0,L|96:111,1,18
205,44,185803,2,0,L|183:44,1,18
314,82,186203,6,0,L|314:157,1,72
315,254,187203,2,0,L|274:287,1,45
158,289,187403,2,0,L|236:227,1,90
201,151,187703,1,0,0:0:0:0:
201,151,187803,2,0,B|177:182|177:182|116:182|116:182|93:153,1,135.000005149842
79,77,188103,5,0,0:0:0:0:
79,77,188203,2,0,L|143:77,1,53.9999983520508
242,22,188403,2,0,L|180:22,1,53.9999983520508
306,87,188603,1,0,0:0:0:0:
425,196,188803,2,0,L|426:124,1,53.9999983520508
425,222,189003,1,0,0:0:0:0:
305,303,189203,1,0,0:0:0:0:
163,286,189403,6,0,B|127:247|127:247|135:182,1,107.999996704102
336,179,189803,2,0,L|307:227,1,53.9999983520508
240,116,190003,1,0,0:0:0:0:
240,116,190103,1,0,0:0:0:0:
240,116,190203,2,0,L|288:50,1,53.9999983520508
336,179,190403,2,0,B|364:222|364:222|324:269,1,107.999996704102
203,323,190803,2,0,B|150:323,1,53.9999983520508
97,248,191003,6,0,L|186:248,1,53.9999983520508
240,116,191203,1,0,0:0:0:0:
240,116,191303,1,0,0:0:0:0:
240,116,191403,2,0,B|187:103|187:103|133:122,1,107.999996704102
200,196,191703,1,0,0:0:0:0:
200,196,191803,2,0,B|253:209|253:209|307:190,1,107.999996704102
445,79,192203,2,0,L|412:178,1,53.9999983520508
397,202,192403,2,0,L|430:301,1,53.9999983520508
360,315,192603,6,0,B|329:343|329:343|226:343,1,107.999996704102
209,274,192903,1,0,0:0:0:0:
209,274,193003,2,0,L|115:274,1,53.9999983520508
91,220,193203,1,0,0:0:0:0:
91,220,193303,1,0,0:0:0:0:
91,220,193403,2,0,B|118:195|118:195|239:195,1,107.999996704102
316,195,193803,1,0,0:0:0:0:
378,116,194003,6,0,L|398:86,3,35.9999989013672
316,195,194303,1,0,0:0:0:0:
316,195,194403,2,0,L|346:246,1,53.9999983520508
130,247,194603,2,0,L|161:203,1,53.9999983520508
296,52,194803,2,0,L|296:106,1,53.9999983520508
179,109,195003,1,0,0:0:0:0:
179,109,195103,1,0,0:0:0:0:
179,109,195203,2,0,L|179:55,1,53.9999983520508
297,106,195403,2,0,L|267:94,6,26.9999991760254
337,121,195803,6,0,L|337:263,1,135.000005149842
214,339,196203,2,0,B|247:346|247:346|269:321|269:321|260:288|260:288|228:278|228:278|205:299|205:299,1,161.999995056153
94,238,196603,2,0,L|55:138,1,107.999996704102
121,55,197003,2,0,L|159:164,1,107.999996704102
263,335,197403,6,0,L|204:331,1,53.9999983520508
259,261,197603,2,0,L|323:264,1,53.9999983520508
189,230,197803,2,0,B|219:186|219:186|287:186,1,107.999996704102
414,95,198203,2,0,B|362:111|362:111|295:87,1,107.999996704102
118,46,198603,2,0,B|170:29|170:29|231:51,1,107.999996704102
241,135,199003,6,0,L|108:187,1,135.000005149842
125,339,199403,1,0,0:0:0:0:
167,342,199503,1,0,0:0:0:0:
205,321,199603,1,0,0:0:0:0:
229,283,199703,1,0,0:0:0:0:
229,239,199803,2,0,L|177:262,2,53.9999983520508
276,142,200103,1,0,0:0:0:0:
276,142,200203,2,0,L|195:170,1,53.9999983520508
139,101,200403,2,0,L|201:79,1,53.9999983520508
274,53,200603,6,0,L|245:-8,2,53.9999983520508
353,71,200903,1,0,0:0:0:0:
440,86,201003,2,0,L|416:37,2,53.9999983520508
385,161,201303,1,0,0:0:0:0:
339,231,201403,6,0,L|368:285,2,53.9999983520508
283,162,201803,2,0,B|227:187|227:187|198:270,1,107.999996704102
126,228,202203,6,0,B|110:183|110:183|54:158,1,107.999996704102
108,56,202603,2,0,L|146:113,1,53.9999983520508
253,118,202803,2,0,L|222:68,1,53.9999983520508
201,203,203003,1,0,0:0:0:0:
295,316,203203,1,0,0:0:0:0:
410,224,203403,1,0,0:0:0:0:
320,124,203603,1,0,0:0:0:0:
320,124,203703,1,0,0:0:0:0:
320,124,203803,6,0,B|259:120|259:120|193:159,1,107.999996704102
149,216,204203,2,0,B|153:277|153:277|114:343,1,107.999996704102
47,196,204603,2,0,B|108:192|108:192|174:231,1,107.999996704102
277,291,205003,1,0,0:0:0:0:
148,215,205203,1,0,0:0:0:0:
277,291,205403,6,0,B|323:195,1,53.9999983520508
321,204,205603,1,0,0:0:0:0:
378,132,205803,2,0,L|446:156,1,53.9999983520508
327,52,206003,2,0,L|259:28,1,53.9999983520508
194,9,206203,1,0,0:0:0:0:
95,216,206403,1,0,0:0:0:0:
95,216,206503,1,0,0:0:0:0:
95,216,206603,2,0,L|95:296,1,53.9999983520508
165,300,206803,6,0,L|165:353,3,35.9999989013672
168,201,207203,1,0,0:0:0:0:
168,201,207403,5,0,0:0:0:0:
183,160,207503,1,0,0:0:0:0:
214,130,207603,1,0,0:0:0:0:
254,114,207703,1,0,0:0:0:0:
295,103,207803,2,0,L|231:15,2,71.9999978027344
367,156,208203,2,0,B|315:190|315:190|329:261,1,107.999996704102
218,230,208603,6,0,L|174:271,1,53.9999983520508
88,253,208803,2,0,L|132:212,1,53.9999983520508
129,105,209003,2,0,B|83:139|83:139|5:133,1,107.999996704102
238,130,209403,2,0,B|290:92|290:92|348:92,1,107.999996704102
429,130,209803,2,0,B|376:92|376:92|319:92,1,107.999996704102
318,205,210203,6,0,L|351:307,1,107.999996704102
321,341,210503,1,0,0:0:0:0:
281,324,210604,2,0,L|247:221,1,107.999996704102
143,154,211003,2,0,L|76:188,1,67.5000025749208
170,42,211403,2,0,L|103:76,1,67.5000025749208
289,75,211803,6,0,B|227:112|227:112|227:190,1,107.999996704102
284,245,212203,2,0,L|338:245,1,53.9999983520508
183,242,212403,2,0,L|129:242,1,53.9999983520508
32,252,212603,2,0,B|32:287|32:287|94:324,1,107.999996704102
179,342,212903,1,0,0:0:0:0:
179,342,213003,2,0,L|241:298,1,53.9999983520508
227,212,213203,2,0,L|173:248,1,53.9999983520508
179,134,213403,5,0,0:0:0:0:
218,118,213503,1,0,0:0:0:0:
260,119,213603,1,0,0:0:0:0:
297,145,213703,1,0,0:0:0:0:
315,189,213803,2,0,L|376:149,1,53.9999983520508
470,195,214003,2,0,L|405:232,1,53.9999983520508
341,275,214203,2,0,L|368:321,1,53.9999983520508
392,356,214403,1,0,0:0:0:0:
255,276,214603,1,0,0:0:0:0:
74,218,215003,6,0,P|65:251|74:303,2,67.5000025749208
144,74,215803,5,0,0:0:0:0:
168,85,216203,1,0,0:0:0:0:
192,96,216603,1,0,0:0:0:0:
256,192,216703,12,0,217403,0:0:0:0:
