osu file format v14

[General]
AudioFilename: anime.mp3
AudioLeadIn: 0
PreviewTime: 60707
Countdown: 0
SampleSet: Soft
StackLeniency: 0.6
Mode: 0
LetterboxInBreaks: 0
WidescreenStoryboard: 1

[Editor]
DistanceSpacing: 1
BeatDivisor: 16
GridSize: 4
TimelineZoom: 1

[Metadata]
Title:Syrup
TitleUnicode:Syrup
Artist:Reol
ArtistUnicode:れをる
Creator:VINXIS
Version:Normal
Source:
Tags:極彩色 ごくさいしき Gokusaishiki UTAU Utaite monaca:factory chaoslitz sharlo
BeatmapID:1035529
BeatmapSetID:485597

[Difficulty]
HPDrainRate:3
CircleSize:2
OverallDifficulty:3
ApproachRate:4
SliderMultiplier:2
SliderTickRate:1

[Events]
//Background and Video events
0,0,"45098093_p02.png",0,0
//Break Periods
//Storyboard Layer 0 (Background)
//Storyboard Layer 1 (Fail)
//Storyboard Layer 2 (Pass)
//Storyboard Layer 3 (Foreground)
//Storyboard Sound Samples

[TimingPoints]
20748,1153.84615384615,4,2,2,40,1,0
62286,-100,4,2,1,60,0,0
99210,-100,4,2,3,40,0,0
107863,-100,4,2,1,40,0,0
108440,-100,4,2,3,40,0,0
117671,-100,4,2,2,40,0,0

[Colours]
Combo1 : 48,80,80
Combo2 : 192,192,192
Combo3 : 79,96,113
Combo4 : 142,142,102

[HitObjects]
189,309,20748,6,0,P|244:336|386:302,1,200,4|8,0:0|0:0,0:0:0:0:
443,122,23055,2,0,L|326:122,1,100
242,124,24209,1,8,0:0:0:0:
135,289,25363,6,0,L|107:76,1,200,4|8,0:0|0:0,0:0:0:0:
252,232,27671,2,0,L|253:165,1,50
255,131,28247,2,0,P|317:142|371:131,1,100,0|8,0:0|0:0,0:0:0:0:
352,336,29978,6,0,B|255:310|255:310|157:332,1,200,4|8,0:0|0:0,0:0:0:0:
324,220,32286,2,0,P|344:152|342:114,1,100
252,80,33440,1,8,0:0:0:0:
325,263,34594,6,0,L|121:278,1,200,4|8,0:0|0:0,0:0:0:0:
49,92,36901,2,0,L|51:22,2,50
47,142,37767,2,0,P|116:132|157:140,1,100
191,156,38632,1,0,0:0:0:0:
273,213,39209,6,0,P|289:144|288:123,2,75,4|4|4,0:0|0:0|0:0,0:0:0:0:
238,248,40363,1,8,0:0:0:0:
437,262,41517,2,0,P|421:331|422:352,2,75,4|4|4,0:0|0:0|0:0,0:0:0:0:
472,227,42671,1,8,0:0:0:0:
291,313,43824,6,0,P|238:328|212:333,2,75,4|4|4,0:0|0:0|0:0,0:0:0:0:
306,265,44978,2,0,L|313:107,1,150,8|0,0:0|0:0,0:0:0:0:
311,65,46132,6,0,P|258:50|232:45,2,75,4|4|4,0:0|0:0|0:0,0:0:0:0:
356,86,47286,1,8,0:0:0:0:
135,205,48440,6,0,L|124:92,1,100,4|8,0:0|0:0,0:0:0:0:
224,122,49594,2,0,P|272:131|336:121,1,100,0|8,0:0|0:0,0:0:0:0:
403,67,50747,6,0,P|418:122|409:181,1,100,4|8,0:0|0:0,0:0:0:0:
346,234,51901,2,0,P|344:258|342:283,2,50,0|4|8,0:0|0:0|0:0,0:0:0:0:
246,235,53055,6,0,P|239:283|247:342,1,100,4|8,0:0|0:0,0:0:0:0:
147,357,54209,2,0,P|152:307|145:258,1,100,0|8,0:0|0:0,0:0:0:0:
57,210,55363,6,0,L|68:75,1,100,4|8,0:0|0:0,0:0:0:0:
78,11,56517,1,8,0:0:0:0:
160,68,57094,2,0,L|219:77,2,50,8|0|8,0:0|0:0|0:0,0:0:0:0:
256,192,57815,12,2,59690,0:0:0:0:
370,274,62286,6,0,L|382:66,1,200,6|8,0:0|0:0,0:0:0:0:
284,98,64017,2,0,L|214:103,1,50,0|2,0:0|0:0,0:0:0:0:
184,105,64594,6,0,L|195:304,1,200,2|8,0:0|0:0,0:0:0:0:
287,266,66324,1,0,0:0:0:0:
317,361,66901,6,0,P|413:368|516:337,1,200,2|8,0:0|0:0,0:0:0:0:
463,251,68632,2,0,P|459:226|458:201,1,50,0|2,0:0|0:0,0:0:0:0:
481,156,69209,6,0,L|428:147,1,50,2|0,0:0|0:0,0:0:0:0:
382,140,69786,2,0,L|329:149,1,50,0|2,0:0|0:0,0:0:0:0:
285,160,70363,1,8,0:0:0:0:
276,60,70940,2,0,L|334:50,1,50,0|2,0:0|0:0,0:0:0:0:
375,62,71517,6,0,L|390:-9,2,50,2|0|0,0:0|0:0|0:0,0:0:0:0:
395,107,72382,2,0,L|384:155,1,50,2|8,0:0|0:0,0:0:0:0:
353,251,73247,2,0,P|329:249|304:243,1,50,0|2,0:0|0:0,0:0:0:0:
259,263,73824,6,0,L|244:334,2,50,2|0|0,0:0|0:0|0:0,0:0:0:0:
258,213,74690,2,0,L|268:164,1,50,2|8,0:0|0:0,0:0:0:0:
224,73,75555,1,0,0:0:0:0:
129,103,76132,6,0,L|133:206,1,100,2|0,0:0|0:0,0:0:0:0:
137,302,77286,1,8,0:0:0:0:
233,275,77863,1,0,0:0:0:0:
295,353,78440,6,0,L|349:359,1,50,2|0,0:0|0:0,0:0:0:0:
377,320,79017,2,0,L|431:326,1,50,0|2,0:0|0:0,0:0:0:0:
459,287,79594,2,0,L|513:293,2,50,8|0|0,0:0|0:0|0:0,0:0:0:0:
406,201,80747,6,0,L|398:82,1,100,2|0,0:0|0:0,0:0:0:0:
302,75,81901,2,0,L|308:174,1,100,8|0,0:0|0:0,0:0:0:0:
211,148,83055,6,0,P|113:133|17:157,1,200,2|8,0:0|0:0,0:0:0:0:
52,250,84786,2,0,B|58:274|58:274|56:299,1,50,0|2,0:0|0:0,0:0:0:0:
23,335,85363,6,0,B|72:321|119:337|119:337|169:357|219:340,1,200,2|8,0:0|0:0,0:0:0:0:
278,260,87094,2,0,L|285:201,1,50,0|2,0:0|0:0,0:0:0:0:
302,163,87671,6,0,L|368:162,1,50,2|0,0:0|0:0,0:0:0:0:
373,117,88247,2,0,L|422:116,1,50,0|2,0:0|0:0,0:0:0:0:
443,71,88824,1,8,0:0:0:0:
354,24,89401,2,0,L|304:24,1,50,0|2,0:0|0:0,0:0:0:0:
254,31,89978,6,0,L|262:90,2,50,2|0|0,0:0|0:0|0:0,0:0:0:0:
203,28,90844,2,0,L|153:28,1,50,2|8,0:0|0:0,0:0:0:0:
116,121,91709,2,0,L|165:121,1,50,0|2,0:0|0:0,0:0:0:0:
216,118,92286,6,0,L|208:177,2,50,2|0|0,0:0|0:0|0:0,0:0:0:0:
266,116,93151,2,0,L|315:116,1,50,2|8,0:0|0:0,0:0:0:0:
405,161,94017,2,0,L|397:220,2,50,0|0|2,0:0|0:0|0:0,0:0:0:0:
256,192,94738,12,2,96901,0:0:0:0:
72,351,99209,6,0,L|84:142,1,200,6|2,0:0|0:0,0:0:0:0:
265,234,101517,2,0,L|253:25,1,200,2|2,0:0|0:0,0:0:0:0:
172,217,103824,6,0,P|203:307|296:326,1,200,2|2,0:0|0:0,0:0:0:0:
304,125,106132,2,0,P|381:67|476:87,1,200,2|2,0:0|0:0,0:0:0:0:
503,184,107863,1,2,0:0:0:0:
404,170,108440,6,0,L|424:369,1,200,2|2,0:0|0:0,0:0:0:0:
277,232,110747,2,0,L|297:33,1,200,2|2,0:0|0:0,0:0:0:0:
372,218,113055,6,0,P|339:307|245:324,1,200,2|2,0:0|0:0,0:0:0:0:
232,125,115363,2,0,P|154:66|59:86,1,200,2|2,0:0|0:0,0:0:0:0:
158,260,117671,6,0,L|357:266,1,200,2|8,0:0|0:0,0:0:0:0:
443,86,119978,6,0,L|243:92,1,200,2|8,0:0|0:0,0:0:0:0:
42,95,122286,5,0,0:0:0:0:
