osu file format v14

[General]
AudioFilename: anime.mp3
AudioLeadIn: 0
PreviewTime: 60707
Countdown: 0
SampleSet: Soft
StackLeniency: 0.6
Mode: 0
LetterboxInBreaks: 0
WidescreenStoryboard: 0

[Editor]
DistanceSpacing: 1.2
BeatDivisor: 16
GridSize: 4
TimelineZoom: 1

[Metadata]
Title:Syrup
TitleUnicode:Syrup
Artist:Reol
ArtistUnicode:れをる
Creator:VINXIS
Version:Insane
Source:
Tags:極彩色 ごくさいしき Gokusaishiki UTAU Utaite monaca:factory chaoslitz sharlo
BeatmapID:1035528
BeatmapSetID:485597

[Difficulty]
HPDrainRate:6
CircleSize:4
OverallDifficulty:7
ApproachRate:7.5
SliderMultiplier:2.6
SliderTickRate:1

[Events]
//Background and Video events
0,0,"45098093_p02.png",0,0
//Break Periods
//Storyboard Layer 0 (Background)
//Storyboard Layer 1 (Fail)
//Storyboard Layer 2 (Pass)
//Storyboard Layer 3 (Foreground)
//Storyboard Sound Samples

[TimingPoints]
20748,1153.84615384615,4,2,2,40,1,0
39209,-83.3333333333333,4,2,2,40,0,0
60267,-166.666666666667,4,2,2,40,0,0
60844,-166.666666666667,4,2,2,40,0,0
62286,-62.5,4,2,1,60,0,0
76132,-62.5,4,2,2,60,0,0
77286,-62.5,4,2,1,60,0,0
77863,-62.5,4,2,2,60,0,0
78151,-62.5,4,2,1,60,0,0
99209,-52.6315789473684,4,2,3,40,0,0
107863,-52.6315789473684,4,2,1,40,0,0
108440,-52.6315789473684,4,2,3,40,0,0
112767,-52.6315789473684,4,2,1,40,0,0
113056,-52.6315789473684,4,2,3,40,0,0
117671,-125,4,2,2,40,0,0
122286,-125,4,2,2,5,0,0

[Colours]
Combo1 : 48,80,80
Combo2 : 192,192,192
Combo3 : 79,96,113
Combo4 : 142,142,102

[HitObjects]
176,291,20748,6,0,B|207:300|207:300|237:288,1,65,4|0,0:0|0:0,0:0:0:0:
307,59,21324,2,0,L|305:195,1,130,0|8,0:0|0:0,0:0:0:0:
305,188,22190,1,0,0:0:0:0:
203,216,22478,2,0,L|204:152,1,65,0|0,0:0|0:0,0:0:0:0:
120,293,23055,5,0,0:0:0:0:
287,341,23344,1,0,0:0:0:0:
90,318,23632,1,0,0:0:0:0:
257,316,23921,1,0,0:0:0:0:
60,343,24209,6,0,P|34:290|52:142,1,195,8|0,0:0|0:0,0:0:0:0:
170,14,25363,6,0,B|139:23|139:23|108:10,1,65,4|0,0:0|0:0,0:0:0:0:
260,190,25940,2,0,L|263:32,1,130,0|8,0:0|0:0,0:0:0:0:
336,82,26805,2,0,B|293:87|236:73|236:73|262:60,1,130
428,66,27671,5,0,0:0:0:0:
465,208,27959,1,0,0:0:0:0:
434,33,28247,1,0,0:0:0:0:
361,195,28536,1,0,0:0:0:0:
440,0,28824,6,0,P|467:27|454:178,1,195,8|0,0:0|0:0,0:0:0:0:
166,196,29978,6,0,B|157:165|157:165|169:134,1,65,4|0,0:0|0:0,0:0:0:0:
298,244,30555,2,0,B|315:305|315:305|291:365,1,130,0|8,0:0|0:0,0:0:0:0:
291,366,31421,1,0,0:0:0:0:
161,301,31709,2,0,L|226:303,1,65
400,314,32286,5,0,0:0:0:0:
328,180,32574,1,0,0:0:0:0:
406,337,32863,1,0,0:0:0:0:
459,171,33151,1,0,0:0:0:0:
412,360,33440,5,8,0:0:0:0:
448,48,34594,6,0,B|417:57|417:57|386:44,1,65,4|0,0:0|0:0,0:0:0:0:
342,146,35171,2,0,L|471:140,1,130,0|8,0:0|0:0,0:0:0:0:
423,224,36036,1,0,0:0:0:0:
423,224,36324,2,0,L|345:228,1,65
243,237,36901,5,0,0:0:0:0:
355,139,37190,1,0,0:0:0:0:
306,307,37478,1,0,0:0:0:0:
193,156,37767,1,0,0:0:0:0:
120,325,38055,2,0,P|89:332|57:329,1,65,8|0,0:0|0:0,0:0:0:0:
56,328,38632,1,0,0:0:0:0:
79,38,39209,6,0,L|169:44,1,77.999997619629,4|0,0:0|0:0,0:0:0:0:
179,62,39642,2,0,L|269:56,1,77.999997619629,4|0,0:0|0:0,0:0:0:0:
276,35,40074,1,4,0:0:0:0:
287,272,40363,5,8,0:0:0:0:
331,159,40651,1,0,0:0:0:0:
266,295,40940,2,0,L|261:211,1,77.999997619629,0|0,0:0|0:0,0:0:0:0:
510,247,41517,6,0,P|472:258|433:261,1,77.999997619629,4|0,0:0|0:0,0:0:0:0:
407,173,41949,2,0,P|369:161|330:158,1,77.999997619629,4|0,0:0|0:0,0:0:0:0:
261,217,42382,1,4,0:0:0:0:
426,354,42671,5,10,0:0:0:0:
426,354,43824,6,0,B|387:362|387:362|349:356,1,77.999997619629,4|0,0:0|0:0,0:0:0:0:
261,282,44257,2,0,B|222:274|222:274|184:279,1,77.999997619629,4|0,0:0|0:0,0:0:0:0:
104,363,44690,1,4,0:0:0:0:
141,98,44978,1,8,0:0:0:0:
172,254,45267,1,0,0:0:0:0:
64,133,45555,2,0,P|56:95|66:57,1,77.999997619629
300,68,46132,5,4,0:0:0:0:
183,227,46421,1,0,0:0:0:0:
183,227,46565,1,4,0:0:0:0:
356,194,46853,1,0,0:0:0:0:
356,194,46997,1,4,0:0:0:0:
194,200,47286,5,10,0:0:0:0:
194,200,48440,6,0,L|204:300,1,77.999997619629,4|0,0:0|0:0,0:0:0:0:
219,353,48872,1,4,0:0:0:0:
219,353,49017,1,8,0:0:0:0:
325,210,49305,1,4,0:0:0:0:
439,353,49594,6,0,L|392:355,1,38.9999988098145,0|0,0:0|0:0,0:0:0:0:
322,360,49882,1,4,0:0:0:0:
295,196,50171,1,8,0:0:0:0:
219,353,50459,1,0,0:0:0:0:
140,199,50747,6,0,L|234:195,1,77.999997619629,4|0,0:0|0:0,0:0:0:0:
295,196,51180,1,4,0:0:0:0:
295,196,51324,1,8,0:0:0:0:
142,295,51613,1,4,0:0:0:0:
250,108,51901,6,0,L|345:104,1,77.999997619629,0|4,0:0|0:0,0:0:0:0:
487,97,52478,1,8,0:0:0:0:
363,256,52767,1,4,0:0:0:0:
363,256,52911,1,4,0:0:0:0:
363,256,53055,6,0,L|367:158,1,77.999997619629,4|0,0:0|0:0,0:0:0:0:
444,291,53488,1,4,0:0:0:0:
444,291,53632,1,8,0:0:0:0:
261,309,53921,1,4,0:0:0:0:
285,138,54209,6,0,P|246:132|207:135,1,77.999997619629,0|4,0:0|0:0,0:0:0:0:
183,312,54786,2,0,P|222:314|261:309,1,77.999997619629,8|0,0:0|0:0,0:0:0:0:
55,184,55363,5,4,0:0:0:0:
225,200,55651,1,0,0:0:0:0:
225,200,55796,1,4,0:0:0:0:
225,200,55940,1,8,0:0:0:0:
128,68,56228,1,4,0:0:0:0:
325,111,56517,5,8,0:0:0:0:
325,111,56661,2,0,L|426:121,1,77.999997619629,8|0,0:0|0:0,0:0:0:0:
413,150,57094,2,0,L|514:160,2,77.999997619629,2|0|0,0:0|0:0|0:0,0:0:0:0:
166,187,60267,6,0,L|109:191,1,38.9999988098145,2|0,0:0|0:0,0:0:0:0:
248,224,60844,1,0,0:0:0:0:
248,224,61132,6,0,L|252:274,2,38.9999988098145,2|0|2,0:0|0:0|0:0,0:0:0:0:
241,129,61997,1,0,0:0:0:0:
265,340,62286,6,0,P|310:355|398:341,1,104,6|0,0:0|0:0,0:0:0:0:
400,270,62719,1,2,0:0:0:0:
400,270,62863,2,0,P|445:255|533:269,1,104,0|2,0:0|0:0,0:0:0:0:
307,200,63440,2,0,B|301:97,1,104,8|0,0:0|0:0,0:0:0:0:
173,216,64017,1,0,0:0:0:0:
98,51,64305,1,2,0:0:0:0:
98,51,64449,1,2,0:0:0:0:
98,51,64594,6,0,L|203:45,1,104,2|0,0:0|0:0,0:0:0:0:
151,195,65026,1,2,0:0:0:0:
151,195,65171,2,0,L|47:189,1,104,0|2,0:0|0:0,0:0:0:0:
234,43,65747,1,8,0:0:0:0:
234,43,66324,2,0,L|241:154,1,104,0|2,0:0|0:0,0:0:0:0:
75,363,66901,6,0,P|61:312|63:261,1,104,2|0,0:0|0:0,0:0:0:0:
184,303,67334,1,2,0:0:0:0:
184,303,67478,2,0,P|235:304|285:291,1,104,0|2,0:0|0:0,0:0:0:0:
156,107,68055,2,0,P|129:150|115:200,1,104,8|0,0:0|0:0,0:0:0:0:
352,182,68632,2,0,P|327:137|291:100,1,104,0|2,0:0|0:0,0:0:0:0:
395,272,69209,6,0,L|510:282,1,104,2|0,0:0|0:0,0:0:0:0:
498,281,69642,1,2,0:0:0:0:
498,281,69786,1,0,0:0:0:0:
341,366,70074,1,2,0:0:0:0:
431,138,70363,1,8,0:0:0:0:
431,138,70940,2,0,P|411:192|418:250,1,104,0|2,0:0|0:0,0:0:0:0:
338,47,71517,5,2,0:0:0:0:
254,199,71805,1,0,0:0:0:0:
258,98,72094,1,0,0:0:0:0:
337,250,72382,1,2,0:0:0:0:
168,252,72671,1,8,0:0:0:0:
168,252,73247,2,0,P|188:306|181:364,1,104,0|2,0:0|0:0,0:0:0:0:
168,378,73680,1,2,0:0:0:0:
168,378,73824,5,2,0:0:0:0:
63,181,74113,1,0,0:0:0:0:
72,315,74401,1,0,0:0:0:0:
160,120,74690,1,2,0:0:0:0:
305,275,74978,2,0,B|356:278|356:278|426:258,1,104,8|2,0:0|0:0,0:0:0:0:
511,226,75555,1,0,0:0:0:0:
511,226,76132,6,0,P|461:170|385:162,1,156,6|0,0:0|0:0,0:0:0:0:
294,340,76709,2,0,P|368:323|413:261,1,156,2|0,0:0|0:0,0:0:0:0:
304,94,77286,2,0,P|280:166|311:236,1,156,8|0,0:0|0:0,0:0:0:0:
186,161,77863,2,0,P|139:156|73:169,1,104,2|2,0:0|0:0,0:0:0:0:
83,165,78296,1,2,0:0:0:0:
83,165,78440,5,2,0:0:0:0:
184,30,78728,1,0,0:0:0:0:
251,324,79017,1,0,0:0:0:0:
186,161,79305,1,2,0:0:0:0:
124,329,79594,5,8,0:0:0:0:
233,282,79882,1,0,0:0:0:0:
343,237,80171,2,0,P|353:288|339:339,1,104,0|2,0:0|0:0,0:0:0:0:
186,161,80747,6,0,L|237:158,2,52,2|0|0,0:0|0:0|0:0,0:0:0:0:
267,80,81180,2,0,L|337:77,2,52,2|0|0,0:0|0:0|0:0,0:0:0:0:
349,155,81613,2,0,L|419:152,1,52,2|0,0:0|0:0,0:0:0:0:
440,56,81901,1,8,0:0:0:0:
440,56,82478,1,0,0:0:0:0:
493,265,82767,1,2,0:0:0:0:
493,265,82911,1,2,0:0:0:0:
492,265,83055,6,0,P|442:277|390:281,1,104,2|0,0:0|0:0,0:0:0:0:
298,164,83488,1,2,0:0:0:0:
298,164,83632,2,0,P|247:151|195:147,1,104,0|2,0:0|0:0,0:0:0:0:
105,317,84209,1,8,0:0:0:0:
105,317,84786,2,0,B|107:275|107:275|98:257|98:257|100:214,1,104,0|2,0:0|0:0,0:0:0:0:
211,31,85363,6,0,P|214:88|159:89,1,104,2|0,0:0|0:0,0:0:0:0:
265,166,85796,1,2,0:0:0:0:
265,166,85940,2,0,P|327:149|367:158,1,104,0|2,0:0|0:0,0:0:0:0:
426,329,86517,1,8,0:0:0:0:
326,270,86805,1,0,0:0:0:0:
220,359,87094,2,0,L|109:356,1,104,0|2,0:0|0:0,0:0:0:0:
24,231,87671,6,0,P|14:180|17:128,1,104,2|0,0:0|0:0,0:0:0:0:
136,29,88103,1,2,0:0:0:0:
136,29,88247,2,0,P|138:80|129:131,1,104,0|2,0:0|0:0,0:0:0:0:
21,9,88824,1,8,0:0:0:0:
21,9,89401,1,0,0:0:0:0:
115,154,89690,1,2,0:0:0:0:
255,31,89978,6,0,L|262:152,1,104,2|0,0:0|0:0,0:0:0:0:
266,167,90411,1,2,0:0:0:0:
266,167,90555,1,0,0:0:0:0:
104,124,90844,1,2,0:0:0:0:
281,38,91132,1,8,0:0:0:0:
281,38,91709,2,0,P|332:47|383:40,1,104,0|2,0:0|0:0,0:0:0:0:
342,134,92142,1,2,0:0:0:0:
342,134,92286,6,0,L|349:255,1,104,2|0,0:0|0:0,0:0:0:0:
356,270,92719,1,2,0:0:0:0:
356,270,92863,1,0,0:0:0:0:
208,144,93151,1,2,0:0:0:0:
191,323,93440,2,0,P|126:337|82:321,1,104,8|2,0:0|0:0,0:0:0:0:
272,260,94017,2,0,B|284:311|284:311|281:363,1,104
183,124,94594,6,0,L|286:128,1,104,2|0,0:0|0:0,0:0:0:0:
367,47,95026,1,2,0:0:0:0:
367,47,95171,2,0,L|263:51,1,104,0|2,0:0|0:0,0:0:0:0:
359,167,95747,1,8,0:0:0:0:
206,216,96036,1,2,0:0:0:0:
380,144,96324,1,0,0:0:0:0:
346,296,96613,1,2,0:0:0:0:
346,296,96757,1,2,0:0:0:0:
346,296,96901,6,0,P|395:310|447:304,1,104,2|0,0:0|0:0,0:0:0:0:
281,225,97334,1,2,0:0:0:0:
281,225,97478,2,0,P|229:219|179:233,1,104,0|2,0:0|0:0,0:0:0:0:
248,95,98055,1,8,0:0:0:0:
95,75,98344,1,2,0:0:0:0:
276,111,98632,1,0,0:0:0:0:
276,111,98776,2,0,L|283:1,1,104,2|0,0:0|0:0,0:0:0:0:
302,29,99209,6,0,P|357:41|428:35,1,123.499996702194,6|0,0:0|0:0,0:0:0:0:
242,297,99786,2,0,P|297:285|368:291,1,123.499996702194,2|0,0:0|0:0,0:0:0:0:
155,124,100363,2,0,P|210:136|281:130,1,123.499996702194,2|0,0:0|0:0,0:0:0:0:
13,232,100940,2,0,P|68:220|139:226,1,123.499996702194,2|0,0:0|0:0,0:0:0:0:
244,290,101372,1,0,0:0:0:0:
244,290,101517,6,0,L|250:148,1,123.499996702194,2|0,0:0|0:0,0:0:0:0:
364,80,101949,1,0,0:0:0:0:
364,80,102094,2,0,L|370:222,1,123.499996702194,2|0,0:0|0:0,0:0:0:0:
226,54,102671,1,2,0:0:0:0:
150,211,102959,1,0,0:0:0:0:
235,34,103247,1,2,0:0:0:0:
282,245,103536,1,0,0:0:0:0:
95,143,103824,6,0,P|153:126|210:147,1,123.499996702194,2|0,0:0|0:0,0:0:0:0:
282,245,104257,1,0,0:0:0:0:
282,245,104401,2,0,L|274:368,1,123.499996702194,2|0,0:0|0:0,0:0:0:0:
479,140,104978,2,0,L|486:263,1,123.499996702194,2|0,0:0|0:0,0:0:0:0:
344,26,105555,2,0,L|336:149,1,123.499996702194,2|0,0:0|0:0,0:0:0:0:
239,66,105988,1,0,0:0:0:0:
239,65,106132,6,0,B|196:65|196:65|178:71|178:71|159:66|159:66|117:66,1,123.499996702194,2|0,0:0|0:0,0:0:0:0:
189,180,106565,1,0,0:0:0:0:
189,180,106709,2,0,P|251:177|311:192,1,123.499996702194,2|0,0:0|0:0,0:0:0:0:
119,257,107286,1,2,0:0:0:0:
239,66,107574,1,0,0:0:0:0:
382,244,107863,6,0,P|397:207|395:166,2,82.3333311347962,2|2|2,0:0|0:0|0:0,0:0:0:0:
308,303,108440,6,0,P|362:288|452:299,1,123.499996702194,2|0,0:0|0:0,0:0:0:0:
189,180,109017,2,0,P|243:195|333:184,1,123.499996702194,2|0,0:0|0:0,0:0:0:0:
131,384,109594,2,0,P|185:369|275:380,1,123.499996702194,2|0,0:0|0:0,0:0:0:0:
21,86,110171,2,0,P|75:101|165:90,1,123.499996702194,2|0,0:0|0:0,0:0:0:0:
241,27,110603,1,0,0:0:0:0:
241,27,110747,6,0,L|250:195,1,123.499996702194,2|0,0:0|0:0,0:0:0:0:
365,256,111180,1,0,0:0:0:0:
365,256,111324,2,0,L|372:133,1,123.499996702194,2|0,0:0|0:0,0:0:0:0:
270,281,111901,1,2,0:0:0:0:
160,146,112190,1,0,0:0:0:0:
244,278,112478,1,2,0:0:0:0:
278,120,112767,2,0,L|285:84,2,30.8749991755486,2|2|2,0:0|0:0|0:0,0:0:0:0:
262,199,113055,6,0,L|392:210,1,123.499996702194,2|0,0:0|0:0,0:0:0:0:
414,121,113488,1,0,0:0:0:0:
413,120,113632,2,0,P|393:63|403:3,1,123.499996702194,2|0,0:0|0:0,0:0:0:0:
271,230,114209,2,0,P|291:172|281:112,1,123.499996702194,2|0,0:0|0:0,0:0:0:0:
463,356,114786,2,0,P|442:298|452:238,1,123.499996702194,2|0,0:0|0:0,0:0:0:0:
352,305,115219,1,0,0:0:0:0:
352,305,115363,6,0,L|211:309,1,123.499996702194,2|0,0:0|0:0,0:0:0:0:
243,215,115796,1,0,0:0:0:0:
243,215,115940,2,0,L|102:219,1,123.499996702194,2|0,0:0|0:0,0:0:0:0:
338,223,116517,1,2,0:0:0:0:
135,67,117094,1,0,0:0:0:0:
83,328,117671,6,0,L|297:328,1,208,2|8,0:0|0:0,0:0:0:0:
360,222,119978,6,0,L|152:222,1,208,2|8,0:0|0:0,0:0:0:0:
152,222,122286,5,2,0:0:0:0:
