osu file format v14

[General]
AudioFilename: audio.mp3
AudioLeadIn: 0
PreviewTime: 56703
Countdown: 0
SampleSet: Soft
StackLeniency: 0.7
Mode: 0
LetterboxInBreaks: 0
WidescreenStoryboard: 0

[Editor]
DistanceSpacing: 1.9
BeatDivisor: 4
GridSize: 8
TimelineZoom: 2

[Metadata]
Title:Streaming Heart
TitleUnicode:ストリーミングハート
Artist:Reol
ArtistUnicode:れをる
Creator:Nevo
Version:Equivocation
Source:
Tags:deco*27 BlastTheKidd kudosu so0p agatsu battle door weapon dog food xiced utaite cover giga giga-p japanese rock
BeatmapID:2772934
BeatmapSetID:1338632

[Difficulty]
HPDrainRate:6
CircleSize:4
OverallDifficulty:9
ApproachRate:9.3
SliderMultiplier:1.7
SliderTickRate:1

[Events]
//Background and Video events
0,0,"53562044_p0.jpg",0,0
Video,-360,"Streaming Heart.avi"
//Break Periods
2,75260,83649
//Storyboard Layer 0 (Background)
//Storyboard Layer 1 (Fail)
//Storyboard Layer 2 (Pass)
//Storyboard Layer 3 (Foreground)
//Storyboard Layer 4 (Overlay)
//Storyboard Sound Samples

[TimingPoints]
775,285.714285714286,4,2,1,70,1,0
9917,-83.3333333333333,4,2,1,80,0,0
10489,-100,4,2,1,80,0,0
11917,-100,4,2,1,80,0,0
14203,-100,4,2,1,80,0,0
19060,-83.3333333333333,4,2,1,80,0,0
28203,-83.3333333333333,4,2,1,70,0,0
28346,-142.857142857143,4,2,1,70,0,0
28584,-125,4,2,1,70,0,0
28775,-111.111111111111,4,2,1,70,0,0
28965,-100,4,2,1,70,0,0
29155,-90.909090909091,4,2,1,70,0,0
29346,-142.857142857143,4,2,1,70,0,0
38489,-83.3333333333334,4,2,1,80,0,0
47632,-83.3333333333334,4,2,1,60,0,0
48775,-181.818181818181,4,2,1,60,0,0
54489,-133.333333333333,4,2,1,60,0,0
56203,-222.222222222221,4,2,1,60,0,0
56775,-76.9230769230769,4,2,1,90,0,1
75060,-76.9230769230769,4,2,1,70,0,0
84203,-333.333333333333,4,2,1,65,0,0
87632,-166.666666666667,4,2,1,65,0,0
88775,-333.333333333333,4,2,1,65,0,0
93346,-100,4,2,1,80,0,0
102489,-100,4,2,1,70,0,0
111346,-50,4,2,1,70,0,0
111632,-83.3333333333333,4,2,1,80,0,0
120775,-83.3333333333333,4,2,1,60,0,0
121917,-222.222222222221,4,2,1,60,0,0
125346,-133.333333333333,4,2,1,60,0,0
130775,-500,4,2,1,70,0,0
131060,-76.9230769230769,4,2,1,90,0,1
149203,-76.9230769230769,4,2,1,90,0,1
149346,-166.666666666667,4,2,1,80,0,0
149632,-66.6666666666667,4,2,1,90,0,1
152775,-76.9230769230769,4,2,1,90,0,0
153917,-76.9230769230769,4,2,1,90,0,1
167917,-133.333333333333,4,2,1,60,0,0

[Colours]
Combo1 : 254,240,73
Combo2 : 255,100,100
Combo3 : 255,151,47
Combo4 : 158,254,214

[HitObjects]
69,126,775,6,0,P|40:171|39:223,1,85,2|0,1:2|2:0,2:0:0:0:
167,84,1060,2,0,L|154:-23,1,85,0|2,1:0|2:0,2:0:0:0:
303,219,1346,2,0,P|225:198|118:196,1,170,0|0,1:0|1:0,2:0:0:0:
339,306,1775,2,0,P|377:279|399:242,1,85,2|0,2:0|1:0,2:0:0:0:
479,284,2060,2,0,P|486:238|476:196,1,85,2|0,2:0|1:0,2:0:0:0:
356,79,2346,2,0,L|368:186,2,85,2|0|2,2:0|1:0|2:0,2:0:0:0:
443,106,2775,1,0,1:0:0:0:
303,219,2917,6,0,L|324:31,1,170,2|0,2:0|2:0,2:0:0:0:
143,116,3346,2,0,B|176:141|176:141|234:130,1,85,0|2,1:0|2:0,2:0:0:0:
127,18,3632,2,0,P|69:44|55:69,1,85,0|0,1:0|2:0,2:0:0:0:
0,203,3917,1,0,1:0:0:0:
0,203,4060,2,0,L|85:186,1,85,2|0,2:0|1:0,2:0:0:0:
179,308,4346,2,0,L|94:291,1,85,2|0,2:0|1:0,2:0:0:0:
242,240,4632,2,0,P|272:311|202:393,1,170,2|2,2:0|2:0,2:0:0:0:
80,305,5060,1,0,1:0:0:0:
163,212,5203,6,0,B|218:200|218:200|251:212|251:212|330:192,1,170,2|0,2:0|2:0,2:0:0:0:
312,34,5632,2,0,P|282:78|264:121,2,85,0|2|2,1:0|2:0|1:2,2:0:0:0:
411,13,6060,1,0,2:0:0:0:
411,13,6203,1,0,1:0:0:0:
365,123,6346,6,0,L|361:234,1,85,2|0,2:0|1:0,2:0:0:0:
480,276,6632,2,0,L|476:191,1,85,2|0,2:0|1:0,2:0:0:0:
350,340,6917,2,0,P|319:325|171:314,1,170,2|0,2:0|2:0,2:0:0:0:
107,364,7346,1,0,1:0:0:0:
24,277,7489,2,0,P|-4:236|32:130,1,170,2|0,2:0|2:0,2:0:0:0:
162,130,7917,1,2,2:0:0:0:
84,205,8060,1,2,2:0:0:0:
11,46,8203,1,2,2:0:0:0:
6,63,8489,5,2,2:0:0:0:
229,27,8632,1,2,2:0:0:0:
162,130,8775,5,0,1:0:0:0:
149,131,8846,1,0,1:0:0:0:
136,130,8917,1,0,1:0:0:0:
124,128,8989,1,0,1:0:0:0:
111,124,9060,1,0,1:0:0:0:
239,44,9203,1,0,1:0:0:0:
336,217,9346,5,2,1:0:0:0:
365,222,9417,1,0,1:0:0:0:
394,221,9489,1,0,1:0:0:0:
422,212,9560,1,0,1:0:0:0:
448,196,9632,1,8,2:0:0:0:
504,112,9775,1,8,2:0:0:0:
279,135,9917,6,0,L|298:346,1,204,0|0,1:0|2:0,2:0:0:0:
191,245,10346,1,0,1:0:0:0:
382,118,10489,2,0,L|394:34,1,85,8|0,2:0|2:0,2:0:0:0:
169,106,10775,2,0,P|217:144|278:134,1,127.5,2|0,2:0|2:0,2:0:0:0:
238,62,11060,6,0,L|100:73,2,127.5,0|0|0,1:0|1:0|1:0,2:0:0:0:
153,214,11632,2,0,B|40:198,1,85,8|0,2:0|2:0,2:0:0:0:
205,148,11917,2,0,P|244:205|206:277,1,127.5,2|0,2:0|2:0,2:0:0:0:
125,343,12203,6,0,B|197:337|197:337|223:342|223:342|321:330,1,170,0|0,1:0|2:0,2:0:0:0:
202,378,12632,1,0,1:0:0:0:
366,267,12775,2,0,L|463:278,1,85,8|0,2:0|2:0,2:0:0:0:
432,67,13060,2,0,B|412:109|412:109|426:219,1,127.5,2|0,2:0|2:0,2:0:0:0:
500,218,13346,5,0,1:0:0:0:
370,324,13560,1,0,1:0:0:0:
468,320,13775,1,0,1:0:0:0:
356,241,13917,2,0,B|376:358,1,85,8|0,2:0|2:0,2:0:0:0:
422,189,14203,2,0,P|365:150|293:188,1,127.5,2|0,2:0|2:0,2:0:0:0:
246,273,14489,6,0,P|275:201|268:75,1,170,0|0,1:0|2:0,2:0:0:0:
184,174,14917,1,0,1:0:0:0:
325,319,15060,2,0,P|349:265|360:216,1,85,8|0,2:0|2:0,2:0:0:0:
154,266,15346,2,0,B|257:252|257:252|247:273|232:289,1,127.5,2|0,2:0|2:0,2:0:0:0:
112,333,15632,6,0,B|101:229|101:229|128:185,2,127.5,0|0|0,1:0|1:0|1:0,2:0:0:0:
15,205,16203,2,0,L|24:297,1,85,8|0,2:0|2:0,2:0:0:0:
198,341,16489,2,0,L|189:256,1,85,2|0,2:0|2:0,2:0:0:0:
425,288,16775,6,0,P|393:322|280:309,1,170,0|0,1:0|2:0,2:0:0:0:
254,215,17203,1,0,1:0:0:0:
345,252,17346,2,0,B|361:214|341:170|341:170|317:127|343:85,1,170,8|2,2:0|2:0,2:0:0:0:
425,132,17775,1,0,2:0:0:0:
152,202,17917,5,0,1:0:0:0:
214,90,18132,1,0,1:0:0:0:
129,118,18346,1,0,0:0:0:0:
170,25,18489,2,0,L|86:46,1,85,8|0,2:0|2:0,2:0:0:0:
46,118,18703,1,0,2:0:0:0:
46,118,18775,2,0,L|73:218,1,85,2|0,2:0|2:0,2:0:0:0:
312,346,19060,6,0,B|390:354|456:311|456:311|444:367,1,204,0|0,1:0|2:0,2:0:0:0:
358,244,19489,1,0,1:0:0:0:
199,346,19632,2,0,B|121:354|55:311|55:311|68:372,1,204,8|2,2:0|2:0,2:0:0:0:
154,244,20060,1,0,2:0:0:0:
256,277,20203,6,0,L|256:114,2,153,0|0|0,1:0|1:0|1:0,2:0:0:0:
206,54,20775,2,0,P|253:36|300:51,1,102,8|0,2:0|2:0,2:0:0:0:
302,192,21060,2,0,P|255:210|207:194,1,102,2|0,2:0|2:0,2:0:0:0:
80,64,21346,6,0,B|129:110|107:181|107:181|128:257,1,204,0|0,1:0|2:0,2:0:0:0:
162,363,21775,1,0,1:0:0:0:
33,288,21917,2,0,B|4:168|4:168|27:121,1,153,8|0,2:0|2:0,2:0:0:0:
16,141,22203,2,0,L|40:246,1,102,2|0,2:0|2:0,2:0:0:0:
326,282,22489,5,0,1:0:0:0:
191,266,22703,1,0,1:0:0:0:
269,198,22917,1,0,1:0:0:0:
414,371,23060,2,0,L|432:268,1,102,8|0,2:0|2:0,2:0:0:0:
351,96,23346,2,0,L|368:196,1,102,2|0,2:0|2:0,2:0:0:0:
449,92,23632,6,0,B|385:79|385:79|352:97|352:97|342:84|342:84|258:62,1,204,0|0,1:0|2:0,2:0:0:0:
208,0,24060,1,0,1:0:0:0:
167,171,24203,2,0,L|276:151,1,102,8|0,2:0|2:0,2:0:0:0:
80,97,24489,2,0,L|189:77,1,102,2|0,2:0|2:0,2:0:0:0:
194,282,24775,6,0,B|84:261|84:261|102:303,2,153,0|0|0,1:0|1:0|1:0,2:0:0:0:
313,358,25346,2,0,L|424:342,1,102,8|0,2:0|2:0,2:0:0:0:
503,235,25632,2,0,L|392:219,1,102,2|0,2:0|2:0,2:0:0:0:
132,153,25917,6,0,P|205:177|293:97,1,204,0|0,1:0|2:0,2:0:0:0:
32,112,26346,1,0,1:0:0:0:
32,112,26489,2,0,L|47:244,1,102,8|0,2:0|2:0,2:0:0:0:
119,352,26775,2,0,L|134:220,1,102,2|0,2:0|2:0,2:0:0:0:
381,310,27060,5,0,1:0:0:0:
212,336,27275,1,0,1:0:0:0:
304,367,27489,1,0,1:0:0:0:
303,149,27632,2,0,L|290:269,1,102,8|0,2:0|2:0,2:0:0:0:
292,250,27846,1,0,1:0:0:0:
292,250,27917,1,2,2:0:0:0:
401,200,28060,1,0,2:0:0:0:
197,177,28203,1,0,1:0:0:0:
291,57,28346,6,0,P|321:57|349:68,1,59.4999999999999,2|0,2:0|2:0,2:0:0:0:
401,4,28584,2,0,P|421:25|436:56,1,45.3333333333333,2|0,2:0|2:0,2:0:0:0:
512,24,28775,2,0,P|511:53|498:88,1,50.9999984436036,2|0,2:0|2:0,2:0:0:0:
488,208,28965,2,0,P|487:178|473:144,1,56.6666666666667,2|0,2:0|2:0,2:0:0:0:
352,243,29155,2,0,P|372:221|393:184,1,62.3333352355958,2|0,2:0|2:0,2:0:0:0:
293,86,29346,5,2,1:2:0:0:
300,102,29775,5,2,2:0:0:0:
66,54,29917,1,10,1:2:0:0:
54,37,30203,5,2,2:0:0:0:
116,122,30346,2,0,P|128:167|128:198,1,59.4999999999999,2|2,2:0|2:0,2:0:0:0:
217,200,30632,2,0,P|193:240|171:262,1,59.4999999999999,0|0,1:0|1:0,2:0:0:0:
124,329,30917,2,0,L|206:334,1,59.4999999999999,2|8,2:0|2:0,2:0:0:0:
294,272,31203,1,0,1:0:0:0:
375,347,31346,1,2,2:0:0:0:
424,267,31489,1,2,2:0:0:0:
280,362,31632,5,2,1:2:0:0:
270,377,32060,5,2,2:0:0:0:
217,200,32203,1,10,1:2:0:0:
233,185,32489,5,2,2:0:0:0:
353,279,32632,2,0,L|289:271,1,59.4999999999999,2|2,2:0|2:0,2:0:0:0:
419,238,32917,2,0,L|355:246,1,59.4999999999999,2|0,1:2|1:0,2:0:0:0:
439,129,33203,2,0,L|375:137,1,59.4999999999999,2|8,2:0|2:0,2:0:0:0:
505,170,33489,2,0,L|441:162,1,59.4999999999999,2|2,1:2|2:0,2:0:0:0:
396,48,33775,1,2,2:0:0:0:
221,110,33917,5,2,1:2:0:0:
215,125,34346,5,2,2:0:0:0:
48,72,34489,1,10,1:2:0:0:
60,55,34775,5,2,2:0:0:0:
115,139,34917,2,0,L|102:203,1,59.4999999999999,2|2,2:0|2:0,2:0:0:0:
33,279,35203,2,0,L|21:220,1,59.4999999999999,2|0,1:2|1:0,2:0:0:0:
127,279,35489,2,0,L|115:337,1,59.4999999999999,2|8,2:0|2:0,2:0:0:0:
30,360,35775,1,0,1:0:0:0:
212,321,35917,1,2,2:0:0:0:
33,279,36060,1,2,2:0:0:0:
217,228,36203,5,2,1:2:0:0:
231,211,36632,5,2,2:0:0:0:
416,166,36775,1,10,1:2:0:0:
410,188,37060,5,2,2:0:0:0:
401,213,37346,5,2,2:0:0:0:
281,306,37489,5,8,2:0:0:0:
270,265,37560,1,8,2:0:0:0:
259,226,37632,1,8,2:0:0:0:
182,361,37775,1,10,2:0:0:0:
200,113,37917,1,8,2:0:0:0:
72,337,38060,1,10,2:0:0:0:
60,82,38203,1,8,2:0:0:0:
149,278,38346,1,8,2:0:0:0:
159,237,38417,1,8,2:0:0:0:
171,198,38489,6,0,P|121:164|42:170,1,102,14|0,2:0|2:0,2:0:0:0:
281,306,38775,2,0,P|331:272|410:278,1,102,10|2,2:0|2:0,2:0:0:0:
72,337,39060,2,0,L|39:226,1,102,2|2,1:2|2:0,2:0:0:0:
266,53,39346,1,10,2:0:0:0:
196,257,39489,1,2,2:0:0:0:
90,80,39632,1,2,1:2:0:0:
320,150,39775,1,0,2:0:0:0:
66,185,39917,1,10,2:0:0:0:
369,234,40060,6,0,P|414:177|416:126,1,102,2|0,2:0|1:0,2:0:0:0:
170,22,40346,2,0,L|186:133,1,102,2|8,2:0|2:0,2:0:0:0:
367,262,40632,2,0,P|425:218|434:87,1,204,2|0,2:0|2:0,2:0:0:0:
224,214,41060,5,10,2:0:0:0:
266,361,41203,1,0,2:0:0:0:
320,150,41346,1,2,1:2:0:0:
121,272,41489,1,2,2:0:0:0:
367,262,41632,1,10,2:0:0:0:
207,89,41775,1,2,2:0:0:0:
379,283,41917,6,0,L|271:273,1,101.999996887207,2|0,3:2|2:0,0:0:0:0:
97,362,42203,1,8,2:0:0:0:
137,171,42346,2,0,L|118:286,1,102,2|0,2:0|1:0,2:0:0:0:
294,374,42632,2,0,L|275:259,1,102,2|8,2:0|2:0,2:0:0:0:
477,150,42917,6,0,P|411:186|313:119,1,203.999993774414,2|0,2:0|2:0,2:0:0:0:
425,0,43346,2,0,L|400:102,1,102,10|2,2:0|2:0,2:0:0:0:
90,196,43632,5,2,1:2:0:0:
261,53,43775,1,2,2:0:0:0:
348,280,43917,1,10,2:0:0:0:
210,132,44060,1,2,2:0:0:0:
92,342,44203,5,2,1:2:0:0:
308,172,44346,1,2,2:0:0:0:
407,384,44489,1,10,2:0:0:0:
216,343,44632,6,0,P|198:290|199:225,1,102,2|0,2:0|1:0,2:0:0:0:
502,160,44917,2,0,P|465:202|408:233,1,102,2|8,2:0|2:0,2:0:0:0:
210,19,45203,2,0,P|264:29|320:63,1,102,2|2,2:0|1:2,2:0:0:0:
120,207,45489,5,2,2:0:0:0:
79,83,45632,1,10,2:0:0:0:
78,288,45775,1,2,2:0:0:0:
208,159,45917,5,2,1:2:0:0:
112,369,46060,1,2,2:0:0:0:
31,206,46203,1,10,2:0:0:0:
305,312,46346,1,2,2:0:0:0:
403,125,46489,5,2,1:2:0:0:
193,253,46632,1,2,2:0:0:0:
453,348,46775,1,8,2:0:0:0:
308,94,46917,2,0,L|315:213,1,102,2|0,2:0|1:0,2:0:0:0:
200,19,47203,2,0,L|186:226,1,204,2|2,2:0|2:0,2:0:0:0:
91,257,47632,5,6,1:2:0:0:
73,232,47775,1,0,1:0:0:0:
189,284,48060,5,0,1:0:0:0:
193,253,48203,1,2,2:0:0:0:
239,372,48489,5,2,1:2:0:0:
263,353,48632,1,0,2:0:0:0:
378,268,48775,6,0,L|331:263,1,46.7500000000002,2|0,1:2|2:0,2:0:0:0:
394,256,49060,2,0,L|347:251,1,46.7500000000002,2|0,2:0|1:0,2:0:0:0:
288,169,49346,6,0,L|334:164,1,46.7500000000002,2|0,2:0|2:0,2:0:0:0:
272,157,49632,2,0,L|318:152,1,46.7500000000002,2|0,1:2|2:0,2:0:0:0:
427,73,49917,5,2,1:2:0:0:
435,99,50060,1,0,2:0:0:0:
339,40,50346,5,2,1:2:0:0:
331,66,50489,1,0,2:0:0:0:
226,10,50775,5,2,1:2:0:0:
232,39,50917,1,0,2:0:0:0:
143,113,51060,6,0,L|158:51,1,46.7500000000002,2|0,1:2|2:0,2:0:0:0:
136,136,51346,2,0,L|121:74,1,46.7500000000002,2|0,2:0|1:0,2:0:0:0:
82,208,51632,6,0,P|108:220|131:223,1,46.7500000000002,2|0,2:0|2:0,2:0:0:0:
72,225,51917,2,0,P|46:237|23:240,1,46.7500000000002,2|0,1:2|2:0,2:0:0:0:
14,353,52203,6,0,P|59:326|121:322,1,93.5000000000004,2|0,1:2|2:0,2:0:0:0:
166,367,52632,1,2,1:2:0:0:
193,251,53060,1,2,1:2:0:0:
193,251,53346,6,0,P|245:245|303:268,1,93.5000000000004,2|2,1:2|2:0,2:0:0:0:
324,327,53775,1,2,1:2:0:0:
398,234,54203,1,2,1:2:0:0:
398,234,54489,6,0,P|437:247|471:283,1,63.7500000000002,2|0,1:2|2:0,2:0:0:0:
310,237,54775,2,0,P|295:197|302:149,1,63.7500000000002,2|0,1:2|2:0,2:0:0:0:
202,237,55060,2,0,P|216:197|209:149,1,63.7500000000002,2|0,1:2|2:0,2:0:0:0:
114,234,55346,2,0,P|74:247|40:283,1,63.7500000000002,2|0,1:2|2:0,2:0:0:0:
111,360,55632,5,8,1:2:0:0:
143,341,55703,1,8,1:2:0:0:
180,328,55775,1,8,1:2:0:0:
217,320,55846,1,8,1:2:0:0:
255,318,55917,1,8,1:2:0:0:
293,321,55989,1,8,1:2:0:0:
331,330,56060,1,8,1:2:0:0:
366,344,56132,1,8,1:2:0:0:
399,364,56203,6,0,P|431:330|435:241,1,133.875000000001,10|0,1:2|2:0,2:0:0:0:
368,173,56775,6,0,P|424:214|485:218,1,110.5,6|0,1:2|2:0,2:0:0:0:
326,61,57060,1,8,2:0:0:0:
181,288,57203,2,0,P|110:312|-3:209,1,221,2|0,2:0|2:0,2:0:0:0:
276,138,57632,2,0,L|264:264,1,110.5,8|0,2:0|2:0,2:0:0:0:
20,126,57917,5,2,1:2:0:0:
326,61,58060,1,0,2:0:0:0:
46,20,58203,1,8,2:0:0:0:
109,210,58346,2,0,B|131:171|131:171|110:81,1,110.5,2|0,2:0|1:0,2:0:0:0:
1,231,58632,1,2,2:0:0:0:
210,59,58775,1,10,2:0:0:0:
303,261,58917,6,0,P|241:266|188:239,1,110.5,2|2,2:0|1:2,2:0:0:0:
429,114,59203,1,0,2:0:0:0:
442,351,59346,2,0,L|424:243,1,110.5,10|0,2:0|2:0,2:0:0:0:
321,152,59632,2,0,L|302:266,1,110.5,2|0,1:2|2:0,2:0:0:0:
228,63,59917,1,8,2:0:0:0:
480,189,60060,6,0,P|517:138|394:33,1,221,2|0,2:0|2:0,2:0:0:0:
163,170,60489,1,10,2:0:0:0:
429,114,60632,1,2,2:0:0:0:
228,63,60775,2,0,P|162:48|112:52,1,110.5,2|0,1:2|2:0,2:0:0:0:
283,218,61060,2,0,P|349:203|399:207,1,110.5,10|0,2:0|2:0,2:0:0:0:
97,373,61346,6,0,B|2:305|28:217|28:217|38:244|72:277,1,221,6|8,1:2|2:0,2:0:0:0:
415,373,61775,2,0,B|510:305|484:217|484:217|474:244|440:277,1,221,2|0,2:0|2:0,2:0:0:0:
196,314,62203,2,0,P|247:334|299:317,1,110.5,8|0,2:0|2:0,2:0:0:0:
363,84,62489,5,2,1:2:0:0:
147,242,62632,1,0,2:0:0:0:
367,282,62775,1,8,2:0:0:0:
161,93,62917,2,0,P|91:87|41:88,1,110.5,2|0,2:0|1:0,2:0:0:0:
252,249,63203,5,2,2:0:0:0:
306,16,63346,1,10,2:0:0:0:
397,204,63489,2,0,P|467:210|517:209,1,110.5,2|2,2:0|1:2,2:0:0:0:
279,104,63775,1,0,2:0:0:0:
147,242,63917,6,0,L|159:351,1,110.5,10|0,2:0|2:0,2:0:0:0:
384,94,64203,2,0,L|396:203,1,110.5,2|0,1:2|2:0,2:0:0:0:
89,39,64489,1,8,2:0:0:0:
296,153,64632,1,2,2:0:0:0:
34,237,64775,1,2,1:2:0:0:
34,237,65346,5,2,1:2:0:0:
70,278,65417,1,8,2:0:0:0:
119,301,65489,1,8,2:0:0:0:
174,303,65560,1,8,2:0:0:0:
225,282,65632,1,10,2:0:0:0:
264,243,65703,1,8,2:0:0:0:
283,192,65775,1,8,2:0:0:0:
281,137,65846,1,8,2:0:0:0:
257,88,65917,6,0,P|248:153|259:223,1,110.5,6|0,1:2|2:0,2:0:0:0:
405,295,66203,1,8,2:0:0:0:
229,40,66346,2,0,P|176:78|134:136,1,110.5,2|0,2:0|1:0,2:0:0:0:
174,303,66632,1,0,2:0:0:0:
4,187,66775,2,0,P|64:210|119:255,1,110.5,8|2,2:0|2:0,2:0:0:0:
230,383,67060,5,2,1:2:0:0:
451,91,67203,2,0,P|468:125|462:208,1,110.5,2|8,2:0|2:0,2:0:0:0:
292,94,67489,2,0,P|328:106|382:168,1,110.5,2|0,2:0|1:0,2:0:0:0:
89,263,67775,2,0,P|204:191|286:197,1,221,2|0,2:0|2:0,2:0:0:0:
477,321,68203,6,0,P|423:296|365:289,1,110.5,2|0,1:2|2:0,2:0:0:0:
173,334,68489,1,8,2:0:0:0:
36,177,68632,2,0,B|13:138|13:138|38:46,1,110.5,2|0,2:0|1:2,2:0:0:0:
126,6,68917,1,0,2:0:0:0:
284,196,69060,2,0,P|338:194|381:152,1,110.5,8|2,2:0|2:0,2:0:0:0:
30,75,69346,5,2,1:2:0:0:
145,229,69489,2,0,L|159:346,1,110.5,2|8,2:0|2:0,2:0:0:0:
378,157,69775,2,0,L|364:274,1,110.5,2|0,2:0|1:0,2:0:0:0:
46,156,70060,2,0,L|74:384,1,221,2|0,2:0|2:0,2:0:0:0:
446,57,70489,6,0,P|356:42|258:120,1,221,2|8,1:2|2:0,2:0:0:0:
334,361,70917,2,0,P|389:202|362:126,1,221,2|0,2:0|2:0,2:0:0:0:
179,210,71346,2,0,P|240:237|295:227,1,110.5,8|2,2:0|2:0,2:0:0:0:
131,93,71632,5,2,1:2:0:0:
33,342,71775,2,0,B|13:300|13:300|37:208,1,110.5,2|8,2:0|2:0,2:0:0:0:
235,376,72060,2,0,B|191:360|191:360|143:278,1,110.5,2|0,2:0|1:0,2:0:0:0:
506,274,72346,2,0,B|437:306|437:306|286:267,1,221,2|0,2:0|2:0,2:0:0:0:
334,39,72775,6,0,P|367:89|371:170,1,110.5,10|0,2:0|2:0,2:0:0:0:
137,229,73060,1,8,2:0:0:0:
178,39,73203,1,2,2:0:0:0:
337,319,73346,2,0,B|374:331|374:331|450:296,1,110.5,8|0,2:0|2:0,2:0:0:0:
175,319,73632,2,0,B|138:331|138:331|62:296,1,110.5,8|2,2:0|2:0,2:0:0:0:
1,143,73917,5,8,2:0:0:0:
266,168,74060,2,0,L|255:283,1,110.5,2|8,2:0|2:0,2:0:0:0:
104,112,74346,1,10,2:0:0:0:
96,62,74417,1,8,2:0:0:0:
89,12,74489,1,8,2:0:0:0:
380,191,74632,1,10,2:0:0:0:
136,217,74775,1,8,2:0:0:0:
345,33,74917,1,10,2:0:0:0:
315,355,75060,5,6,1:2:0:0:
90,236,84203,6,0,L|81:318,1,76.5000000000001,6|2,1:2|1:2,2:0:0:0:
88,323,85060,1,10,2:0:0:0:
182,192,85346,6,0,L|173:274,1,76.5000000000001,2|2,1:2|1:2,2:0:0:0:
180,279,86203,1,10,2:0:0:0:
422,236,86489,6,0,L|431:318,1,76.5000000000001,2|2,1:2|1:2,2:0:0:0:
424,323,87346,1,8,2:0:0:0:
330,192,87632,6,0,L|341:301,1,102,2|8,1:2|2:0,2:0:0:0:
279,354,88060,2,0,P|260:330|253:306,1,50.9999999999999,2|0,1:2|2:0,2:0:0:0:
161,303,88346,2,0,P|180:279|178:193,1,102,2|0,2:0|2:0,2:0:0:0:
33,196,88775,6,0,P|55:216|106:234,1,76.5000000000001,2|2,1:2|1:2,2:0:0:0:
23,112,89632,1,8,2:0:0:0:
158,66,89917,6,0,P|159:95|182:144,1,76.5000000000001,2|2,1:2|1:2,2:0:0:0:
210,0,90775,1,8,2:0:0:0:
338,63,91060,6,0,P|318:84|300:136,1,76.5000000000001,2|2,1:2|1:2,2:0:0:0:
421,53,91917,1,10,2:0:0:0:
275,226,92203,5,10,2:0:0:0:
382,336,92489,5,8,2:0:0:0:
385,304,92560,1,8,2:0:0:0:
389,272,92632,1,8,2:0:0:0:
392,240,92703,1,8,2:0:0:0:
396,209,92775,1,8,2:0:0:0:
399,177,92846,1,8,2:0:0:0:
403,145,92917,1,2,1:2:0:0:
2,303,93346,6,0,P|57:338|134:305,1,127.5,14|0,2:0|2:0,2:0:0:0:
162,266,93632,2,0,L|142:362,1,85,10|2,2:0|2:0,2:0:0:0:
259,198,93917,1,2,1:2:0:0:
70,251,94060,1,2,2:0:0:0:
281,213,94203,1,10,2:0:0:0:
64,130,94346,1,2,2:0:0:0:
312,132,94489,5,2,1:2:0:0:
48,149,94632,1,2,2:0:0:0:
170,21,94775,1,10,2:0:0:0:
219,155,94917,2,0,P|156:136|129:97,1,85,2|2,2:0|1:2,2:0:0:0:
369,57,95203,2,0,P|400:114|391:161,1,85,2|10,2:0|2:0,2:0:0:0:
283,298,95489,6,0,P|292:209|321:104,1,170,2|0,2:0|2:0,2:0:0:0:
391,295,95917,1,10,2:0:0:0:
199,360,96060,1,2,2:0:0:0:
409,307,96203,1,2,1:2:0:0:
194,251,96346,1,2,2:0:0:0:
400,206,96489,1,10,2:0:0:0:
174,259,96632,1,2,2:0:0:0:
324,365,96775,5,2,1:2:0:0:
318,170,96917,1,2,2:0:0:0:
199,360,97060,1,10,2:0:0:0:
429,351,97203,2,0,P|413:295|377:273,1,85,2|2,2:0|1:2,2:0:0:0:
178,187,97489,2,0,P|137:228|136:271,1,85,2|10,2:0|2:0,2:0:0:0:
318,170,97775,6,0,P|338:101|268:-7,1,170,2|0,2:0|2:0,2:0:0:0:
86,71,98203,1,10,2:0:0:0:
234,93,98346,1,2,2:0:0:0:
42,173,98489,1,2,1:2:0:0:
223,76,98632,1,2,2:0:0:0:
0,37,98775,1,10,2:0:0:0:
162,172,98917,1,2,2:0:0:0:
14,278,99060,5,2,1:2:0:0:
175,195,99203,1,2,2:0:0:0:
19,160,99346,1,10,2:0:0:0:
102,331,99489,2,0,P|146:303|187:291,1,85,2|2,2:0|1:2,2:0:0:0:
410,331,99775,2,0,P|366:303|325:291,1,85,2|10,2:0|2:0,2:0:0:0:
214,166,100060,6,0,P|256:226|301:168,1,170,2|0,2:0|2:0,2:0:0:0:
111,107,100489,1,10,2:0:0:0:
177,283,100632,1,2,2:0:0:0:
207,62,100775,1,2,1:2:0:0:
91,238,100917,1,2,2:0:0:0:
208,168,101060,1,10,2:0:0:0:
265,320,101203,1,2,2:0:0:0:
78,332,101346,5,2,1:2:0:0:
280,305,101489,1,2,2:0:0:0:
68,228,101632,1,10,2:0:0:0:
297,186,101775,1,2,2:0:0:0:
178,349,101917,5,10,2:0:0:0:
83,120,102060,1,10,2:0:0:0:
204,244,102203,1,10,2:0:0:0:
241,9,102346,1,10,2:0:0:0:
68,228,102489,5,6,1:2:0:0:
59,242,102775,5,2,1:2:0:0:
320,175,102917,1,2,1:2:0:0:
332,161,103203,5,2,2:0:0:0:
214,123,103346,1,2,1:2:0:0:
99,94,103489,1,2,2:0:0:0:
306,52,103632,5,2,1:2:0:0:
309,75,103775,1,2,1:2:0:0:
282,68,103917,1,2,1:2:0:0:
433,16,104060,5,2,2:0:0:0:
446,31,104346,5,2,2:0:0:0:
418,125,104489,1,2,1:2:0:0:
389,230,104632,1,2,2:0:0:0:
496,198,104775,5,2,1:2:0:0:
504,215,105060,5,2,1:2:0:0:
481,355,105203,1,2,1:2:0:0:
465,365,105489,5,2,2:0:0:0:
321,340,105632,1,2,1:2:0:0:
180,308,105775,1,2,2:0:0:0:
3,326,105917,5,2,1:2:0:0:
25,350,106060,1,2,1:2:0:0:
37,313,106203,1,2,1:2:0:0:
15,160,106346,5,2,2:0:0:0:
5,146,106632,5,2,2:0:0:0:
141,185,106775,1,2,1:2:0:0:
259,114,106917,1,2,2:0:0:0:
128,67,107060,5,2,1:2:0:0:
117,84,107346,5,2,1:2:0:0:
196,272,107489,1,2,1:2:0:0:
187,296,107775,5,2,2:0:0:0:
339,211,107917,1,2,1:2:0:0:
490,312,108060,1,2,2:0:0:0:
323,348,108203,5,2,1:2:0:0:
304,321,108346,1,2,1:2:0:0:
338,321,108489,1,2,1:2:0:0:
139,370,108632,5,2,2:0:0:0:
126,358,108917,5,2,2:0:0:0:
62,112,109060,1,2,1:2:0:0:
221,217,109203,1,2,2:0:0:0:
33,294,109346,5,2,1:2:0:0:
18,276,109632,5,2,1:2:0:0:
338,321,109775,1,2,1:2:0:0:
343,337,110060,5,2,2:0:0:0:
297,101,110203,1,2,1:2:0:0:
144,265,110346,1,2,2:0:0:0:
137,278,110632,5,2,1:2:0:0:
251,220,110775,2,0,L|243:178,1,42.5,10|0,2:0|2:0,2:0:0:0:
121,41,111346,6,0,P|145:92|172:110,1,85,10|0,2:0|2:0,2:0:0:0:
344,107,111489,2,0,P|376:80|391:41,1,85,10|8,2:0|2:0,2:0:0:0:
251,150,111632,6,0,P|255:257|326:281,1,153,6|0,1:2|2:0,2:0:0:0:
380,239,111917,1,2,1:2:0:0:
275,376,112060,2,0,P|210:348|169:344,1,102,2|8,1:2|2:0,2:0:0:0:
12,367,112346,5,2,2:0:0:0:
186,254,112489,1,2,1:2:0:0:
5,201,112632,1,2,2:0:0:0:
84,275,112775,5,2,1:2:0:0:
214,146,112917,1,2,1:2:0:0:
276,322,113060,1,2,1:2:0:0:
163,353,113203,1,2,2:0:0:0:
200,261,113346,6,0,B|283:208|283:208|382:298,1,204,6|2,1:2|1:2,2:0:0:0:
276,322,113775,1,2,2:0:0:0:
214,146,113917,6,0,P|291:125|368:168,1,153,6|0,1:2|2:0,2:0:0:0:
449,242,114203,1,2,1:2:0:0:
512,109,114346,2,0,P|453:88|406:97,1,102,2|8,1:2|2:0,2:0:0:0:
279,224,114632,5,2,2:0:0:0:
360,278,114775,1,2,1:2:0:0:
208,304,114917,1,2,2:0:0:0:
99,226,115060,5,2,1:2:0:0:
296,327,115203,1,2,1:2:0:0:
366,187,115346,1,2,1:2:0:0:
189,319,115489,1,2,2:0:0:0:
420,350,115632,6,0,B|467:330|458:295|421:286|399:337|336:356|253:309,1,204,6|2,1:2|1:2,2:0:0:0:
179,222,116060,1,2,2:0:0:0:
60,382,116203,6,0,P|34:340|43:281,1,102,6|0,1:2|2:0,2:0:0:0:
189,319,116489,1,2,1:2:0:0:
106,107,116632,2,0,L|87:224,1,102,2|8,1:2|2:0,2:0:0:0:
344,104,116917,5,2,2:0:0:0:
275,258,117060,1,2,1:2:0:0:
181,54,117203,1,2,2:0:0:0:
430,137,117346,5,2,1:2:0:0:
215,163,117489,1,2,1:2:0:0:
372,235,117632,1,2,1:2:0:0:
205,316,117775,1,2,2:0:0:0:
459,374,117917,6,0,P|485:286|427:314,1,204,6|2,1:2|1:2,2:0:0:0:
344,380,118346,1,2,2:0:0:0:
193,275,118489,6,0,L|26:293,1,153,6|0,1:2|2:0,2:0:0:0:
0,373,118775,1,2,1:2:0:0:
265,179,118917,2,0,L|383:190,1,102,2|8,1:2|2:0,2:0:0:0:
251,345,119203,5,2,2:0:0:0:
185,108,119346,1,2,1:2:0:0:
303,272,119489,1,2,2:0:0:0:
325,66,119632,5,2,1:2:0:0:
220,209,119775,1,2,1:2:0:0:
391,252,119917,1,2,1:2:0:0:
151,296,120060,1,2,2:0:0:0:
366,169,120203,6,0,B|305:137|256:173|256:173|189:216|124:186|79:133|145:50|189:87|197:139,1,357,6|0,1:2|2:0,2:0:0:0:
184,107,120775,5,6,1:2:0:0:
71,263,121203,5,0,1:0:0:0:
63,245,121346,1,2,2:0:0:0:
249,369,121632,5,2,1:2:0:0:
228,362,121775,1,0,2:0:0:0:
455,227,121917,6,0,L|441:263,1,38.2500000000002,2|0,1:2|2:0,2:0:0:0:
471,210,122203,2,0,L|456:174,1,38.2500000000002,2|0,2:0|1:0,2:0:0:0:
385,95,122489,6,0,P|358:83|342:81,1,38.2500000000002,2|0,2:0|2:0,2:0:0:0:
406,78,122775,2,0,P|433:66|449:64,1,38.2500000000002,2|0,1:2|2:0,2:0:0:0:
350,198,123060,5,2,1:2:0:0:
337,169,123203,1,0,2:0:0:0:
206,92,123489,5,2,1:2:0:0:
201,125,123632,1,0,2:0:0:0:
65,211,123917,5,2,1:2:0:0:
54,179,124060,1,0,2:0:0:0:
154,273,124203,6,0,L|145:322,1,38.2500000000002,2|0,1:2|2:0,2:0:0:0:
167,253,124489,2,0,L|173:215,1,38.2500000000002,2|0,2:0|1:0,2:0:0:0:
269,311,124775,6,0,B|251:321|251:321|231:316,1,38.2500000000002,2|0,2:0|2:0,2:0:0:0:
290,311,125060,2,0,B|308:301|308:301|328:306,1,38.2500000000002,2|0,1:2|2:0,2:0:0:0:
453,382,125346,6,0,P|426:332|480:189,1,191.25,2|2,1:2|1:2,2:0:0:0:
457,207,126203,2,0,P|402:225|379:220,1,63.7500000000002,2|0,1:2|2:0,2:0:0:0:
233,253,126489,6,0,P|229:196|339:89,1,191.25,2|2,1:2|1:2,2:0:0:0:
310,96,127346,2,0,P|252:89|233:74,1,63.7500000000002,2|0,1:2|2:0,2:0:0:0:
464,16,127632,6,0,P|459:81|432:114,1,95.6250000000002,2|0,1:2|2:0,2:0:0:0:
424,105,127917,2,0,L|431:180,1,63.7500000000002,2|0,1:2|2:0,2:0:0:0:
302,351,128203,6,0,P|307:286|334:253,1,95.6250000000002,2|0,1:2|2:0,2:0:0:0:
342,262,128489,2,0,L|335:187,1,63.7500000000002,2|0,1:2|2:0,2:0:0:0:
19,75,128775,5,8,1:2:0:0:
36,119,128846,1,8,1:2:0:0:
67,155,128917,1,8,1:2:0:0:
107,180,128989,1,8,1:2:0:0:
154,191,129060,1,8,1:2:0:0:
201,187,129132,1,8,1:2:0:0:
245,168,129203,1,8,1:2:0:0:
280,136,129275,1,8,1:2:0:0:
303,94,129346,1,10,1:2:0:0:
303,94,130775,6,0,L|298:119,1,25.5,8|0,2:0|2:0,2:0:0:0:
316,18,131060,6,0,L|323:128,1,110.5,6|0,1:2|2:0,2:0:0:0:
259,293,131346,1,8,2:0:0:0:
512,298,131489,2,0,P|448:250|306:228,1,221,2|0,2:0|2:0,2:0:0:0:
102,312,131917,1,8,2:0:0:0:
304,366,132060,1,0,2:0:0:0:
146,135,132203,6,0,B|122:170|122:170|146:262,1,110.5,2|0,1:2|2:0,2:0:0:0:
333,72,132489,1,8,2:0:0:0:
217,370,132632,2,0,P|225:293|261:119,1,221,2|2,2:0|2:0,2:0:0:0:
443,9,133060,1,10,2:0:0:0:
445,255,133203,6,0,L|321:236,1,110.5,2|2,2:0|1:2,2:0:0:0:
149,52,133489,1,0,2:0:0:0:
47,255,133632,2,0,P|117:264|175:240,1,110.5,10|0,2:0|2:0,2:0:0:0:
228,47,133917,2,0,P|182:77|153:124,1,110.5,2|0,1:2|2:0,2:0:0:0:
247,335,134203,1,8,2:0:0:0:
423,138,134346,6,0,P|463:151|520:212,1,110.5,2|2,2:0|1:2,2:0:0:0:
224,199,134632,1,0,2:0:0:0:
327,62,134775,1,10,2:0:0:0:
420,229,134917,1,2,2:0:0:0:
193,334,135060,2,0,B|156:354|156:354|61:331,1,110.5,2|0,1:2|2:0,2:0:0:0:
319,334,135346,2,0,B|356:354|356:354|451:331,1,110.5,10|0,2:0|2:0,2:0:0:0:
33,97,135632,6,0,P|55:203|158:239,1,221,2|8,1:2|2:0,2:0:0:0:
366,150,136060,2,0,P|255:114|120:131,1,221,2|0,2:0|2:0,2:0:0:0:
283,254,136489,1,8,2:0:0:0:
385,42,136632,1,0,2:0:0:0:
480,239,136775,6,0,P|509:300|505:356,1,110.5,2|0,1:2|2:0,2:0:0:0:
366,150,137060,1,8,2:0:0:0:
252,366,137203,2,0,P|165:377|69:256,1,221,2|2,2:0|2:0,2:0:0:0:
19,141,137632,1,10,2:0:0:0:
208,163,137775,6,0,L|182:308,1,110.5,2|2,2:0|1:2,2:0:0:0:
306,98,138060,1,0,2:0:0:0:
166,52,138203,2,0,P|102:33|39:40,1,110.5,10|0,2:0|2:0,2:0:0:0:
321,249,138489,2,0,P|375:249|428:232,1,110.5,2|0,1:2|2:0,2:0:0:0:
110,126,138775,1,8,2:0:0:0:
42,348,138917,1,2,2:0:0:0:
42,348,140203,6,0,B|19:310|19:310|39:194,1,110.5,6|0,1:2|2:0,2:0:0:0:
150,33,140489,1,8,2:0:0:0:
124,291,140632,1,2,2:0:0:0:
251,140,140775,1,8,2:0:0:0:
12,50,140917,1,0,2:0:0:0:
258,263,141060,2,0,B|281:225|281:225|269:159,1,110.5,10|0,2:0|2:0,2:0:0:0:
194,341,141346,6,0,P|292:361|333:338,1,110.5,6|0,1:2|2:0,2:0:0:0:
484,192,141632,1,10,2:0:0:0:
391,377,141775,2,0,P|383:214|388:130,1,221,2|2,2:0|2:0,2:0:0:0:
461,46,142203,1,10,2:0:0:0:
304,171,142346,1,2,2:0:0:0:
199,37,142489,6,0,P|142:29|81:52,1,110.5,14|0,2:0|2:0,2:0:0:0:
9,274,142775,1,10,2:0:0:0:
151,123,142917,1,0,2:0:0:0:
247,299,143060,1,10,2:0:0:0:
30,169,143203,1,0,2:0:0:0:
327,127,143346,1,10,2:0:0:0:
136,233,143489,1,2,2:0:0:0:
318,367,143632,6,0,P|374:357|430:316,1,110.5,14|0,2:0|2:0,2:0:0:0:
393,128,143917,1,10,2:0:0:0:
338,265,144060,1,2,2:0:0:0:
119,128,144203,1,10,2:0:0:0:
174,265,144346,1,0,2:0:0:0:
256,40,144489,1,10,2:0:0:0:
255,166,144632,1,0,2:0:0:0:
26,304,144775,6,0,P|35:196|118:127,1,221,6|8,1:2|2:0,2:0:0:0:
388,282,145203,2,0,B|336:302|269:272|269:272|214:243|150:274,1,221,2|0,2:0|2:0,2:0:0:0:
470,343,145632,2,0,P|492:268|466:212,1,110.5,10|0,2:0|2:0,2:0:0:0:
315,69,145917,6,0,L|330:186,1,110.5,6|0,1:2|2:0,2:0:0:0:
413,10,146203,1,10,2:0:0:0:
210,117,146346,1,2,2:0:0:0:
460,118,146489,1,8,2:0:0:0:
200,16,146632,1,0,2:0:0:0:
433,224,146775,5,10,2:0:0:0:
315,69,146917,1,2,2:0:0:0:
241,297,147060,2,0,P|130:299|100:280,1,110.5,14|0,2:0|2:0,2:0:0:0:
427,253,147346,5,10,2:0:0:0:
309,98,147489,1,2,2:0:0:0:
231,335,147632,2,0,P|123:308|99:282,1,110.5,14|0,2:0|2:0,2:0:0:0:
421,282,147917,5,10,2:0:0:0:
303,127,148060,1,2,2:0:0:0:
211,369,148203,2,0,P|113:315|97:283,1,110.5,14|0,2:0|2:0,2:0:0:0:
208,151,148489,2,0,P|209:262|191:292,1,110.5,10|0,2:0|2:0,2:0:0:0:
21,263,148775,2,0,P|116:205|151:207,1,110.5,10|0,2:0|2:0,2:0:0:0:
333,238,149060,1,10,2:0:0:0:
116,318,149203,1,2,2:0:0:0:
29,147,149346,6,0,L|45:53,1,76.4999999999998,2|0,2:0|2:0,2:0:0:0:
74,5,149632,6,0,L|94:177,1,127.5,6|2,1:2|2:0,2:0:0:0:
335,341,149917,1,0,1:0:0:0:
94,234,150060,1,0,2:0:0:0:
394,202,150203,1,8,2:0:0:0:
181,352,150346,1,0,2:0:0:0:
307,61,150489,6,0,P|379:31|479:37,1,127.5,2|0,1:2|2:0,2:0:0:0:
444,290,150775,1,8,2:0:0:0:
197,130,150917,2,0,P|125:100|25:106,1,127.5,2|0,2:0|1:0,2:0:0:0:
168,326,151203,1,2,2:0:0:0:
387,129,151346,2,0,P|464:118|559:150,1,127.5,10|0,2:0|2:0,2:0:0:0:
285,375,151632,6,0,L|269:230,1,127.5,2|0,1:2|2:0,2:0:0:0:
233,14,151917,1,8,2:0:0:0:
157,232,152060,1,2,2:0:0:0:
327,60,152203,1,0,1:2:0:0:
379,285,152346,1,2,2:0:0:0:
183,132,152489,1,8,2:0:0:0:
441,73,152632,1,0,2:0:0:0:
226,319,152775,6,0,B|182:360|117:352|117:352|57:299|-4:316,1,221,2|8,1:2|2:0,2:0:0:0:
172,123,153203,2,0,L|157:233,1,110.5,2|0,2:0|1:0,2:0:0:0:
28,40,153489,2,0,L|45:159,1,110.5,2|8,2:0|2:0,2:0:0:0:
259,9,153775,1,0,2:0:0:0:
450,224,153917,6,0,P|385:258|279:210,1,165.75,0|0,1:2|2:0,2:0:0:0:
238,163,154203,1,8,2:0:0:0:
380,0,154346,2,0,P|437:66|359:163,1,221,2|0,2:0|2:0,2:0:0:0:
200,84,154775,2,0,B|252:63|252:63|334:76,1,110.5,8|0,2:0|2:0,2:0:0:0:
151,377,155060,6,0,P|159:306|132:110,1,221,2|8,1:2|2:0,2:0:0:0:
344,305,155489,2,0,P|349:237|362:186,1,110.5,2|0,2:0|1:0,2:0:0:0:
142,267,155775,2,0,P|137:199|124:148,1,110.5,2|8,2:0|2:0,2:0:0:0:
31,60,156060,1,0,2:0:0:0:
256,188,156203,6,0,P|326:208|371:185,1,110.5,2|0,1:2|2:0,2:0:0:0:
387,3,156489,1,8,2:0:0:0:
190,15,156632,2,0,P|173:79|206:137,1,110.5,2|10,2:0|2:0,2:0:0:0:
441,117,156917,1,0,2:0:0:0:
289,30,157060,1,8,2:0:0:0:
351,313,157203,1,0,2:0:0:0:
419,210,157346,6,0,B|362:178|311:205|311:205|254:235|191:199,1,221,2|8,1:2|2:0,2:0:0:0:
88,58,157775,1,0,2:0:0:0:
20,254,157917,2,0,P|19:302|62:364,1,110.5,2|0,1:2|2:0,2:0:0:0:
251,307,158203,2,0,P|177:274|115:274,1,110.5,8|0,2:0|2:0,2:0:0:0:
367,345,158489,6,0,L|379:217,1,110.5,0|0,1:2|2:0,2:0:0:0:
220,26,158775,1,8,2:0:0:0:
251,307,158917,1,2,2:0:0:0:
394,57,159060,1,10,2:0:0:0:
120,196,159203,1,0,2:0:0:0:
251,307,159346,2,0,L|379:283,1,110.5,8|0,2:0|2:0,2:0:0:0:
97,358,159632,5,2,1:2:0:0:
151,95,159775,2,0,P|215:142|230:193,1,110.5,2|8,2:0|2:0,2:0:0:0:
375,20,160060,2,0,P|387:98|361:145,1,110.5,2|0,2:0|1:0,2:0:0:0:
512,230,160346,2,0,P|465:294|401:309,1,110.5,2|8,2:0|2:0,2:0:0:0:
267,35,160632,1,0,2:0:0:0:
48,195,160775,6,0,L|168:176,1,110.5,2|0,1:2|2:0,2:0:0:0:
413,212,161060,1,8,2:0:0:0:
267,35,161203,1,2,2:0:0:0:
170,297,161346,1,8,2:0:0:0:
305,132,161489,1,0,2:0:0:0:
427,330,161632,1,8,2:0:0:0:
224,199,161775,1,0,2:0:0:0:
491,159,161917,5,2,1:2:0:0:
270,340,162060,2,0,P|221:352|165:337,1,110.5,2|8,2:0|2:0,2:0:0:0:
345,75,162346,2,0,P|379:111|394:167,1,110.5,2|2,2:0|1:2,2:0:0:0:
41,208,162632,2,0,P|76:100|101:78,1,110.5,2|8,2:0|2:0,2:0:0:0:
194,0,162917,1,0,2:0:0:0:
293,170,163060,6,0,L|161:159,1,110.5,2|0,1:2|2:0,2:0:0:0:
8,299,163346,1,8,2:0:0:0:
270,340,163489,2,0,L|495:295,1,221,2|0,2:0|2:0,2:0:0:0:
246,71,163917,1,10,2:0:0:0:
227,256,164060,1,2,2:0:0:0:
349,15,164203,5,2,1:2:0:0:
500,161,164346,2,0,P|446:178|361:144,1,110.5,2|8,2:0|2:0,2:0:0:0:
306,325,164632,2,0,P|255:298|219:214,1,110.5,2|0,2:0|1:0,2:0:0:0:
38,307,164917,2,0,P|52:213|87:159,1,110.5,2|8,2:0|2:0,2:0:0:0:
322,219,165203,1,0,2:0:0:0:
343,18,165346,6,0,L|332:128,1,110.5,0|0,1:2|2:0,2:0:0:0:
169,18,165632,2,0,L|180:128,1,110.5,8|2,2:0|2:0,2:0:0:0:
342,299,165917,2,0,L|464:250,1,110.5,10|2,2:0|2:0,2:0:0:0:
168,300,166203,2,0,L|46:251,1,110.5,8|2,2:0|2:0,2:0:0:0:
281,54,166489,5,0,1:2:0:0:
331,33,166560,1,0,1:0:0:0:
383,48,166631,1,0,1:0:0:0:
415,92,166703,1,0,1:0:0:0:
413,146,166774,1,0,1:0:0:0:
379,188,166846,1,0,1:0:0:0:
326,199,166917,1,0,1:0:0:0:
277,176,166989,1,0,1:0:0:0:
233,142,167060,1,0,1:0:0:0:
181,124,167131,1,0,1:0:0:0:
126,123,167203,1,0,1:0:0:0:
73,138,167274,1,0,1:0:0:0:
28,170,167346,1,0,1:0:0:0:
8,221,167417,1,0,1:0:0:0:
8,276,167488,1,0,1:0:0:0:
28,327,167560,1,0,1:0:0:0:
66,367,167632,5,6,1:2:0:0:
407,283,167917,2,0,P|416:247|416:219,1,63.7500000000002,2|2,2:0|2:0,2:0:0:0:
334,118,168203,2,0,L|460:98,1,127.5,2|2,2:0|2:0,2:0:0:0:
165,237,168632,6,0,L|79:228,1,63.7500000000002,2|0,2:0|2:0,2:0:0:0:
50,157,168917,2,0,L|86:235,1,63.7500000000002,2|0,2:0|2:0,2:0:0:0:
39,296,169203,2,0,L|90:226,1,63.7500000000002,2|0,2:0|2:0,2:0:0:0:
151,144,169489,5,2,2:0:0:0:
245,160,169632,1,2,2:0:0:0:
333,182,169775,1,2,2:0:0:0:
333,182,170203,6,0,L|315:263,1,63.7500000000002,2|2,2:0|2:0,2:0:0:0:
217,374,170489,2,0,L|199:247,1,127.5,2|2,2:0|2:0,2:0:0:0:
166,103,170917,6,0,P|139:122|94:139,1,63.7500000000002,2|0,2:0|2:0,2:0:0:0:
265,99,171203,2,0,P|260:130|240:174,1,63.7500000000002,2|0,2:0|2:0,2:0:0:0:
332,26,171489,2,0,P|352:52|368:97,1,63.7500000000002,2|0,2:0|2:0,2:0:0:0:
377,247,171775,5,2,2:0:0:0:
473,235,171917,1,2,2:0:0:0:
506,146,172060,1,2,2:0:0:0:
278,210,172489,6,0,L|259:281,1,63.7500000000002,2|2,2:0|2:0,2:0:0:0:
356,121,172775,2,0,L|378:253,1,127.5,2|2,2:0|2:0,2:0:0:0:
395,355,173203,6,0,P|346:334|316:332,1,63.7500000000002,2|0,2:0|2:0,2:0:0:0:
263,287,173489,2,0,P|214:308|184:310,1,63.7500000000002,2|0,2:0|2:0,2:0:0:0:
139,368,173775,2,0,P|90:347|60:345,1,63.7500000000002,2|0,2:0|2:0,2:0:0:0:
0,363,174060,5,2,2:0:0:0:
18,263,174203,1,2,2:0:0:0:
42,166,174346,1,2,2:0:0:0:
51,148,174775,6,0,L|126:132,1,63.7500000000002,2|2,2:0|2:0,2:0:0:0:
221,52,175060,2,0,P|201:104|223:176,1,127.5,2|2,2:0|2:0,2:0:0:0:
313,204,175489,6,0,L|324:127,1,63.7500000000002,2|0,2:0|2:0,2:0:0:0:
151,292,175775,2,0,L|140:215,1,63.7500000000002,2|0,2:0|2:0,2:0:0:0:
355,345,176060,2,0,L|366:268,1,63.7500000000002,2|0,2:0|2:0,2:0:0:0:
172,380,176346,5,2,2:0:0:0:
260,355,176489,1,0,2:0:0:0:
86,352,176632,1,2,2:0:0:0:
