osu file format v14

[General]
AudioFilename: Reol - Streaming Heart.mp3
AudioLeadIn: 0
PreviewTime: 57275
Countdown: 0
SampleSet: Soft
StackLeniency: 0.7
Mode: 2
LetterboxInBreaks: 0
WidescreenStoryboard: 1

[Editor]
DistanceSpacing: 1
BeatDivisor: 4
GridSize: 4
TimelineZoom: 1.4

[Metadata]
Title:Streaming Heart
TitleUnicode:ストリーミングハート
Artist:Reol
ArtistUnicode:れをる
Creator:Hirikoshi
Version:The Song Is About a Tragic Love
Source:
Tags:utaite cover giga giga-p sukiNathan hatsune miku vocaloid deco*27 deco 初音ミク
BeatmapID:1005943
BeatmapSetID:470501

[Difficulty]
HPDrainRate:3.5
CircleSize:4
OverallDifficulty:9.5
ApproachRate:9.5
SliderMultiplier:1.9
SliderTickRate:2

[Events]
//Background and Video events
0,0,"22.png",0,0
//Break Periods
2,75832,84250
2,105547,110679
//Storyboard Layer 0 (Background)
//Storyboard Layer 1 (Fail)
//Storyboard Layer 2 (Pass)
//Storyboard Layer 3 (Foreground)
//Storyboard Sound Samples

[TimingPoints]
1347,285.714285714286,4,2,1,50,1,0
1347,-133.333333333333,4,2,1,50,0,0
3061,-133.333333333333,4,2,3,50,0,0
3132,-133.333333333333,4,2,1,50,0,0
5347,-133.333333333333,4,2,3,50,0,0
5418,-133.333333333333,4,2,1,50,0,0
7632,-133.333333333333,4,2,3,50,0,0
7704,-133.333333333333,4,2,1,50,0,0
10347,-133.333333333333,4,2,1,70,0,0
28775,-200,4,2,1,70,0,0
28966,-200,4,2,1,40,0,0
29347,-133.333333333333,4,2,1,40,0,0
29727,-100,4,2,1,40,0,0
29918,-111.111111111111,4,2,1,60,0,0
37918,-111.111111111111,4,1,1,60,0,0
39061,-100,4,1,1,60,0,0
48204,-133.333333333333,4,2,1,50,0,0
52061,-133.333333333333,4,2,3,50,0,0
52132,-133.333333333333,4,2,1,50,0,0
56204,-95.2380952380951,4,1,1,70,0,0
56775,-200,4,2,1,70,0,0
57275,-200,4,2,1,5,0,0
57347,-95.2380952380952,4,1,1,70,0,1
65347,-133.333333333333,4,2,1,70,0,1
65918,-95.2380952380952,4,1,1,70,0,1
75632,-100,4,2,1,70,0,0
84775,-133.333333333333,4,2,2,50,0,0
93061,-100,4,1,1,70,0,0
93847,-100,4,1,1,5,0,0
93918,-100,4,1,1,60,0,0
111204,-133.333333333333,4,2,2,40,0,0
112204,-100,4,2,1,70,0,0
120775,-200,4,2,1,70,0,0
121347,-133.333333333333,4,2,1,50,0,0
125204,-133.333333333333,4,2,3,50,0,0
125275,-133.333333333333,4,2,1,50,0,0
129347,-133.333333333333,4,1,1,70,0,0
131347,-133.333333333333,4,2,10,70,0,0
131632,-90.9090909090909,4,1,1,80,0,1
139489,-100,4,2,1,80,0,0
140775,-86.9565217391303,4,1,1,80,0,1
149918,-200,4,2,1,60,0,0
150204,-90.9090909090909,4,1,1,80,0,1
152775,-90.9090909090909,4,1,2,80,0,1
152847,-90.9090909090909,4,1,1,80,0,1
155061,-90.9090909090909,4,1,2,80,0,1
155132,-90.9090909090909,4,1,1,80,0,1
157347,-90.9090909090909,4,1,2,80,0,1
157418,-90.9090909090909,4,1,1,80,0,1
159061,-83.3333333333333,4,1,1,80,0,1
168204,-133.333333333333,4,2,1,50,0,0

[Colours]
Combo1 : 254,39,1
Combo2 : 255,0,0
Combo3 : 255,88,100
Combo4 : 192,192,192
Combo5 : 255,255,255
Combo6 : 0,0,0

[HitObjects]
433,108,1347,70,0,P|393:112|345:112,1,71.2500027179719,0|0,1:0|0:0,0:0:0:0:
96,112,1632,2,0,P|136:108|184:108,1,71.2500027179719,0|0,1:0|0:0,0:0:0:0:
444,240,1918,2,0,P|377:245|293:257,1,142.500005435944,0|0,1:0|1:0,0:0:0:0:
56,256,2299,2,0,P|96:260|168:264,1,95.0000036239625,0|0,0:0|1:0,0:0:0:0:
276,144,2680,2,0,P|284:196|286:237,1,47.5000018119813,0|0,0:0|1:0,0:0:0:0:
368,336,2918,2,0,P|421:337|525:314,1,142.500005435944
148,108,3347,1,0,1:0:0:0:
240,72,3489,1,0,0:0:0:0:
420,112,3632,6,0,P|423:147|427:182,1,71.2500027179719,0|0,1:0|0:0,0:0:0:0:
248,352,3918,2,0,P|207:355|169:354,1,71.2500027179719,0|0,1:0|0:0,0:0:0:0:
0,56,4204,2,0,P|57:49|151:60,1,142.500005435944,0|0,1:0|1:0,0:0:0:0:
372,232,4632,2,0,P|369:196|368:160,1,71.2500027179719,0|0,0:0|1:0,0:0:0:0:
476,171,4918,2,0,P|474:206|472:242,1,71.2500027179719,0|0,0:0|1:0,0:0:0:0:
96,240,5204,2,0,P|82:181|78:83,1,142.500005435944
424,72,5632,1,0,1:0:0:0:
252,272,5775,1,0,0:0:0:0:
13,27,5918,86,0,P|14:68|14:108,1,71.2500027179719,0|0,1:0|0:0,0:0:0:0:
252,144,6204,2,0,P|297:137|337:133,1,71.2500027179719,0|0,1:0|0:0,0:0:0:0:
192,320,6489,2,0,P|144:322|40:286,1,142.500005435944,0|0,1:0|1:0,0:0:0:0:
176,232,6918,2,0,P|211:237|246:241,1,71.2500027179719,0|0,0:0|1:0,0:0:0:0:
508,85,7204,2,0,P|472:89|437:94,1,71.2500027179719,0|0,0:0|1:0,0:0:0:0:
96,52,7489,2,0,P|91:105|90:213,1,142.500005435944
368,224,7918,1,0,1:0:0:0:
236,228,8061,1,0,0:0:0:0:
484,224,8204,5,0,1:0:0:0:
432,224,9347,69,0,3:0:0:0:
400,224,9418,1,0,3:0:0:0:
328,228,9489,1,0,3:0:0:0:
292,228,9561,1,0,3:0:0:0:
440,176,9632,2,0,P|379:173|353:164,1,71.2500027179719,0|0,3:0|0:0,0:0:0:0:
132,48,9918,38,0,L|81:54,1,35.625001358986,8|0,3:2|3:0,0:0:0:0:
352,72,10061,2,0,L|403:78,1,35.625001358986,0|0,3:0|3:0,0:0:0:0:
175,242,10204,1,8,3:2:0:0:
232,124,10347,5,8,0:0:0:0:
196,128,10418,1,8,0:0:0:0:
166,137,10489,2,0,P|108:151|17:144,1,142.500005435944,4|0,1:0|0:0,0:0:0:0:
304,177,10918,1,0,1:0:0:0:
380,184,11061,2,0,P|432:189|455:192,1,71.2500027179719,8|0,0:0|0:0,0:0:0:0:
205,322,11347,2,0,P|164:330|76:323,1,106.875004076958
336,340,11632,6,0,L|331:263,1,71.2500027179719,0|0,1:0|0:0,0:0:0:0:
102,185,11847,2,0,L|107:108,1,71.2500027179719,0|0,1:0|0:0,0:0:0:0:
149,45,12061,1,0,1:0:0:0:
336,112,12204,2,0,P|340:157|347:207,1,71.2500027179719,8|0,0:0|0:0,0:0:0:0:
164,124,12489,2,0,P|160:169|153:219,1,71.2500027179719
461,187,12775,6,0,P|417:195|306:192,1,142.500005435944,0|0,1:0|0:0,0:0:0:0:
170,129,13204,1,0,1:0:0:0:
92,108,13347,2,0,P|39:104|2:96,1,71.2500027179719,8|0,0:0|0:0,0:0:0:0:
369,281,13632,2,0,P|411:284|482:301,1,106.875004076958
490,369,13918,5,0,1:0:0:0:
108,220,14061,1,0,0:0:0:0:
124,216,14132,1,0,1:0:0:0:
476,180,14275,1,0,0:0:0:0:
464,176,14347,1,0,1:0:0:0:
192,116,14489,1,8,0:0:0:0:
436,216,14632,1,0,0:0:0:0:
200,320,14775,2,0,P|204:282|203:235,1,71.2500027179719
48,116,15061,54,0,P|42:164|43:267,1,142.500005435944,0|0,1:0|0:0,0:0:0:0:
464,316,15489,1,0,1:0:0:0:
432,328,15632,2,0,P|383:320|343:317,1,71.2500027179719,8|0,0:0|0:0,0:0:0:0:
64,160,15918,2,0,P|109:149|187:142,1,106.875004076958
500,111,16204,6,0,L|426:105,1,71.2500027179719,0|0,1:0|0:0,0:0:0:0:
276,56,16418,2,0,L|202:62,1,71.2500027179719,0|0,1:0|0:0,0:0:0:0:
64,120,16632,1,0,1:0:0:0:
188,160,16775,2,0,P|186:207|188:249,1,71.2500027179719,8|0,0:0|0:0,0:0:0:0:
336,220,17061,2,0,P|338:267|336:309,1,71.2500027179719
512,364,17347,6,0,P|470:367|356:343,1,142.500005435944,0|0,1:0|0:0,0:0:0:0:
164,200,17775,1,0,1:0:0:0:
493,180,17918,2,0,P|445:184|396:180,1,71.2500027179719,8|0,0:0|0:0,0:0:0:0:
216,68,18204,2,0,P|181:63|107:63,1,106.875004076958
123,116,18489,5,0,1:0:0:0:
452,44,18632,1,0,0:0:0:0:
436,52,18704,1,0,1:0:0:0:
128,216,18847,1,0,0:0:0:0:
140,216,18918,1,0,1:0:0:0:
408,184,19061,1,8,0:0:0:0:
200,180,19204,1,0,0:0:0:0:
180,176,19275,1,0,0:0:0:0:
440,96,19347,2,0,P|484:93|524:85,1,71.2500027179719,8|8,0:3|0:3,0:0:0:0:
92,100,19632,54,0,P|129:140|235:127,1,142.500005435944,4|0,1:0|0:0,0:0:0:0:
456,244,20061,1,0,1:0:0:0:
464,236,20204,2,0,P|425:229|389:216,1,71.2500027179719,8|0,0:0|0:0,0:0:0:0:
196,300,20489,2,0,P|142:310|73:335,1,106.875004076958
144,188,20775,6,0,L|148:263,1,71.2500027179719,0|0,1:0|0:0,0:0:0:0:
408,288,20989,2,0,L|412:213,1,71.2500027179719,0|0,1:0|0:0,0:0:0:0:
396,172,21204,1,0,1:0:0:0:
128,176,21347,2,0,P|107:142|88:104,1,71.2500027179719,8|0,0:0|0:0,0:0:0:0:
344,108,21632,2,0,P|372:128|364:164,1,71.2500027179719
68,220,21918,6,0,P|111:240|204:206,1,142.500005435944,0|0,1:0|0:0,0:0:0:0:
240,268,22347,1,0,1:0:0:0:
420,296,22489,2,0,P|378:289|345:278,1,71.2500027179719,8|0,0:0|0:0,0:0:0:0:
56,232,22775,2,0,P|64:179|62:113,1,106.875004076958
128,96,23061,5,0,1:0:0:0:
472,104,23204,1,0,0:0:0:0:
456,116,23275,1,0,1:0:0:0:
192,216,23418,1,0,0:0:0:0:
172,200,23489,1,0,1:0:0:0:
500,288,23632,1,8,0:0:0:0:
264,280,23775,1,0,0:0:0:0:
464,240,23918,2,0,P|421:239|384:244,1,71.2500027179719
171,317,24204,54,0,P|115:318|18:284,1,142.500005435944,0|0,1:0|0:0,0:0:0:0:
248,320,24632,1,0,1:0:0:0:
320,316,24775,2,0,P|365:308|399:305,1,71.2500027179719,8|0,0:0|0:0,0:0:0:0:
192,260,25061,2,0,P|149:268|72:264,1,106.875004076958
388,196,25347,6,0,L|388:120,1,71.2500027179719,0|0,1:0|0:0,0:0:0:0:
128,224,25561,2,0,L|135:150,1,71.2500027179719,0|0,1:0|0:0,0:0:0:0:
176,120,25775,1,0,1:0:0:0:
412,136,25918,2,0,P|407:90|375:83,1,71.2500027179719,8|0,0:0|0:0,0:0:0:0:
76,72,26204,2,0,P|120:84|148:76,1,71.2500027179719
240,200,26489,6,0,P|286:207|385:193,1,142.500005435944,0|0,1:0|0:0,0:0:0:0:
434,110,26918,1,0,1:0:0:0:
434,110,27061,2,0,P|429:154|428:193,1,71.2500027179719,8|0,0:0|0:0,0:0:0:0:
120,216,27347,2,0,P|118:180|107:103,1,106.875004076958
116,108,27632,5,0,1:0:0:0:
416,84,27775,1,0,0:0:0:0:
396,88,27847,1,0,1:0:0:0:
140,44,27989,1,0,0:0:0:0:
172,48,28061,1,0,1:0:0:0:
384,204,28204,1,8,0:0:0:0:
360,192,28347,1,0,0:0:0:0:
136,220,28418,1,0,0:0:0:0:
72,224,28489,2,0,L|-13:227,1,71.2500027179719,8|0,0:3|0:3,0:0:0:0:
376,300,28775,53,0,1:0:0:0:
466,215,28966,6,0,L|461:124,1,63.3333333333333
304,168,29347,70,0,L|297:63,1,95.0000036239625,2|2,0:0|0:0,0:0:0:0:
112,172,29727,38,0,L|102:40,1,126.666666666667,2|0,0:0|1:0,0:0:0:0:
408,283,30061,69,0,0:0:0:0:
404,292,30204,2,0,P|362:300|301:298,1,85.4999973907472,0|0,0:0|1:0,0:0:0:0:
12,239,30489,2,0,P|74:237|181:261,1,170.999994781494,8|0,0:0|0:0,0:0:0:0:
392,344,30918,1,0,0:0:0:0:
448,332,31204,1,0,1:0:0:0:
172,232,31347,2,0,L|174:139,1,85.4999973907472,0|0,1:0|0:0,0:0:0:0:
500,66,31632,1,8,0:0:0:0:
444,104,31775,2,0,P|437:155|308:196,1,170.999994781494,0|0,1:0|0:0,0:0:0:0:
211,102,32204,5,0,1:0:0:0:
108,184,32394,2,0,P|168:196|228:196,1,113.999996520996
344,304,32775,2,0,P|408:282|521:287,1,170.999994781494,8|0,0:0|0:0,0:0:0:0:
228,308,33204,1,0,0:0:0:0:
340,252,33489,1,0,1:0:0:0:
168,292,33632,2,0,P|157:239|154:193,1,85.4999973907472,0|0,1:0|0:0,0:0:0:0:
332,196,33918,1,8,0:0:0:0:
168,60,34061,2,0,P|75:71|69:64,1,113.999996520996,0|0,1:0|0:0,0:0:0:0:
284,68,34347,1,0,0:0:0:0:
156,172,34489,5,0,1:0:0:0:
288,152,34632,1,0,0:0:0:0:
416,224,34775,2,0,P|467:224|519:216,1,85.4999973907472,0|0,0:0|1:0,0:0:0:0:
212,304,35061,2,0,P|150:293|41:297,1,170.999994781494,8|0,0:0|0:0,0:0:0:0:
432,360,35489,2,0,P|444:306|449:265,1,56.9999982604981
132,192,35775,1,0,1:0:0:0:
260,60,35918,2,0,P|320:59|363:62,1,85.4999973907472,0|0,1:0|0:0,0:0:0:0:
457,164,36204,1,8,0:0:0:0:
252,164,36347,2,0,P|172:165|76:126,1,170.999994781494,0|0,1:0|0:0,0:0:0:0:
500,67,36775,5,0,1:0:0:0:
200,200,36918,2,0,P|199:250|204:295,2,85.4999973907472,0|0|0,0:0|0:0|1:0,1:0:0:0:
460,280,37347,2,0,P|402:281|287:247,1,170.999994781494,8|0,0:0|0:0,0:0:0:0:
173,261,37918,37,0,0:0:0:0:
412,128,38061,1,8,0:0:0:0:
352,128,38132,1,0,0:0:0:0:
288,120,38204,1,8,0:0:0:0:
88,128,38347,1,0,0:0:0:0:
240,184,38489,1,8,0:0:0:0:
412,216,38632,1,8,0:0:0:0:
87,364,38775,1,8,0:0:0:0:
336,341,38918,1,8,0:0:0:0:
365,344,38989,1,8,0:0:0:0:
394,348,39061,6,0,P|466:348|506:341,1,95,4|0,0:0|0:0,0:0:0:0:
213,160,39347,2,0,P|141:160|101:167,1,95,8|0,0:0|0:0,0:0:0:0:
412,240,39632,1,0,0:0:0:0:
124,80,39775,1,0,0:0:0:0:
491,162,39918,2,0,P|436:170|377:168,1,95,8|0,0:0|0:0,0:0:0:0:
136,88,40204,5,0,0:0:0:0:
392,92,40347,2,0,P|448:92|501:83,1,95,0|8,0:0|0:0,0:0:0:0:
224,264,40632,2,0,P|129:235|23:237,1,190
412,308,41061,1,8,0:0:0:0:
192,156,41204,1,0,0:0:0:0:
388,200,41347,6,0,P|444:200|496:195,1,95
248,296,41632,2,0,P|192:296|140:291,1,95,8|0,0:0|0:0,0:0:0:0:
0,180,41918,1,0,0:0:0:0:
348,84,42061,1,0,0:0:0:0:
80,72,42204,1,8,0:0:0:0:
408,296,42347,1,0,0:0:0:0:
176,192,42489,6,0,P|174:240|45:281,1,190,0|8,0:0|0:0,0:0:0:0:
364,104,42918,2,0,P|406:81|506:172,1,190
330,302,43347,1,8,0:0:0:0:
152,208,43489,1,0,0:0:0:0:
511,271,43632,54,0,P|460:267|402:266,1,95
156,292,43918,2,0,P|211:277|252:261,1,95,8|0,0:0|0:0,0:0:0:0:
471,163,44204,2,0,P|404:159|281:110,1,190,0|8,0:0|0:0,0:0:0:0:
176,32,44632,1,0,0:0:0:0:
353,59,44775,5,0,0:0:0:0:
108,104,44918,1,0,0:0:0:0:
328,172,45061,1,8,0:0:0:0:
456,200,45204,2,0,P|463:259|466:317,1,95
113,134,45489,2,0,P|116:86|122:39,1,95,0|8,0:0|0:0,0:0:0:0:
175,266,45775,1,0,0:0:0:0:
428,136,45918,6,0,P|363:140|306:147,1,95
13,212,46204,2,0,P|60:216|107:219,1,95,8|0,0:0|0:0,0:0:0:0:
144,112,46489,1,0,0:0:0:0:
444,316,46632,1,0,0:0:0:0:
48,52,46775,1,8,0:0:0:0:
372,256,46918,1,0,0:0:0:0:
276,184,47061,6,0,P|209:186|160:189,1,95
499,212,47347,1,8,0:0:0:0:
152,100,47489,2,0,P|104:97|57:96,1,95
404,132,47775,1,0,0:0:0:0:
120,332,47918,2,0,P|129:271|130:214,1,95,8|0,0:0|0:0,0:0:0:0:
352,164,48204,6,0,P|297:166|272:163,2,71.2500027179719,0|0|0,1:0|0:0|0:0,0:0:0:0:
132,116,48632,2,0,L|219:110,1,71.2500027179719,0|0,1:0|0:0,0:0:0:0:
493,37,48918,1,0,0:0:0:0:
439,153,49061,2,0,P|439:209|441:241,1,71.2500027179719,0|0,1:0|0:0,0:0:0:0:
401,342,49347,2,0,P|436:343|472:345,1,71.2500027179719,0|0,1:0|0:0,0:0:0:0:
320,256,49632,1,0,0:0:0:0:
240,272,49775,1,0,1:0:0:0:
229,333,49918,2,0,P|183:340|139:342,1,71.2500027179719,0|0,0:0|0:0,0:0:0:0:
13,270,50204,2,0,P|48:272|83:278,1,71.2500027179719,0|0,1:0|0:0,0:0:0:0:
312,336,50489,6,0,P|323:276|327:186,1,142.500005435944,0|0,1:0|0:0,0:0:0:0:
116,144,50918,2,0,P|111:96|110:62,2,47.5000018119813,0|0|0,1:0|0:0|0:0,0:0:0:0:
416,224,51347,2,0,P|414:259|410:294,1,71.2500027179719,0|0,1:0|0:0,0:0:0:0:
180,233,51632,2,0,P|139:251|41:219,2,142.500005435944,0|0|0,1:0|0:0|0:0,0:0:0:0:
314,157,52347,1,0,0:0:0:0:
446,230,52489,2,0,P|451:267|452:310,1,71.2500027179719,0|0,1:0|0:0,0:0:0:0:
132,136,52775,86,0,P|127:88|126:54,2,71.2500027179719,0|0|0,1:0|0:0|0:0,0:0:0:0:
300,255,53204,2,0,L|303:339,1,71.2500027179719,0|0,1:0|0:0,0:0:0:0:
164,280,53489,1,0,0:0:0:0:
381,282,53632,2,0,P|435:271|463:269,1,71.2500027179719,0|0,1:0|0:0,0:0:0:0:
112,224,53918,2,0,P|64:227|25:223,1,71.2500027179719,0|0,1:0|0:0,0:0:0:0:
452,200,54204,2,0,P|416:201|380:198,1,71.2500027179719,0|0,0:0|1:0,0:0:0:0:
72,172,54489,2,0,P|133:169|215:192,1,142.500005435944,0|0,0:0|1:0,0:0:0:0:
475,316,54918,1,0,0:0:0:0:
392,304,55061,6,0,P|352:298|315:289,1,71.2500027179719,0|0,1:0|0:0,0:0:0:0:
244,52,55347,2,0,P|258:89|269:125,1,71.2500027179719,0|0,1:0|0:0,0:0:0:0:
0,304,55632,2,0,P|24:272|51:244,1,71.2500027179719,0|0,1:0|0:0,0:0:0:0:
268,192,55918,1,0,1:0:0:0:
164,196,56061,1,0,0:0:0:0:
288,260,56204,5,0,0:0:0:0:
344,244,56275,1,0,0:0:0:0:
148,248,56347,1,0,0:0:0:0:
88,228,56418,1,0,0:0:0:0:
340,296,56489,1,0,0:0:0:0:
400,296,56561,1,0,0:0:0:0:
124,300,56632,1,0,0:0:0:0:
68,288,56704,1,0,0:0:0:0:
304,336,56775,38,0,P|279:306|157:320,1,166.25,0|0,1:0|0:0,0:0:0:0:
172,212,57347,70,0,P|120:216|16:101,1,199.499993911743,4|8,0:0|0:0,0:0:0:0:
444,84,57775,2,0,B|440:151|440:151|469:212|469:212|462:292,1,199.499993911743
140,263,58204,1,8,0:0:0:0:
488,216,58347,1,0,0:0:0:0:
136,352,58489,6,0,P|78:325|92:189,1,199.499993911743,0|8,0:0|0:0,0:0:0:0:
404,152,58918,2,0,P|467:154|524:154,1,99.7499969558717
64,124,59204,1,0,0:0:0:0:
440,160,59347,1,8,0:0:0:0:
192,292,59489,6,0,P|124:263|5:327,1,199.499993911743
392,264,59918,2,0,P|456:249|510:229,1,99.7499969558717,8|0,0:0|0:0,0:0:0:0:
240,72,60204,2,0,B|173:81|173:81|113:37|27:61,1,199.499993911743,0|8,0:0|0:0,0:0:0:0:
59,126,60632,1,0,0:0:0:0:
313,25,60775,6,0,P|252:28|196:38,1,99.7499969558717
512,296,61061,1,8,0:0:0:0:
104,41,61204,1,0,0:0:0:0:
504,92,61347,2,0,P|446:114|407:125,1,99.7499969558717
64,224,61632,2,0,P|111:238|158:256,1,99.7499969558717,8|0,0:0|0:0,0:0:0:0:
341,157,61918,54,0,B|256:209|256:209|158:192,1,199.499993911743,0|8,0:0|0:0,0:0:0:0:
464,56,62347,2,0,P|531:123|502:214,1,199.499993911743
40,312,62775,1,8,0:0:0:0:
280,56,62918,1,0,0:0:0:0:
512,304,63061,6,0,P|435:316|321:272,1,199.499993911743,0|8,0:0|0:0,0:0:0:0:
40,64,63489,2,0,P|33:118|30:165,1,99.7499969558717
468,240,63775,1,0,0:0:0:0:
170,177,63918,1,8,0:0:0:0:
328,344,64061,1,0,0:0:0:0:
42,284,64204,6,0,L|152:282,1,99.7499969558717,8|0,0:0|0:0,0:0:0:0:
470,100,64489,2,0,L|360:102,1,99.7499969558717,8|0,0:0|0:0,0:0:0:0:
44,56,64775,2,0,L|54:163,1,99.7499969558717,8|0,0:0|0:0,0:0:0:0:
484,344,65061,2,0,L|474:237,1,99.7499969558717,8|0,0:0|0:0,0:0:0:0:
116,104,65347,6,0,P|108:175|134:240,1,142.500005435944,0|0,1:0|0:0,0:0:0:0:
408,188,65775,1,0,0:0:0:0:
79,203,65918,37,0,0:0:0:0:
32,204,65989,1,0,0:0:0:0:
300,240,66061,1,0,0:0:0:0:
348,240,66132,1,0,0:0:0:0:
136,328,66204,2,0,L|80:328,1,49.8749984779358
380,328,66347,2,0,L|446:329,1,49.8749984779358
184,72,66489,6,0,P|94:40|23:103,1,199.499993911743,4|8,0:0|0:0,0:0:0:0:
348,200,66918,2,0,P|437:231|508:168,1,199.499993911743
109,48,67347,1,8,0:0:0:0:
456,92,67489,1,0,0:0:0:0:
128,308,67632,1,0,0:0:0:0:
512,196,67775,6,0,L|406:218,1,99.7499969558717,0|8,0:0|0:0,0:0:0:0:
80,220,68061,2,0,L|186:242,1,99.7499969558717
64,112,68347,1,0,0:0:0:0:
412,328,68489,2,0,L|518:350,1,99.7499969558717,8|0,0:0|0:0,0:0:0:0:
192,80,68775,6,0,B|153:26|153:26|116:96|150:175,1,199.499993911743,0|8,0:0|0:0,0:0:0:0:
376,288,69204,2,0,B|415:342|415:342|452:272|418:193,1,199.499993911743
69,136,69632,1,8,0:0:0:0:
448,192,69775,1,0,0:0:0:0:
80,312,69918,1,0,0:0:0:0:
62,218,70061,6,0,L|166:209,1,99.7499969558717,0|8,0:0|0:0,0:0:0:0:
449,359,70347,2,0,L|345:350,1,99.7499969558717
249,104,70632,1,0,0:0:0:0:
512,192,70775,1,8,0:0:0:0:
256,252,70918,1,0,0:0:0:0:
12,80,71061,54,0,B|5:159|32:210|32:210|24:255|40:290,1,199.499993911743,0|8,0:0|0:0,0:0:0:0:
508,108,71489,2,0,B|515:187|488:238|488:238|496:283|480:318,1,199.499993911743
44,344,71918,1,8,0:0:0:0:
264,132,72061,1,0,0:0:0:0:
512,168,72204,1,0,0:0:0:0:
145,249,72347,6,0,L|140:146,1,99.7499969558717,0|8,0:0|0:0,0:0:0:0:
412,212,72632,2,0,L|407:315,1,99.7499969558717
76,256,72918,1,0,0:0:0:0:
453,217,73061,2,0,L|448:320,1,99.7499969558717,8|0,0:0|0:0,0:0:0:0:
356,200,73347,5,8,0:0:0:0:
117,192,73489,1,0,0:0:0:0:
452,88,73632,1,8,0:0:0:0:
161,45,73775,1,0,0:0:0:0:
416,248,73918,5,8,0:0:0:0:
108,212,74061,1,0,0:0:0:0:
428,136,74204,1,8,0:0:0:0:
152,65,74347,1,0,0:0:0:0:
484,292,74489,53,8,0:0:0:0:
64,172,74632,1,0,0:0:0:0:
440,316,74775,1,8,0:0:0:0:
152,292,74918,1,8,0:0:0:0:
88,288,74989,1,0,0:0:0:0:
156,284,75061,1,8,0:0:0:0:
432,240,75204,5,8,0:0:0:0:
213,338,75347,1,8,0:0:0:0:
0,176,75489,1,8,0:0:0:0:
512,200,75632,5,4,1:2:0:0:
156,284,84775,22,0,P|106:266|9:266,1,142.500005435944,0|8,1:0|0:0,0:0:0:0:
296,168,85204,2,0,P|337:165|374:160,1,71.2500027179719,0|0,1:0|0:0,0:0:0:0:
100,172,85632,2,0,P|149:172|190:176,1,71.2500027179719,8|0,0:0|0:0,0:0:0:0:
400,324,85918,2,0,P|421:243|424:172,1,142.500005435944,0|8,1:0|0:0,0:0:0:0:
272,215,86347,2,0,P|251:134|248:63,1,142.500005435944,0|0,1:0|0:0,0:0:0:0:
104,196,86775,2,0,P|99:239|89:285,1,71.2500027179719,8|0,0:0|0:0,0:0:0:0:
348,256,87061,6,0,P|403:253|514:267,1,142.500005435944,0|8,1:0|0:0,0:0:0:0:
340,256,87489,2,0,P|349:293|352:326,1,71.2500027179719,0|0,1:0|0:0,0:0:0:0:
450,155,87918,1,8,0:0:0:0:
450,155,88061,1,0,0:0:0:0:
440,96,88204,2,0,P|385:102|292:82,1,142.500005435944,0|8,1:0|0:0,0:0:0:0:
192,248,88632,2,0,P|137:242|44:262,1,142.500005435944,0|0,1:0|0:0,0:0:0:0:
20,289,89061,1,8,0:0:0:0:
464,124,89347,86,0,L|471:289,1,142.500005435944,0|8,1:0|0:0,0:0:0:0:
360,320,89775,2,0,P|364:272|366:229,1,71.2500027179719,0|0,1:0|0:0,0:0:0:0:
152,340,90204,2,0,P|104:349|70:362,1,71.2500027179719,8|0,0:0|0:0,0:0:0:0:
368,264,90489,2,0,P|357:204|354:115,1,142.500005435944,0|8,1:0|0:0,0:0:0:0:
5,85,90918,2,0,P|69:84|158:58,1,142.500005435944,0|0,1:0|0:0,0:0:0:0:
392,128,91347,2,0,P|432:128|468:132,1,71.2500027179719,8|0,0:0|0:0,0:0:0:0:
96,256,91632,6,0,P|145:256|240:232,1,142.500005435944,0|8,1:0|0:0,0:0:0:0:
451,306,92061,2,0,P|445:356|444:377,1,71.2500027179719,0|0,1:0|0:0,0:0:0:0:
464,128,92489,2,0,L|320:131,1,142.500005435944,0|0,0:0|1:0,0:0:0:0:
36,219,93061,6,0,L|88:210,1,47.5
424,212,93204,2,0,L|372:203,1,47.5
148,320,93347,1,0,0:0:0:0:
184,316,93418,1,0,0:0:0:0:
216,312,93489,2,0,B|256:308|288:327|288:327|311:288|311:288|363:316|432:299,1,237.5,4|0,0:3|2:0,0:0:0:0:
373,278,93918,6,0,P|428:281|481:291,1,95,4|0,0:0|0:0,0:0:0:0:
96,256,94204,2,0,P|49:263|1:265,1,95,8|0,0:0|0:0,0:0:0:0:
341,141,94489,1,0,0:0:0:0:
36,192,94632,1,0,0:0:0:0:
464,296,94775,2,0,P|456:235|455:189,1,95,8|0,0:0|0:0,0:0:0:0:
180,56,95061,5,0,0:0:0:0:
487,259,95204,2,0,P|437:251|390:235,1,95,0|8,0:0|0:0,0:0:0:0:
108,348,95489,2,0,B|63:324|63:324|37:259|62:164,1,190
441,134,95918,1,8,0:0:0:0:
192,160,96061,1,0,0:0:0:0:
492,236,96204,6,0,P|490:286|481:336,1,95
95,358,96489,2,0,P|87:311|85:263,1,95,8|0,0:0|0:0,0:0:0:0:
356,228,96775,1,0,0:0:0:0:
76,120,96918,1,0,0:0:0:0:
344,104,97061,1,8,0:0:0:0:
80,44,97204,1,0,0:0:0:0:
416,192,97347,6,0,P|462:202|509:204,1,95
112,176,97632,1,8,0:0:0:0:
512,59,97775,2,0,B|466:44|466:44|323:66,1,190
52,90,98204,2,0,L|145:104,1,95,8|0,0:0|0:0,0:0:0:0:
280,136,98489,53,0,0:0:0:0:
144,200,98775,2,0,P|200:199|246:192,1,95,8|0,0:0|0:0,0:0:0:0:
512,328,99061,2,0,P|464:321|417:321,1,95
202,344,99347,1,8,0:0:0:0:
476,272,99489,1,0,0:0:0:0:
185,258,99632,6,0,P|107:293|1:284,1,190,0|8,0:0|0:0,0:0:0:0:
416,168,100061,2,0,P|472:171|517:180,1,95
128,128,100347,2,0,P|72:131|27:140,1,95,0|8,0:0|0:0,0:0:0:0:
108,321,100632,1,0,0:0:0:0:
456,312,100775,6,0,P|404:306|347:308,1,95
18,359,101061,2,0,P|5:299|3:255,1,95,8|0,0:0|0:0,0:0:0:0:
101,79,101347,1,0,0:0:0:0:
372,184,101489,1,0,0:0:0:0:
64,44,101632,1,8,0:0:0:0:
40,216,101775,1,0,0:0:0:0:
192,256,101918,6,0,P|127:260|8:215,1,190,0|8,0:0|0:0,0:0:0:0:
7,26,102347,1,0,0:0:0:0:
384,136,102489,1,8,0:0:0:0:
64,140,102632,1,8,0:0:0:0:
464,232,102775,1,8,0:0:0:0:
48,252,102918,1,8,0:0:0:0:
356,280,103061,37,4,0:0:0:0:
256,192,103132,12,0,105347,2:0:0:0:
173,251,111204,102,0,L|82:246,2,71.2500027179719,0|8|0,0:0|0:0|0:0,0:0:0:0:
396,140,111775,2,0,L|487:135,1,71.2500027179719,0|8,0:0|0:0,0:0:0:0:
512,256,112061,5,8,0:0:0:0:
512,256,112132,1,0,0:0:0:0:
512,256,112204,2,0,P|448:269|333:199,1,190,4|0,1:0|1:0,0:0:0:0:
192,204,112632,1,0,1:0:0:0:
442,344,112775,1,8,0:0:0:0:
394,349,112847,1,0,0:0:0:0:
347,344,112918,1,0,0:0:0:0:
144,264,113061,2,0,B|174:267|174:267|213:255|261:260,1,95,2|0,0:0|0:0,0:0:0:0:
372,284,113347,5,0,1:0:0:0:
168,324,113489,1,0,1:0:0:0:
188,320,113561,1,0,0:0:0:0:
176,308,113632,1,2,0:0:0:0:
400,152,113775,2,0,L|408:265,1,95,0|8,1:0|0:0,0:0:0:0:
92,340,114061,1,0,0:0:0:0:
488,332,114204,1,2,0:0:0:0:
144,276,114347,1,0,0:0:0:0:
400,323,114489,6,0,P|439:270|460:134,1,190,0|0,1:0|1:0,0:0:0:0:
295,45,114918,1,0,1:0:0:0:
108,216,115061,1,8,0:0:0:0:
124,216,115132,1,0,0:0:0:0:
112,228,115204,1,0,0:0:0:0:
336,180,115347,2,0,B|384:184|384:184|433:166,1,95,2|0,0:0|0:0,0:0:0:0:
176,112,115632,5,0,1:0:0:0:
200,108,115704,1,0,0:0:0:0:
192,96,115775,1,0,1:0:0:0:
440,276,115918,1,2,0:0:0:0:
196,242,116061,2,0,L|94:248,1,95,0|8,1:0|0:0,0:0:0:0:
400,200,116347,1,2,0:0:0:0:
225,337,116489,1,0,0:0:0:0:
452,228,116632,1,2,0:0:0:0:
16,128,116775,54,0,P|91:143|194:86,1,190,0|0,1:0|1:0,0:0:0:0:
466,162,117204,1,0,1:0:0:0:
294,88,117347,1,8,0:0:0:0:
246,84,117418,1,0,0:0:0:0:
199,94,117489,1,0,0:0:0:0:
15,186,117632,2,0,B|46:179|46:179|72:193|130:187,1,95,2|0,0:0|0:0,0:0:0:0:
416,220,117918,5,0,1:0:0:0:
116,64,118061,1,0,1:0:0:0:
72,68,118132,1,0,0:0:0:0:
24,64,118204,1,2,0:0:0:0:
304,208,118347,2,0,L|305:318,1,95,0|8,1:0|0:0,0:0:0:0:
512,267,118632,1,0,0:0:0:0:
156,228,118775,1,2,0:0:0:0:
512,200,118918,1,0,0:0:0:0:
168,336,119061,6,0,P|118:337|67:330,1,95,0|0,1:0|0:0,0:0:0:0:
456,320,119347,2,0,P|406:319|355:326,1,95,0|0,1:0|1:0,0:0:0:0:
17,362,119632,1,8,0:0:0:0:
17,362,119704,1,0,0:0:0:0:
17,362,119775,1,0,0:0:0:0:
440,112,119918,2,0,B|396:126|396:126|334:118,1,95,2|0,0:0|0:0,0:0:0:0:
44,100,120204,5,0,1:0:0:0:
320,172,120347,1,0,1:0:0:0:
52,240,120489,1,2,0:0:0:0:
444,188,120632,1,0,1:0:0:0:
32,176,120775,38,0,B|78:189|78:189|121:169|121:169|163:189|163:189|216:173,1,190,2|0,0:0|1:0,0:0:0:0:
444,164,121632,69,0,0:0:0:0:
216,252,121775,2,0,L|80:252,2,95.0000036239625,0|0|0,1:0|0:0|0:0,0:0:0:0:
440,100,122204,2,0,P|392:106|354:104,1,71.2500027179719,0|0,1:0|0:0,0:0:0:0:
80,104,122489,2,0,P|115:104|150:109,1,71.2500027179719,0|0,1:0|0:0,0:0:0:0:
296,204,122775,1,0,0:0:0:0:
28,208,122918,1,0,1:0:0:0:
56,204,123061,2,0,L|142:200,1,71.2500027179719
352,204,123347,2,0,P|357:244|360:279,1,71.2500027179719,0|0,1:0|0:0,0:0:0:0:
136,332,123632,6,0,P|112:316|52:276,2,95.0000036239625,0|0|0,1:0|0:0|0:0,0:0:0:0:
348,256,124204,2,0,L|358:174,1,71.2500027179719
140,104,124489,2,0,P|101:110|61:112,1,71.2500027179719,0|0,1:0|0:0,0:0:0:0:
331,129,124775,2,0,P|312:177|350:258,2,142.500005435944,0|0|0,1:0|0:0|0:0,0:0:0:0:
48,272,125489,1,0,0:0:0:0:
204,280,125632,2,0,P|246:283|279:282,1,71.2500027179719,0|0,1:0|0:0,0:0:0:0:
475,273,125918,86,0,L|468:118,1,142.500005435944,2|0,1:2|0:0,0:0:0:0:
96,208,126347,2,0,P|105:151|107:113,1,71.2500027179719,0|0,1:0|0:0,0:0:0:0:
296,136,126632,1,0,0:0:0:0:
116,68,126775,2,0,P|73:70|19:78,1,71.2500027179719,2|0,1:2|0:0,0:0:0:0:
488,216,127061,2,0,P|442:225|336:205,1,142.500005435944,2|0,1:2|0:0,0:0:0:0:
104,124,127489,2,0,L|110:200,1,71.2500027179719,0|0,1:0|0:0,0:0:0:0:
183,356,127775,1,0,0:0:0:0:
428,320,127918,2,0,L|434:244,1,71.2500027179719,2|0,1:2|0:0,0:0:0:0:
168,224,128204,6,0,P|123:234|85:235,1,71.2500027179719,2|0,1:2|0:0,0:0:0:0:
400,96,128489,2,0,P|445:86|483:85,1,71.2500027179719,0|0,1:0|0:0,0:0:0:0:
120,96,128775,2,0,P|84:93|50:85,1,71.2500027179719,0|0,1:0|0:0,0:0:0:0:
404,216,129061,2,0,P|440:219|475:228,1,71.2500027179719,0|0,1:0|0:0,0:0:0:0:
60,196,129347,5,0,0:0:0:0:
120,200,129418,1,0,0:0:0:0:
376,200,129489,1,0,0:0:0:0:
304,200,129561,1,0,0:0:0:0:
120,280,129632,1,0,0:0:0:0:
184,280,129704,1,0,0:0:0:0:
404,328,129775,1,0,0:0:0:0:
340,328,129847,1,0,0:0:0:0:
112,336,129918,1,0,0:0:0:0:
256,192,131347,53,4,0:2:0:0:
184,304,131632,54,0,P|127:345|-14:299,1,209.000006378174,4|8,0:0|0:0,0:0:0:0:
328,80,132061,2,0,P|422:43|512:91,1,209.000006378174
268,306,132489,1,8,0:0:0:0:
44,232,132632,1,0,0:0:0:0:
475,199,132775,6,0,B|405:196|405:196|343:226|343:226|264:220,1,209.000006378174,0|8,0:0|0:0,0:0:0:0:
8,278,133204,2,0,L|119:269,1,104.500003189087
432,148,133489,1,0,0:0:0:0:
184,348,133632,1,8,0:0:0:0:
84,208,133775,6,0,P|43:116|90:27,1,209.000006378174
464,80,134204,2,0,P|414:92|362:93,1,104.500003189087,8|0,0:0|0:0,0:0:0:0:
32,56,134489,2,0,B|82:84|82:84|111:155|53:234,1,209.000006378174,0|8,0:0|0:0,0:0:0:0:
240,236,134918,1,0,0:0:0:0:
476,120,135061,6,0,P|410:127|349:145,1,104.500003189087
36,300,135347,1,8,0:0:0:0:
400,232,135489,1,0,0:0:0:0:
36,240,135632,2,0,L|144:226,1,104.500003189087
336,212,135918,2,0,L|444:226,1,104.500003189087,8|0,0:0|0:0,0:0:0:0:
40,56,136204,54,0,B|79:153|79:153|41:265,1,209.000006378174,0|8,0:0|0:0,0:0:0:0:
300,132,136632,2,0,P|367:151|502:94,1,209.000006378174
158,19,137061,1,8,0:0:0:0:
376,80,137204,1,0,0:0:0:0:
29,48,137347,6,0,L|39:267,1,209.000006378174,0|8,0:0|0:0,0:0:0:0:
368,232,137775,2,0,P|437:235|483:225,1,104.500003189087
119,122,138061,1,0,0:0:0:0:
138,313,138204,1,8,0:0:0:0:
440,148,138347,1,0,0:0:0:0:
4,237,138489,6,0,L|119:223,1,104.500003189087,8|0,0:0|0:0,0:0:0:0:
508,147,138775,2,0,L|404:159,1,104.500003189087,8|0,0:0|0:0,0:0:0:0:
88,48,139061,2,0,L|102:163,1,104.500003189087,8|0,0:0|0:0,0:0:0:0:
436,252,139347,5,8,0:0:0:0:
152,244,139489,1,2,1:2:0:0:
96,152,140775,53,12,0:0:0:0:
484,244,140918,1,0,0:0:0:0:
72,244,141061,1,8,0:0:0:0:
460,120,141204,2,0,L|336:111,1,109.250002083778,0|8,0:0|0:0,0:0:0:0:
60,132,141489,1,0,0:0:0:0:
440,316,141632,2,0,L|444:201,1,109.250002083778,8|0,0:0|0:0,0:0:0:0:
63,25,141918,6,0,L|67:140,1,109.250002083778,8|0,0:0|0:0,0:0:0:0:
444,160,142204,1,8,0:0:0:0:
80,264,142347,1,0,0:0:0:0:
400,284,142489,1,8,0:0:0:0:
48,280,142632,1,0,0:0:0:0:
252,216,142775,1,8,0:0:0:0:
476,192,142918,1,0,0:0:0:0:
24,180,143061,6,0,L|152:177,1,109.250002083778,12|0,0:0|0:0,0:0:0:0:
440,168,143347,2,0,L|330:165,1,109.250002083778,8|0,0:0|0:0,0:0:0:0:
40,256,143632,2,0,P|47:183|37:30,1,218.500004167557,8|8,0:0|0:0,0:0:0:0:
484,348,144061,1,0,0:0:0:0:
280,191,144204,5,8,0:0:0:0:
18,158,144347,1,0,0:0:0:0:
424,216,144489,1,8,0:0:0:0:
32,144,144632,1,0,0:0:0:0:
392,92,144775,2,0,P|453:90|519:98,1,109.250002083778,8|0,0:0|0:0,0:0:0:0:
108,296,145061,2,0,P|54:301|0:299,1,109.250002083778,8|0,0:0|0:0,0:0:0:0:
420,56,145347,53,12,0:0:0:0:
48,112,145489,1,0,0:0:0:0:
472,280,145632,1,8,0:0:0:0:
263,53,145775,2,0,L|268:191,1,109.250002083778,0|8,0:0|0:0,0:0:0:0:
40,308,146061,1,0,0:0:0:0:
400,184,146204,2,0,L|535:179,1,109.250002083778,8|0,0:0|0:0,0:0:0:0:
112,184,146489,6,0,L|-23:179,1,109.250002083778,8|0,0:0|0:0,0:0:0:0:
436,84,146775,1,8,0:0:0:0:
277,319,146918,2,0,L|274:195,1,109.250002083778,0|8,0:0|0:0,0:0:0:0:
155,151,147204,5,0,0:0:0:0:
124,152,147275,1,0,0:0:0:0:
155,151,147347,1,8,0:0:0:0:
376,296,147489,2,0,L|491:297,1,109.250002083778,0|8,0:0|0:0,0:0:0:0:
48,68,147775,5,0,0:0:0:0:
48,68,147847,1,0,0:0:0:0:
48,72,147918,1,8,0:0:0:0:
388,140,148061,2,0,L|501:137,1,109.250002083778,0|8,0:0|0:0,0:0:0:0:
68,316,148347,53,0,0:0:0:0:
72,296,148418,1,0,0:0:0:0:
80,272,148489,1,8,0:0:0:0:
468,240,148632,2,0,L|467:366,1,109.250002083778,0|8,0:0|0:0,0:0:0:0:
32,160,148918,5,0,0:0:0:0:
512,52,149061,2,0,L|401:57,1,109.250002083778,8|0,0:0|0:0,0:0:0:0:
28,128,149347,5,8,0:0:0:0:
80,124,149418,1,0,0:0:0:0:
400,120,149489,1,0,0:0:0:0:
344,120,149561,1,0,0:0:0:0:
32,200,149632,1,8,0:0:0:0:
84,192,149704,1,0,0:0:0:0:
388,216,149775,1,0,0:0:0:0:
324,216,149847,1,0,0:0:0:0:
260,220,149918,6,0,L|204:176,1,71.25
488,280,150204,54,0,B|543:227|524:85|453:149,1,209.000006378174,4|2,0:0|0:2,0:0:0:0:
39,286,150632,1,0,0:0:0:0:
408,308,150775,2,0,P|468:303|528:290,1,104.500003189087,10|0,0:2|0:0,0:0:0:0:
24,228,151061,1,2,0:2:0:0:
500,232,151204,6,0,L|504:121,1,104.500003189087,0|10,0:0|0:2,0:0:0:0:
68,80,151489,2,0,L|71:184,1,104.500003189087,0|2,0:0|0:2,0:0:0:0:
424,96,151775,1,0,0:0:0:0:
41,89,151918,2,0,L|44:193,1,104.500003189087,10|0,0:2|0:0,0:0:0:0:
308,328,152204,6,0,B|381:312|381:312|434:339|531:332,1,209.000006378174,2|10,0:2|0:2,0:0:0:0:
208,92,152632,2,0,B|135:108|135:108|82:81|-15:88,1,209.000006378174
492,192,153061,1,10,0:2:0:0:
256,163,153204,1,0,0:0:0:0:
37,138,153347,1,2,0:2:0:0:
388,312,153489,6,0,L|505:309,1,104.500003189087,0|10,0:0|0:2,0:0:0:0:
116,60,153775,2,0,L|-1:57,1,104.500003189087,0|2,0:0|0:2,0:0:0:0:
332,88,154061,1,0,0:0:0:0:
104,304,154204,2,0,L|-13:301,1,104.500003189087,10|0,0:2|0:0,0:0:0:0:
456,112,154489,54,0,P|441:175|522:300,1,209.000006378174,6|10,0:2|0:2,0:0:0:0:
60,232,154918,2,0,P|75:169|-6:44,1,209.000006378174
464,168,155347,1,10,0:2:0:0:
88,88,155489,1,0,0:0:0:0:
512,112,155632,1,2,0:2:0:0:
32,200,155775,6,0,L|34:306,1,104.500003189087,0|10,0:0|0:2,0:0:0:0:
512,348,156061,2,0,L|513:243,1,104.500003189087,0|2,0:0|0:2,0:0:0:0:
92,96,156347,1,0,0:0:0:0:
428,252,156489,2,0,L|429:147,1,104.500003189087,10|0,0:2|0:0,0:0:0:0:
0,148,156775,6,0,P|77:214|178:205,1,209.000006378174,6|10,0:2|0:2,0:0:0:0:
512,140,157204,2,0,P|435:206|334:197,1,209.000006378174
56,56,157632,6,0,L|59:164,1,104.500003189087,10|0,0:2|0:0,0:0:0:0:
472,300,157918,2,0,L|476:196,1,104.500003189087,6|0,0:2|0:0,0:0:0:0:
112,164,158204,2,0,L|109:272,1,104.500003189087,10|0,0:2|0:0,0:0:0:0:
432,352,158489,1,10,0:2:0:0:
32,236,158632,1,8,0:0:0:0:
512,244,158775,1,8,0:0:0:0:
120,60,158918,1,8,0:0:0:0:
376,156,159061,54,0,L|504:159,1,113.999996520996,6|0,0:2|0:0,0:0:0:0:
60,148,159347,1,10,0:2:0:0:
452,88,159489,2,0,L|453:202,1,113.999996520996,4|2,0:2|0:2,0:0:0:0:
0,168,159775,1,0,0:0:0:0:
512,248,159918,1,10,0:2:0:0:
96,252,160061,1,0,0:0:0:0:
448,104,160204,5,2,0:2:0:0:
36,88,160347,2,0,L|43:202,1,113.999996520996,0|10,0:0|0:2,0:0:0:0:
492,296,160632,2,0,L|499:182,1,113.999996520996,0|2,0:0|0:2,0:0:0:0:
104,168,160918,1,0,0:0:0:0:
396,124,161061,2,0,L|519:129,1,113.999996520996,10|0,0:2|0:0,0:0:0:0:
116,220,161347,6,0,L|-7:225,1,113.999996520996,6|0,0:2|0:0,0:0:0:0:
452,196,161632,1,10,0:2:0:0:
120,296,161775,2,0,L|-3:301,1,113.999996520996,4|2,0:2|0:2,0:0:0:0:
468,280,162061,1,0,0:0:0:0:
72,68,162204,1,10,0:2:0:0:
460,316,162347,1,0,0:0:0:0:
28,136,162489,5,2,0:2:0:0:
464,180,162632,2,0,L|471:60,1,113.999996520996,0|10,0:0|0:2,0:0:0:0:
88,184,162918,2,0,L|94:297,1,113.999996520996,0|2,0:0|0:2,0:0:0:0:
456,68,163204,1,0,0:0:0:0:
76,64,163347,1,10,0:2:0:0:
460,208,163489,1,0,0:0:0:0:
116,248,163632,54,0,L|-20:240,1,113.999996520996,6|0,0:2|0:0,0:0:0:0:
456,120,163918,1,10,0:2:0:0:
148,156,164061,2,0,L|12:164,1,113.999996520996,4|2,0:2|0:2,0:0:0:0:
504,324,164347,1,0,0:0:0:0:
96,32,164489,1,10,0:2:0:0:
484,256,164632,1,0,0:0:0:0:
36,72,164775,5,2,0:2:0:0:
492,220,164918,2,0,L|476:103,1,113.999996520996,0|10,0:0|0:2,0:0:0:0:
188,176,165204,2,0,L|172:288,1,113.999996520996,0|2,0:0|0:2,0:0:0:0:
88,56,165489,1,0,0:0:0:0:
488,64,165632,2,0,L|472:176,1,113.999996520996,10|0,0:2|0:0,0:0:0:0:
264,324,165918,5,10,0:2:0:0:
49,197,166061,1,0,0:0:0:0:
436,192,166204,1,10,0:2:0:0:
208,344,166347,1,0,0:0:0:0:
0,156,166489,1,10,0:2:0:0:
512,132,166632,1,0,0:0:0:0:
264,256,166775,1,10,0:2:0:0:
16,212,166918,1,0,0:0:0:0:
368,212,167061,5,10,0:2:0:0:
424,208,167132,1,0,0:0:0:0:
256,212,167204,1,0,0:0:0:0:
192,208,167275,1,0,0:0:0:0:
412,144,167347,1,10,0:2:0:0:
476,144,167418,1,0,0:0:0:0:
196,88,167489,1,0,0:0:0:0:
136,84,167561,1,0,0:0:0:0:
428,276,167632,38,0,L|484:272,1,56.9999982604981,10|0,0:2|0:0,0:0:0:0:
124,308,167775,2,0,L|64:304,1,56.9999982604981,2|0,0:2|0:0,0:0:0:0:
452,84,167918,2,0,L|512:88,1,56.9999982604981,10|0,0:2|0:0,0:0:0:0:
40,164,168061,2,0,L|-16:164,1,56.9999982604981,2|0,0:2|0:0,0:0:0:0:
324,232,168204,70,0,P|373:232|410:226,2,71.2500027179719,4|0|2,0:0|0:0|0:0,0:0:0:0:
216,110,168632,1,0,0:0:0:0:
108,260,168775,2,0,P|178:256|245:231,1,142.500005435944,2|0,0:0|0:0,0:0:0:0:
380,132,169204,2,0,L|371:283,2,142.500005435944,2|0|2,0:0|0:0|0:0,0:0:0:0:
104,100,170061,2,0,L|99:174,1,71.2500027179719
268,140,170347,1,2,0:0:0:0:
364,304,170489,6,0,P|412:307|448:305,1,71.2500027179719
272,308,170775,2,0,P|236:307|200:310,1,71.2500027179719,2|0,0:0|0:0,0:0:0:0:
380,212,171061,2,0,P|340:232|233:219,1,142.500005435944,2|0,0:0|0:0,0:0:0:0:
176,132,171489,2,0,L|323:127,2,142.500005435944,2|0|2,0:0|0:0|0:0,0:0:0:0:
104,128,172347,1,0,0:0:0:0:
240,164,172489,2,0,L|234:257,1,71.2500027179719,0|2,0:0|0:0,0:0:0:0:
80,304,172775,86,0,P|119:300|163:301,2,71.2500027179719,0|0|2,0:0|0:0|0:0,0:0:0:0:
322,360,173204,1,0,0:0:0:0:
476,316,173347,2,0,P|496:241|497:160,1,142.500005435944,2|0,0:0|0:0,0:0:0:0:
348,95,173775,1,2,0:0:0:0:
116,136,174061,2,0,L|269:139,1,142.500005435944,0|2,0:0|0:0,0:0:0:0:
440,280,174632,2,0,L|357:281,1,71.2500027179719
244,296,174918,1,2,0:0:0:0:
68,272,175061,6,0,P|74:321|77:358,1,71.2500027179719
212,212,175347,2,0,P|215:177|220:142,1,71.2500027179719,2|0,0:0|0:0,0:0:0:0:
372,124,175632,2,0,P|442:133|520:117,1,142.500005435944,2|0,0:0|0:0,0:0:0:0:
264,128,176061,1,2,0:0:0:0:
472,344,176347,2,0,L|478:196,1,142.500005435944,0|2,0:0|0:0,0:0:0:0:
304,100,176918,5,0,0:0:0:0:
124,148,177061,2,0,L|44:153,1,71.2500027179719,0|2,0:0|0:0,0:0:0:0:
