osu file format v14

[General]
AudioFilename: reol streaming heart.mp3
AudioLeadIn: 0
PreviewTime: 57347
Countdown: 0
SampleSet: Normal
StackLeniency: 0.7
Mode: 1
LetterboxInBreaks: 0
WidescreenStoryboard: 0

[Editor]
DistanceSpacing: 0.5
BeatDivisor: 4
GridSize: 4
TimelineZoom: 1.7

[Metadata]
Title:Streaming Heart
TitleUnicode:ストリーミングハート
Artist:Reol
ArtistUnicode:れをる
Creator:Chromoxx
Version:Kantan
Source:
Tags:utaite cover giga giga-p hatsune miku vocaloid deco*27 nwolf
BeatmapID:890675
BeatmapSetID:410293

[Difficulty]
HPDrainRate:7.5
CircleSize:5
OverallDifficulty:4
ApproachRate:5
SliderMultiplier:1.2
SliderTickRate:1

[Events]
//Background and Video events
0,0,"42630882.jpg",0,100
//Break Periods
2,75832,83575
//Storyboard Layer 0 (Background)
//Storyboard Layer 1 (Fail)
//Storyboard Layer 2 (Pass)
//Storyboard Layer 3 (Foreground)
//Storyboard Sound Samples

[TimingPoints]
1347,285.714285714286,4,1,0,80,1,0
10489,-100,4,1,0,100,0,0
28775,-100,4,1,0,70,0,0
38632,-100,4,1,0,77,0,0
38775,-100,4,1,0,85,0,0
38918,-100,4,1,0,93,0,0
39061,-100,4,1,0,100,0,0
48132,-100,4,1,0,60,0,0
57347,-100,4,1,0,100,0,1
75632,-100,4,1,0,100,0,0
75918,-100,4,1,0,70,0,0
84489,-100,4,1,0,50,0,0
92632,-100,4,1,0,65,0,0
93775,-100,4,1,0,100,0,0
103204,-100,4,1,0,75,0,0
112204,-100,4,1,0,100,0,0
121061,-100,4,1,0,50,0,0
129204,-100,4,1,0,65,0,0
131204,-100,4,1,0,85,0,0
131632,-100,4,1,0,100,0,1
139489,-100,4,1,0,100,0,0
140775,-100,4,1,0,100,0,1
168204,-100,4,1,0,100,0,0
168347,-100,4,1,0,50,0,0

[HitObjects]
168,164,1347,5,0,0:0:0:0:
224,264,2489,1,0,0:0:0:0:
160,200,3632,1,8,0:0:0:0:
160,200,4775,1,8,0:0:0:0:
240,216,5918,1,0,0:0:0:0:
240,216,7061,1,0,0:0:0:0:
240,216,8204,1,8,0:0:0:0:
240,208,9347,1,8,0:0:0:0:
240,208,9918,1,0,0:0:0:0:
240,208,10489,1,8,0:0:0:0:
240,208,11632,1,8,0:0:0:0:
240,204,12489,1,8,0:0:0:0:
240,204,12775,1,8,0:0:0:0:
96,132,13918,1,0,0:0:0:0:
248,168,14775,1,0,0:0:0:0:
248,168,15061,1,0,0:0:0:0:
284,232,16204,1,8,0:0:0:0:
284,232,17061,1,8,0:0:0:0:
272,228,17347,1,8,0:0:0:0:
268,228,18489,1,0,0:0:0:0:
200,232,19347,1,0,0:0:0:0:
256,208,19632,1,0,0:0:0:0:
256,208,20775,1,0,0:0:0:0:
256,208,21632,1,0,0:0:0:0:
256,208,21918,1,8,0:0:0:0:
256,208,23061,1,8,0:0:0:0:
168,236,23918,1,8,0:0:0:0:
256,208,24204,1,0,0:0:0:0:
256,208,25347,1,0,0:0:0:0:
256,208,26204,1,0,0:0:0:0:
324,244,26489,1,8,0:0:0:0:
324,244,27632,1,8,0:0:0:0:
324,244,28061,1,0,0:0:0:0:
324,244,28489,1,0,0:0:0:0:
404,192,28775,1,0,0:0:0:0:
276,208,29918,1,0,0:0:0:0:
196,160,31061,5,8,0:0:0:0:
196,160,31632,1,0,0:0:0:0:
196,160,32204,1,8,0:0:0:0:
232,204,33347,1,0,0:0:0:0:
232,204,33918,1,8,0:0:0:0:
192,200,34489,1,0,0:0:0:0:
192,200,35632,1,8,0:0:0:0:
192,200,36204,1,0,0:0:0:0:
176,184,36775,1,0,0:0:0:0:
176,184,37918,1,0,0:0:0:0:
176,184,38489,1,8,0:0:0:0:
248,288,38775,1,0,0:0:0:0:
176,184,39061,1,0,0:0:0:0:
188,192,40204,1,8,0:0:0:0:
292,244,40775,1,0,0:0:0:0:
228,160,41061,1,0,0:0:0:0:
196,168,41347,1,8,0:0:0:0:
196,168,42489,1,8,0:0:0:0:
196,168,43061,1,0,0:0:0:0:
196,168,43632,1,0,0:0:0:0:
164,156,44775,1,8,0:0:0:0:
196,168,45347,1,8,0:0:0:0:
204,232,45632,1,0,0:0:0:0:
240,220,45918,1,8,0:0:0:0:
196,168,47061,1,0,0:0:0:0:
168,164,47632,1,8,0:0:0:0:
168,164,48204,1,0,0:0:0:0:
164,156,49347,1,0,0:0:0:0:
160,156,50489,1,0,0:0:0:0:
160,156,51632,1,8,0:0:0:0:
212,232,52204,1,0,0:0:0:0:
92,244,52775,1,8,0:0:0:0:
96,248,53918,1,0,0:0:0:0:
204,204,55061,1,0,0:0:0:0:
204,204,55918,1,8,0:0:0:0:
204,204,56204,1,8,0:0:0:0:
204,204,57347,1,12,0:0:0:0:
204,204,57918,1,8,0:0:0:0:
112,160,58204,1,8,0:0:0:0:
204,204,58489,1,0,0:0:0:0:
204,204,59632,1,0,0:0:0:0:
204,204,60204,1,8,0:0:0:0:
204,204,60775,1,8,0:0:0:0:
240,172,61347,1,0,0:0:0:0:
240,172,61632,1,0,0:0:0:0:
204,144,61918,1,8,0:0:0:0:
236,160,63061,1,0,0:0:0:0:
96,144,63632,1,8,0:0:0:0:
104,144,63918,1,8,0:0:0:0:
236,160,64204,1,0,0:0:0:0:
236,160,64775,1,8,0:0:0:0:
236,160,65347,1,0,0:0:0:0:
236,160,66489,1,8,0:0:0:0:
236,160,67061,1,8,0:0:0:0:
236,160,67632,1,0,0:0:0:0:
236,160,68775,1,0,0:0:0:0:
236,160,69347,1,8,0:0:0:0:
236,160,69918,1,0,0:0:0:0:
236,160,71061,1,8,0:0:0:0:
236,160,71632,1,8,0:0:0:0:
236,160,72204,1,0,0:0:0:0:
236,160,73347,1,0,0:0:0:0:
236,160,73918,1,8,0:0:0:0:
236,160,74489,1,0,0:0:0:0:
236,160,75061,1,8,0:0:0:0:
236,160,75347,1,8,0:0:0:0:
208,144,75632,1,4,0:0:0:0:
316,256,84775,5,4,0:0:0:0:
288,196,85918,1,8,0:0:0:0:
256,240,86775,1,0,0:0:0:0:
256,240,87061,1,8,0:0:0:0:
256,240,88204,1,0,0:0:0:0:
144,140,89061,1,8,0:0:0:0:
144,140,89347,1,0,0:0:0:0:
144,140,90489,1,8,0:0:0:0:
144,140,91347,1,0,0:0:0:0:
144,140,91632,1,8,0:0:0:0:
144,140,92775,1,0,0:0:0:0:
144,140,93347,1,8,0:0:0:0:
144,140,93918,1,4,0:0:0:0:
144,140,95061,1,8,0:0:0:0:
144,140,95632,1,8,0:0:0:0:
288,200,95918,1,0,0:0:0:0:
144,140,96204,1,8,0:0:0:0:
144,140,97347,1,0,0:0:0:0:
144,140,97918,1,8,0:0:0:0:
152,248,98204,1,8,0:0:0:0:
144,140,98489,1,0,0:0:0:0:
144,140,99632,1,8,0:0:0:0:
144,140,100204,1,8,0:0:0:0:
152,248,100489,1,0,0:0:0:0:
144,140,100775,1,8,0:0:0:0:
144,140,101918,1,0,0:0:0:0:
144,140,102489,1,8,0:0:0:0:
152,248,102775,1,8,0:0:0:0:
144,140,103061,1,0,0:0:0:0:
144,140,104204,1,0,0:0:0:0:
152,256,105061,1,8,0:0:0:0:
176,124,105347,1,0,0:0:0:0:
176,136,106489,1,0,0:0:0:0:
272,224,107347,1,8,0:0:0:0:
176,136,107632,1,0,0:0:0:0:
176,136,108775,1,0,0:0:0:0:
216,192,109632,1,8,0:0:0:0:
196,132,109918,1,0,0:0:0:0:
200,136,110775,1,0,0:0:0:0:
200,136,111347,1,8,0:0:0:0:
168,168,111918,1,8,0:0:0:0:
152,256,112204,1,4,0:0:0:0:
196,132,112775,1,0,0:0:0:0:
196,132,113347,1,0,0:0:0:0:
196,132,114489,1,8,0:0:0:0:
196,132,115061,1,0,0:0:0:0:
196,132,115632,1,8,0:0:0:0:
196,132,116775,1,0,0:0:0:0:
196,132,117347,1,0,0:0:0:0:
196,132,117918,1,0,0:0:0:0:
196,132,119061,1,8,0:0:0:0:
360,280,119632,1,8,0:0:0:0:
196,132,120204,1,8,0:0:0:0:
360,280,120775,1,0,0:0:0:0:
360,280,121347,1,8,0:0:0:0:
212,88,122489,1,0,0:0:0:0:
212,96,123061,1,8,0:0:0:0:
212,96,123632,1,0,0:0:0:0:
212,96,124775,1,8,0:0:0:0:
212,96,125347,1,0,0:0:0:0:
212,96,125918,1,8,0:0:0:0:
212,96,127061,1,8,0:0:0:0:
128,200,127632,1,8,0:0:0:0:
212,96,128204,1,0,0:0:0:0:
272,184,129061,1,8,0:0:0:0:
116,176,129347,2,0,L|160:180,8,30
172,152,131632,1,12,0:0:0:0:
172,152,132204,1,8,0:0:0:0:
172,152,132489,1,8,0:0:0:0:
172,152,132775,1,0,0:0:0:0:
172,152,133918,1,0,0:0:0:0:
172,152,134489,1,8,0:0:0:0:
172,152,135061,1,8,0:0:0:0:
172,152,135632,1,0,0:0:0:0:
172,152,135918,1,0,0:0:0:0:
172,152,136204,1,8,0:0:0:0:
172,152,136775,1,8,0:0:0:0:
88,176,137061,1,8,0:0:0:0:
172,152,137347,1,0,0:0:0:0:
172,152,138489,1,0,0:0:0:0:
172,152,139061,1,8,0:0:0:0:
128,208,139347,1,0,0:0:0:0:
172,152,139632,1,0,0:0:0:0:
172,152,140775,1,4,0:0:0:0:
172,152,141347,1,8,0:0:0:0:
172,152,141632,1,8,0:0:0:0:
172,152,141918,1,0,0:0:0:0:
172,152,142489,1,0,0:0:0:0:
172,152,142775,1,8,0:0:0:0:
172,152,143061,1,0,0:0:0:0:
172,152,143632,1,8,0:0:0:0:
172,152,144204,1,0,0:0:0:0:
204,176,145347,1,0,0:0:0:0:
204,176,145918,1,8,0:0:0:0:
204,176,146204,1,8,0:0:0:0:
204,176,146489,1,0,0:0:0:0:
200,192,147061,1,8,0:0:0:0:
184,184,147347,1,0,0:0:0:0:
200,192,147632,1,8,0:0:0:0:
200,192,148204,1,8,0:0:0:0:
200,192,148489,1,8,0:0:0:0:
200,192,148775,1,8,0:0:0:0:
200,192,149918,1,4,0:0:0:0:
200,168,151061,1,8,0:0:0:0:
200,168,151632,1,0,0:0:0:0:
200,168,152204,1,8,0:0:0:0:
200,168,153347,1,0,0:0:0:0:
200,168,153918,1,0,0:0:0:0:
200,168,154489,1,8,0:0:0:0:
200,168,155632,1,8,0:0:0:0:
200,176,156204,1,0,0:0:0:0:
200,176,156775,1,0,0:0:0:0:
200,176,157918,1,8,0:0:0:0:
200,176,158489,1,8,0:0:0:0:
200,176,158775,1,8,0:0:0:0:
200,176,159061,1,0,0:0:0:0:
200,176,160204,1,0,0:0:0:0:
200,176,160775,1,0,0:0:0:0:
200,176,161061,1,0,0:0:0:0:
200,176,161347,1,8,0:0:0:0:
200,176,162489,1,8,0:0:0:0:
200,176,163061,1,8,0:0:0:0:
200,176,163347,1,8,0:0:0:0:
200,176,163632,1,0,0:0:0:0:
200,176,164775,1,0,0:0:0:0:
200,176,165347,1,8,0:0:0:0:
200,176,165632,1,0,0:0:0:0:
200,176,165918,1,8,0:0:0:0:
236,264,166489,1,8,0:0:0:0:
200,176,167061,1,0,0:0:0:0:
200,176,167632,1,8,0:0:0:0:
200,176,167918,1,8,0:0:0:0:
200,176,168204,1,0,0:0:0:0:
200,176,169347,1,8,0:0:0:0:
200,176,170489,1,0,0:0:0:0:
200,176,171632,1,8,0:0:0:0:
192,212,172204,1,0,0:0:0:0:
192,212,172775,1,8,0:0:0:0:
200,176,173918,1,8,0:0:0:0:
200,176,175061,1,0,0:0:0:0:
200,176,176204,1,8,0:0:0:0:
200,176,177204,1,0,0:0:0:0:
