osu file format v14

[General]
AudioFilename: reol streaming heart.mp3
AudioLeadIn: 0
PreviewTime: 57347
Countdown: 0
SampleSet: Normal
StackLeniency: 0.7
Mode: 1
LetterboxInBreaks: 0
WidescreenStoryboard: 0

[Editor]
DistanceSpacing: 0.5
BeatDivisor: 4
GridSize: 4
TimelineZoom: 1.7

[Metadata]
Title:Streaming Heart
TitleUnicode:ストリーミングハート
Artist:Reol
ArtistUnicode:れをる
Creator:Chromoxx
Version:Futsuu
Source:
Tags:utaite cover giga giga-p hatsune miku vocaloid deco*27 nwolf
BeatmapID:897800
BeatmapSetID:410293

[Difficulty]
HPDrainRate:6.5
CircleSize:5
OverallDifficulty:4.5
ApproachRate:5
SliderMultiplier:1.2
SliderTickRate:1

[Events]
//Background and Video events
0,0,"42630882.jpg",0,100
//Break Periods
2,75832,83575
//Storyboard Layer 0 (Background)
//Storyboard Layer 1 (Fail)
//Storyboard Layer 2 (Pass)
//Storyboard Layer 3 (Foreground)
//Storyboard Sound Samples

[TimingPoints]
1347,285.714285714286,4,1,0,80,1,0
10489,-100,4,1,0,100,0,0
28775,-100,4,1,0,70,0,0
38632,-100,4,1,0,77,0,0
38775,-100,4,1,0,85,0,0
38918,-100,4,1,0,93,0,0
39061,-100,4,1,0,100,0,0
48132,-100,4,1,0,60,0,0
57347,-100,4,1,0,100,0,1
75632,-100,4,1,0,100,0,0
75918,-100,4,1,0,70,0,0
84489,-100,4,1,0,50,0,0
92632,-100,4,1,0,65,0,0
93775,-100,4,1,0,100,0,0
103204,-100,4,1,0,75,0,0
112204,-100,4,1,0,100,0,0
121061,-100,4,1,0,50,0,0
129204,-100,4,1,0,65,0,0
131204,-100,4,1,0,85,0,0
131632,-100,4,1,0,100,0,1
139489,-100,4,1,0,100,0,0
140775,-100,4,1,0,100,0,1
168204,-100,4,1,0,100,0,0
168347,-100,4,1,0,50,0,0

[HitObjects]
168,164,1347,5,0,0:0:0:0:
280,144,1918,1,8,0:0:0:0:
224,264,2489,1,0,0:0:0:0:
160,200,3632,1,8,0:0:0:0:
240,248,4204,1,0,0:0:0:0:
160,200,4775,1,8,0:0:0:0:
240,216,5918,1,0,0:0:0:0:
296,240,6489,1,8,0:0:0:0:
240,216,7061,1,0,0:0:0:0:
240,216,8204,1,8,0:0:0:0:
240,208,9347,1,8,0:0:0:0:
240,208,9918,1,0,0:0:0:0:
280,316,10204,1,0,0:0:0:0:
240,208,10489,1,8,0:0:0:0:
252,316,11347,1,0,0:0:0:0:
240,208,11632,1,8,0:0:0:0:
272,312,12061,1,0,0:0:0:0:
240,204,12489,1,0,0:0:0:0:
240,204,12775,1,8,0:0:0:0:
424,120,13632,1,0,0:0:0:0:
232,288,13918,1,0,0:0:0:0:
232,288,14347,1,0,0:0:0:0:
248,168,14775,1,0,0:0:0:0:
248,168,15061,1,8,0:0:0:0:
336,180,15918,1,0,0:0:0:0:
284,232,16204,1,8,0:0:0:0:
276,160,16632,1,0,0:0:0:0:
284,232,17061,1,0,0:0:0:0:
272,228,17347,1,8,0:0:0:0:
292,160,18204,1,0,0:0:0:0:
268,228,18489,1,0,0:0:0:0:
200,280,18918,1,0,0:0:0:0:
200,232,19347,1,0,0:0:0:0:
256,208,19632,1,8,0:0:0:0:
292,160,20489,1,0,0:0:0:0:
228,256,20775,1,8,0:0:0:0:
176,280,21204,1,8,0:0:0:0:
256,208,21632,1,0,0:0:0:0:
256,208,21918,1,8,0:0:0:0:
292,160,22775,1,0,0:0:0:0:
256,208,23061,1,8,0:0:0:0:
244,248,23489,1,0,0:0:0:0:
168,236,23918,1,0,0:0:0:0:
256,208,24204,1,8,0:0:0:0:
296,192,25061,1,0,0:0:0:0:
256,208,25347,1,8,0:0:0:0:
192,320,25775,1,8,0:0:0:0:
256,208,26204,1,0,0:0:0:0:
324,244,26489,1,8,0:0:0:0:
288,184,27347,1,0,0:0:0:0:
324,244,27632,1,8,0:0:0:0:
324,244,28061,1,0,0:0:0:0:
324,244,28489,1,0,0:0:0:0:
256,192,28775,12,0,29632,0:0:0:0:
80,136,29918,5,0,0:0:0:0:
184,304,30489,1,8,0:0:0:0:
200,264,31061,1,0,0:0:0:0:
200,264,31632,1,0,0:0:0:0:
200,264,31918,1,0,0:0:0:0:
200,264,32204,1,8,0:0:0:0:
232,204,33347,1,0,0:0:0:0:
232,204,33918,1,8,0:0:0:0:
200,260,34204,1,8,0:0:0:0:
192,200,34489,1,0,0:0:0:0:
152,268,35061,1,8,0:0:0:0:
152,268,35632,1,0,0:0:0:0:
152,268,36204,1,8,0:0:0:0:
224,272,36489,1,0,0:0:0:0:
224,272,36775,1,8,0:0:0:0:
176,184,37918,1,0,0:0:0:0:
320,188,38061,1,0,0:0:0:0:
176,184,38347,1,8,0:0:0:0:
248,288,38632,1,8,0:0:0:0:
208,112,38775,1,8,0:0:0:0:
176,184,39061,1,0,0:0:0:0:
152,268,39632,1,8,0:0:0:0:
152,268,40204,1,8,0:0:0:0:
208,168,40489,1,8,0:0:0:0:
292,244,40632,1,8,0:0:0:0:
144,300,41061,1,0,0:0:0:0:
196,168,41347,1,8,0:0:0:0:
144,300,42489,1,0,0:0:0:0:
276,120,42775,1,0,0:0:0:0:
144,300,42918,1,8,0:0:0:0:
144,300,43347,1,0,0:0:0:0:
196,168,43632,1,0,0:0:0:0:
144,300,44204,1,8,0:0:0:0:
144,300,44775,1,0,0:0:0:0:
196,168,45061,1,8,0:0:0:0:
212,152,45204,1,0,0:0:0:0:
204,232,45632,1,0,0:0:0:0:
240,220,45918,1,8,0:0:0:0:
144,296,46489,1,8,0:0:0:0:
196,168,47061,1,0,0:0:0:0:
296,160,47347,1,0,0:0:0:0:
168,164,47489,1,8,0:0:0:0:
312,260,47775,1,8,0:0:0:0:
168,164,48204,1,0,0:0:0:0:
144,296,49061,1,0,0:0:0:0:
144,296,49347,1,8,0:0:0:0:
144,296,50204,1,8,0:0:0:0:
160,156,50489,1,0,0:0:0:0:
144,296,51347,1,0,0:0:0:0:
160,156,51632,1,8,0:0:0:0:
212,232,52204,1,0,0:0:0:0:
92,244,52775,1,8,0:0:0:0:
212,304,53632,1,0,0:0:0:0:
96,248,53918,1,0,0:0:0:0:
192,312,54775,1,0,0:0:0:0:
204,204,55061,1,8,0:0:0:0:
204,204,55632,1,0,0:0:0:0:
204,204,56204,1,8,0:0:0:0:
188,312,56489,1,8,0:0:0:0:
188,312,56775,1,8,0:0:0:0:
204,204,57347,1,12,0:0:0:0:
204,204,57775,1,8,0:0:0:0:
112,160,58204,1,8,0:0:0:0:
200,284,58347,1,8,0:0:0:0:
204,204,58489,1,0,0:0:0:0:
200,288,58918,1,8,0:0:0:0:
200,288,59347,1,8,0:0:0:0:
204,204,59632,1,0,0:0:0:0:
312,288,59918,1,0,0:0:0:0:
204,204,60204,1,8,0:0:0:0:
204,204,60775,1,0,0:0:0:0:
240,172,61347,1,8,0:0:0:0:
240,172,61632,1,8,0:0:0:0:
204,144,61918,1,0,0:0:0:0:
256,264,62347,1,8,0:0:0:0:
200,152,62775,1,8,0:0:0:0:
308,188,62918,1,8,0:0:0:0:
256,264,63061,1,0,0:0:0:0:
96,144,63489,1,8,0:0:0:0:
104,144,63918,1,8,0:0:0:0:
236,160,64204,1,0,0:0:0:0:
288,272,64489,1,0,0:0:0:0:
236,160,64775,1,8,0:0:0:0:
236,160,65347,1,0,0:0:0:0:
236,160,66489,1,8,0:0:0:0:
236,160,66918,1,8,0:0:0:0:
280,276,67347,1,8,0:0:0:0:
236,160,67490,1,0,0:0:0:0:
132,116,68061,1,0,0:0:0:0:
240,232,68347,1,0,0:0:0:0:
236,160,68775,1,8,0:0:0:0:
236,160,69204,1,8,0:0:0:0:
292,216,69632,1,8,0:0:0:0:
236,160,69775,1,0,0:0:0:0:
280,268,70347,1,8,0:0:0:0:
280,268,70632,1,0,0:0:0:0:
236,160,71061,1,8,0:0:0:0:
236,160,71489,1,8,0:0:0:0:
188,192,71918,1,8,0:0:0:0:
236,160,72061,1,0,0:0:0:0:
280,268,72632,1,0,0:0:0:0:
312,288,72918,1,0,0:0:0:0:
236,160,73347,1,8,0:0:0:0:
236,160,73775,1,8,0:0:0:0:
184,216,74204,1,8,0:0:0:0:
236,160,74347,1,0,0:0:0:0:
240,204,74632,1,0,0:0:0:0:
224,224,74918,1,0,0:0:0:0:
236,160,75061,1,8,0:0:0:0:
236,160,75347,1,8,0:0:0:0:
208,144,75632,1,4,0:0:0:0:
316,256,84775,5,4,0:0:0:0:
132,204,85918,1,8,0:0:0:0:
108,232,86347,1,0,0:0:0:0:
256,240,86775,1,0,0:0:0:0:
256,240,87061,1,8,0:0:0:0:
256,240,88204,1,8,0:0:0:0:
152,260,88632,1,8,0:0:0:0:
144,140,89061,1,8,0:0:0:0:
144,140,89347,1,0,0:0:0:0:
144,140,90489,1,8,0:0:0:0:
220,172,90918,1,0,0:0:0:0:
144,140,91347,1,0,0:0:0:0:
144,140,91632,1,8,0:0:0:0:
144,140,92775,1,8,0:0:0:0:
336,328,92918,1,0,0:0:0:0:
144,140,93204,1,8,0:0:0:0:
100,200,93489,1,8,0:0:0:0:
144,140,93918,1,4,0:0:0:0:
124,128,94204,1,0,0:0:0:0:
224,124,94489,1,8,0:0:0:0:
144,140,95061,1,8,0:0:0:0:
232,208,95347,1,8,0:0:0:0:
144,140,95489,1,8,0:0:0:0:
288,200,95775,1,0,0:0:0:0:
144,140,96061,1,8,0:0:0:0:
308,220,96775,1,8,0:0:0:0:
196,204,97061,1,0,0:0:0:0:
144,140,97347,1,0,0:0:0:0:
212,208,97632,1,0,0:0:0:0:
144,140,97775,1,8,0:0:0:0:
152,248,98061,1,8,0:0:0:0:
144,140,98347,1,0,0:0:0:0:
88,168,99061,1,8,0:0:0:0:
240,188,99347,1,8,0:0:0:0:
240,188,99632,1,0,0:0:0:0:
240,188,99918,1,0,0:0:0:0:
144,140,100061,1,8,0:0:0:0:
152,248,100347,1,0,0:0:0:0:
144,140,100632,1,8,0:0:0:0:
100,160,101347,1,8,0:0:0:0:
164,176,101632,1,0,0:0:0:0:
144,140,101918,1,8,0:0:0:0:
248,196,102204,1,0,0:0:0:0:
144,140,102347,1,8,0:0:0:0:
152,248,102632,1,8,0:0:0:0:
240,140,102918,1,8,0:0:0:0:
144,140,103061,1,0,0:0:0:0:
144,140,104204,1,0,0:0:0:0:
88,112,104632,1,0,0:0:0:0:
152,256,105061,1,8,0:0:0:0:
176,124,105347,1,0,0:0:0:0:
176,136,106489,1,0,0:0:0:0:
204,248,106918,1,0,0:0:0:0:
272,224,107347,1,8,0:0:0:0:
176,136,107632,1,0,0:0:0:0:
176,136,108775,1,0,0:0:0:0:
204,232,109204,1,0,0:0:0:0:
216,192,109632,1,8,0:0:0:0:
196,132,109918,1,0,0:0:0:0:
196,132,110775,1,0,0:0:0:0:
236,196,111347,1,8,0:0:0:0:
292,168,111918,1,8,0:0:0:0:
152,256,112204,1,4,0:0:0:0:
196,132,112632,1,0,0:0:0:0:
180,160,113061,1,8,0:0:0:0:
196,132,113347,1,0,0:0:0:0:
300,244,113489,1,0,0:0:0:0:
300,244,113775,1,0,0:0:0:0:
196,132,114489,1,8,0:0:0:0:
196,132,114918,1,0,0:0:0:0:
200,184,115347,1,0,0:0:0:0:
196,132,115632,1,8,0:0:0:0:
200,184,115775,1,8,0:0:0:0:
240,248,116061,1,8,0:0:0:0:
196,132,116775,1,0,0:0:0:0:
196,132,117204,1,0,0:0:0:0:
84,120,117632,1,8,0:0:0:0:
196,132,117918,1,0,0:0:0:0:
84,120,118061,1,0,0:0:0:0:
176,128,118347,1,0,0:0:0:0:
196,132,119061,1,8,0:0:0:0:
196,132,119489,1,0,0:0:0:0:
120,144,119918,1,8,0:0:0:0:
196,132,120204,1,8,0:0:0:0:
260,240,120347,1,8,0:0:0:0:
196,132,120632,1,8,0:0:0:0:
168,248,120775,1,0,0:0:0:0:
196,132,121347,1,0,0:0:0:0:
164,236,122204,1,0,0:0:0:0:
212,88,122489,1,0,0:0:0:0:
212,96,122918,1,8,0:0:0:0:
96,164,123347,1,8,0:0:0:0:
212,96,123632,1,0,0:0:0:0:
152,188,124489,1,8,0:0:0:0:
212,96,124775,1,8,0:0:0:0:
212,96,125204,1,0,0:0:0:0:
144,176,125632,1,0,0:0:0:0:
212,96,125918,1,8,0:0:0:0:
284,264,126775,1,0,0:0:0:0:
212,96,127061,1,8,0:0:0:0:
128,200,127489,1,8,0:0:0:0:
164,160,127918,1,8,0:0:0:0:
212,96,128204,1,0,0:0:0:0:
328,264,128775,1,0,0:0:0:0:
128,220,129061,1,0,0:0:0:0:
212,96,129347,1,8,0:0:0:0:
272,184,129632,1,8,0:0:0:0:
280,256,129775,1,8,0:0:0:0:
84,136,129918,1,8,0:0:0:0:
172,152,131632,1,12,0:0:0:0:
316,184,131918,1,0,0:0:0:0:
172,152,132061,1,8,0:0:0:0:
164,196,132347,1,0,0:0:0:0:
172,152,132489,1,8,0:0:0:0:
172,152,132775,1,0,0:0:0:0:
236,276,133204,1,8,0:0:0:0:
172,152,133632,1,0,0:0:0:0:
216,172,133775,1,0,0:0:0:0:
344,96,134061,1,0,0:0:0:0:
236,236,134204,1,8,0:0:0:0:
172,152,134489,1,8,0:0:0:0:
172,152,134918,1,0,0:0:0:0:
172,152,135632,1,0,0:0:0:0:
172,152,135918,1,0,0:0:0:0:
172,152,136204,1,8,0:0:0:0:
256,216,136489,1,0,0:0:0:0:
172,152,136632,1,8,0:0:0:0:
148,144,137061,1,8,0:0:0:0:
156,144,137204,1,8,0:0:0:0:
172,152,137347,1,0,0:0:0:0:
312,264,137775,1,8,0:0:0:0:
228,224,138205,1,0,0:0:0:0:
172,152,138347,1,0,0:0:0:0:
288,232,138632,1,0,0:0:0:0:
148,160,138775,1,8,0:0:0:0:
172,152,139061,1,8,0:0:0:0:
172,152,139489,1,0,0:0:0:0:
172,152,140775,1,4,0:0:0:0:
76,120,141061,1,0,0:0:0:0:
76,120,141204,1,8,0:0:0:0:
168,172,141489,1,0,0:0:0:0:
172,152,141632,1,8,0:0:0:0:
172,152,141918,1,0,0:0:0:0:
172,152,142347,1,8,0:0:0:0:
196,216,142632,1,0,0:0:0:0:
196,216,142775,1,0,0:0:0:0:
172,152,142918,1,8,0:0:0:0:
160,204,143204,1,0,0:0:0:0:
132,184,143347,1,8,0:0:0:0:
172,152,143632,1,8,0:0:0:0:
244,232,144061,1,0,0:0:0:0:
136,156,144775,1,8,0:0:0:0:
192,188,145061,1,8,0:0:0:0:
204,176,145347,1,0,0:0:0:0:
200,200,145632,1,0,0:0:0:0:
204,176,145775,1,8,0:0:0:0:
284,240,146061,1,0,0:0:0:0:
204,176,146204,1,8,0:0:0:0:
204,176,146489,1,0,0:0:0:0:
296,204,146775,1,0,0:0:0:0:
200,192,146918,1,8,0:0:0:0:
256,224,147347,1,8,0:0:0:0:
256,224,147489,1,0,0:0:0:0:
412,224,147918,1,8,0:0:0:0:
176,132,148061,1,0,0:0:0:0:
200,192,148347,1,0,0:0:0:0:
200,192,148489,1,8,0:0:0:0:
200,192,148632,1,0,0:0:0:0:
92,148,149347,1,8,0:0:0:0:
200,192,149918,1,4,0:0:0:0:
180,180,150204,1,0,0:0:0:0:
272,220,150347,1,8,0:0:0:0:
240,184,150632,1,0,0:0:0:0:
244,252,150775,1,0,0:0:0:0:
200,168,151061,1,8,0:0:0:0:
200,168,151489,1,8,0:0:0:0:
200,168,151918,1,0,0:0:0:0:
192,192,152204,1,8,0:0:0:0:
192,136,152489,1,0,0:0:0:0:
324,260,152632,1,8,0:0:0:0:
192,136,152918,1,8,0:0:0:0:
240,204,153061,1,0,0:0:0:0:
200,168,153347,1,0,0:0:0:0:
88,192,153775,1,8,0:0:0:0:
208,276,154489,1,0,0:0:0:0:
224,152,154775,1,0,0:0:0:0:
288,244,154918,1,8,0:0:0:0:
244,128,155204,1,0,0:0:0:0:
288,244,155347,1,0,0:0:0:0:
200,168,155632,1,8,0:0:0:0:
244,188,156061,1,0,0:0:0:0:
120,136,156347,1,0,0:0:0:0:
200,176,156775,1,8,0:0:0:0:
200,188,157061,1,0,0:0:0:0:
200,184,157204,1,8,0:0:0:0:
248,124,157489,1,0,0:0:0:0:
300,284,157632,1,8,0:0:0:0:
300,284,157918,1,0,0:0:0:0:
252,152,158347,1,8,0:0:0:0:
200,176,159061,1,0,0:0:0:0:
252,152,159347,1,0,0:0:0:0:
72,148,159489,1,8,0:0:0:0:
304,224,159775,1,0,0:0:0:0:
304,224,159918,1,8,0:0:0:0:
200,176,160061,1,0,0:0:0:0:
200,176,160347,1,8,0:0:0:0:
140,176,160632,1,0,0:0:0:0:
200,176,161347,1,8,0:0:0:0:
216,164,161632,1,0,0:0:0:0:
184,176,161775,1,8,0:0:0:0:
232,172,162061,1,0,0:0:0:0:
184,176,162204,1,8,0:0:0:0:
340,244,162347,1,0,0:0:0:0:
340,244,162632,1,8,0:0:0:0:
200,176,162918,1,8,0:0:0:0:
200,176,163632,1,8,0:0:0:0:
232,152,163918,1,0,0:0:0:0:
200,176,164061,1,8,0:0:0:0:
232,152,164347,1,0,0:0:0:0:
208,188,164489,1,8,0:0:0:0:
200,176,164632,1,0,0:0:0:0:
212,264,164918,1,8,0:0:0:0:
200,176,165204,1,0,0:0:0:0:
200,176,165918,1,8,0:0:0:0:
232,152,166204,1,0,0:0:0:0:
236,264,166347,1,8,0:0:0:0:
232,152,166632,1,0,0:0:0:0:
160,220,166775,1,8,0:0:0:0:
200,176,166918,1,0,0:0:0:0:
296,280,167204,1,8,0:0:0:0:
200,176,167489,1,8,0:0:0:0:
208,152,167775,1,8,0:0:0:0:
200,176,168061,1,8,0:0:0:0:
200,176,168204,1,0,0:0:0:0:
352,312,168775,1,8,0:0:0:0:
200,176,169347,1,8,0:0:0:0:
200,176,170489,1,0,0:0:0:0:
300,216,171061,1,0,0:0:0:0:
200,176,171632,1,8,0:0:0:0:
192,212,172775,1,8,0:0:0:0:
192,212,173347,1,0,0:0:0:0:
200,176,173918,1,8,0:0:0:0:
200,176,175061,1,0,0:0:0:0:
232,188,175632,1,0,0:0:0:0:
200,176,176204,1,8,0:0:0:0:
232,188,176918,1,0,0:0:0:0:
260,236,177204,1,8,0:0:0:0:
