osu file format v14

[General]
AudioFilename: audio.mp3
AudioLeadIn: 0
PreviewTime: 132308
Countdown: 0
SampleSet: Soft
StackLeniency: 0.7
Mode: 0
LetterboxInBreaks: 0
WidescreenStoryboard: 0

[Editor]
Bookmarks: 50183,74183,86183,155183,176183,200183,221183,245183,269183,280854
DistanceSpacing: 0.7
BeatDivisor: 4
GridSize: 16
TimelineZoom: 2.300006

[Metadata]
Title:Somari
TitleUnicode:染
Artist:Reol
ArtistUnicode:れをる
Creator:vergil chair
Version:Selfishness
Source:
Tags:dye ギガP GigaP 極彩色 gokusaishiki gokusaishoku japanese pop j-pop jpop rolniczy rolni contagious
BeatmapID:3589860
BeatmapSetID:1754192

[Difficulty]
HPDrainRate:5
CircleSize:4.4
OverallDifficulty:8
ApproachRate:8.7
SliderMultiplier:2.4
SliderTickRate:1

[Events]
//Background and Video events
0,0,"fikumiku.jpg",0,0
//Break Periods
//Storyboard Layer 0 (Background)
//Storyboard Layer 1 (Fail)
//Storyboard Layer 2 (Pass)
//Storyboard Layer 3 (Foreground)
//Storyboard Layer 4 (Overlay)
//Storyboard Sound Samples

[TimingPoints]
-817,750,4,2,1,30,1,0
1058,-200,4,2,1,30,0,0
48683,-166.666666666667,4,2,1,40,0,0
50183,-142.857142857143,4,2,1,40,0,1
50933,-142.857142857143,4,2,1,40,0,0
72308,-142.857142857143,4,2,1,50,0,0
72683,-142.857142857143,4,2,1,60,0,0
73245,-142.857142857143,4,2,1,30,0,0
74183,-90.9090909090909,4,2,1,70,0,1
74745,-90.9090909090909,4,2,1,70,0,0
86183,-111.111111111111,4,2,1,60,0,1
86558,-111.111111111111,4,2,1,60,0,0
110183,-111.111111111111,4,2,1,70,0,1
110933,-111.111111111111,4,2,1,70,0,0
116183,-111.111111111111,4,2,1,70,0,1
116933,-111.111111111111,4,2,1,70,0,0
122183,-111.111111111111,4,2,1,70,0,1
122558,-111.111111111111,4,2,1,70,0,0
130808,-100,4,2,1,70,0,1
131370,-100,4,2,1,70,0,0
133620,-142.857142857143,4,2,1,70,0,0
134183,-76.9230769230769,4,2,1,80,0,1
153683,-76.9230769230769,4,2,1,70,0,0
155183,-83.3333333333333,4,2,1,70,0,1
155745,-83.3333333333333,4,2,1,70,0,0
167183,-83.3333333333333,4,2,1,70,0,1
167558,-83.3333333333333,4,2,1,70,0,0
175433,-83.3333333333333,4,2,10,70,0,0
176183,-111.111111111111,4,2,1,65,0,1
176745,-111.111111111111,4,2,1,65,0,0
188183,-99.9999999999999,4,2,1,70,0,1
188745,-99.9999999999999,4,2,1,70,0,0
197183,-83.3333333333333,4,2,1,70,0,0
199808,-125,4,2,1,60,0,0
200183,-83.3333333333333,4,2,1,80,0,1
219683,-66.6666666666667,4,2,1,80,0,0
220808,-125,4,2,1,60,0,0
221183,-76.9230769230769,4,2,1,80,0,1
221933,-83.3333333333333,4,2,1,80,0,1
243683,-83.3333333333333,4,2,1,80,0,0
244292,-142.857142857143,4,2,1,40,0,0
245183,-90.9090909090909,4,2,1,70,0,1
245558,-90.9090909090909,4,2,1,70,0,0
257183,-90.9090909090909,4,2,1,70,0,1
257558,-90.9090909090909,4,2,1,70,0,0
269183,-169.491525423729,4,2,10,70,0,1
269276,-169.491525423729,4,2,1,5,0,0
270683,-169.491525423729,4,2,1,5,0,1
270729,-169.491525423729,4,2,1,5,0,0
272183,-169.491525423729,4,2,1,5,0,1
272229,-169.491525423729,4,2,1,5,0,0
273683,-169.491525423729,4,2,1,5,0,1
273729,-169.491525423729,4,2,1,5,0,0
275183,-169.491525423729,4,2,1,5,0,1
275229,-169.491525423729,4,2,1,5,0,0
276683,-169.491525423729,4,2,1,5,0,1
276729,-169.491525423729,4,2,1,5,0,0
278183,-169.491525423729,4,2,1,5,0,1
278229,-169.491525423729,4,2,1,5,0,0
279683,-169.491525423729,4,2,1,5,0,1
279729,-169.491525423729,4,2,1,5,0,0
280854,-169.491525423729,4,2,1,10,0,0

[Colours]
Combo1 : 197,197,197
Combo2 : 134,133,186
Combo3 : 159,159,159
Combo4 : 112,207,203
SliderBorder : 190,210,250

[HitObjects]
76,358,1058,6,0,P|66:346|22:340,2,60
186,361,2183,2,0,P|163:345|148:248,1,120,2|0,0:0|0:0,0:0:0:0:
236,164,3683,2,0,P|199:161|148:142,2,90
217,276,5183,2,0,P|280:248|342:248,1,120,2|0,0:0|0:0,0:0:0:0:
431,283,6308,1,2,0:0:0:0:
500,211,6683,1,2,0:0:0:0:
431,142,7058,2,0,P|421:177|422:201,2,60
506,84,8183,6,0,P|465:81|411:18,1,120,2|0,0:0|0:0,0:0:0:0:
330,71,9308,1,0,0:0:0:0:
232,16,9683,1,2,0:0:0:0:
232,16,10058,2,0,P|205:36|159:114,1,120
104,10,11183,2,0,P|117:41|150:253,1,240,2|0,0:0|0:0,0:0:0:0:
224,234,13058,1,0,0:0:0:0:
136,318,13433,1,0,0:0:0:0:
70,203,13808,1,0,0:0:0:0:
155,130,14183,6,0,P|198:128|218:131,1,60,2|0,0:0|0:0,0:0:0:0:
294,191,14933,2,0,P|337:193|357:190,1,60,2|0,0:0|0:0,0:0:0:0:
449,136,15683,1,2,0:0:0:0:
380,264,16058,2,0,P|367:204|375:137,1,120
427,73,17183,1,2,0:0:0:0:
331,60,17558,2,0,P|394:74|451:110,2,120,0|2|2,0:0|0:3|0:3,0:0:0:0:
110,161,19808,5,0,0:0:0:0:
105,166,20183,1,2,0:0:0:0:
102,176,20558,2,0,P|141:199|161:195,1,60
256,231,21308,1,2,0:0:0:0:
269,234,21683,2,0,P|281:213|277:175,1,60,2|0,0:0|0:0,0:0:0:0:
325,109,22433,1,2,0:0:0:0:
461,91,22808,6,0,B|436:130|370:113|341:58|323:-13|200:38|247:121,1,300,2|0,0:0|0:0,0:0:0:0:
158,134,25058,2,0,P|142:108|112:93,2,60,2|2|2,0:3|0:3|0:3,0:0:0:0:
102,203,26183,6,0,P|137:206|232:231,1,120,2|0,0:0|0:0,0:0:0:0:
344,290,27308,1,2,0:0:0:0:
344,290,27495,1,2,0:0:0:0:
344,290,27683,2,0,P|351:260|350:226,1,60,2|0,0:0|0:0,0:0:0:0:
295,124,28245,2,0,P|288:153|288:183,1,60
251,285,28808,2,0,P|217:299|101:223,1,180,2|0,0:0|0:0,0:0:0:0:
155,138,30308,5,0,0:3:0:0:
69,103,30683,1,2,0:0:0:0:
180,225,31058,1,0,0:3:0:0:
265,164,31433,1,2,0:0:0:0:
229,90,31808,1,0,0:0:0:0:
276,33,32183,6,0,P|270:79|266:161,1,120,2|0,0:0|0:0,0:0:0:0:
298,243,33308,1,2,0:0:0:0:
384,315,33683,2,0,P|342:315|319:333,1,60,2|0,0:0|0:0,0:0:0:0:
254,307,34245,2,0,P|223:336|219:365,1,60,2|0,0:0|0:0,0:0:0:0:
112,376,34808,2,0,B|31:281|118:221|179:275|154:136|114:106,1,300,2|0,0:0|0:0,0:0:0:0:
232,62,37058,1,2,0:3:0:0:
226,70,37433,1,2,0:3:0:0:
218,82,37808,1,2,0:3:0:0:
349,149,38183,5,2,0:0:0:0:
314,68,38558,1,0,0:0:0:0:
271,141,38933,1,0,0:0:0:0:
389,82,39308,1,2,0:3:0:0:
389,82,39495,1,2,0:3:0:0:
389,82,39683,2,0,P|425:77|457:80,1,60,2|0,0:0|0:0,0:0:0:0:
271,141,40433,2,0,P|235:136|203:139,1,60,2|0,0:0|0:0,0:0:0:0:
393,247,41183,5,2,0:0:0:0:
295,221,41558,1,0,0:0:0:0:
238,320,41933,1,2,0:3:0:0:
128,343,42308,2,0,P|109:314|204:239,1,180,2|0,0:0|0:0,0:0:0:0:
327,304,43808,1,0,0:0:0:0:
271,231,44183,5,2,0:0:0:0:
339,188,44558,2,0,P|343:151|334:59,1,120,2|0,0:3|0:0,0:0:0:0:
240,125,45683,1,2,0:0:0:0:
139,90,46058,1,0,0:0:0:0:
94,177,46433,1,0,0:0:0:0:
131,341,46808,2,0,B|187:355|224:317|198:285|314:281,1,180,2|0,0:0|0:0,0:0:0:0:
415,313,48308,1,0,0:0:0:0:
415,313,48683,2,0,B|434:272|421:225,1,71.9999978027344,2|0,0:0|0:0,0:0:0:0:
477,91,49433,2,0,B|458:132|459:182,1,71.9999978027344,2|0,0:0|0:0,0:0:0:0:
195,193,50183,6,0,B|276:178|292:226|359:220,1,167.999994873047,4|0,0:1|0:0,0:0:0:0:
377,143,51120,1,0,0:0:0:0:
369,133,51308,2,0,P|372:110|384:91,1,41.9999987182618,2|0,0:3|0:0,0:0:0:0:
487,6,51683,2,0,P|440:34|403:24,1,83.9999974365235,2|0,0:0|0:0,0:0:0:0:
293,4,52245,1,0,0:0:0:0:
222,37,52433,2,0,L|212:85,1,41.9999987182618,2|0,0:0|0:0,0:0:0:0:
298,100,52808,2,0,P|215:116|140:152,1,167.999994873047,2|0,0:0|0:0,0:0:0:0:
37,209,53933,5,2,0:0:0:0:
49,129,54308,1,2,0:0:0:0:
218,206,54683,5,2,0:0:0:0:
139,264,55058,1,2,0:0:0:0:
211,355,55433,5,2,0:0:0:0:
290,371,55808,1,2,0:0:0:0:
136,335,56183,6,0,P|102:376|105:386,1,41.9999987182618,2|0,0:3|0:0,0:0:0:0:
42,320,56558,2,0,P|37:267|14:244,1,83.9999974365235,2|0,0:3|0:0,0:0:0:0:
99,182,57120,1,0,0:0:0:0:
47,120,57308,1,0,0:0:0:0:
47,120,57495,1,0,0:0:0:0:
180,176,57683,2,0,P|254:189|290:202,1,83.9999974365235,2|0,0:0|0:0,0:0:0:0:
343,225,58245,1,0,0:0:0:0:
409,182,58433,2,0,L|397:129,1,41.9999987182618,2|0,0:0|0:0,0:0:0:0:
477,266,58808,2,0,P|480:205|493:99,1,167.999994873047,2|0,0:0|0:0,0:0:0:0:
358,61,59933,5,2,0:0:0:0:
399,141,60308,1,2,0:0:0:0:
271,252,60683,5,2,0:0:0:0:
308,141,61058,1,2,0:0:0:0:
189,220,61433,5,2,0:0:0:0:
222,330,61808,1,2,0:0:0:0:
134,372,62183,6,0,L|143:315,1,41.9999987182618,2|0,0:3|0:0,0:0:0:0:
226,319,62558,2,0,P|283:326|329:335,1,83.9999974365235,2|0,0:3|0:0,0:0:0:0:
401,318,63120,1,0,0:0:0:0:
352,212,63308,1,0,0:0:0:0:
430,244,63495,1,2,0:3:0:0:
454,162,63683,2,0,P|411:151|340:136,1,83.9999974365235,2|0,0:3|0:0,0:0:0:0:
286,73,64245,1,0,0:3:0:0:
360,19,64433,1,0,0:3:0:0:
297,153,64620,1,2,0:3:0:0:
221,128,64808,2,0,P|176:119|130:116,2,83.9999974365235,2|0|0,0:3|0:0|0:0,0:0:0:0:
297,153,65933,5,2,0:0:0:0:
360,19,66308,1,2,0:0:0:0:
286,73,66683,1,2,0:0:0:0:
374,121,67058,1,2,0:0:0:0:
437,56,67433,1,2,0:0:0:0:
360,19,67808,1,2,0:0:0:0:
286,73,68183,6,0,L|180:96,1,83.9999974365235,2|0,0:3|0:0,0:0:0:0:
113,152,68933,1,0,0:0:0:0:
25,98,69308,1,0,0:0:0:0:
138,0,69683,2,0,B|161:61|129:82|92:76|95:116|117:161,1,167.999994873047,2|0,0:3|0:0,0:0:0:0:
213,235,70808,6,0,P|115:248|15:276,1,167.999994873047,2|0,0:3|0:0,0:0:0:0:
48,265,71933,2,0,P|56:217|52:202,1,41.9999987182618,8|0,0:0|0:0,0:0:0:0:
97,142,72308,2,0,P|110:158|118:177,1,41.9999987182618,8|0,0:0|0:0,0:0:0:0:
89,331,72683,1,0,1:0:0:0:
392,357,73245,5,2,0:3:0:0:
402,365,73433,2,0,L|453:360,2,41.9999987182618,2|2|2,0:3|0:3|0:3,0:0:0:0:
309,79,74183,6,0,P|331:138|458:152,1,198.000006042481,4|4,0:1|0:3,0:0:0:0:
477,68,74933,2,0,L|389:89,1,66.0000020141602,0|0,1:0|0:0,0:0:0:0:
236,132,75308,1,4,0:3:0:0:
211,123,75401,1,2,0:3:0:0:
196,95,75495,1,2,0:3:0:0:
199,57,75589,1,2,0:3:0:0:
242,26,75683,1,2,0:0:0:0:
137,154,75870,1,4,0:3:0:0:
64,127,76058,2,0,L|44:55,1,66.0000020141602,4|0,0:3|0:0,0:0:0:0:
14,241,76433,2,0,P|85:227|156:239,1,132.00000402832,0|0,1:0|0:0,0:0:0:0:
265,344,76995,5,0,1:0:0:0:
265,344,77089,1,0,1:0:0:0:
265,344,77183,2,0,P|268:246|258:195,1,132.00000402832,6|0,0:3|0:0,0:0:0:0:
376,146,77745,1,4,0:3:0:0:
284,65,77933,2,0,L|300:137,1,66.0000020141602,0|0,1:0|0:0,0:0:0:0:
425,298,78308,2,0,B|404:221|419:207|439:196|465:169|447:109,1,198.000006042481,4|4,0:1|0:3,0:0:0:0:
342,16,79058,2,0,P|374:25|407:31,1,66.0000020141602,4|0,0:3|0:0,0:0:0:0:
171,93,79433,2,0,P|236:105|298:129,1,132.00000402832,0|2,1:0|0:3,0:0:0:0:
376,146,79995,1,2,0:3:0:0:
296,261,80183,6,0,P|249:262|218:189,1,132.00000402832,6|0,0:3|0:0,0:0:0:0:
60,87,80745,1,6,0:3:0:0:
103,150,80933,2,0,P|116:192|113:218,1,66.0000020141602,0|0,1:0|0:0,0:0:0:0:
22,340,81308,2,0,P|107:328|185:328,1,132.00000402832,6|0,0:3|0:0,0:0:0:0:
302,324,81870,1,4,0:3:0:0:
228,277,82058,1,6,0:3:0:0:
228,277,82245,1,2,0:0:0:0:
383,354,82433,2,0,P|430:348|454:339,1,66.0000020141602,2|0,1:2|0:0,0:0:0:0:
229,377,82808,5,6,0:3:0:0:
98,273,82995,1,0,1:0:0:0:
30,313,83183,1,2,0:0:0:0:
108,196,83370,5,0,1:0:0:0:
15,90,83558,2,0,L|31:168,1,66.0000020141602,0|0,1:0|0:0,0:0:0:0:
184,178,83933,5,0,1:0:0:0:
86,56,84120,1,0,1:0:0:0:
258,162,84308,1,0,1:0:0:0:
229,239,84495,2,0,L|206:309,1,66.0000020141602,4|0,0:0|0:0,0:0:0:0:
413,252,84870,5,0,1:0:0:0:
370,147,85058,1,0,1:0:0:0:
501,46,85245,5,8,0:3:0:0:
454,178,85433,1,8,0:3:0:0:
322,227,85620,1,8,0:3:0:0:
184,178,85808,2,0,L|171:103,1,66.0000020141602,4|0,0:3|0:0,0:0:0:0:
64,58,86183,6,0,P|76:100|83:163,1,107.999996704102,4|0,0:1|0:0,0:0:0:0:
59,244,86745,1,0,0:0:0:0:
134,298,86933,2,0,P|137:261|138:244,1,53.9999983520508,0|0,1:2|0:0,0:0:0:0:
59,347,87308,2,0,P|35:348|-2:353,1,53.9999983520508,2|0,0:0|0:0,0:0:0:0:
137,384,87683,1,2,0:3:0:0:
302,376,87870,1,0,1:0:0:0:
302,376,87964,1,0,1:0:0:0:
302,376,88058,2,0,P|250:375|202:339,1,107.999996704102,4|0,0:3|1:0,0:0:0:0:
277,240,88620,1,4,0:3:0:0:
202,191,88808,1,2,0:0:0:0:
286,158,88995,1,0,1:0:0:0:
286,158,89089,1,0,1:0:0:0:
286,158,89183,6,0,P|310:123|318:111,1,53.9999983520508,4|0,0:3|0:0,0:0:0:0:
219,46,89558,2,0,L|213:102,1,53.9999983520508,2|0,0:3|0:0,0:0:0:0:
354,209,89933,2,0,P|391:171|444:139,1,107.999996704102,0|0,1:0|0:0,0:0:0:0:
512,74,90495,2,0,P|461:55|416:25,1,107.999996704102,4|0,0:3|1:3,0:0:0:0:
394,10,90964,1,0,1:0:0:0:
394,10,91058,2,0,L|384:72,1,53.9999983520508,2|0,1:3|0:0,0:0:0:0:
254,65,91433,5,2,1:2:0:0:
305,169,91620,1,6,0:3:0:0:
192,236,91808,1,2,0:0:0:0:
218,152,91995,2,0,L|185:167,1,26.9999991760254,2|0,1:3|1:0,0:0:0:0:
127,190,92183,6,0,B|181:197|212:214|213:245|292:241,1,161.999995056153,4|0,0:3|0:0,0:0:0:0:
352,345,92933,2,0,P|326:317|324:295,1,53.9999983520508,0|0,1:0|0:0,0:0:0:0:
402,192,93308,2,0,P|385:213|383:239,1,53.9999983520508,2|0,0:0|0:0,0:0:0:0:
438,352,93683,1,2,0:0:0:0:
502,274,93870,1,0,1:0:0:0:
502,274,93964,1,0,1:0:0:0:
502,274,94058,2,0,L|487:212,1,53.9999983520508,4|0,0:3|0:0,0:0:0:0:
386,106,94433,1,0,1:0:0:0:
463,132,94620,1,4,0:3:0:0:
422,33,94808,1,2,0:0:0:0:
335,48,94995,2,0,L|284:60,1,26.9999991760254,0|0,1:0|1:0,0:0:0:0:
240,132,95183,6,0,P|283:102|290:50,1,107.999996704102,4|2,0:3|0:0,0:0:0:0:
201,10,95745,1,2,0:0:0:0:
43,72,95933,2,0,P|77:80|95:82,1,53.9999983520508,0|0,1:0|0:0,0:0:0:0:
170,83,96307,1,0,0:0:0:0:
287,237,96495,2,0,P|252:221|174:202,1,107.999996704102,0|0,1:0|1:0,0:0:0:0:
157,197,96964,1,0,1:0:0:0:
157,197,97058,2,0,L|106:227,1,53.9999983520508,2|0,1:3|0:0,0:0:0:0:
240,132,97433,5,2,1:3:0:0:
316,163,97620,1,4,0:3:0:0:
418,64,97808,1,2,1:3:0:0:
336,86,97995,1,2,0:3:0:0:
438,194,98183,6,0,P|478:174|481:110,2,107.999996704102,4|2|0,0:0|0:0|1:0,0:0:0:0:
316,163,99120,1,2,0:0:0:0:
329,238,99308,1,2,0:3:0:0:
183,321,99495,1,2,0:0:0:0:
193,245,99683,1,2,0:3:0:0:
262,301,99870,1,0,1:0:0:0:
262,301,99964,1,0,1:0:0:0:
262,301,100058,2,0,P|254:343|254:365,1,53.9999983520508,4|0,0:3|0:0,0:0:0:0:
115,260,100433,2,0,P|110:233|102:207,1,53.9999983520508,0|4,1:0|0:3,0:0:0:0:
154,67,100808,1,2,0:0:0:0:
27,112,100995,1,0,1:0:0:0:
27,112,101089,1,0,1:0:0:0:
27,112,101183,6,0,B|93:89|113:131|112:145|187:139,1,161.999995056153,6|0,0:3|0:0,0:0:0:0:
302,46,101933,2,0,L|284:105,1,53.9999983520508,0|0,1:0|0:0,0:0:0:0:
253,180,102308,1,2,0:0:0:0:
442,260,102495,2,0,P|425:222|359:206,1,107.999996704102,4|0,0:3|1:0,0:0:0:0:
341,217,102964,1,0,1:0:0:0:
341,217,103058,2,0,L|330:150,1,53.9999983520508,0|0,1:0|0:0,0:0:0:0:
489,63,103433,1,0,1:0:0:0:
429,129,103620,1,4,0:3:0:0:
356,77,103808,2,0,P|345:42|348:11,1,53.9999983520508,2|0,0:0|0:0,0:0:0:0:
157,56,104183,6,0,P|214:71|270:101,2,107.999996704102,4|2|0,0:3|0:0|1:0,0:0:0:0:
0,175,105120,1,2,0:3:0:0:
71,144,105308,2,0,P|101:138|135:141,1,53.9999983520508,2|0,0:0|0:0,0:0:0:0:
260,240,105683,1,2,0:0:0:0:
210,171,105870,1,0,1:0:0:0:
210,171,105964,1,0,1:0:0:0:
210,171,106058,1,0,1:0:0:0:
175,251,106245,1,4,0:3:0:0:
2,228,106433,2,0,P|-1:201|0:174,1,53.9999983520508,0|4,1:3|0:3,0:3:0:0:
106,57,106808,1,2,0:0:0:0:
179,104,106995,2,0,L|152:111,1,26.9999991760254,0|0,1:0|1:0,0:0:0:0:
71,144,107183,6,0,P|107:114|104:53,1,107.999996704102,4|0,0:3|0:0,0:0:0:0:
264,22,107745,2,2,P|253:58|245:84,1,53.9999983520508,2|0,0:3|1:0,0:1:0:0:
397,179,108120,2,2,L|434:121,1,53.9999983520508,2|0,0:3|0:0,0:1:0:0:
328,74,108495,2,2,L|335:141,1,53.9999983520508,6|0,0:3|0:0,0:1:0:0:
482,311,108870,5,0,1:0:0:0:
392,293,109058,1,8,0:3:0:0:
422,378,109245,1,8,0:3:0:0:
293,216,109433,5,0,1:0:0:0:
260,296,109620,1,8,0:3:0:0:
176,287,109808,2,0,P|127:283|92:277,1,80.9999975280763,4|0,0:3|0:0,0:0:0:0:
80,274,110183,6,0,P|96:243|95:219,1,53.9999983520508,4|0,0:1|0:0,0:0:0:0:
19,104,110558,2,0,P|29:137|46:153,1,53.9999983520508,4|0,0:3|0:0,0:0:0:0:
248,125,110933,1,0,1:0:0:0:
248,125,111308,1,2,0:0:0:0:
122,80,111495,1,2,0:0:0:0:
228,203,111683,5,2,0:3:0:0:
337,121,111870,1,0,1:0:0:0:
337,121,111964,1,0,1:0:0:0:
337,121,112058,2,0,P|342:79|341:58,1,53.9999983520508,4|0,0:3|0:0,0:0:0:0:
439,218,112433,1,2,1:2:0:0:
459,137,112620,2,0,P|472:97|483:81,1,53.9999983520508,2|0,0:2|0:0,0:0:0:0:
512,250,112995,6,0,B|465:246|423:264|418:286|339:285,1,161.999995056153,4|4,0:2|0:3,0:0:0:0:
261,246,113745,1,2,0:0:0:0:
144,358,113933,2,0,P|195:365|228:326,1,107.999996704102,0|0,1:0|0:0,0:0:0:0:
162,236,114495,2,0,L|151:182,1,53.9999983520508,4|0,0:3|0:0,0:0:0:0:
243,89,114870,1,0,1:0:0:0:
243,89,114964,1,0,1:0:0:0:
243,89,115058,2,0,P|248:131|247:146,1,53.9999983520508,4|0,0:3|0:0,0:0:0:0:
81,169,115433,1,0,1:0:0:0:
156,104,115620,1,4,0:3:0:0:
63,36,115808,2,0,L|69:88,1,53.9999983520508,2|0,0:0|0:0,0:0:0:0:
56,304,116183,5,4,0:1:0:0:
32,230,116370,1,2,0:0:0:0:
161,320,116558,1,6,0:3:0:0:
162,236,116745,1,2,0:0:0:0:
265,370,116933,1,0,1:0:0:0:
265,370,117120,1,2,0:0:0:0:
303,281,117308,1,2,0:0:0:0:
303,281,117495,1,2,0:0:0:0:
362,355,117683,5,2,0:3:0:0:
362,355,117870,2,0,L|400:362,1,26.9999991760254,0|0,1:0|1:0,0:0:0:0:
465,368,118058,2,0,P|474:336|475:306,1,53.9999983520508,4|0,0:3|0:0,0:0:0:0:
405,234,118433,1,0,1:0:0:0:
485,155,118620,2,0,P|484:183|477:215,1,53.9999983520508,4|0,0:3|0:0,0:0:0:0:
291,212,118995,5,0,1:0:0:0:
291,212,119089,1,0,1:0:0:0:
291,212,119183,2,0,P|326:200|355:119,1,107.999996704102,4|0,0:3|0:0,0:0:0:0:
334,0,119745,1,2,0:0:0:0:
469,29,119933,2,0,B|387:33|382:79|309:72,1,161.999995056153,0|4,1:0|0:3,0:0:0:0:
208,35,120683,1,2,0:3:0:0:
237,133,120870,1,0,1:0:0:0:
151,103,121058,2,2,P|126:96|90:91,1,53.9999983520508,4|0,0:3|0:0,0:1:0:0:
249,206,121433,2,2,P|274:199|310:194,1,53.9999983520508,0|4,1:0|0:3,0:1:0:0:
140,260,121808,2,2,P|115:253|79:248,1,53.9999983520508,0|0,1:0|0:0,0:1:0:0:
237,356,122183,6,0,P|293:354|331:299,1,107.999996704102,4|0,0:1|0:0,0:0:0:0:
372,242,122745,1,2,0:0:0:0:
435,329,122933,2,0,P|446:276|469:227,2,107.999996704102,0|2|2,1:0|0:0|0:3,0:0:0:0:
301,213,123870,1,0,1:0:0:0:
301,213,123964,1,0,1:0:0:0:
301,213,124058,2,0,P|267:222|229:213,1,53.9999983520508,4|0,0:3|0:0,0:0:0:0:
76,297,124433,2,0,P|50:272|38:235,1,53.9999983520508,0|0,1:0|0:0,0:0:0:0:
100,197,124808,2,0,P|97:162|114:126,1,53.9999983520508,2|0,0:3|0:0,0:0:0:0:
247,43,125183,5,6,0:3:0:0:
247,43,125558,2,0,P|252:69|253:96,1,53.9999983520508,2|0,0:0|0:0,0:0:0:0:
497,28,125933,1,2,1:2:0:0:
414,136,126120,1,4,0:3:0:0:
346,18,126308,2,0,P|350:43|362:73,1,53.9999983520508,4|0,1:2|0:0,0:0:0:0:
485,186,126683,1,2,0:0:0:0:
404,273,126870,1,0,1:0:0:0:
404,273,126964,1,0,1:0:0:0:
404,273,127058,2,0,P|406:240|402:210,1,53.9999983520508,0|0,1:0|0:0,0:0:0:0:
251,204,127433,1,0,1:0:0:0:
303,338,127620,1,4,0:3:0:0:
326,266,127808,1,2,0:0:0:0:
220,320,127995,2,0,L|191:332,1,26.9999991760254,0|0,1:0|1:0,0:0:0:0:
145,376,128183,6,0,P|176:328|138:231,1,161.999995056153,4|0,0:1|0:0,0:0:0:0:
198,98,128933,2,0,P|186:146|184:170,1,53.9999983520508,0|0,1:0|0:0,0:0:0:0:
64,258,129308,2,0,P|56:232|51:205,1,53.9999983520508,2|0,0:3|0:0,0:0:0:0:
54,84,129683,5,4,0:3:0:0:
54,84,130058,5,4,0:3:0:0:
54,84,130433,6,0,P|96:92|129:104,1,53.9999983520508,0|0,1:0|0:0,0:0:0:0:
265,202,130808,6,0,P|283:176|193:100,1,180,4|0,0:0|0:0,0:0:0:0:
140,192,131558,2,0,L|154:250,1,60,4|0,0:3|0:0,0:0:0:0:
46,365,131933,2,0,L|60:306,1,60,4|0,1:2|0:0,0:0:0:0:
30,213,132308,5,8,0:3:0:0:
150,346,132495,1,0,1:0:0:0:
150,346,132589,1,0,1:0:0:0:
150,346,132683,1,0,1:0:0:0:
329,253,132870,1,0,1:0:0:0:
261,219,133058,1,0,1:0:0:0:
306,379,133245,1,8,0:3:0:0:
405,247,133433,1,8,0:3:0:0:
354,108,133620,2,0,P|376:116|439:120,1,83.9999974365235,4|2,0:3|0:0,0:0:0:0:
459,102,134089,1,2,0:0:0:0:
459,102,134183,6,2,B|331:96|348:160|227:145,1,233.999989288331,4|4,0:1|0:3,0:1:0:0:
87,94,134933,1,0,1:0:0:0:
138,231,135120,1,2,0:0:0:0:
158,155,135308,2,0,P|166:103|159:59,1,77.9999964294435,6|0,0:3|0:0,0:0:0:0:
355,229,135683,6,0,P|287:236|194:286,1,155.999992858887,2|4,0:3|0:3,0:0:0:0:
127,335,136245,1,2,0:3:0:0:
75,172,136433,1,2,1:2:0:0:
42,255,136620,1,0,0:0:0:0:
158,155,136808,1,2,0:3:0:0:
102,14,136995,1,0,1:0:0:0:
102,14,137089,1,0,1:0:0:0:
102,14,137183,6,0,P|92:67|97:110,1,77.9999964294435,4|0,0:3|0:0,0:0:0:0:
271,92,137558,1,2,0:0:0:0:
252,9,137745,1,4,0:3:0:0:
424,82,137933,2,0,P|374:87|339:105,1,77.9999964294435,0|0,1:0|0:0,0:0:0:0:
232,171,138308,2,0,P|193:169|157:154,1,77.9999964294435,4|0,0:3|0:0,0:0:0:0:
335,169,138683,5,2,0:1:0:0:
296,357,138870,1,4,0:3:0:0:
385,235,139058,1,2,3:1:0:0:
345,64,139245,1,2,0:0:0:0:
450,190,139433,1,2,1:0:0:0:
415,307,139620,1,4,0:3:0:0:
499,336,139808,2,0,P|500:297|477:263,1,77.9999964294435,2|0,0:1|0:0,0:0:0:0:
266,264,140183,6,0,B|333:263|352:307|437:308,1,155.999992858887,4|0,0:0|0:0,0:0:0:0:
450,190,140745,1,4,0:3:0:0:
264,95,140933,1,0,1:0:0:0:
285,175,141120,1,2,0:0:0:0:
135,228,141308,2,0,P|136:185|131:140,1,77.9999964294435,6|0,0:3|0:0,0:0:0:0:
209,368,141683,6,0,P|209:298|216:197,1,155.999992858887,6|4,0:3|0:3,0:0:0:0:
345,114,142245,1,2,0:0:0:0:
190,30,142433,2,0,P|180:77|199:111,1,77.9999964294435,0|0,1:0|0:0,0:0:0:0:
285,175,142808,1,2,0:0:0:0:
318,44,142995,1,0,1:0:0:0:
214,212,143183,6,0,P|170:220|70:272,1,155.999992858887,2|0,0:3|0:0,0:0:0:0:
19,193,143745,1,4,0:3:0:0:
72,27,143933,2,0,P|77:76|74:113,1,77.9999964294435,0|0,1:0|0:0,0:0:0:0:
210,289,144308,2,0,P|215:240|212:203,1,77.9999964294435,6|0,0:3|0:0,0:0:0:0:
417,47,144683,5,2,0:1:0:0:
191,137,144870,1,4,0:3:0:0:
165,67,145058,5,2,3:1:0:0:
373,217,145245,1,0,0:2:0:0:
393,132,145433,5,2,1:0:0:0:
213,211,145620,1,8,0:3:0:0:
351,301,145808,1,8,0:3:0:0:
512,241,145995,1,4,0:3:0:0:
512,241,146089,1,4,0:3:0:0:
512,241,146183,6,2,P|482:298|449:398,1,155.999992858887,4|0,0:1|0:0,0:1:0:0:
290,245,146745,1,4,0:3:0:0:
234,379,146933,1,0,1:0:0:0:
118,269,147120,1,2,0:0:0:0:
194,293,147308,2,0,P|231:302|268:314,1,77.9999964294435,6|0,0:3|0:0,0:0:0:0:
1,339,147683,6,0,P|76:332|117:268,1,155.999992858887,4|4,0:3|0:3,0:0:0:0:
96,169,148245,1,2,0:3:0:0:
210,81,148433,2,0,L|197:184,1,77.9999964294435,0|0,1:0|0:0,0:0:0:0:
333,254,148808,1,2,0:0:0:0:
290,45,148995,1,0,1:0:0:0:
290,45,149089,1,0,1:0:0:0:
290,45,149183,1,4,0:3:0:0:
440,146,149370,5,0,1:0:0:0:
460,64,149558,1,2,0:0:0:0:
355,152,149745,1,4,0:3:0:0:
490,277,149933,2,0,P|495:230|494:194,1,77.9999964294435,0|0,1:0|0:0,0:0:0:0:
337,331,150308,2,0,P|332:292|332:253,1,77.9999964294435,6|0,0:3|0:0,0:0:0:0:
440,146,150683,5,2,0:0:0:0:
420,234,150870,1,4,0:3:0:0:
237,222,151058,1,4,0:3:0:0:
254,310,151245,1,2,0:0:0:0:
90,300,151433,2,0,P|77:253|81:214,1,77.9999964294435,0|0,1:0|0:0,0:0:0:0:
148,45,151808,1,2,0:3:0:0:
72,112,151995,1,0,1:0:0:0:
230,90,152183,6,0,P|272:84|316:82,1,77.9999964294435,6|0,0:3|0:0,0:0:0:0:
148,174,152558,2,0,P|190:180|234:182,1,77.9999964294435,2|0,0:3|0:0,0:0:0:0:
57,35,152933,2,0,P|66:79|72:113,1,77.9999964294435,2|0,1:3|0:0,0:0:0:0:
211,258,153308,2,0,P|217:219|225:181,1,77.9999964294435,6|0,0:3|0:0,0:0:0:0:
148,174,153683,5,2,0:0:0:0:
148,174,153870,1,2,0:0:0:0:
96,240,154058,5,4,0:3:0:0:
10,210,154245,1,2,0:0:0:0:
155,319,154433,5,0,1:0:0:0:
282,293,154620,1,2,0:0:0:0:
106,384,154808,5,4,0:3:0:0:
71,154,154995,1,4,0:3:0:0:
291,161,155183,6,0,B|190:164|194:246|85:239,1,215.999993408203,4|4,1:0|0:3,0:0:0:0:
282,293,155933,2,2,P|348:283|375:201,1,143.999995605469,0|0,1:0|0:0,0:1:0:0:
495,88,156495,1,0,1:0:0:0:
495,88,156589,1,0,1:0:0:0:
495,88,156683,1,0,1:0:0:0:
318,67,156870,1,4,0:3:0:0:
385,115,157058,2,0,P|398:70|393:35,1,71.9999978027344,4|0,0:3|0:0,0:0:0:0:
501,167,157433,2,0,P|423:174|370:235,1,143.999995605469,0|0,1:0|0:0,0:0:0:0:
346,360,157995,1,0,1:0:0:0:
346,360,158089,1,0,1:0:0:0:
346,360,158183,5,6,0:3:0:0:
472,310,158370,1,2,0:2:0:0:
266,355,158558,1,2,0:2:0:0:
189,228,158745,1,2,0:3:0:0:
313,287,158933,2,0,P|313:232|306:198,1,71.9999978027344,0|0,1:0|0:0,0:0:0:0:
242,74,159308,2,0,P|242:129|238:160,1,71.9999978027344,4|0,0:3|0:0,0:0:0:0:
86,209,159683,1,2,0:3:0:0:
86,209,159776,1,2,0:3:0:0:
86,209,159870,1,6,0:3:0:0:
55,288,160058,2,0,P|51:332|53:369,1,71.9999978027344,4|0,0:3|0:0,0:0:0:0:
313,287,160433,2,0,P|241:283|171:265,1,143.999995605469,0|0,1:0|0:0,0:0:0:0:
86,209,160995,1,2,0:0:0:0:
198,79,161183,5,4,0:0:0:0:
155,165,161370,1,2,0:3:0:0:
36,87,161558,2,0,P|29:49|32:11,1,71.9999978027344,2|4,0:3|0:3,0:0:0:0:
198,79,161933,2,0,B|266:75|271:116|359:117,2,143.999995605469,0|4|0,1:0|0:3|0:0,0:0:0:0:
121,109,162870,1,2,0:0:0:0:
224,178,163058,2,0,P|264:185|297:199,1,71.9999978027344,6|0,0:3|0:0,0:0:0:0:
207,351,163433,2,0,P|151:319|158:232,1,143.999995605469,0|0,1:0|0:0,0:0:0:0:
400,380,163995,6,0,B|433:326|410:269|369:289|362:258|380:176,1,215.999993408203,4|0,1:2|0:0,0:0:0:0:
478,92,164745,1,4,0:3:0:0:
266,50,164933,2,0,P|305:106|378:92,1,143.999995605469,0|4,1:0|0:3,0:0:0:0:
432,26,165495,1,2,0:0:0:0:
487,164,165683,6,2,P|499:135|481:89,1,71.9999978027344,2|4,0:2|0:3,0:1:0:0:
323,50,166058,2,0,P|356:60|376:89,1,71.9999978027344,4|0,0:3|0:0,0:1:0:0:
400,280,166433,1,0,1:0:0:0:
215,251,166620,1,8,0:3:0:0:
291,202,166808,2,0,P|289:229|294:275,1,71.9999978027344,8|0,0:3|0:0,0:0:0:0:
38,384,167183,6,0,P|49:316|40:226,1,143.999995605469,4|0,0:1|0:0,0:0:0:0:
158,110,167745,1,4,0:3:0:0:
20,77,167933,2,0,P|87:87|180:107,1,143.999995605469,0|4,1:0|0:3,0:0:0:0:
351,384,168683,2,2,P|322:362|320:320,1,71.9999978027344,2|0,0:3|0:0,0:1:0:0:
246,176,169058,2,2,P|252:216|252:252,1,71.9999978027344,6|0,0:3|0:0,0:1:0:0:
481,273,169433,2,2,P|433:266|334:228,1,143.999995605469,0|2,1:0|0:3,0:1:0:0:
465,120,169995,1,0,1:0:0:0:
465,120,170089,1,0,1:0:0:0:
465,120,170183,1,4,0:3:0:0:
271,4,170370,6,0,L|284:58,1,35.9999989013672,0|2,1:0|0:0,0:0:0:0:
302,118,170558,1,2,0:0:0:0:
355,58,170745,1,4,0:3:0:0:
155,74,170933,5,0,1:0:0:0:
227,184,171120,1,2,0:0:0:0:
338,215,171308,1,6,0:3:0:0:
418,174,171495,1,2,0:0:0:0:
350,293,171683,5,2,0:0:0:0:
149,255,171870,1,4,0:3:0:0:
191,365,172058,5,4,0:3:0:0:
290,349,172245,1,2,0:3:0:0:
244,158,172433,2,0,P|231:228|232:300,1,143.999995605469,0|0,1:0|0:0,0:0:0:0:
159,145,172995,1,0,1:0:0:0:
323,125,173183,6,0,P|252:121|223:45,1,143.999995605469,4|0,0:3|0:0,0:0:0:0:
290,0,173745,1,4,0:3:0:0:
132,76,173933,1,0,1:0:0:0:
53,64,174120,1,2,0:0:0:0:
35,218,174308,1,6,0:3:0:0:
161,189,174495,1,2,0:0:0:0:
196,356,174683,6,0,L|148:351,1,35.9999989013672,2|0,0:3|0:0,0:0:0:0:
12,337,174870,1,4,0:3:0:0:
276,306,175058,2,0,P|320:311|362:316,1,71.9999978027344,4|0,0:3|0:0,0:0:0:0:
102,289,175433,1,2,1:2:0:0:
102,289,176183,6,0,B|80:225|103:220|126:213|125:176|112:122,1,161.999995056153,4|4,0:1|0:3,0:0:0:0:
187,9,176933,1,0,1:0:0:0:
110,43,177120,1,2,0:0:0:0:
262,148,177308,1,6,0:3:0:0:
292,77,177495,1,2,0:2:0:0:
184,151,177683,1,2,0:3:0:0:
229,221,177870,1,4,0:3:0:0:
229,221,178058,2,0,P|281:231|298:237,1,53.9999983520508,4|0,0:3|0:0,0:0:0:0:
414,358,178433,2,0,P|462:326|449:274,1,107.999996704102,0|0,1:0|0:0,0:0:0:0:
404,177,178995,1,0,1:0:0:0:
404,177,179089,1,0,1:0:0:0:
404,177,179183,5,4,0:3:0:0:
483,185,179370,1,2,0:0:0:0:
451,111,179558,1,2,0:0:0:0:
314,210,179745,1,4,0:3:0:0:
372,28,179933,1,0,1:0:0:0:
166,51,180214,5,2,0:3:0:0:
163,38,180308,1,6,0:3:0:0:
274,103,180495,1,2,0:0:0:0:
186,181,180683,2,0,P|183:154|179:128,1,53.9999983520508,2|4,0:3|0:3,0:0:0:0:
362,273,181058,2,0,P|358:299|354:326,1,53.9999983520508,4|0,0:3|0:0,0:0:0:0:
127,239,181433,5,0,1:0:0:0:
179,297,181620,1,2,0:0:0:0:
48,255,181808,1,2,0:0:0:0:
103,321,181995,1,0,1:0:0:0:
103,321,182089,1,0,1:0:0:0:
103,321,182183,5,4,0:0:0:0:
277,230,182370,2,0,P|241:241|184:297,1,107.999996704102,0|4,1:0|0:3,0:0:0:0:
269,135,182933,1,0,1:0:0:0:
378,231,183120,1,2,0:0:0:0:
423,167,183308,2,0,L|434:105,1,53.9999983520508,4|2,0:3|0:0,0:0:0:0:
277,230,183683,1,2,0:0:0:0:
313,316,183870,1,6,0:3:0:0:
245,384,184058,2,0,P|233:348|233:320,1,53.9999983520508,4|0,0:3|0:0,0:0:0:0:
474,282,184433,2,0,P|457:314|369:317,1,107.999996704102,0|0,1:0|0:0,0:0:0:0:
205,264,184995,1,0,1:0:0:0:
272,221,185183,5,6,0:3:0:0:
232,332,185370,1,2,0:0:0:0:
307,297,185558,1,2,0:0:0:0:
200,187,185745,1,2,0:3:0:0:
281,46,185933,1,2,1:2:0:0:
124,185,186214,5,2,0:3:0:0:
113,188,186308,1,6,0:3:0:0:
218,104,186495,1,2,0:0:0:0:
339,164,186683,1,2,0:0:0:0:
481,133,186870,1,4,0:3:0:0:
481,133,187058,2,0,P|466:161|459:189,1,53.9999983520508,4|0,0:3|0:0,0:0:0:0:
255,243,187433,2,0,P|316:257|367:286,1,107.999996704102,0|4,1:0|0:3,0:0:0:0:
355,278,188183,6,0,B|326:184|371:214|387:170|362:83,1,180,4|4,0:1|0:3,0:0:0:0:
215,68,188933,2,0,P|224:103|255:122,1,60,0|0,1:0|0:0,0:0:0:0:
30,103,189308,2,0,P|89:101|158:133,1,120,4|0,0:3|0:0,0:0:0:0:
224,199,189870,1,2,0:3:0:0:
303,76,190058,2,0,L|292:7,1,60,4|0,0:3|0:0,0:0:0:0:
425,161,190433,2,0,L|430:95,1,60,2|0,1:2|0:0,0:0:0:0:
493,299,190808,1,2,0:0:0:0:
498,215,190995,1,0,1:0:0:0:
498,215,191089,1,0,1:0:0:0:
498,215,191183,5,6,0:3:0:0:
363,327,191370,1,0,1:0:0:0:
318,244,191558,1,2,0:3:0:0:
413,264,191745,1,6,0:3:0:0:
270,364,191933,2,0,P|233:359|203:351,1,60,0|0,1:0|0:0,0:0:0:0:
223,131,192308,2,0,P|233:189|238:271,1,120,6|0,0:3|0:0,0:0:0:0:
129,307,192870,1,4,0:3:0:0:
63,262,193058,2,0,L|50:186,1,60,4|0,0:3|0:0,0:0:0:0:
193,346,193433,2,0,P|136:346|64:368,1,120,0|0,1:0|0:0,0:0:0:0:
147,219,193995,1,2,0:3:0:0:
28,87,194183,6,0,B|44:126|88:145|148:114,1,120,4|0,0:0|0:0,0:0:0:0:
240,78,194745,1,4,0:3:0:0:
169,53,194933,2,0,P|154:24|144:-12,1,60,0|0,1:0|0:0,0:0:0:0:
309,122,195308,2,0,P|318:93|332:66,1,60,6|0,0:3|0:0,0:0:0:0:
417,226,195683,1,2,0:3:0:0:
308,206,195870,1,4,0:3:0:0:
415,207,196058,2,0,P|453:197|480:196,1,60,4|0,0:3|0:0,0:0:0:0:
262,273,196433,2,0,P|207:252|201:179,1,120,0|0,1:0|0:0,0:0:0:0:
309,122,196995,1,0,1:0:0:0:
98,82,197183,6,0,P|209:117|245:142,1,143.999995605469,4|0,0:0|0:0,0:0:0:0:
310,200,197745,1,4,0:3:0:0:
423,62,197933,2,0,P|399:106|384:145,1,71.9999978027344,0|0,1:0|0:0,0:0:0:0:
341,278,198308,2,0,P|323:246|309:214,1,71.9999978027344,2|4,0:3|0:3,0:0:0:0:
453,177,198683,5,2,1:2:0:0:
391,362,198870,1,0,1:0:0:0:
284,71,199058,5,6,0:3:0:0:
310,200,199245,1,4,0:3:0:0:
166,292,199433,5,2,1:2:0:0:
218,189,199620,1,4,0:3:0:0:
113,153,199808,2,0,P|102:192|103:236,1,72,2|0,0:0|0:0,0:0:0:0:
102,223,200183,6,2,P|157:220|211:83,1,215.999993408203,4|4,0:1|0:3,0:1:0:0:
321,120,200933,1,0,1:0:0:0:
193,17,201120,1,2,0:0:0:0:
308,44,201308,2,0,L|389:64,1,71.9999978027344,6|0,0:3|0:0,0:0:0:0:
324,265,201683,6,0,P|307:211|321:107,1,143.999995605469,2|4,0:3|0:3,0:0:0:0:
447,30,202245,1,2,0:0:0:0:
213,88,202433,2,0,L|143:70,1,71.9999978027344,0|0,1:0|0:0,0:0:0:0:
60,0,202808,1,2,0:3:0:0:
230,178,202995,1,0,1:0:0:0:
230,178,203089,1,0,1:0:0:0:
230,178,203183,6,0,P|170:198|73:235,1,143.999995605469,4|2,0:3|0:0,0:0:0:0:
40,308,203745,1,4,0:3:0:0:
9,172,203933,2,0,P|-1:120|1:91,1,71.9999978027344,0|0,1:0|0:0,0:0:0:0:
117,334,204308,2,0,P|140:306|169:285,1,71.9999978027344,6|0,0:3|0:0,0:0:0:0:
374,371,204683,5,2,0:1:0:0:
305,207,204870,1,4,0:3:0:0:
456,104,205058,1,2,3:1:0:0:
355,266,205245,1,0,0:0:0:0:
197,149,205433,1,2,1:1:0:0:
385,192,205620,1,2,0:3:0:0:
259,336,205808,2,0,P|254:293|258:257,1,71.9999978027344,2|0,0:1|0:0,0:0:0:0:
101,222,206183,6,0,P|172:209|195:135,1,143.999995605469,4|2,0:0|0:0,0:0:0:0:
291,87,206745,1,4,0:3:0:0:
100,17,206933,1,0,1:0:0:0:
126,95,207120,1,2,0:0:0:0:
239,18,207308,1,6,0:3:0:0:
239,18,207495,1,2,0:0:0:0:
420,68,207683,6,0,P|354:78|256:118,1,143.999995605469,2|4,0:3|0:3,0:0:0:0:
197,148,208245,1,2,0:3:0:0:
441,286,208433,2,0,P|453:239|445:195,1,71.9999978027344,0|0,1:0|0:0,0:0:0:0:
428,144,208808,1,2,0:3:0:0:
191,347,208995,6,0,B|156:280|209:196|325:235,1,215.999993408203,0|0,1:0|0:0,0:0:0:0:
441,286,209745,1,4,0:3:0:0:
324,156,209933,2,0,P|316:215|303:246,1,71.9999978027344,0|0,1:0|0:0,0:0:0:0:
157,284,210308,2,0,P|149:225|136:194,1,71.9999978027344,6|0,0:3|0:0,0:0:0:0:
10,68,210683,5,2,0:1:0:0:
74,233,210870,1,4,0:3:0:0:
234,65,211058,1,2,3:1:0:0:
127,5,211245,1,2,0:3:0:0:
230,213,211433,1,2,1:1:0:0:
310,130,211620,1,8,0:3:0:0:
155,142,211808,2,0,P|146:177|146:225,1,71.9999978027344,2|0,0:3|0:0,0:0:0:0:
0,314,212183,6,2,B|56:303|73:321|85:340|158:326,1,143.999995605469,4|2,0:1|0:0,0:1:0:0:
236,288,212745,1,4,0:3:0:0:
417,375,212933,1,0,1:0:0:0:
366,278,213120,1,2,0:0:0:0:
273,372,213308,1,6,0:3:0:0:
200,210,213495,1,2,0:0:0:0:
401,138,213683,6,0,P|365:194|288:181,1,143.999995605469,2|4,0:3|0:3,0:0:0:0:
217,113,214245,1,2,0:0:0:0:
397,26,214433,1,0,1:0:0:0:
317,0,214620,1,2,0:0:0:0:
297,97,214808,1,2,0:3:0:0:
500,68,214995,1,0,1:0:0:0:
500,68,215089,1,0,1:0:0:0:
500,68,215183,5,4,0:3:0:0:
465,295,215370,2,0,P|461:243|469:143,1,143.999995605469,0|4,1:0|0:3,0:0:0:0:
361,363,215933,2,0,P|326:372|292:364,1,71.9999978027344,2|0,1:2|0:0,0:0:0:0:
260,265,216308,2,0,P|217:238|203:205,1,71.9999978027344,6|0,0:3|0:0,0:0:0:0:
317,118,216683,5,2,0:0:0:0:
380,241,216870,1,4,0:3:0:0:
219,113,217058,2,0,P|178:106|148:106,1,71.9999978027344,4|0,0:3|0:0,0:0:0:0:
365,50,217433,2,0,P|400:49|436:43,1,71.9999978027344,0|0,1:0|0:0,0:0:0:0:
243,22,217808,1,2,0:0:0:0:
389,166,217995,1,0,1:0:0:0:
317,118,218183,5,6,0:3:0:0:
227,209,218370,1,2,0:0:0:0:
114,164,218558,2,0,P|106:126|110:85,1,71.9999978027344,4|0,0:3|0:0,0:0:0:0:
50,280,218933,5,0,1:0:0:0:
50,280,219308,5,4,0:3:0:0:
50,280,219683,5,2,0:3:0:0:
149,384,219870,1,4,0:3:0:0:
274,301,220058,2,0,L|169:317,1,90.0000034332277,4|0,0:3|0:0,0:0:0:0:
448,282,220433,1,0,1:0:0:0:
448,282,220808,6,0,P|455:237|460:229,1,48,2|2,0:3|0:3,0:0:0:0:
285,143,221183,6,2,P|310:211|383:211,1,155.999992858887,4|0,0:1|0:0,0:1:0:0:
506,151,221745,1,4,0:3:0:0:
347,70,221933,1,0,1:0:0:0:
460,46,222120,1,2,0:0:0:0:
247,69,222308,2,0,P|206:65|174:53,1,71.9999978027344,6|0,0:3|0:0,0:0:0:0:
0,124,222683,6,0,P|53:114|121:196,1,143.999995605469,2|4,0:3|0:3,0:0:0:0:
159,290,223245,1,2,0:0:0:0:
289,141,223433,2,0,P|279:184|272:218,1,71.9999978027344,0|0,1:0|0:0,0:0:0:0:
310,377,223808,1,2,0:3:0:0:
512,279,223995,1,0,1:0:0:0:
512,279,224089,1,0,1:0:0:0:
512,279,224183,6,0,B|445:267|439:311|363:302,1,143.999995605469,4|0,0:3|0:0,0:0:0:0:
129,207,224745,1,4,0:3:0:0:
65,384,224933,2,0,P|77:350|72:315,1,71.9999978027344,0|0,1:0|0:0,0:0:0:0:
233,200,225308,2,0,P|212:163|181:146,1,71.9999978027344,4|0,0:3|0:0,0:0:0:0:
29,164,225683,5,2,0:1:0:0:
145,289,225870,1,4,0:3:0:0:
337,203,226058,1,2,3:1:0:0:
270,287,226245,1,0,0:0:0:0:
311,47,226433,1,2,1:1:0:0:
354,117,226620,1,0,0:0:0:0:
234,22,226808,1,2,0:1:0:0:
234,22,226995,1,2,0:3:0:0:
67,83,227183,6,0,P|136:88|223:109,1,143.999995605469,6|0,0:3|0:0,0:0:0:0:
337,203,227745,1,4,0:3:0:0:
490,108,227933,1,0,1:0:0:0:
388,67,228120,1,2,0:0:0:0:
439,256,228308,2,0,P|442:218|440:169,1,71.9999978027344,6|0,0:3|0:0,0:0:0:0:
193,166,228683,6,0,P|189:237|184:309,1,143.999995605469,2|4,0:3|0:3,0:0:0:0:
99,377,229245,1,2,0:0:0:0:
282,301,229433,1,0,1:0:0:0:
105,248,229620,1,2,0:0:0:0:
286,169,229808,1,2,0:3:0:0:
32,47,229995,6,0,B|-23:82|-22:142|49:206|115:139,1,215.999993408203,0|0,1:0|0:0,0:0:0:0:
292,92,230745,1,4,0:3:0:0:
165,9,230933,2,0,P|175:43|183:98,1,71.9999978027344,0|0,1:0|0:0,0:0:0:0:
366,205,231308,2,0,P|332:195|277:187,1,71.9999978027344,4|0,0:3|0:0,0:0:0:0:
192,202,231683,5,2,0:1:0:0:
325,0,231870,1,4,0:3:0:0:
421,133,232058,5,2,3:1:0:0:
282,82,232245,1,0,0:0:0:0:
488,43,232433,5,2,1:1:0:0:
443,211,232620,1,8,0:3:0:0:
506,379,232808,2,0,P|521:347|489:278,1,107.999996704102,10|0,0:3|0:0,0:0:0:0:
496,282,233183,6,0,L|326:300,1,143.999995605469,4|2,0:1|0:0,0:0:0:0:
224,349,233745,1,4,0:3:0:0:
330,205,233933,1,0,1:0:0:0:
164,279,234120,1,2,0:0:0:0:
219,184,234308,2,0,P|218:148|213:112,1,71.9999978027344,4|0,0:3|0:0,0:0:0:0:
426,94,234683,6,0,P|360:122|310:56,1,143.999995605469,2|4,0:3|0:3,0:0:0:0:
135,50,235245,1,2,0:0:0:0:
364,0,235433,1,0,1:0:0:0:
205,112,235620,1,2,0:0:0:0:
246,4,235808,1,2,0:3:0:0:
262,190,235995,1,0,1:0:0:0:
262,190,236089,1,0,1:0:0:0:
262,190,236183,1,4,0:3:0:0:
273,383,236370,6,0,P|274:319|322:238,1,143.999995605469,0|4,1:0|0:3,0:0:0:0:
97,342,236933,2,0,P|52:310|38:277,1,71.9999978027344,0|0,1:0|0:0,0:0:0:0:
171,139,237308,2,0,P|159:172|164:208,1,71.9999978027344,4|0,0:3|0:0,0:0:0:0:
43,112,237683,5,2,0:3:0:0:
62,221,237870,1,4,0:3:0:0:
211,10,238058,1,6,0:3:0:0:
171,139,238245,1,2,0:0:0:0:
288,231,238433,2,0,P|322:220|333:118,1,143.999995605469,0|2,1:0|0:0,0:0:0:0:
512,130,238995,1,0,1:0:0:0:
442,0,239183,6,0,P|433:55|431:159,1,143.999995605469,4|2,0:0|0:0,0:0:0:0:
485,330,239745,1,0,1:0:0:0:
260,272,239933,1,0,1:0:0:0:
260,272,240308,5,8,0:3:0:0:
260,272,240683,5,4,0:1:0:0:
77,362,240870,1,0,1:0:0:0:
77,362,240964,1,0,1:0:0:0:
77,362,241058,1,0,1:0:0:0:
176,384,241245,1,4,0:3:0:0:
117,134,241433,2,0,P|127:168|134:203,1,71.9999978027344,0|0,1:0|0:0,0:0:0:0:
49,276,241808,6,0,B|24:250|69:196|132:212|99:219|160:250|179:246|222:218|197:193,1,215.999993408203,4|0,0:0|0:0,0:0:0:0:
59,58,242558,2,0,P|38:87|25:121,1,71.9999978027344,4|0,1:2|0:0,0:0:0:0:
268,69,242933,2,0,P|232:74|199:87,1,71.9999978027344,4|0,1:2|0:0,0:0:0:0:
434,229,243308,2,0,P|410:203|381:183,1,71.9999978027344,4|0,1:2|0:0,0:0:0:0:
497,384,243683,5,0,1:0:0:0:
119,358,244339,5,2,0:3:0:0:
106,370,244495,2,0,L|64:363,2,41.9999987182618,2|2|2,0:3|0:3|0:3,0:0:0:0:
375,292,245183,6,0,P|323:287|289:202,1,132.00000402832,4|0,0:1|0:0,0:1:0:0:
321,123,245745,1,4,0:3:0:0:
89,139,245933,2,0,P|162:157|236:186,1,132.00000402832,0|4,1:0|0:3,0:0:0:0:
215,176,246683,2,0,P|208:141|213:108,1,66.0000020141602,2|0,0:3|0:0,0:0:0:0:
125,0,247058,2,0,P|128:32|121:64,1,66.0000020141602,4|0,0:3|0:0,0:0:0:0:
287,37,247433,2,0,P|341:36|406:87,1,132.00000402832,0|0,1:0|0:0,0:0:0:0:
493,239,247995,1,0,1:0:0:0:
493,239,248089,1,0,1:0:0:0:
493,239,248183,6,0,L|505:149,1,66.0000020141602,4|0,0:3|0:0,0:0:0:0:
349,159,248558,1,2,0:0:0:0:
398,229,248745,1,4,0:3:0:0:
265,214,248933,2,0,P|199:218|117:244,1,132.00000402832,0|4,1:0|0:3,0:0:0:0:
135,235,249683,1,2,0:3:0:0:
170,314,249870,1,4,0:3:0:0:
42,364,250058,2,2,P|44:324|43:279,1,66.0000020141602,6|0,0:3|0:0,0:1:0:0:
187,96,250433,2,2,P|189:136|188:181,1,66.0000020141602,2|0,1:3|0:0,0:1:0:0:
266,279,250808,2,2,P|266:246|264:213,1,66.0000020141602,2|0,0:3|0:0,0:1:0:0:
364,59,251183,5,4,0:3:0:0:
314,142,251370,1,2,0:0:0:0:
271,67,251558,1,2,0:0:0:0:
397,135,251745,1,4,0:3:0:0:
188,161,251933,1,0,1:0:0:0:
188,161,252026,1,2,0:3:0:0:
188,161,252120,1,2,0:3:0:0:
109,241,252308,2,0,P|88:215|66:190,1,66.0000020141602,4|2,0:3|0:0,0:0:0:0:
161,71,252683,5,4,0:3:0:0:
57,52,252870,1,4,0:3:0:0:
188,161,253058,1,4,0:3:0:0:
296,133,253245,1,2,0:3:0:0:
247,334,253433,2,0,P|254:288|250:178,1,132.00000402832,0|2,1:0|0:0,0:0:0:0:
488,122,253995,2,0,B|408:96|382:119|385:152|289:130,1,198.000006042481,4|0,1:2|0:0,0:0:0:0:
233,60,254745,1,4,0:3:0:0:
378,268,254933,2,0,P|386:236|388:203,1,66.0000020141602,0|0,1:0|0:0,0:0:0:0:
344,48,255308,1,4,0:3:0:0:
344,48,255401,1,2,0:3:0:0:
344,48,255495,1,2,0:3:0:0:
209,144,255683,6,0,P|174:138|137:128,1,66.0000020141602,2|4,0:3|0:3,0:0:0:0:
156,287,256058,2,0,P|121:294|83:299,1,66.0000020141602,6|0,0:3|0:0,0:0:0:0:
367,368,256433,5,10,0:3:0:0:
388,203,256620,1,10,0:3:0:0:
144,130,256808,1,6,0:3:0:0:
167,366,256995,1,2,0:3:0:0:
291,205,257183,6,0,P|294:160|276:49,1,132.00000402832,4|0,0:1|0:0,0:0:0:0:
355,5,257745,1,4,0:3:0:0:
210,161,257933,1,0,1:0:0:0:
157,99,258120,1,2,0:0:0:0:
283,74,258308,2,0,L|393:93,1,99.0000030212403,6|0,0:3|0:3,0:0:0:0:
399,94,258683,6,0,P|420:54|426:18,1,66.0000020141602,2|4,0:3|0:3,0:0:0:0:
352,301,259058,2,0,P|355:333|366:364,1,66.0000020141602,6|0,0:3|0:0,0:0:0:0:
174,167,259433,1,0,1:0:0:0:
227,229,259620,1,2,0:0:0:0:
298,172,259808,1,2,0:3:0:0:
95,216,259995,1,0,1:0:0:0:
95,216,260089,1,0,1:0:0:0:
95,216,260183,1,4,0:3:0:0:
225,377,260370,5,0,1:0:0:0:
227,229,260558,2,0,P|242:271|245:304,1,66.0000020141602,2|4,0:3|0:3,0:0:0:0:
451,210,260933,2,0,P|429:261|340:279,1,132.00000402832,0|4,1:0|0:3,0:0:0:0:
360,284,261683,2,0,L|346:207,1,66.0000020141602,2|4,0:3|0:3,0:0:0:0:
472,59,262058,1,4,0:3:0:0:
445,154,262245,1,2,0:3:0:0:
288,94,262433,2,0,L|142:117,1,132.00000402832,0|0,1:0|0:0,0:0:0:0:
17,43,262995,1,0,1:0:0:0:
83,267,263183,6,0,B|107:189|95:163|47:165|85:67,1,198.000006042481,4|4,0:0|0:3,0:0:0:0:
347,34,263933,5,0,1:0:0:0:
347,34,264308,5,4,0:3:0:0:
347,34,264683,6,0,P|348:78|343:116,1,66.0000020141602,4|0,0:3|0:0,0:0:0:0:
419,184,265058,2,0,P|389:216|359:240,1,66.0000020141602,4|0,0:3|0:0,0:0:0:0:
159,372,265433,2,0,P|188:324|273:312,1,132.00000402832,0|4,1:0|0:3,0:0:0:0:
355,349,265995,1,2,0:0:0:0:
145,237,266183,6,0,P|214:226|242:146,1,132.00000402832,4|2,0:0|0:3,0:0:0:0:
243,176,266933,2,0,P|237:133|229:102,1,66.0000020141602,0|0,1:0|0:0,0:0:0:0:
169,18,267308,2,0,P|163:61|155:92,1,66.0000020141602,8|0,0:3|0:0,0:0:0:0:
28,224,267683,5,4,0:3:0:0:
79,161,267870,1,2,0:3:0:0:
25,99,268058,1,2,0:3:0:0:
87,286,268245,1,0,1:0:0:0:
87,286,268339,1,0,1:0:0:0:
87,286,268433,1,0,1:0:0:0:
156,243,268620,1,8,0:3:0:0:
68,361,268808,1,4,0:3:0:0:
68,361,269183,6,0,B|16:324|51:213|124:193|200:231|200:231|159:374|286:375|310:367|310:367|244:308|252:171|344:260|365:204|358:262|386:275|351:326|408:307|373:376|441:362|460:354|460:354|468:343|493:338|494:291|466:229|428:214|373:217|330:170|331:101|369:29|432:29|480:42|494:59|490:122|467:119|461:135|461:135|510:131|517:93|520:62|453:-53|358:13|309:68|292:86|292:86|276:103|260:118|264:168|75:200|28:171|23:104|30:20|44:-53|167:-13|197:-19|242:9|215:75|179:95|133:72,1,2203.64992266243,2|4,0:0|0:3,0:0:0:0:
