osu file format v14

[General]
AudioFilename: audio.mp3
AudioLeadIn: 0
PreviewTime: 55242
Countdown: 0
SampleSet: Normal
StackLeniency: 0.7
Mode: 0
LetterboxInBreaks: 0
WidescreenStoryboard: 0

[Editor]
Bookmarks: 54670
DistanceSpacing: 1.3
BeatDivisor: 4
GridSize: 4
TimelineZoom: 1.1

[Metadata]
Title:Saisaki
TitleUnicode:サイサキ
Artist:Reol
ArtistUnicode:Reol
Creator:cRyo[iceeicee]
Version:Gaia's Hard
Source:
Tags:Anishina Kodoku Loreley Gaia Jijitsujou GigaP ギガP reworu れをる 事実上
BeatmapID:1806581
BeatmapSetID:858075

[Difficulty]
HPDrainRate:5
CircleSize:4
OverallDifficulty:6
ApproachRate:8
SliderMultiplier:2.21
SliderTickRate:1

[Events]
//Background and Video events
0,0,"64192132_p0.jpg",0,0
//Break Periods
2,18870,21063
2,73727,77349
2,156013,161634
//Storyboard Layer 0 (Background)
//Storyboard Layer 1 (Fail)
//Storyboard Layer 2 (Pass)
//Storyboard Layer 3 (Foreground)
//Storyboard Sound Samples

[TimingPoints]
385,571.428571428571,4,1,10,60,1,0
385,-100,4,1,10,60,0,0
2527,-100,4,1,10,60,0,0
2670,-100,4,1,10,60,0,0
4670,-100,4,1,10,60,0,0
4956,-100,4,1,10,60,0,0
7099,-100,4,1,10,60,0,0
7242,-100,4,1,10,60,0,0
9670,-100,4,1,55,60,0,0
18099,-125,4,1,55,60,0,0
18242,-125,4,1,10,60,0,0
18670,-125,4,1,1,60,0,0
19670,-125,4,1,1,30,0,0
21956,-111.111111111111,4,1,1,60,0,0
23242,-100,4,1,1,50,0,0
54527,-142.857142857143,4,1,1,60,0,0
54956,-111.111111111111,4,1,1,60,0,0
55242,-90.9090909090909,4,1,1,60,0,0
59242,-90.9090909090909,4,1,55,60,0,0
59813,-166.666666666667,4,1,1,60,0,0
60313,-166.666666666667,4,1,1,5,0,0
60384,-100,4,1,1,60,0,0
60670,-125,4,1,1,60,0,0
61670,-90.9090909090909,4,1,1,60,0,0
62027,-90.9090909090909,4,1,1,5,0,0
62099,-142.857142857143,4,1,1,60,0,0
63099,-111.111111111111,4,1,1,60,0,0
63527,-90.9090909090908,4,1,1,60,0,0
78099,-111.111111111111,4,1,1,50,0,0
91384,-90.9090909090908,4,1,1,50,0,0
91742,-90.9090909090908,4,1,1,5,0,0
91813,-100,4,1,1,50,0,0
107956,-125,4,1,1,60,0,0
108813,-111.111111111111,4,1,1,60,0,0
110099,-90.9090909090908,4,1,1,60,0,0
114099,-90.9090909090908,4,1,55,60,0,0
114670,-166.666666666667,4,1,1,60,0,0
116527,-100,4,1,1,60,0,0
116884,-100,4,1,1,5,0,0
116956,-125,4,1,1,60,0,0
117956,-100,4,1,1,60,0,0
128384,-166.666666666667,4,1,1,50,0,0
132384,-250,4,1,1,50,0,0
132670,-250,4,1,1,40,0,0
132884,-250,4,1,1,5,0,0
132956,-166.666666666667,4,1,1,50,0,0
136956,-125,4,1,1,50,0,0
137527,-166.666666666667,4,1,1,50,0,0
146670,-125,4,1,1,60,0,0
156884,-125,4,1,10,60,0,0
162813,-125,4,1,55,60,0,0
164955,-125,4,1,1,60,0,0
164956,-111.111111111111,4,1,1,50,0,0
173527,-90.9090909090908,4,1,1,50,0,0
174099,-111.111111111111,4,1,1,50,0,0
174527,-111.111111111111,4,1,55,50,0,0
174813,-111.111111111111,4,1,1,50,0,0
182099,-111.111111111111,4,1,55,60,0,0
182384,-100,4,1,55,60,0,0
182670,-100,4,1,1,60,0,0
183242,-90.9090909090908,4,1,1,60,0,0
187242,-90.9090909090908,4,1,55,80,0,0
187670,-90.9090909090908,4,1,1,60,0,0
187813,-142.857142857143,4,1,1,60,0,0
188313,-166.666666666667,4,1,1,5,0,0
188384,-100,4,1,1,60,0,0
188670,-125,4,1,1,60,0,0
189670,-90.9090909090909,4,1,1,60,0,0
190027,-90.9090909090909,4,1,1,5,0,0
190099,-142.857142857143,4,1,1,60,0,0
191099,-111.111111111111,4,1,1,60,0,0
192384,-90.9090909090908,4,1,1,60,0,0
203813,-250,4,1,1,60,0,0
203884,-250,4,1,1,20,0,0
204313,-250,4,1,1,5,0,0
204384,-100,4,1,1,60,0,0
205813,-100,4,1,55,60,0,0
211670,-125,4,1,55,60,0,0
212099,-125,4,1,1,60,0,0
212527,-83.3333333333333,4,1,1,60,0,0

[Colours]
Combo1 : 255,209,70
Combo2 : 187,255,187
Combo3 : 255,193,193
Combo4 : 190,190,224

[HitObjects]
127,226,385,6,0,L|111:154,1,55.25,0|0,0:0|0:0,0:0:0:0:
108,182,1242,6,0,L|120:236,1,55.25,0|0,0:0|0:0,0:0:0:0:
112,245,2099,5,0,0:0:0:0:
172,310,2242,2,0,P|217:344|286:325,1,110.5,0|0,0:0|2:0,0:0:0:0:
311,255,2670,6,0,L|239:242,1,55.25,0|0,0:0|0:0,0:0:0:0:
250,230,3527,6,0,L|304:239,1,55.25,0|0,0:0|0:0,0:0:0:0:
297,223,4384,5,0,0:0:0:0:
368,171,4527,1,0,0:0:0:0:
311,103,4670,1,0,0:0:0:0:
301,95,4956,6,0,P|289:127|281:172,1,55.25,0|0,0:0|0:0,0:0:0:0:
280,157,5813,6,0,P|273:130|263:104,1,55.25,0|0,0:0|0:0,0:0:0:0:
274,97,6670,5,0,0:0:0:0:
207,155,6813,2,0,P|141:157|96:109,1,110.5,0|0,0:0|2:0,0:0:0:0:
19,140,7242,6,0,L|30:203,1,55.25,0|0,0:0|0:0,0:0:0:0:
20,200,8099,6,0,L|31:263,1,55.25,0|0,0:0|0:0,0:0:0:0:
25,266,8670,1,0,0:0:0:0:
188,333,8956,2,0,P|216:319|255:311,1,55.25,0|0,0:0|0:0,0:0:0:0:
317,356,9242,2,0,P|290:348|265:336,1,55.25,0|0,0:0|0:0,0:0:0:0:
317,264,9527,6,0,P|346:204|311:129,1,110.5,2|8,0:2|3:3,0:0:0:0:
359,76,9956,1,2,0:2:0:0:
359,76,10099,2,0,P|318:123|238:99,1,110.5,0|0,0:0|0:0,0:0:0:0:
208,63,10527,1,0,0:0:0:0:
137,116,10670,1,0,0:0:0:0:
67,61,10813,2,0,L|56:25,2,27.625,8|8|8,2:3|2:3|2:3,0:0:0:0:
63,269,11242,5,8,0:3:0:0:
101,190,11384,2,0,P|147:160|242:178,1,110.5,8|0,0:3|0:0,0:0:0:0:
270,214,11813,5,0,0:0:0:0:
224,289,11956,2,0,P|198:277|173:244,2,55.25,0|0|8,0:0|0:3|3:3,0:0:0:0:
289,348,12384,2,0,P|342:338|409:329,1,110.5,8|0,3:3|0:0,0:0:0:0:
483,356,12813,1,0,0:0:0:0:
483,356,12956,6,0,P|491:312|494:231,1,110.5,0|8,0:0|3:3,0:0:0:0:
451,74,13527,2,0,L|471:38,2,27.625,8|8|8,3:3|3:3|3:3,0:0:0:0:
367,43,13813,2,0,L|363:2,2,27.625,8|8|8,3:3|3:3|3:3,0:0:0:0:
284,76,14099,6,0,P|251:81|210:91,2,55.25,2|0|0,0:2|0:0|0:0,0:0:0:0:
356,126,14527,1,8,3:3:0:0:
256,164,14670,2,0,P|208:136|109:159,1,110.5,8|0,0:3|0:0,0:0:0:0:
82,82,15099,1,0,0:0:0:0:
36,157,15242,5,8,3:3:0:0:
36,157,15313,1,8,3:3:0:0:
36,157,15384,2,0,P|49:192|53:237,1,55.25,8|8,3:3|3:3,0:0:0:0:
143,361,15813,2,0,P|148:334|159:308,1,55.25,0|0,0:0|0:0,0:0:0:0:
245,286,16099,2,0,L|326:268,1,55.25,2|2,0:0|0:0,0:0:0:0:
379,310,16384,5,2,0:0:0:0:
452,260,16527,2,0,P|473:234|459:141,1,110.5,0|0,0:0|2:0,0:0:0:0:
472,160,16956,1,0,0:0:0:0:
347,33,17242,2,0,P|326:63|327:108,1,55.25,0|0,0:0|0:0,0:0:0:0:
236,100,17527,6,0,L|187:86,2,27.625,8|8|8,3:3|3:3|3:3,0:0:0:0:
186,174,17813,2,0,L|144:184,2,27.625,8|8|8,3:3|3:3|3:3,0:0:0:0:
204,257,18099,6,0,B|120:270|139:164|19:215,1,176.8,8|2,3:3|0:1,0:0:0:0:
451,284,21813,5,0,0:0:0:0:
379,238,21956,1,0,0:0:0:0:
379,238,22027,1,0,2:0:0:0:
379,238,22099,2,0,P|347:245|313:256,1,49.7249984825135,0|0,0:0|0:0,0:0:0:0:
279,317,22384,2,0,P|224:311|172:295,1,99.449996965027,0|0,0:0|0:0,0:0:0:0:
101,327,22813,2,0,P|59:273|79:222,1,99.449996965027,0|0,0:0|0:0,0:0:0:0:
53,152,23242,6,0,L|-43:130,1,55.25,0|0,0:0|0:0,0:0:0:0:
50,61,23527,2,0,L|146:39,1,55.25,0|0,0:0|0:0,0:0:0:0:
208,6,23813,2,0,P|202:60|191:115,1,110.5,0|0,0:0|0:0,0:0:0:0:
282,140,24242,1,0,0:0:0:0:
282,140,24384,6,0,P|307:120|361:116,1,55.25,0|0,0:0|0:0,0:0:0:0:
406,39,24670,2,0,P|449:79|459:139,1,110.5,0|0,0:0|2:0,0:0:0:0:
501,212,25099,1,0,0:0:0:0:
501,212,25242,2,0,P|465:215|431:226,1,55.25,0|0,0:0|0:0,0:0:0:0:
381,288,25527,6,0,P|380:324|373:372,2,55.25,0|0|0,0:0|0:0|0:0,0:0:0:0:
296,245,25956,1,0,0:0:0:0:
296,245,26099,2,0,P|255:217|165:256,1,110.5,0|0,0:0|0:0,0:0:0:0:
132,329,26527,6,0,P|185:336|231:307,1,110.5,0|0,0:0|2:0,0:0:0:0:
170,235,26956,2,0,L|74:217,1,55.25,0|0,0:0|2:0,0:0:0:0:
25,197,27242,2,0,L|14:247,2,27.625,2|2|2,1:2|1:2|1:2,0:0:0:0:
92,131,27527,2,0,L|188:113,1,55.25,0|0,0:0|0:0,0:0:0:0:
232,43,27813,6,0,B|336:58|336:58|363:88|344:137,1,165.75,0|0,0:0|0:0,0:0:0:0:
289,196,28384,2,0,P|272:176|273:132,1,55.25,0|0,0:0|0:0,0:0:0:0:
384,201,28670,2,0,P|380:228|362:259,1,55.25,0|0,0:0|2:0,0:0:0:0:
386,340,28956,6,0,P|341:302|250:317,1,110.5,0|0,0:0|0:0,0:0:0:0:
205,336,29384,1,0,0:0:0:0:
205,336,29527,2,0,L|122:323,1,55.25,0|0,0:0|0:0,0:0:0:0:
69,377,29813,2,0,L|-14:364,1,55.25,0|0,0:0|0:0,0:0:0:0:
56,283,30099,6,0,P|71:236|74:162,1,110.5,0|0,0:0|0:0,0:0:0:0:
26,94,30527,1,0,0:0:0:0:
26,94,30670,2,0,L|101:79,1,55.25,0|0,0:0|0:0,0:0:0:0:
143,12,30956,1,2,0:0:0:0:
232,41,31099,6,0,P|275:79|261:153,1,110.5,0|0,2:0|0:0,0:0:0:0:
242,216,31527,2,0,P|242:184|267:148,1,55.25,2|0,0:0|2:0,0:0:0:0:
361,176,31813,2,0,P|339:196|293:203,1,55.25,0|0,0:0|0:0,0:0:0:0:
245,292,32099,2,0,P|215:288|180:257,1,55.25,2|0,0:0|0:0,0:0:0:0:
113,227,32384,6,0,P|68:250|-12:238,1,110.5,0|0,0:0|0:0,0:0:0:0:
44,159,32813,1,0,0:0:0:0:
44,159,32956,2,0,P|51:125|51:89,1,55.25,0|0,0:0|0:0,0:0:0:0:
132,41,33242,2,0,P|133:68|140:95,1,55.25,0|0,0:0|0:0,0:0:0:0:
225,54,33527,6,0,L|350:33,2,110.5,0|0|0,0:0|0:0|0:0,0:0:0:0:
221,148,34242,1,0,0:0:0:0:
221,148,34384,2,0,P|218:184|211:230,1,55.25,0|0,0:0|0:0,0:0:0:0:
143,263,34670,6,0,P|117:268|80:280,2,55.25,0|0|0,1:0|0:0|0:0,0:0:0:0:
226,217,35099,1,0,0:0:0:0:
286,289,35242,2,0,P|317:298|359:302,1,55.25,0|0,0:0|0:0,0:0:0:0:
416,375,35527,1,0,0:0:0:0:
416,375,35670,6,0,P|445:311|411:245,1,110.5,0|0,0:0|0:0,0:0:0:0:
333,218,36099,2,0,P|305:171|312:117,1,110.5,0|2,0:0|0:0,0:0:0:0:
327,24,36527,1,0,0:0:0:0:
327,24,36670,2,0,P|286:40|224:46,1,82.875,2|0,0:0|2:0,0:0:0:0:
240,59,36956,6,0,P|171:41|96:71,1,110.5,0|0,0:0|0:0,0:0:0:0:
44,19,37384,1,0,0:0:0:0:
64,110,37527,2,0,P|74:138|76:170,1,55.25,0|0,0:0|0:0,0:0:0:0:
24,242,37813,1,0,0:0:0:0:
24,242,37956,6,0,P|73:267|130:252,1,110.5,0|0,0:0|0:0,0:0:0:0:
219,173,38384,2,0,P|172:202|156:259,1,110.5,0|0,0:0|0:0,0:0:0:0:
208,333,38813,2,0,P|257:358|314:343,1,110.5,0|0,0:0|0:0,0:0:0:0:
402,361,39242,5,0,0:0:0:0:
403,264,39384,2,0,P|395:218|386:146,1,110.5,0|0,0:0|0:0,0:0:0:0:
386,154,39813,1,0,0:2:0:0:
238,39,40099,1,0,1:0:0:0:
316,0,40242,1,0,0:0:0:0:
238,39,40384,6,0,L|151:47,1,55.25,0|0,0:0|0:0,0:0:0:0:
90,25,40670,2,0,P|91:82|108:147,1,110.5,0|0,0:0|3:0,0:0:0:0:
154,213,41099,2,0,L|146:330,1,110.5,0|0,0:0|0:0,0:0:0:0:
71,379,41527,5,0,0:0:0:0:
159,348,41670,2,0,P|222:373|282:360,1,110.5,0|0,0:0|0:0,0:0:0:0:
357,370,42099,2,0,L|365:300,1,55.25,0|0,0:0|0:0,0:0:0:0:
449,278,42384,2,0,P|441:209|416:152,1,110.5,0|0,0:0|0:0,0:0:0:0:
410,77,42813,5,0,0:0:0:0:
410,77,42956,2,0,L|342:97,1,55.25,0|0,0:0|0:0,0:0:0:0:
272,50,43242,2,0,P|226:28|135:36,1,110.5,2|2,0:0|0:2,0:0:0:0:
96,132,43670,1,0,0:0:0:0:
96,132,43813,6,0,P|150:130|201:108,1,110.5,0|0,0:0|0:0,0:0:0:0:
188,202,44242,2,0,P|171:266|179:337,1,110.5,0|0,0:0|0:0,0:0:0:0:
257,350,44670,1,0,0:0:0:0:
257,350,44813,6,0,P|273:285|266:215,1,110.5,0|0,0:0|0:0,0:0:0:0:
351,191,45242,2,0,P|380:209|418:220,1,55.25,0|4,0:0|0:2,0:0:0:0:
394,108,45527,2,0,P|332:98|267:139,1,110.5,0|4,0:0|0:2,0:0:0:0:
66,45,46099,6,0,P|117:63|170:52,1,110.5,0|0,0:0|0:0,0:0:0:0:
198,142,46527,1,0,0:0:0:0:
198,142,46670,2,0,P|182:175|179:226,1,55.25,0|0,0:0|0:0,0:0:0:0:
130,274,46956,1,0,0:0:0:0:
130,274,47099,6,0,P|187:243|247:263,1,110.5,0|0,0:0|2:0,0:0:0:0:
339,364,47527,2,0,P|285:370|239:341,1,110.5,0|0,0:0|0:0,0:0:0:0:
309,277,47956,2,0,P|325:232|318:146,1,110.5,0|0,0:0|0:0,0:0:0:0:
362,83,48384,6,0,L|256:61,1,82.875,0|0,0:0|0:0,0:0:0:0:
275,48,48670,1,0,0:0:0:0:
191,18,48813,1,0,0:0:0:0:
206,107,48956,2,0,P|212:137|215:178,1,55.25,0|0,0:0|0:0,0:0:0:0:
121,147,49242,1,0,0:0:0:0:
152,235,49384,6,0,P|210:247|284:244,1,110.5,0|0,0:0|0:0,0:0:0:0:
348,329,49813,2,0,P|292:329|238:341,1,110.5,0|0,0:0|0:0,0:0:0:0:
238,341,50242,1,0,0:0:0:0:
154,380,50384,2,0,P|133:359|124:322,1,55.25,0|0,0:0|2:0,0:0:0:0:
38,295,50670,6,0,P|48:246|52:178,1,110.5,0|0,0:0|1:2,0:0:0:0:
20,96,51099,1,2,0:2:0:0:
20,96,51242,2,0,P|58:132|156:124,1,110.5,0|0,0:0|1:2,0:0:0:0:
176,70,51670,1,0,0:0:0:0:
176,70,51813,6,0,P|230:60|312:53,1,110.5,0|0,0:0|1:2,0:0:0:0:
389,46,52242,1,0,0:0:0:0:
389,46,52384,2,0,P|376:75|374:112,1,55.25,0|0,0:0|0:0,0:0:0:0:
460,288,52956,5,4,0:0:0:0:
119,352,54527,6,0,P|113:305|100:261,1,77.3499976394654,0|0,2:0|2:0,0:0:0:0:
24,232,54956,2,0,L|94:247,1,49.7249984825135,0|0,0:0|0:0,0:0:0:0:
204,198,55242,6,0,P|136:178|125:102,1,121.550003709412,2|2,0:0|1:1,0:0:0:0:
75,47,55670,1,0,0:0:0:0:
170,62,55813,2,0,P|205:57|240:47,1,60.7750018547059,2|2,0:0|0:0,0:0:0:0:
330,15,56099,1,2,0:0:0:0:
330,15,56242,1,2,0:0:0:0:
330,15,56384,6,0,P|372:27|401:38,1,60.7750018547059,2|0,0:0|0:0,0:0:0:0:
332,128,56670,2,0,P|314:208|329:284,1,121.550003709412,0|0,0:0|0:0,0:0:0:0:
419,289,57099,1,0,0:0:0:0:
419,289,57242,2,0,P|413:251|385:215,1,60.7750018547059,0|0,0:0|0:0,0:0:0:0:
304,278,57527,6,0,L|239:296,1,60.7750018547059,0|0,0:0|0:0,0:0:0:0:
173,361,57813,2,0,P|138:346|75:340,1,60.7750018547059,0|0,0:0|0:0,0:0:0:0:
15,382,58099,2,0,P|-6:308|32:231,1,121.550003709412,0|0,0:0|0:0,0:0:0:0:
3,169,58527,1,0,0:0:0:0:
3,169,58670,6,0,P|56:188|141:192,1,121.550003709412,0|0,0:0|0:0,0:0:0:0:
120,193,59099,1,0,0:0:0:0:
135,96,59242,2,0,L|119:53,2,30.3875009273529,8|8|8,2:3|2:3|2:3,0:0:0:0:
227,67,59527,2,0,L|236:29,2,30.3875009273529,8|8|8,2:3|2:3|2:3,0:0:0:0:
302,114,59813,6,0,P|358:148|416:145,1,116.024996459198,0|0,0:0|0:0,0:0:0:0:
423,139,60384,2,0,L|439:226,1,55.25,0|0,0:0|0:0,0:0:0:0:
512,279,60670,6,0,B|444:267|452:322|374:306,1,132.6,0|2,0:0|2:0,0:0:0:0:
311,355,61242,2,0,P|285:365|263:365,1,44.2,4|4,0:3|0:3,0:0:0:0:
182,345,61527,1,2,0:0:0:0:
270,280,61670,6,0,P|292:230|268:124,1,151.937504636765,0|0,0:0|0:0,0:0:0:0:
284,125,62099,6,0,B|248:95|182:118|182:118|207:143|204:179,1,154.699995278931,0|0,0:0|0:0,0:0:0:0:
51,341,62956,1,0,0:0:0:0:
113,277,63099,6,0,P|125:235|123:166,1,99.449996965027,0|0,0:0|0:0,0:0:0:0:
65,112,63527,2,0,L|22:121,2,30.3875009273529,2|2|2,0:2|0:2|0:2,0:0:0:0:
111,32,63813,2,0,L|62:16,2,30.3875009273529,2|2|2,0:2|0:2|0:2,0:0:0:0:
202,41,64099,1,2,0:2:0:0:
210,48,64242,1,2,0:2:0:0:
219,55,64384,6,0,L|284:43,1,60.7750018547059,2|2,0:0|0:0,0:0:0:0:
356,93,64670,2,0,L|438:113,1,60.7750018547059,0|0,0:0|0:0,0:0:0:0:
491,158,64956,2,0,P|485:192|483:284,1,121.550003709412,2|0,0:0|0:0,0:0:0:0:
411,336,65384,1,0,0:0:0:0:
411,336,65527,6,0,P|396:313|392:262,1,60.7750018547059,0|0,0:0|0:0,0:0:0:0:
303,248,65813,2,0,P|288:271|284:322,1,60.7750018547059,0|0,0:0|0:0,0:0:0:0:
209,360,66099,2,0,P|149:334|74:347,1,121.550003709412,0|0,0:0|0:0,0:0:0:0:
17,289,66527,1,0,0:0:0:0:
17,289,66670,6,0,P|0:227|0:144,1,121.550003709412,0|0,0:0|0:0,0:0:0:0:
35,86,67099,1,0,0:0:0:0:
35,86,67242,2,0,L|103:98,1,60.7750018547059,0|0,0:0|0:0,0:0:0:0:
166,40,67527,1,0,0:0:0:0:
166,40,67670,6,0,P|217:16|290:26,1,121.550003709412,0|0,0:0|0:0,0:0:0:0:
353,77,68099,2,0,P|293:70|238:95,1,121.550003709412,0|2,0:0|0:2,0:0:0:0:
206,180,68527,1,2,0:2:0:0:
290,215,68670,2,0,P|305:186|307:145,1,60.7750018547059,2|2,0:2|0:2,0:0:0:0:
192,178,68956,6,0,P|126:189|59:206,1,121.550003709412,0|0,0:0|0:0,0:0:0:0:
1,259,69384,1,0,0:0:0:0:
1,259,69527,2,0,P|57:254|120:344,1,121.550003709412,0|0,0:0|0:0,0:0:0:0:
177,350,69956,6,0,P|245:358|307:353,1,121.550003709412,0|0,0:0|0:0,0:0:0:0:
387,373,70384,2,0,P|427:361|450:336,1,60.7750018547059,0|0,0:0|0:0,0:0:0:0:
467,262,70670,6,0,B|452:212|481:174|481:174|461:153|461:153|485:119|469:84,1,182.325005564118,0|2,0:0|0:0,0:0:0:0:
473,95,71527,5,0,1:0:0:0:
465,91,71813,1,0,0:0:0:0:
456,88,72099,2,0,P|418:95|364:110,1,60.7750018547059,0|0,0:0|2:0,0:0:0:0:
339,167,72384,5,0,0:0:0:0:
339,167,72527,1,0,0:0:0:0:
248,174,72670,2,0,P|216:169|181:151,1,60.7750018547059,0|0,0:0|0:0,0:0:0:0:
126,91,72956,2,0,L|135:54,2,30.3875009273529,0|0|0,2:0|2:0|2:0,0:0:0:0:
38,118,73242,2,0,L|23:78,2,30.3875009273529,0|0|0,2:0|2:0|2:0,0:0:0:0:
17,206,73527,5,0,2:0:0:0:
193,60,78099,6,0,P|241:53|309:38,1,99.449996965027,0|0,0:0|0:0,0:0:0:0:
374,57,78527,1,0,0:0:0:0:
374,57,78670,2,0,P|381:89|385:127,1,49.7249984825135,0|0,0:0|2:0,0:0:0:0:
432,175,78956,1,0,0:0:0:0:
432,175,79099,6,0,P|409:221|413:298,1,99.449996965027,0|0,0:0|2:0,0:0:0:0:
379,348,79527,2,0,L|517:333,2,99.449996965027,0|0|0,0:0|0:0|0:0,0:0:0:0:
209,342,80384,6,0,P|234:289|214:232,1,99.449996965027,0|0,0:0|0:0,0:0:0:0:
155,202,80813,1,0,0:0:0:0:
155,202,80956,2,0,P|122:212|78:221,1,49.7249984825135,0|0,0:0|0:0,0:0:0:0:
45,156,81242,1,0,0:0:0:0:
45,156,81384,6,0,P|38:97|27:34,1,99.449996965027,0|0,0:0|0:0,0:0:0:0:
109,22,81813,2,0,P|112:52|121:94,1,49.7249984825135,0|0,0:0|0:0,0:0:0:0:
187,117,82099,2,0,P|231:140|296:110,1,99.449996965027,0|0,0:0|0:0,0:0:0:0:
434,65,82670,6,0,P|413:113|415:178,1,99.449996965027,0|0,0:0|0:0,0:0:0:0:
486,200,83099,1,0,0:0:0:0:
486,200,83242,2,0,P|494:222|497:263,1,49.7249984825135,0|0,0:0|0:0,0:0:0:0:
459,323,83527,1,0,0:0:0:0:
459,323,83670,6,0,P|420:299|355:303,1,99.449996965027,0|0,0:0|0:0,0:0:0:0:
291,336,84099,2,0,L|233:348,1,49.7249984825135,0|0,0:0|0:0,0:0:0:0:
162,374,84384,1,0,0:0:0:0:
149,290,84527,2,0,P|142:239|128:159,1,99.449996965027,0|0,0:0|0:0,0:0:0:0:
72,132,84956,6,0,P|123:162|183:131,1,99.449996965027,0|0,0:0|0:0,0:0:0:0:
206,83,85384,1,0,0:0:0:0:
206,83,85527,2,0,L|280:71,1,49.7249984825135,0|0,0:0|0:0,0:0:0:0:
325,27,85813,1,0,0:0:0:0:
325,27,85956,6,0,L|466:52,1,99.449996965027,0|2,0:0|0:0,0:0:0:0:
500,11,86384,1,2,0:0:0:0:
500,11,86527,1,2,0:0:0:0:
491,95,86670,2,0,L|483:151,1,49.7249984825135,0|0,0:0|0:0,0:0:0:0:
399,150,86956,2,0,L|391:206,1,49.7249984825135,0|0,0:0|0:0,0:0:0:0:
325,252,87242,6,0,P|371:231|447:246,1,99.449996965027,0|0,0:0|0:0,0:0:0:0:
459,307,87670,1,0,0:0:0:0:
357,335,87813,2,0,P|307:337|263:316,1,99.449996965027,0|0,0:0|0:0,0:0:0:0:
178,329,88242,6,0,P|172:276|156:216,1,99.449996965027,0|0,0:0|0:0,0:0:0:0:
86,192,88670,2,0,P|97:143|102:94,1,99.449996965027,0|0,0:0|0:0,0:0:0:0:
102,94,89242,1,0,0:0:0:0:
108,102,89527,6,0,P|65:139|3:139,2,99.449996965027
149,23,90242,1,0,0:0:0:0:
214,76,90384,1,0,0:0:0:0:
292,43,90527,6,0,P|342:30|397:26,1,99.449996965027,0|0,0:0|0:0,0:0:0:0:
463,68,90956,2,0,L|474:19,2,49.7249984825135,0|0|0,0:0|0:0|0:0,0:0:0:0:
503,178,91384,6,0,B|421:154|431:241|346:205,1,151.937504636765,0|2,0:0|0:2,0:0:0:0:
348,222,91813,6,0,P|362:185|326:114,1,110.5,2|0,0:2|0:0,0:0:0:0:
254,155,92242,1,0,0:0:0:0:
254,155,92384,2,0,P|256:198|280:231,1,55.25,0|0,0:0|0:0,0:0:0:0:
271,296,92670,1,0,0:0:0:0:
192,335,92813,6,0,P|138:348|63:353,1,110.5,0|0,0:0|0:0,0:0:0:0:
21,290,93242,2,0,L|6:147,1,110.5,0|0,0:0|0:0,0:0:0:0:
24,92,93670,1,0,0:0:0:0:
24,92,93813,2,0,P|53:111|84:115,1,55.25,0|0,0:0|0:0,0:0:0:0:
149,69,94099,6,0,B|220:27|220:27|312:58,1,165.75,0|0,0:0|0:0,0:0:0:0:
298,53,94670,1,0,0:0:0:0:
466,110,94956,1,0,0:0:0:0:
406,175,95099,6,0,B|355:202|355:202|284:175,1,110.5,0|0,0:0|2:0,0:0:0:0:
297,271,95527,2,0,P|311:303|309:338,1,55.25,0|0,0:0|2:0,0:0:0:0:
229,356,95813,2,0,L|126:344,1,82.875,0|0,0:0|0:0,0:0:0:0:
127,353,96099,2,0,P|113:321|115:286,1,55.25,4|2,2:0|1:2,0:0:0:0:
27,218,96384,6,0,P|77:258|157:222,1,110.5,2|0,0:2|0:0,0:0:0:0:
151,167,96813,1,0,0:0:0:0:
151,167,96956,2,0,P|120:167|83:186,1,55.25,0|0,0:0|0:0,0:0:0:0:
141,268,97242,1,0,0:0:0:0:
218,227,97384,6,0,P|232:180|231:96,1,110.5,0|0,0:0|0:0,0:0:0:0:
311,50,97813,2,0,P|315:88|336:121,1,55.25,0|0,0:0|0:0,0:0:0:0:
384,167,98099,1,0,0:0:0:0:
443,101,98242,1,0,0:0:0:0:
443,101,98313,1,2,0:2:0:0:
443,101,98384,2,0,P|472:90|502:88,1,55.25,2|0,0:2|0:0,0:0:0:0:
495,189,98670,6,0,B|476:305|476:305|436:265,1,165.75,0|0,0:0|2:0,0:0:0:0:
441,270,99242,1,0,0:0:0:0:
364,313,99384,2,0,L|291:329,1,55.25,0|0,0:0|0:0,0:0:0:0:
232,368,99670,6,0,P|171:368|121:341,1,110.5,0|0,0:0|0:0,0:0:0:0:
71,277,100099,2,0,P|3:309|15:368,2,110.5,4|0|2,0:2|0:2|0:2,0:0:0:0:
158,264,100813,1,2,0:2:0:0:
158,264,100956,6,0,P|166:232|172:180,1,55.25,2|0,1:2|2:0,0:0:0:0:
89,169,101242,2,0,P|59:166|19:156,1,55.25,0|0,0:0|0:0,0:0:0:0:
14,75,101527,1,0,0:0:0:0:
146,97,101670,2,0,P|207:89|279:72,1,110.5,0|0,0:0|0:0,0:0:0:0:
335,116,102099,6,0,P|299:63|320:12,2,110.5,0|0|2,0:0|0:0|0:2,0:0:0:0:
413,75,102813,1,2,0:2:0:0:
477,135,102956,2,0,P|476:164|470:199,1,55.25,0|0,0:2|0:0,0:0:0:0:
478,278,103242,6,0,B|423:246|369:252|369:252|329:340,1,165.75,0|0,0:0|0:0,0:0:0:0:
347,299,103813,1,0,0:2:0:0:
184,367,104099,1,0,0:0:0:0:
101,336,104242,6,0,B|21:320|21:320|1:260,1,110.5,0|0,0:0|0:0,0:0:0:0:
65,223,104670,2,0,P|93:220|120:214,1,55.25,0|0,0:0|0:0,0:0:0:0:
140,127,104956,2,0,P|126:103|116:66,2,55.25,0|0|4,0:0|0:0|2:0,0:0:0:0:
218,168,105384,1,2,0:2:0:0:
265,93,105527,6,0,P|281:59|357:48,1,110.5,2|0,0:2|0:0,0:0:0:0:
433,22,105956,1,0,0:0:0:0:
433,22,106099,2,0,P|444:52|435:103,1,55.25,0|0,0:0|0:0,0:0:0:0:
387,142,106384,1,0,0:0:0:0:
488,188,106527,6,0,P|512:236|494:315,1,110.5,0|0,0:0|0:0,0:0:0:0:
445,355,106956,2,0,P|414:348|386:323,1,55.25,0|0,0:0|0:0,0:0:0:0:
355,254,107242,1,2,0:2:0:0:
264,311,107384,2,0,P|201:321|141:339,1,110.5,0|0,0:2|1:0,0:0:0:0:
78,377,107813,5,0,0:0:0:0:
14,322,107956,2,0,L|-2:269,2,44.2,0|0|0,0:0|0:0|0:0,0:0:0:0:
92,271,108384,2,0,L|106:146,1,88.4,0|2,0:0|1:1,0:0:0:0:
41,112,108813,6,0,P|71:146|158:135,1,99.449996965027,0|0,0:0|0:0,0:0:0:0:
178,90,109242,2,0,P|173:69|173:34,1,49.7249984825135,2|0,0:0|0:0,0:0:0:0:
248,4,109527,1,2,0:0:0:0:
307,64,109670,1,0,0:0:0:0:
373,11,109813,2,0,P|396:4|431:0,1,49.7249984825135,0|0,0:0|0:0,0:0:0:0:
307,64,110099,6,0,P|294:123|295:211,1,121.550003709412,2|2,0:0|0:0,0:0:0:0:
350,254,110527,1,0,0:0:0:0:
350,254,110670,2,0,P|380:266|436:237,1,60.7750018547059,2|2,0:0|0:0,0:0:0:0:
456,356,110956,1,2,0:0:0:0:
456,356,111099,1,2,0:0:0:0:
456,356,111242,6,0,P|398:362|317:382,2,121.550003709412,2|0|0,0:0|0:0|0:0,0:0:0:0:
497,274,111956,1,0,0:0:0:0:
497,274,112099,2,0,P|504:244|505:191,1,60.7750018547059,0|0,0:0|0:0,0:0:0:0:
462,134,112384,6,0,L|453:62,1,60.7750018547059,0|0,0:0|0:0,0:0:0:0:
380,19,112670,2,0,P|342:46|341:105,1,91.1625027820588,0|0,0:0|0:0,0:0:0:0:
345,100,112956,2,0,P|277:106|219:62,1,121.550003709412,0|0,0:0|0:0,0:0:0:0:
146,109,113384,1,0,0:0:0:0:
68,60,113527,6,0,P|32:106|47:186,1,121.550003709412,0|0,0:0|0:0,0:0:0:0:
105,226,113956,1,0,0:0:0:0:
30,278,114099,2,0,L|-20:290,2,30.3875009273529,8|8|8,2:3|2:3|2:3,0:0:0:0:
94,342,114384,2,0,L|72:374,2,30.3875009273529,8|8|8,2:3|2:3|2:3,0:0:0:0:
178,296,114670,6,0,B|219:305|266:281|266:281|266:309|297:334,1,132.599995953369,0|0,0:0|0:0,0:0:0:0:
444,293,115527,6,0,B|350:275|350:275|363:259|371:229,1,132.599995953369,0|0,0:0|1:0,0:0:0:0:
183,88,116384,1,2,0:0:0:0:
265,95,116527,6,0,P|297:132|276:236,1,138.125,0|0,0:0|2:0,0:0:0:0:
281,223,116956,6,0,B|182:184|206:289|91:235,1,176.8,0|0,0:0|0:0,0:0:0:0:
63,379,117813,1,2,0:0:0:0:
129,321,117956,6,0,P|184:302|256:308,1,110.5,2|2,0:0|0:0,0:0:0:0:
305,356,118384,2,0,P|333:368|372:371,1,55.25,0|2,0:0|0:0,0:0:0:0:
435,328,118670,2,0,L|476:319,2,27.625,0|0|0,0:0|0:0|0:0,0:0:0:0:
376,260,118956,1,0,0:0:0:0:
376,260,119099,1,0,0:0:0:0:
430,190,119242,6,0,P|436:158|436:117,1,55.25,2|2,0:0|0:0,0:0:0:0:
338,44,119527,2,0,P|339:71|345:98,1,55.25,0|0,0:0|0:0,0:0:0:0:
295,172,119813,2,0,P|240:138|157:157,1,110.5,2|0,0:0|0:0,0:0:0:0:
111,110,120242,1,0,0:0:0:0:
111,110,120384,5,0,0:0:0:0:
66,186,120527,1,0,0:0:0:0:
66,186,120599,1,0,0:0:0:0:
66,186,120670,2,0,L|76:245,1,55.25
77,329,120956,2,0,L|-4:345,2,55.25,0|0|0,0:0|0:0|0:0,0:0:0:0:
152,283,121384,1,0,0:0:0:0:
152,283,121527,6,0,P|208:289|270:313,1,110.5,0|0,0:0|0:0,0:0:0:0:
332,357,121956,1,0,0:0:0:0:
411,317,122099,2,0,P|428:246|410:186,1,110.5,0|0,0:0|0:0,0:0:0:0:
428,93,122527,6,0,P|421:147|438:199,1,110.5,0|0,0:0|0:0,0:0:0:0:
347,187,122956,2,0,P|320:175|278:171,1,55.25,0|2,0:0|0:0,0:0:0:0:
222,119,123242,2,0,L|239:77,2,27.625,0|0|0,0:0|0:0|0:0,0:0:0:0:
133,113,123527,2,0,L|120:69,2,27.625,0|0|0,0:0|0:0|0:0,0:0:0:0:
56,158,123813,6,0,P|-1:212|44:313,1,165.75,4|0,0:2|0:0,0:0:0:0:
56,368,124384,2,0,P|88:358|170:351,1,110.5,0|0,0:0|0:0,0:0:0:0:
239,302,124813,6,0,P|271:312|353:319,1,110.5,0|0,0:0|0:0,0:0:0:0:
429,284,125242,2,0,P|425:253|416:230,1,55.25,0|0,0:0|0:0,0:0:0:0:
322,191,125527,6,0,B|385:218|431:170|431:170|406:135|371:162,1,165.75,2|0,0:0|0:0,0:0:0:0:
391,151,126384,5,0,0:0:0:0:
386,141,126670,1,0,0:0:0:0:
381,131,126956,2,0,P|375:103|374:66,1,55.25,0|0,0:0|0:0,0:0:0:0:
289,30,127242,6,0,B|272:57|272:57|270:106,1,55.25,0|0,0:0|0:0,0:0:0:0:
191,125,127527,2,0,B|173:105|173:105|161:51,1,55.25,0|0,0:0|0:0,0:0:0:0:
94,36,127813,2,0,L|47:18,2,27.625,0|0|0,2:0|2:0|2:0,0:0:0:0:
59,112,128099,1,0,1:0:0:0:
59,112,128242,1,0,1:0:0:0:
59,112,128384,6,0,P|71:181|74:258,1,132.599995953369,0|0,0:0|0:0,0:0:0:0:
31,318,129242,2,0,P|110:276|157:305,1,132.599995953369,0|0,0:0|0:0,0:0:0:0:
218,331,130099,2,0,P|241:349|301:354,1,66.2999979766846,0|0,0:0|2:0,0:0:0:0:
356,324,130670,5,0,0:0:0:0:
356,324,130813,2,0,P|327:278|338:217,1,99.449996965027,0|0,0:0|0:0,0:0:0:0:
391,170,131527,2,0,P|443:193|466:169,2,66.2999979766846
307,129,132384,6,0,B|274:127|274:127|240:154,1,66.3,0|0,0:2|0:0,0:0:0:0:
250,157,132956,6,0,P|200:145|188:59,1,132.599995953369
106,23,133813,2,0,P|56:35|44:121,1,132.599995953369,0|0,1:0|1:0,0:0:0:0:
15,190,134670,1,0,1:0:0:0:
15,190,134813,2,0,P|51:209|130:201,1,99.449996965027
115,204,135384,6,0,P|122:256|123:316,1,99.449996965027
218,351,136099,2,0,P|211:299|210:239,1,99.449996965027,0|0,0:0|1:0,0:0:0:0:
215,247,136670,1,0,1:0:0:0:
310,234,136956,6,0,L|457:213,1,132.6,0|0,0:0|2:0,0:0:0:0:
447,220,137527,6,0,P|463:160|415:109,1,132.599995953369
364,35,138384,2,0,P|379:95|331:146,1,132.599995953369,0|0,0:0|0:0,0:0:0:0:
265,96,139242,2,0,P|236:83|182:87,1,66.2999979766846,0|0,0:0|0:0,0:0:0:0:
169,162,139813,5,0,0:0:0:0:
169,162,139956,2,0,P|203:187|279:173,1,99.449996965027,0|0,0:0|0:0,0:0:0:0:
338,153,140670,2,0,P|363:186|363:235,2,66.2999979766846,0|0|0,0:0|0:0|0:0,0:0:0:0:
278,215,141527,2,0,P|252:265|263:324,1,99.449996965027,0|2,0:0|0:0,0:0:0:0:
262,313,142099,6,0,B|190:298|208:375|117:334,1,132.599995953369
56,371,142956,2,0,P|94:333|71:249,1,132.599995953369,0|2,0:0|0:0,0:0:0:0:
30,191,143813,1,0,0:0:0:0:
30,191,143956,2,0,P|7:143|23:77,1,99.449996965027,0|2,0:0|0:0,0:0:0:0:
11,89,144527,6,0,P|59:125|120:104,1,99.449996965027
148,59,145242,2,0,P|204:26|282:48,1,132.599995953369,0|2,0:0|0:0,0:0:0:0:
351,58,146099,2,0,P|363:35|372:7,2,33.1499989883423,0|0|0,2:0|0:0|0:0,0:0:0:0:
279,123,146670,5,0,0:0:0:0:
362,226,146956,2,0,P|412:223|459:189,1,88.4,4|0,0:2|0:0,0:0:0:0:
474,130,147384,1,0,0:0:0:0:
454,216,147527,6,0,P|436:261|435:323,1,88.4,4|0,0:2|0:0,0:0:0:0:
371,352,147956,1,0,0:0:0:0:
371,352,148099,2,0,L|312:335,1,44.2,0|0,0:0|0:0,0:0:0:0:
257,304,148384,2,0,P|213:321|133:323,1,88.4,0|0,0:0|0:0,0:0:0:0:
15,354,148956,6,0,P|14:314|29:288,1,44.2,0|0,0:0|0:0,0:0:0:0:
76,257,149242,2,0,L|70:189,1,66.3,0|0,0:0|0:0,0:0:0:0:
62,180,149527,2,0,P|96:145|165:167,1,88.4,0|0,0:0|0:0,0:0:0:0:
194,195,149956,1,0,0:0:0:0:
236,127,150099,6,0,L|248:88,2,22.1,0|0|0,0:0|0:0|0:0,0:0:0:0:
307,162,150384,2,0,L|390:146,1,44.2,0|0,0:0|0:0,0:0:0:0:
419,112,150670,2,0,P|470:156|456:242,1,132.6,0|0,0:0|0:0,0:0:0:0:
488,295,151242,6,0,P|440:300|389:332,1,88.4,0|0,0:0|0:0,0:0:0:0:
337,360,151670,1,0,0:0:0:0:
337,360,151813,2,0,P|303:334|242:330,1,88.4,0|0,0:0|0:0,0:0:0:0:
183,353,152242,6,0,B|145:370|145:370|90:336|121:273,1,132.6,0|0,0:0|0:0,0:0:0:0:
72,224,152813,1,0,0:0:0:0:
72,224,152956,2,0,L|2:204,1,44.2,0|0,0:0|0:0,0:0:0:0:
73,144,153242,2,0,L|115:131,1,44.2,0|0,0:0|0:0,0:0:0:0:
179,85,153527,6,0,P|187:62|193:34,1,44.2,0|0,0:0|0:0,0:0:0:0:
266,70,153813,2,0,P|274:93|280:121,1,44.2,0|0,0:0|0:0,0:0:0:0:
358,106,154099,2,0,P|419:73|470:89,1,88.4,0|0,0:0|0:0,0:0:0:0:
486,135,154527,1,0,0:0:0:0:
486,135,154670,6,0,P|468:178|461:243,1,88.4,0|2,0:0|0:0,0:0:0:0:
494,291,155099,1,0,0:0:0:0:
432,341,155242,2,0,B|391:358|361:342|361:342|351:321|351:321|309:302|258:333,1,176.8,0|0,0:0|0:0,0:0:0:0:
100,73,162384,5,0,0:0:0:0:
100,73,162527,1,0,0:0:0:0:
100,73,162670,2,0,P|111:111|121:167,1,88.4,0|8,0:0|3:3,0:0:0:0:
119,158,163242,6,0,P|126:114|138:72,1,88.4,0|0,0:0|0:0,0:0:0:0:
138,72,163813,6,0,P|166:98|199:112,1,44.2,0|0,0:0|0:0,0:0:0:0:
231,153,164099,2,0,P|259:148|296:131,1,44.2,0|0,0:0|0:0,0:0:0:0:
325,82,164384,1,2,2:0:0:0:
325,82,164527,2,0,P|386:96|421:128,1,88.4,2|2,2:0|2:0,0:0:0:0:
480,162,164956,6,0,P|429:197|427:261,1,99.449996965027,0|0,1:0|0:0,0:0:0:0:
481,296,165384,1,0,0:0:0:0:
402,339,165527,2,0,P|358:353|283:355,1,99.449996965027,0|0,0:0|0:0,0:0:0:0:
215,363,165956,6,0,P|233:324|220:247,1,99.449996965027,0|0,0:0|0:0,0:0:0:0:
147,303,166384,2,0,L|88:320,1,49.7249984825135,0|0,0:0|0:0,0:0:0:0:
34,379,166670,1,0,0:0:0:0:
14,291,166813,2,0,P|13:239|0:154,1,99.449996965027,0|0,0:0|0:0,0:0:0:0:
2,101,167242,6,0,P|30:149|121:139,1,149.17499544754,0|0,0:0|0:0,0:0:0:0:
158,66,167813,2,0,L|103:46,1,49.7249984825135,0|0,0:0|0:0,0:0:0:0:
131,155,168099,1,0,0:0:0:0:
217,133,168242,6,0,P|257:89|257:20,1,99.449996965027,0|0,0:0|0:0,0:0:0:0:
348,21,168670,2,0,P|376:47|378:122,1,99.449996965027,0|0,0:0|1:0,0:0:0:0:
336,181,169099,2,0,P|392:158|458:173,1,99.449996965027,0|0,0:0|2:0,0:0:0:0:
452,247,169527,5,0,0:0:0:0:
366,274,169670,2,0,P|316:278|256:236,1,99.449996965027,0|0,0:0|2:0,0:0:0:0:
223,181,170099,1,0,0:0:0:0:
223,181,170384,5,0,0:1:0:0:
163,247,170527,2,0,P|174:296|182:364,1,99.449996965027,0|0,0:0|0:0,0:0:0:0:
90,340,170956,2,0,P|85:315|80:281,1,49.7249984825135,0|0,0:0|0:0,0:0:0:0:
23,221,171242,1,0,0:0:0:0:
72,147,171384,2,0,P|119:168|195:160,1,99.449996965027,0|0,0:0|0:0,0:0:0:0:
207,88,171813,5,0,0:0:0:0:
207,88,171956,2,0,P|196:63|193:20,2,49.7249984825135,0|0|0,0:0|0:0|0:0,0:0:0:0:
295,104,172384,1,0,0:0:0:0:
295,104,172670,1,0,0:0:0:0:
368,53,172813,6,0,P|414:37|481:35,1,99.449996965027,0|0,0:0|0:0,0:0:0:0:
457,123,173242,2,0,L|448:184,1,49.7249984825135,0|0,0:0|0:0,0:0:0:0:
512,239,173527,2,0,B|455:202|411:232|411:232|452:266|432:316,1,182.325005564118,0|0,0:0|2:0,0:0:0:0:
347,298,174099,6,0,P|295:318|221:279,1,99.449996965027,0|0,0:0|1:0,0:0:0:0:
178,357,174527,1,8,1:3:0:0:
178,357,174670,2,0,P|129:365|84:346,1,99.449996965027,8|0,3:0|0:0,0:0:0:0:
11,293,175099,1,0,0:0:0:0:
11,293,175242,6,0,L|12:228,1,49.7249984825135,0|0,0:0|0:0,0:0:0:0:
95,210,175527,2,0,P|99:167|63:92,1,99.449996965027,0|0,0:0|0:0,0:0:0:0:
20,47,175956,2,0,P|60:85|141:66,1,99.449996965027,0|0,0:0|0:0,0:0:0:0:
170,30,176384,5,0,0:0:0:0:
250,70,176527,2,0,L|393:47,1,99.449996965027,0|0,0:0|0:0,0:0:0:0:
435,32,176956,2,0,P|448:62|446:110,1,49.7249984825135,0|0,0:0|0:0,0:0:0:0:
498,155,177242,2,0,P|493:179|482:201,1,49.7249984825135,0|0,0:0|0:0,0:0:0:0:
401,238,177527,5,0,0:0:0:0:
331,182,177670,2,0,P|289:158|223:166,1,99.449996965027,0|2,0:0|0:0,0:0:0:0:
171,265,178099,1,0,0:0:0:0:
171,265,178242,2,0,P|220:266|262:242,1,99.449996965027,0|0,0:0|0:0,0:0:0:0:
216,165,178670,5,0,0:0:0:0:
128,184,178813,2,0,L|63:170,2,49.7249984825135,0|0|0,0:0|0:0|0:0,0:0:0:0:
216,165,179242,2,0,P|246:133|237:52,1,99.449996965027,0|4,0:0|0:2,0:0:0:0:
327,33,179670,6,0,P|361:67|360:121,1,99.449996965027,0|0,0:0|0:0,0:0:0:0:
436,166,180099,2,0,P|459:156|508:156,1,49.7249984825135,0|0,0:0|0:0,0:0:0:0:
471,253,180384,1,0,0:0:0:0:
471,253,180527,2,0,P|426:241|346:235,1,99.449996965027,0|0,0:0|0:0,0:0:0:0:
333,315,180956,5,0,0:0:0:0:
89,329,182384,6,0,L|51:340,2,27.625,8|8|8,3:3|3:3|3:3,0:0:0:0:
59,243,182670,2,0,L|26:235,2,27.625,2|0|0,0:0|0:0|0:0,0:0:0:0:
119,177,182956,1,2,0:0:0:0:
205,197,183099,1,0,0:0:0:0:
229,285,183242,6,0,P|288:286|358:253,1,121.550003709412,2|2,0:0|0:0,0:0:0:0:
425,305,183670,1,0,0:0:0:0:
359,241,183813,2,0,P|336:177|348:112,1,121.550003709412,2|2,0:0|0:0,0:0:0:0:
390,46,184242,1,2,0:0:0:0:
390,46,184384,6,0,L|301:33,1,60.7750018547059,2|0,0:0|0:0,0:0:0:0:
253,88,184670,2,0,P|187:102|130:129,1,121.550003709412,0|0,0:0|0:0,0:0:0:0:
54,85,185099,1,0,0:0:0:0:
54,85,185242,2,0,P|38:117|38:156,1,60.7750018547059,0|0,0:0|0:0,0:0:0:0:
151,203,185527,6,0,P|147:173|132:146,1,60.7750018547059,0|0,0:0|0:0,0:0:0:0:
61,236,185813,2,0,L|49:374,1,121.550003709412,0|0,0:0|0:0,0:0:0:0:
50,357,186384,1,0,0:0:0:0:
137,384,186527,1,0,0:0:0:0:
202,319,186670,6,0,P|256:289|329:304,1,121.550003709412,0|0,0:0|0:0,0:0:0:0:
394,338,187099,1,0,0:0:0:0:
464,279,187242,2,0,L|498:282,2,30.3875009273529,8|8|8,3:3|3:3|3:3,0:0:0:0:
431,193,187527,2,0,L|468:179,2,30.3875009273529,8|8|4,3:3|3:3|0:3,0:0:0:0:
334,196,187813,6,0,B|282:214|247:186|247:186|266:168|264:142,1,135.362495869064
252,134,188384,2,0,P|224:124|184:134,1,55.25,0|0,0:0|0:0,0:0:0:0:
115,104,188670,6,0,P|88:153|97:243,1,132.6,0|2,0:0|2:0,0:0:0:0:
89,308,189242,2,0,L|144:298,1,44.2,0|0,1:0|0:0,0:0:0:0:
200,341,189527,1,2,0:0:0:0:
230,216,189670,6,0,B|211:112|211:112|232:129|258:135,1,151.937504636765,0|0,0:0|2:0,0:0:0:0:
262,123,190099,6,0,P|311:82|371:103,1,116.024996459198,0|0,0:0|2:0,0:0:0:0:
442,103,190670,2,0,P|407:100|363:137,1,77.3499976394654,0|2,0:0|0:0,0:0:0:0:
371,206,191099,6,0,L|381:277,1,49.7249984825135,2|0,1:0|0:0,0:0:0:0:
291,306,191384,2,0,L|284:256,1,49.7249984825135,2|0,1:0|0:0,0:0:0:0:
211,212,191670,1,2,0:0:0:0:
148,269,191813,6,0,L|138:306,2,24.8624992412567,0|0|0,0:0|0:0|0:0,0:0:0:0:
78,220,192099,2,0,L|53:230,2,24.8624992412567,0|0|0,0:0|0:0|0:0,0:0:0:0:
95,137,192384,6,0,P|106:112|110:70,1,60.7750018547059,0|0,0:0|0:0,0:0:0:0:
184,24,192670,2,0,P|187:54|199:81,1,60.7750018547059,0|0,0:0|0:0,0:0:0:0:
290,67,192956,2,0,P|344:28|399:40,1,121.550003709412,0|0,0:0|0:0,0:0:0:0:
485,35,193384,1,0,0:0:0:0:
438,113,193527,6,0,P|430:145|425:185,1,60.7750018547059,0|0,0:0|0:0,0:0:0:0:
488,240,193813,1,0,0:0:0:0:
488,240,193956,1,0,0:0:0:0:
488,240,194099,2,0,L|499:326,1,60.7750018547059,0|0,0:0|0:0,0:0:0:0:
428,362,194384,2,0,P|400:374|353:377,1,60.7750018547059,0|0,0:0|0:0,0:0:0:0:
304,313,194670,6,0,L|242:302,1,60.7750018547059,0|0,0:0|0:0,0:0:0:0:
172,359,194956,1,0,0:0:0:0:
172,359,195099,1,0,0:0:0:0:
80,357,195242,2,0,P|50:306|67:240,1,121.550003709412,0|0,0:0|0:0,0:0:0:0:
8,174,195670,6,0,P|46:215|109:216,1,121.550003709412,0|0,0:0|0:0,0:0:0:0:
151,136,196099,2,0,L|81:116,1,60.7750018547059,0|2,0:0|0:0,0:0:0:0:
48,39,196384,2,0,L|37:10,2,30.3875009273529,2|2|2,0:2|0:2|0:2,0:0:0:0:
139,28,196670,2,0,L|149:0,2,30.3875009273529,2|2|2,0:2|0:2|0:2,0:0:0:0:
224,64,196956,6,0,P|274:46|339:62,1,121.550003709412,0|0,0:0|0:0,0:0:0:0:
417,140,197384,1,0,0:0:0:0:
365,60,197527,2,0,P|328:104|349:187,1,121.550003709412,0|0,0:0|0:0,0:0:0:0:
417,239,197956,6,0,P|370:210|279:219,1,121.550003709412,0|0,0:0|0:0,0:0:0:0:
342,292,198384,2,0,L|356:358,1,60.7750018547059,0|0,0:0|0:0,0:0:0:0:
266,376,198670,6,0,B|231:395|198:381|198:381|188:357|188:357|142:369|105:343,1,182.325005564118,0|2,0:0|0:0,0:0:0:0:
106,344,199527,5,0,0:0:0:0:
99,349,199813,1,0,0:0:0:0:
91,356,200099,2,0,P|81:314|77:267,1,60.7750018547059,0|0,0:0|0:0,0:0:0:0:
27,221,200384,1,0,0:0:0:0:
27,221,200527,1,0,0:0:0:0:
88,153,200670,2,0,P|91:124|104:89,1,60.7750018547059,0|0,0:0|0:0,0:0:0:0:
180,46,200956,6,0,L|220:33,2,30.3875009273529,0|0|0,2:0|2:0|2:0,0:0:0:0:
239,116,201242,2,0,L|273:118,2,30.3875009273529,0|0|0,2:0|2:0|2:0,0:0:0:0:
217,204,201527,5,4,0:2:0:0:
221,211,201813,1,0,0:0:0:0:
226,221,202099,1,0,0:0:0:0:
233,231,202384,2,0,P|238:270|240:303,1,60.7750018547059,0|0,0:0|0:0,0:0:0:0:
308,351,202670,1,0,0:0:0:0:
308,351,202813,1,0,0:0:0:0:
382,298,202956,2,0,P|384:267|388:237,1,60.7750018547059,0|0,0:0|0:0,0:0:0:0:
452,171,203242,6,0,L|484:187,2,30.3875009273529,0|0|0,2:0|2:0|2:0,0:0:0:0:
419,85,203527,2,0,L|468:66,2,30.3875009273529,0|0|0,2:0|2:0|2:0,0:0:0:0:
332,52,203813,6,0,P|293:51|248:40,1,77.35,0|0,0:0|0:0,0:0:0:0:
235,31,204384,6,0,P|271:100|251:156,1,110.5,0|0,0:0|0:0,0:0:0:0:
198,178,204813,1,0,0:0:0:0:
198,178,204956,2,0,P|185:160|182:114,1,55.25,2|2,0:2|0:2,0:0:0:0:
96,138,205242,2,0,P|83:156|80:202,1,55.25,2|0,0:2|0:0,0:0:0:0:
19,247,205527,1,0,0:0:0:0:
64,316,205670,2,0,P|146:330|203:294,1,110.5,0|8,1:0|3:3,0:0:0:0:
241,362,206099,5,0,0:0:0:0:
273,285,206242,2,0,P|324:268|378:279,1,110.5,0|2,1:0|1:2,0:0:0:0:
453,315,206670,1,0,0:0:0:0:
453,315,206813,2,0,P|474:275|469:199,1,110.5,4|0,2:0|0:0,0:0:0:0:
474,127,207242,6,0,L|416:119,1,55.25,8|8,1:3|3:3,0:0:0:0:
345,44,207527,2,0,P|405:41|456:22,2,110.5,8|8|8,3:3|1:3|3:3,0:0:0:0:
267,12,208242,1,0,0:0:0:0:
267,12,208384,6,0,P|250:42|254:72,1,55.25,0|0,0:0|0:0,0:0:0:0:
181,108,208670,2,0,P|157:92|92:82,1,55.25,8|8,3:3|3:3,0:0:0:0:
117,165,208956,2,0,L|139:301,1,110.5,2|0,0:2|0:0,0:0:0:0:
104,351,209384,1,0,0:0:0:0:
183,372,209527,6,0,P|211:370|244:356,1,55.25,2|2,0:2|0:2,0:0:0:0:
290,297,209813,2,0,P|318:314|347:319,1,55.25,2|0,0:2|0:0,0:0:0:0:
417,287,210099,1,0,0:0:0:0:
417,287,210242,2,0,P|435:235|430:155,1,110.5,0|8,0:0|3:3,0:0:0:0:
460,72,210670,5,0,0:0:0:0:
385,109,210813,2,0,P|325:117|256:138,1,110.5,0|4,0:0|0:2,0:0:0:0:
162,139,211242,2,0,P|216:146|270:160,1,110.5,0|0,0:0|0:0,0:0:0:0:
305,239,211670,6,0,B|296:284|318:332|318:332|287:332|255:363|255:363|272:337|270:302,1,221,4|2,0:0|2:0,0:0:0:0:
185,313,212527,6,0,B|155:312|148:285|148:285|196:249|263:261|271:318,1,198.899993930054,0|4,1:0|0:2,0:0:0:0:
