osu file format v14

[General]
AudioFilename: audio.mp3
AudioLeadIn: 0
PreviewTime: -1
Countdown: 1
SampleSet: None
StackLeniency: 0.7
Mode: 0
LetterboxInBreaks: 0
WidescreenStoryboard: 0

[Editor]
Bookmarks: 55244
DistanceSpacing: 0.7
BeatDivisor: 4
GridSize: 4
TimelineZoom: 1

[Metadata]
Title:Saisaki
TitleUnicode:サイサキ
Artist:Reol
ArtistUnicode:Reol
Creator:Ameyy
Version:.
Source:
Tags:
BeatmapID:1703469
BeatmapSetID:812110

[Difficulty]
HPDrainRate:7
CircleSize:4
OverallDifficulty:7
ApproachRate:9
SliderMultiplier:1.8
SliderTickRate:1

[Events]
//Background and Video events
0,0,"Konachan.com - 263860 sample.jpg",0,0
//Break Periods
2,18872,21358
//Storyboard Layer 0 (Background)
//Storyboard Layer 1 (Fail)
//Storyboard Layer 2 (Pass)
//Storyboard Layer 3 (Foreground)
//Storyboard Sound Samples

[TimingPoints]
387,285.714285714286,4,2,0,70,1,0
9529,-125,4,2,0,70,0,0
23244,-100,4,2,0,70,0,0

[HitObjects]
256,192,7244,12,0,8958,0:0:0:0:
295,119,9244,6,0,P|373:90|458:105,1,135
434,120,9529,6,0,L|434:221,1,72
324,234,9815,2,0,L|339:322,1,72
212,108,10101,2,0,L|204:211,1,72
80,268,10387,6,0,P|153:279|174:273,1,72
98,108,10672,1,0,0:0:0:0:
72,111,10744,1,0,0:0:0:0:
49,122,10815,1,0,0:0:0:0:
28,136,10887,1,0,0:0:0:0:
12,155,10958,1,0,0:0:0:0:
80,268,11101,1,0,0:0:0:0:
98,108,11244,2,0,L|92:24,1,72
210,224,11529,2,0,P|231:272|224:316,1,72
80,268,11815,5,0,0:0:0:0:
182,130,11958,1,0,0:0:0:0:
230,290,12101,2,0,P|274:298|297:267,1,72
440,133,12387,2,0,P|396:125|373:156,1,72
472,222,12672,1,0,0:0:0:0:
482,38,12815,1,0,0:0:0:0:
431,221,12958,5,0,0:0:0:0:
378,141,13101,1,0,0:0:0:0:
325,56,13244,1,0,0:0:0:0:
292,197,13387,1,0,0:0:0:0:
128,111,13529,6,0,L|96:110,4,18
292,197,13815,2,0,L|325:202,4,18
172,331,14101,6,0,P|152:269|169:204,1,108
186,205,14387,2,0,P|220:156|224:119,1,72
28,282,14672,2,0,P|40:315|64:342,1,72
287,268,14958,2,0,L|292:188,1,72
456,96,15244,5,0,0:0:0:0:
465,119,15315,1,0,0:0:0:0:
468,144,15387,1,0,0:0:0:0:
357,83,15529,1,0,0:0:0:0:
473,12,15672,1,0,0:0:0:0:
439,240,15815,1,0,0:0:0:0:
253,315,15958,1,0,0:0:0:0:
174,150,16101,1,0,0:0:0:0:
359,296,16244,1,0,0:0:0:0:
188,141,16387,5,0,0:0:0:0:
285,226,16529,1,0,0:0:0:0:
242,65,16672,2,0,P|186:49|146:68,1,72
81,241,16958,2,0,P|137:257|177:238,1,72
27,157,17244,5,0,0:0:0:0:
57,340,17387,1,0,0:0:0:0:
252,196,17529,2,0,L|256:162,5,18
375,317,17815,2,0,L|377:350,7,18
353,205,18244,5,0,0:0:0:0:
252,311,18387,1,0,0:0:0:0:
214,115,18529,1,0,0:0:0:0:
375,317,18672,1,0,0:0:0:0:
381,98,21958,5,0,0:0:0:0:
381,98,22029,1,0,0:0:0:0:
381,98,22101,1,0,0:0:0:0:
373,274,22244,1,0,0:0:0:0:
381,98,22387,2,0,L|259:106,1,108
242,104,22672,1,0,0:0:0:0:
78,325,22815,2,0,P|131:320|164:193,1,180
164,194,23244,6,0,B|121:186|121:186|57:192,1,90
256,345,23529,2,0,B|299:353|299:353|363:347,1,90
464,215,23815,2,0,B|422:177|388:199|388:199|411:266,1,135
494,134,24101,2,0,P|421:108|343:127,1,135
273,253,24387,6,0,P|277:185|221:128,1,135
210,128,24672,1,0,0:0:0:0:
221,319,24815,6,0,P|290:335|329:318,1,90
406,250,25101,1,0,0:0:0:0:
394,354,25244,1,0,0:0:0:0:
237,135,25387,1,0,0:0:0:0:
288,231,25529,5,0,0:0:0:0:
344,66,25672,1,0,0:0:0:0:
112,97,25815,1,0,0:0:0:0:
191,238,25958,1,0,0:0:0:0:
350,72,26101,2,0,P|377:130|374:179,1,90
131,306,26387,2,0,P|104:248|107:199,1,90
329,258,26672,6,0,L|321:372,1,90
476,176,26958,2,0,L|479:63,1,90
424,259,27244,1,0,0:0:0:0:
378,157,27387,5,0,0:0:0:0:
268,166,27529,1,0,0:0:0:0:
328,257,27672,1,0,0:0:0:0:
424,259,27815,5,0,0:0:0:0:
220,98,27958,1,0,0:0:0:0:
320,337,28101,1,0,0:0:0:0:
406,77,28244,1,0,0:0:0:0:
219,262,28387,6,0,L|113:264,1,90
220,98,28672,2,0,P|285:112|321:149,1,90
146,167,28958,1,0,0:0:0:0:
152,17,29101,1,0,0:0:0:0:
303,125,29244,1,0,0:0:0:0:
270,220,29387,1,0,0:0:0:0:
220,98,29529,5,0,0:0:0:0:
439,100,29672,1,0,0:0:0:0:
442,302,29815,1,0,0:0:0:0:
218,306,29958,1,0,0:0:0:0:
511,258,30101,6,0,P|523:313|497:367,1,90
270,220,30387,2,0,L|271:112,1,90
442,302,30672,1,0,0:0:0:0:
368,179,30815,1,0,0:0:0:0:
305,302,30958,1,0,0:0:0:0:
476,141,31101,1,0,0:0:0:0:
270,130,31244,6,0,B|208:130|208:130|156:141|156:141|83:141,1,180
143,53,31672,1,0,0:0:0:0:
140,277,31815,2,0,P|218:318|305:302,1,180
