osu file format v14

[General]
AudioFilename: Reol - SYSTEMATIC LOVE.mp3
AudioLeadIn: 0
PreviewTime: 106210
Countdown: 0
SampleSet: None
StackLeniency: 0.7
Mode: 1
LetterboxInBreaks: 0
WidescreenStoryboard: 1

[Editor]
DistanceSpacing: 1.7
BeatDivisor: 4
GridSize: 4
TimelineZoom: 5.999997

[Metadata]
Title:SYSTEMATIC LOVE
TitleUnicode:システマティック・ラヴ
Artist:Reol
ArtistUnicode:れをる
Creator:Fantazy
Version:%0|%0
Source:
Tags:Reworu Utattemita 歌ってみた Cover Kameria×Satsuki ga Tenkomori さつき が てんこもり feat Hatsune Miku 初音ミク Camellia かめりあ Maclo マクロ Error Dubstep Party Junkie Stance on Wave VOCA NICO☆PARTY DJ VOCA NICO VOCALOID 踊ボカ!! ~踊ってみたセレクション~. Hall of Fame VOCALOID殿堂 dendou VOCALOID伝説 densetsu Legends Collab Collaboration Secretpipe Asphyxia -kevincela- iyasine BluOxy Irreversible monstrata Monstrata Kyshiro alacat EvilElvis EvilElvisV2
BeatmapID:1449116
BeatmapSetID:684719

[Difficulty]
HPDrainRate:3
CircleSize:5
OverallDifficulty:6
ApproachRate:10
SliderMultiplier:1.4
SliderTickRate:1

[Events]
//Background and Video events
0,0,"systematic_love_2.png",0,0
//Break Periods
//Storyboard Layer 0 (Background)
//Storyboard Layer 1 (Fail)
//Storyboard Layer 2 (Pass)
//Storyboard Layer 3 (Foreground)
//Storyboard Sound Samples

[TimingPoints]
328,441.176470588235,4,2,0,100,1,0
328,441.176470588235,4,2,0,100,1,0
328,-50,4,2,0,100,0,0
769,-100,4,2,0,100,0,0
2202,-98.0392156862745,4,2,0,100,0,0
2313,-96.1538461538461,4,2,0,100,0,0
2533,-92.5925925925926,4,2,0,100,0,0
2754,-86.2068965517241,4,2,0,100,0,0
2975,-75.7575757575758,4,2,0,100,0,0
3048,-60.9756097560976,4,2,0,100,0,0
3122,-43.859649122807,4,2,0,100,0,0
3195,-28.0898876404494,4,2,0,100,0,0
3416,-100,4,2,0,100,0,0
4629,-90.9090909090909,4,2,0,100,0,0
4739,-83.3333333333333,4,2,0,100,0,0
4960,-76.9230769230769,4,2,0,100,0,0
5180,-71.4285714285714,4,2,0,100,0,0
5401,-66.6666666666667,4,2,0,100,0,0
5842,-68.9655172413793,4,2,0,100,0,0
6283,-71.4285714285714,4,2,0,100,0,0
6394,-74.0740740740741,4,2,0,100,0,0
6504,-76.9230769230769,4,2,0,100,0,0
6614,-80,4,2,0,100,0,0
6725,-83.3333333333333,4,2,0,100,0,0
6835,-86.9565217391304,4,2,0,100,0,0
6945,-90.9090909090909,4,2,0,100,0,0
7055,-95.2380952380952,4,2,0,100,0,0
7166,-100,4,2,0,100,0,0
7276,-105.263157894737,4,2,0,100,0,0
7386,-50,4,2,0,100,0,0
7827,-100,4,2,0,100,0,0
9260,-98.0392156862745,4,2,0,100,0,0
9371,-96.1538461538461,4,2,0,100,0,0
9591,-92.5925925925926,4,2,0,100,0,0
9812,-86.2068965517241,4,2,0,100,0,0
10033,-75.7575757575758,4,2,0,100,0,0
10107,-60.9756097560976,4,2,0,100,0,0
10180,-43.859649122807,4,2,0,100,0,0
10254,-28.0898876404494,4,2,0,100,0,0
10475,-100,4,2,0,100,0,0
12460,-66.6666666666667,4,2,0,100,0,0
12901,-68.9655172413793,4,2,0,100,0,0
13341,-71.4285714285714,4,2,0,100,0,0
13452,-74.0740740740741,4,2,0,100,0,0
13562,-76.9230769230769,4,2,0,100,0,0
13672,-80,4,2,0,100,0,0
13783,-83.3333333333333,4,2,0,100,0,0
13893,-86.9565217391304,4,2,0,100,0,0
14003,-90.9090909090909,4,2,0,100,0,0
14113,-95.2380952380952,4,2,0,100,0,0
14224,-100,4,2,0,100,0,0
14334,-105.263157894737,4,2,0,100,0,0
14444,-111.111111111111,4,2,0,100,0,0
14886,-83.3333333333333,4,2,0,100,0,0
16210,-76.9230769230769,4,2,0,100,0,0
16320,-71.4285714285714,4,2,0,100,0,0
16430,-66.6666666666667,4,2,0,100,0,0
16651,-62.5,4,2,0,100,0,0
16872,-58.8235294117647,4,2,0,100,0,0
17092,-33.3333333333333,4,2,0,100,0,1
17533,-28.5714285714286,4,2,0,100,0,1
17975,-25,4,2,0,100,0,1
18002,44.1176470588235,4,2,0,100,1,1
19739,220.588235294118,4,2,0,100,1,0
19739,-100,4,2,0,100,0,0
19766,-25,4,2,0,100,0,0
20180,-45.4545454545455,4,2,0,100,0,0
20291,-50,4,2,0,100,0,0
20401,-55.5555555555556,4,2,0,100,0,0
20511,-62.5,4,2,0,100,0,0
20622,441.176470588235,4,2,0,100,1,0
20622,-100,4,2,0,100,0,0
20732,-83.3333333333333,4,2,0,100,0,0
21063,-90.9090909090909,4,2,0,100,0,0
21283,-95.2380952380952,4,2,0,100,0,0
21504,441.176470588235,4,2,0,100,1,1
21504,-100,4,2,0,100,0,1
21614,-50,4,2,0,100,0,1
21669,-33.3333333333333,4,2,0,100,0,1
21724,-25,4,2,0,100,0,1
21945,-100,4,2,0,100,0,0
22386,-100,4,2,0,100,0,1
22827,-100,4,2,0,100,0,0
23269,-100,4,2,0,100,0,1
23710,-100,4,2,0,100,0,0
24151,-100,4,2,0,100,0,1
24592,-100,4,2,0,100,0,0
25033,-100,4,2,0,100,0,1
25475,-100,4,2,0,100,0,0
25916,-100,4,2,0,100,0,1
26357,-100,4,2,0,100,0,0
26798,-100,4,2,0,100,0,1
27239,-100,4,2,0,100,0,0
27680,-100,4,2,0,100,0,1
28122,-100,4,2,0,100,0,0
28563,-100,4,2,0,100,0,1
28783,-86.9565217391304,4,2,0,100,0,0
28857,-90.9090909090909,4,2,0,100,0,0
28930,-95.2380952380952,4,2,0,100,0,0
29004,-100,4,2,0,100,0,0
29445,-100,4,2,0,100,0,1
29886,-100,4,2,0,100,0,0
30327,-100,4,2,0,100,0,1
30769,-100,4,2,0,100,0,0
31210,-100,4,2,0,100,0,1
31651,-100,4,2,0,100,0,0
32092,-100,4,2,0,100,0,1
32533,-100,4,2,0,100,0,0
32975,-100,4,2,0,100,0,1
33416,-100,4,2,0,100,0,0
33857,-100,4,2,0,100,0,1
34298,-100,4,2,0,100,0,0
34739,-100,4,2,0,100,0,1
35180,-100,4,2,0,100,0,0
35622,-100,4,2,0,100,0,1
35677,-100,4,2,0,100,0,0
35732,-100,4,2,0,100,0,1
35787,-100,4,2,0,100,0,0
35842,-86.9565217391304,4,2,0,100,0,1
35897,-90.9090909090909,4,2,0,100,0,1
35952,-95.2380952380952,4,2,0,100,0,1
36063,-100,4,2,0,100,0,0
36504,-100,4,2,0,100,0,1
36945,-100,4,2,0,100,0,0
37386,-100,4,2,0,100,0,1
37827,-100,4,2,0,100,0,0
38269,-100,4,2,0,100,0,1
38710,-100,4,2,0,100,0,0
39151,-100,4,2,0,100,0,1
39592,-100,4,2,0,100,0,0
40033,-100,4,2,0,100,0,1
40475,-100,4,2,0,100,0,0
40916,-100,4,2,0,100,0,1
41357,-100,4,2,0,100,0,0
41798,-100,4,2,0,100,0,1
42239,-100,4,2,0,100,0,0
42680,-100,4,2,0,100,0,1
42790,-50,4,2,0,100,0,1
42845,-33.3333333333333,4,2,0,100,0,1
42900,-25,4,2,0,100,0,1
43122,-100,4,2,0,100,0,0
43563,-100,4,2,0,100,0,1
44004,-100,4,2,0,100,0,0
44445,-100,4,2,0,100,0,1
44886,-100,4,2,0,100,0,0
45327,-100,4,2,0,100,0,1
45769,-100,4,2,0,100,0,0
46210,-100,4,2,0,100,0,1
46651,-100,4,2,0,100,0,0
47092,-100,4,2,0,100,0,1
47533,-100,4,2,0,100,0,0
47974,220.588235294118,4,2,0,100,1,1
47974,-25,4,2,0,100,0,1
48195,-100,4,2,0,100,0,1
48208,-25,4,2,0,100,0,1
48416,-100,4,2,0,100,0,1
48428,-25,4,2,0,100,0,1
48526,-100,4,2,0,100,0,1
48539,-25,4,2,0,100,0,1
48747,-105.263157894737,4,2,0,100,0,1
48759,-25,4,2,0,100,0,1
48967,-125,4,2,0,100,0,1
48980,-28.5714285714286,4,2,0,100,0,1
49104,-33.3333333333333,4,2,0,100,0,1
49188,-181.818181818182,4,2,0,100,0,1
49214,-35.7142857142857,4,2,0,100,0,1
49297,-40,4,2,0,100,0,1
49519,-250,4,2,0,100,0,1
49573,-45.4545454545455,4,2,0,100,0,1
49739,441.176470588235,4,2,0,100,1,0
49739,-333.333333333333,4,2,0,100,0,0
51090,110.294117647059,4,2,0,100,1,1
51090,-33.3333333333333,4,2,0,100,0,1
53600,441.176470588235,4,2,0,100,1,0
53600,-333.333333333333,4,2,0,100,0,0
54629,110.294117647059,4,2,0,100,1,1
54629,-50,4,2,0,100,0,1
56798,441.176470588235,4,2,0,100,1,0
56798,-333.333333333333,4,2,0,100,0,0
58158,110.294117647059,4,2,0,100,1,1
58158,-33.3333333333333,4,2,0,100,0,1
60658,441.176470588235,4,2,0,100,1,0
60658,-333.333333333333,4,2,0,100,0,0
61687,98.6842105263158,4,2,0,100,1,1
61687,-25,4,2,0,100,0,1
63857,441.176470588235,4,2,0,100,1,0
63857,-66.6666666666667,4,2,0,100,0,0
65217,44.1176470588235,4,2,0,100,1,1
65217,-25,4,2,0,100,0,1
67717,441.176470588235,4,2,0,100,1,0
67717,-66.6666666666667,4,2,0,100,0,0
68737,44.1176470588235,4,2,0,100,1,1
68737,-25,4,2,0,100,0,1
70916,441.176470588235,4,2,0,100,1,0
70916,-66.6666666666667,4,2,0,100,0,0
72294,44.1176470588235,4,2,0,100,1,1
72294,-25,4,2,0,100,0,1
73122,441.176470588235,4,2,0,100,1,1
73122,-66.6666666666667,4,2,0,100,0,1
73177,-33.3333333333333,4,2,0,100,0,1
73563,-66.6666666666667,4,2,0,100,0,1
73618,-40,4,2,0,100,0,1
74004,-66.6666666666667,4,2,0,100,0,1
74059,-50,4,2,0,100,0,1
74445,-66.6666666666667,4,2,0,100,0,1
74500,-51.2820512820513,4,2,0,100,0,1
74666,-66.6666666666667,4,2,0,100,0,1
74721,-52.6315789473684,4,2,0,100,0,1
74886,-66.6666666666667,4,2,0,100,0,1
74941,-54.054054054054,4,2,0,100,0,1
75107,-66.6666666666667,4,2,0,100,0,1
75162,-55.5555555555556,4,2,0,100,0,1
75327,-66.6666666666667,4,2,0,100,0,1
75383,-57.1428571428571,4,2,0,100,0,1
75548,-66.6666666666667,4,2,0,100,0,1
75603,-58.8235294117647,4,2,0,100,0,1
75769,-66.6666666666667,4,2,0,100,0,1
75824,-60.6060606060606,4,2,0,100,0,1
75989,-66.6666666666667,4,2,0,100,0,1
76044,-62.5,4,2,0,100,0,1
76210,-66.6666666666667,4,2,0,100,0,1
76265,-62.8930817610063,4,2,0,100,0,1
76320,-66.6666666666667,4,2,0,100,0,1
76375,-63.2911392405063,4,2,0,100,0,1
76430,-66.6666666666667,4,2,0,100,0,1
76486,-63.6942675159236,4,2,0,100,0,1
76541,-66.6666666666667,4,2,0,100,0,1
76596,-64.1025641025641,4,2,0,100,0,1
76651,-66.6666666666667,4,2,0,100,0,1
76706,-64.5161290322581,4,2,0,100,0,1
76761,-66.6666666666667,4,2,0,100,0,1
76816,-64.9350649350649,4,2,0,100,0,1
76872,-66.6666666666667,4,2,0,100,0,1
76927,-65.359477124183,4,2,0,100,0,1
76982,-66.6666666666667,4,2,0,100,0,1
77037,-65.7894736842105,4,2,0,100,0,1
77092,-66.6666666666667,4,2,0,100,0,1
77147,-66.2251655629139,4,2,0,100,0,1
77202,-66.6666666666667,4,2,0,100,0,1
77258,-68.9655172413793,4,2,0,100,0,1
77313,-66.6666666666667,4,2,0,100,0,1
77368,-71.4285714285714,4,2,0,100,0,1
77423,-66.6666666666667,4,2,0,100,0,1
77478,-74.0740740740741,4,2,0,100,0,1
77533,-66.6666666666667,4,2,0,100,0,0
77754,-50,4,2,0,100,0,0
77975,441.176470588235,4,2,0,100,1,0
77975,-50,4,2,0,100,0,0
78030,-100,4,2,0,100,0,0
78664,-12.5,4,2,0,100,0,1
78967,-100,4,2,0,100,0,0
79546,-12.5,4,2,0,100,0,1
79739,-100,4,2,0,100,0,0
80429,-12.5,4,2,0,100,0,1
80511,-100,4,2,0,100,0,0
80539,-12.5,4,2,0,100,0,1
80622,-100,4,2,0,100,0,0
81283,-12.5,4,2,0,100,0,1
81504,-86.9565217391304,4,2,0,100,0,0
81559,-90.9090909090909,4,2,0,100,0,0
81614,-95.2380952380952,4,2,0,100,0,0
81669,-100,4,2,0,100,0,0
81835,-111.111111111111,4,2,0,100,0,0
81945,-117.647058823529,4,2,0,100,0,0
82019,-111.111111111111,4,2,0,100,0,0
82092,-105.263157894737,4,2,0,100,0,0
82166,-100,4,2,0,100,0,0
82938,-125,4,2,0,100,0,0
82993,-117.647058823529,4,2,0,100,0,0
83048,-111.111111111111,4,2,0,100,0,0
83103,-105.263157894737,4,2,0,100,0,0
83158,-100,4,2,0,100,0,0
85723,-12.5,4,2,0,100,0,1
85916,-100,4,2,0,100,0,0
86605,-12.5,4,2,0,100,0,1
86798,-100,4,2,0,100,0,0
86908,-25,4,2,0,100,0,1
87019,-100,4,2,0,100,0,0
87046,-12.5,4,2,0,100,0,1
87129,-25,4,2,0,100,0,1
87239,-100,4,2,0,100,0,0
87377,-12.5,4,2,0,100,0,1
87460,-100,4,2,0,100,0,0
87487,-12.5,4,2,0,100,0,1
87680,-100,4,2,0,100,0,0
88342,-12.5,4,2,0,100,0,1
88342,-25,4,2,0,100,0,0
88563,-86.9565217391304,4,2,0,100,0,0
88618,-90.9090909090909,4,2,0,100,0,0
88673,-95.2380952380952,4,2,0,100,0,0
88728,-100,4,2,0,100,0,0
88894,-105.263157894737,4,2,0,100,0,0
89004,-117.647058823529,4,2,0,100,0,0
89077,-111.111111111111,4,2,0,100,0,0
89151,-105.263157894737,4,2,0,100,0,0
89225,-100,4,2,0,100,0,0
89693,-12.5,4,2,0,100,0,1
89886,-100,4,2,0,100,0,0
89914,-12.5,4,2,0,100,0,1
90107,-100,4,2,0,100,0,0
90134,-12.5,4,2,0,100,0,1
90327,-100,4,2,0,100,0,0
91017,-12.5,4,2,0,100,0,1
91210,-100,4,2,0,100,0,0
91237,-25,4,2,0,100,0,0
91651,-50,4,2,0,100,0,0
92092,-100,4,2,0,100,0,0
92781,-12.5,4,2,0,100,0,1
92974,-100,4,2,0,100,0,0
93223,-12.5,4,2,0,100,0,1
93305,-100,4,2,0,100,0,0
93333,-12.5,4,2,0,100,0,1
93416,-100,4,2,0,100,0,0
93664,-12.5,4,2,0,100,0,1
93857,-100,4,2,0,100,0,0
93967,-12.5,4,2,0,100,0,1
94077,-100,4,2,0,100,0,0
94519,-12.5,4,2,0,100,0,1
94739,-100,4,2,0,100,0,0
95401,-12.5,4,2,0,100,0,1
95622,-100,4,2,0,100,0,0
95732,-12.5,4,2,0,100,0,0
95842,-83.3333333333333,4,2,0,100,0,1
95952,-12.5,4,2,0,100,0,0
96063,-100,4,2,0,100,0,0
96173,-12.5,4,2,0,100,0,0
96283,-83.3333333333333,4,2,0,100,0,1
96311,-12.5,4,2,0,100,0,1
96339,-83.3333333333333,4,2,0,100,0,1
96394,-12.5,4,2,0,100,0,0
96504,-100,4,2,0,100,0,0
96725,-83.3333333333333,4,2,0,100,0,1
96752,-12.5,4,2,0,100,0,1
96780,-83.3333333333333,4,2,0,100,0,1
96807,-12.5,4,2,0,100,0,0
96945,-100,4,2,0,100,0,0
97166,-83.3333333333333,4,2,0,100,0,1
97193,-12.5,4,2,0,100,0,1
97221,-83.3333333333333,4,2,0,100,0,1
97248,-12.5,4,2,0,100,0,0
97386,-100,4,2,0,100,0,0
97607,-83.3333333333333,4,2,0,100,0,1
97717,-100,4,2,0,100,0,0
98048,-83.3333333333333,4,2,0,100,0,1
98076,-12.5,4,2,0,100,0,1
98103,-83.3333333333333,4,2,0,100,0,1
98131,-12.5,4,2,0,100,0,0
98269,-100,4,2,0,100,0,0
98489,-83.3333333333333,4,2,0,100,0,1
98517,-12.5,4,2,0,100,0,1
98544,-83.3333333333333,4,2,0,100,0,1
98572,-12.5,4,2,0,100,0,0
98710,-100,4,2,0,100,0,0
98930,-83.3333333333333,4,2,0,100,0,1
98958,-12.5,4,2,0,100,0,1
98986,-83.3333333333333,4,2,0,100,0,1
99013,-12.5,4,2,0,100,0,0
99151,-100,4,2,0,100,0,0
99840,-12.5,4,2,0,100,0,1
100033,-100,4,2,0,100,0,0
100281,-12.5,4,2,0,100,0,1
100364,-100,4,2,0,100,0,0
100392,-12.5,4,2,0,100,0,1
100475,-100,4,2,0,100,0,0
100612,-12.5,4,2,0,100,0,1
100695,-100,4,2,0,100,0,1
100723,-12.5,4,2,0,100,0,1
100833,-12.5,4,2,0,100,0,1
100916,-100,4,2,0,100,0,0
101577,-12.5,4,2,0,100,0,1
102019,-100,4,2,0,100,0,0
102487,-25,4,2,0,100,0,0
102680,-90.9090909090909,4,2,0,100,0,1
102754,-90.9090909090909,4,2,0,100,0,0
102827,-89.2857142857143,4,2,0,100,0,1
102901,-89.2857142857143,4,2,0,100,0,0
102974,-87.719298245614,4,2,0,100,0,1
103048,-87.719298245614,4,2,0,100,0,0
103122,-86.2068965517241,4,2,0,100,0,1
103196,-86.2068965517241,4,2,0,100,0,0
103269,-84.7457627118644,4,2,0,100,0,1
103343,-84.7457627118644,4,2,0,100,0,0
103416,-83.3333333333333,4,2,0,100,0,1
103490,-83.3333333333333,4,2,0,100,0,0
103563,-81.9672131147541,4,2,0,100,0,1
103637,-81.9672131147541,4,2,0,100,0,0
103710,-80.6451612903226,4,2,0,100,0,1
103784,-80.6451612903226,4,2,0,100,0,0
103857,-79.3650793650794,4,2,0,100,0,1
103931,-79.3650793650794,4,2,0,100,0,0
104004,-78.125,4,2,0,100,0,1
104078,-78.125,4,2,0,100,0,0
104151,-76.9230769230769,4,2,0,100,0,1
104225,-76.9230769230769,4,2,0,100,0,0
104298,-75.7575757575758,4,2,0,100,0,1
104372,-75.7575757575758,4,2,0,100,0,0
104417,1E+17,4,1,0,100,1,8
104445,441.176470588235,4,2,0,100,1,0
104445,-66.6666666666667,4,2,0,100,0,0
104473,-12.5,4,2,0,100,0,1
104886,-83.3333333333333,4,2,0,100,0,0
104997,-86.9565217391304,4,2,0,100,0,0
105107,-90.9090909090909,4,2,0,100,0,0
105217,-95.2380952380952,4,2,0,100,0,0
105327,-90.9090909090909,4,2,0,100,0,0
105520,-90.9090909090909,4,2,0,100,0,0
105769,-90.9090909090909,4,2,0,100,0,0
106210,-83.3333333333333,4,2,0,100,0,1
106320,-50,4,2,0,100,0,1
106375,-33.3333333333333,4,2,0,100,0,1
106430,-25,4,2,0,100,0,1
106651,-83.3333333333333,4,2,0,100,0,0
107092,-83.3333333333333,4,2,0,100,0,1
107533,-83.3333333333333,4,2,0,100,0,0
107975,-83.3333333333333,4,2,0,100,0,1
108416,-83.3333333333333,4,2,0,100,0,0
108857,-83.3333333333333,4,2,0,100,0,1
109298,-83.3333333333333,4,2,0,100,0,0
109739,-83.3333333333333,4,2,0,100,0,1
110180,-83.3333333333333,4,2,0,100,0,0
110622,-83.3333333333333,4,2,0,100,0,1
111063,-83.3333333333333,4,2,0,100,0,0
111504,-83.3333333333333,4,2,0,100,0,1
111945,-83.3333333333333,4,2,0,100,0,0
112386,-83.3333333333333,4,2,0,100,0,1
112827,-83.3333333333333,4,2,0,100,0,0
113269,-83.3333333333333,4,2,0,100,0,1
113489,-74.0740740740741,4,2,0,100,0,1
113563,-76.9230769230769,4,2,0,100,0,1
113636,-80,4,2,0,100,0,1
113710,-83.3333333333333,4,2,0,100,0,0
114151,-83.3333333333333,4,2,0,100,0,1
114592,-83.3333333333333,4,2,0,100,0,0
115033,-83.3333333333333,4,2,0,100,0,1
115475,-83.3333333333333,4,2,0,100,0,0
115916,-83.3333333333333,4,2,0,100,0,1
116357,-83.3333333333333,4,2,0,100,0,0
116798,-83.3333333333333,4,2,0,100,0,1
117239,-83.3333333333333,4,2,0,100,0,0
117680,-83.3333333333333,4,2,0,100,0,1
118122,-83.3333333333333,4,2,0,100,0,0
118563,-83.3333333333333,4,2,0,100,0,1
119004,-83.3333333333333,4,2,0,100,0,0
119445,-83.3333333333333,4,2,0,100,0,1
119886,-83.3333333333333,4,2,0,100,0,0
120327,-83.3333333333333,4,2,0,100,0,1
120383,-83.3333333333333,4,2,0,100,0,0
120438,-83.3333333333333,4,2,0,100,0,1
120493,-83.3333333333333,4,2,0,100,0,0
120548,-74.0740740740741,4,2,0,100,0,1
120603,-76.9230769230769,4,2,0,100,0,0
120658,-80,4,2,0,100,0,1
120769,-83.3333333333333,4,2,0,100,0,0
121210,-83.3333333333333,4,2,0,100,0,1
121651,-83.3333333333333,4,2,0,100,0,0
122092,-83.3333333333333,4,2,0,100,0,1
122533,-83.3333333333333,4,2,0,100,0,0
122975,-83.3333333333333,4,2,0,100,0,1
123416,-83.3333333333333,4,2,0,100,0,0
123857,-83.3333333333333,4,2,0,100,0,1
124298,-83.3333333333333,4,2,0,100,0,0
124739,-83.3333333333333,4,2,0,100,0,1
125180,-83.3333333333333,4,2,0,100,0,0
125622,-83.3333333333333,4,2,0,100,0,1
126063,-83.3333333333333,4,2,0,100,0,0
126504,-83.3333333333333,4,2,0,100,0,1
126945,-83.3333333333333,4,2,0,100,0,0
127386,-83.3333333333333,4,2,0,100,0,1
127607,-74.0740740740741,4,2,0,100,0,1
127680,-76.9230769230769,4,2,0,100,0,1
127754,-80,4,2,0,100,0,1
127827,-83.3333333333333,4,2,0,100,0,0
128269,-83.3333333333333,4,2,0,100,0,1
128710,-83.3333333333333,4,2,0,100,0,0
129151,-83.3333333333333,4,2,0,100,0,1
129592,-83.3333333333333,4,2,0,100,0,0
130033,-83.3333333333333,4,2,0,100,0,1
130475,-83.3333333333333,4,2,0,100,0,0
130916,-83.3333333333333,4,2,0,100,0,1
131357,-83.3333333333333,4,2,0,100,0,0
131798,-83.3333333333333,4,2,0,100,0,1
132239,-83.3333333333333,4,2,0,100,0,0
132515,-12.5,4,2,0,100,0,0
132543,-12.987012987013,4,2,0,100,0,1
132570,-13.6986301369863,4,2,0,100,0,1
132598,-14.2857142857143,4,2,0,100,0,1
132625,-14.9253731343284,4,2,0,100,0,1
132653,-15.8730158730159,4,2,0,100,0,1
132680,-16.6666666666667,4,2,0,100,0,0
132708,-17.5438596491228,4,2,0,100,0,1
132736,-18.8679245283019,4,2,0,100,0,1
132763,-20,4,2,0,100,0,1
132791,-21.2765957446809,4,2,0,100,0,1
132818,-23.2558139534884,4,2,0,100,0,1
132846,-25,4,2,0,100,0,0
132901,-125,4,2,0,100,0,0
132956,-117.647058823529,4,2,0,100,0,0
133011,-111.111111111111,4,2,0,100,0,0
133066,-105.263157894737,4,2,0,100,0,0
133122,-100,4,2,0,100,0,0
133342,-95.2380952380952,4,2,0,100,0,0
133563,-90.9090909090909,4,2,0,100,0,0
133783,-86.9565217391304,4,2,0,100,0,0
134004,-83.3333333333333,4,2,0,100,0,0
134445,-83.3333333333333,4,2,0,100,0,1
134555,-83.3333333333333,4,2,0,100,0,0
134665,-83.3333333333333,4,2,0,100,0,1
134666,-80,4,2,0,100,0,1
134720,-76.9230769230769,4,2,0,100,0,1
134721,-74.0740740740741,4,2,0,100,0,1
134776,-83.3333333333333,4,2,0,100,0,0
134886,-83.3333333333333,4,2,0,100,0,1
134996,-83.3333333333333,4,2,0,100,0,0
135106,-83.3333333333333,4,2,0,100,0,1
135107,-80,4,2,0,100,0,1
135161,-76.9230769230769,4,2,0,100,0,1
135162,-74.0740740740741,4,2,0,100,0,1
135217,-83.3333333333333,4,2,0,100,0,0
135327,-83.3333333333333,4,2,0,100,0,1
135437,-83.3333333333333,4,2,0,100,0,0
135547,-83.3333333333333,4,2,0,100,0,1
135548,-80,4,2,0,100,0,1
135602,-76.9230769230769,4,2,0,100,0,1
135604,-74.0740740740741,4,2,0,100,0,1
135658,-83.3333333333333,4,2,0,100,0,0
135768,-83.3333333333333,4,2,0,100,0,1
135878,-83.3333333333333,4,2,0,100,0,0
135989,-83.3333333333333,4,2,0,100,0,1
135990,-80,4,2,0,100,0,1
136044,-76.9230769230769,4,2,0,100,0,1
136045,-74.0740740740741,4,2,0,100,0,1
136100,-83.3333333333333,4,2,0,100,0,0
136209,-83.3333333333333,4,2,0,100,0,1
136319,-83.3333333333333,4,2,0,100,0,0
136430,-83.3333333333333,4,2,0,100,0,1
136431,-80,4,2,0,100,0,1
136485,-76.9230769230769,4,2,0,100,0,1
136486,-74.0740740740741,4,2,0,100,0,1
136541,-83.3333333333333,4,2,0,100,0,0
136650,-83.3333333333333,4,2,0,100,0,1
136760,-83.3333333333333,4,2,0,100,0,0
136871,-83.3333333333333,4,2,0,100,0,1
136872,-80,4,2,0,100,0,1
136926,-76.9230769230769,4,2,0,100,0,1
136927,-74.0740740740741,4,2,0,100,0,1
136982,-83.3333333333333,4,2,0,100,0,0
137092,-83.3333333333333,4,2,0,100,0,1
137202,-83.3333333333333,4,2,0,100,0,0
137312,-83.3333333333333,4,2,0,100,0,1
137313,-80,4,2,0,100,0,1
137367,-76.9230769230769,4,2,0,100,0,1
137368,-74.0740740740741,4,2,0,100,0,1
137423,-83.3333333333333,4,2,0,100,0,0
137533,-83.3333333333333,4,2,0,100,0,1
137643,-83.3333333333333,4,2,0,100,0,0
137753,-83.3333333333333,4,2,0,100,0,1
137754,-80,4,2,0,100,0,1
137808,-76.9230769230769,4,2,0,100,0,1
137809,-74.0740740740741,4,2,0,100,0,1
137864,-83.3333333333333,4,2,0,100,0,0
137974,-83.3333333333333,4,2,0,100,0,1
138084,-83.3333333333333,4,2,0,100,0,0
138194,-83.3333333333333,4,2,0,100,0,1
138195,-80,4,2,0,100,0,1
138249,-76.9230769230769,4,2,0,100,0,1
138251,-74.0740740740741,4,2,0,100,0,1
138305,-83.3333333333333,4,2,0,100,0,0
138415,-83.3333333333333,4,2,0,100,0,1
138525,-83.3333333333333,4,2,0,100,0,0
138636,-83.3333333333333,4,2,0,100,0,1
138637,-80,4,2,0,100,0,1
138691,-76.9230769230769,4,2,0,100,0,1
138692,-74.0740740740741,4,2,0,100,0,1
138747,-83.3333333333333,4,2,0,100,0,0
138856,-83.3333333333333,4,2,0,100,0,1
138966,-83.3333333333333,4,2,0,100,0,0
139077,-83.3333333333333,4,2,0,100,0,1
139078,-80,4,2,0,100,0,1
139132,-76.9230769230769,4,2,0,100,0,1
139133,-74.0740740740741,4,2,0,100,0,1
139188,-83.3333333333333,4,2,0,100,0,0
139297,-83.3333333333333,4,2,0,100,0,1
139407,-83.3333333333333,4,2,0,100,0,0
139518,-83.3333333333333,4,2,0,100,0,1
139519,-80,4,2,0,100,0,1
139573,-76.9230769230769,4,2,0,100,0,1
139574,-74.0740740740741,4,2,0,100,0,1
139629,-83.3333333333333,4,2,0,100,0,0
139739,-83.3333333333333,4,2,0,100,0,1
139849,-83.3333333333333,4,2,0,100,0,0
139959,-83.3333333333333,4,2,0,100,0,1
139960,-80,4,2,0,100,0,1
140014,-76.9230769230769,4,2,0,100,0,1
140015,-74.0740740740741,4,2,0,100,0,1
140070,-83.3333333333333,4,2,0,100,0,0
140180,-83.3333333333333,4,2,0,100,0,1
140290,-83.3333333333333,4,2,0,100,0,0
140400,-83.3333333333333,4,2,0,100,0,1
140401,-80,4,2,0,100,0,1
140456,-76.9230769230769,4,2,0,100,0,1
140457,-74.0740740740741,4,2,0,100,0,1
140511,-83.3333333333333,4,2,0,100,0,0
140621,-83.3333333333333,4,2,0,100,0,1
140731,-83.3333333333333,4,2,0,100,0,0
140842,-83.3333333333333,4,2,0,100,0,1
140843,-80,4,2,0,100,0,1
140897,-76.9230769230769,4,2,0,100,0,1
140898,-74.0740740740741,4,2,0,100,0,1
140952,-83.3333333333333,4,2,0,100,0,0
141062,-83.3333333333333,4,2,0,100,0,1
141172,-83.3333333333333,4,2,0,100,0,0
141283,-83.3333333333333,4,2,0,100,0,1
141284,-80,4,2,0,100,0,1
141338,-76.9230769230769,4,2,0,100,0,1
141339,-74.0740740740741,4,2,0,100,0,1
141394,-83.3333333333333,4,2,0,100,0,0
141503,-83.3333333333333,4,2,0,100,0,1
141613,-83.3333333333333,4,2,0,100,0,0
141724,-83.3333333333333,4,2,0,100,0,1
141725,-80,4,2,0,100,0,1
141779,-76.9230769230769,4,2,0,100,0,1
141780,-74.0740740740741,4,2,0,100,0,1
141835,-83.3333333333333,4,2,0,100,0,0
141944,-83.3333333333333,4,2,0,100,0,1
142054,-83.3333333333333,4,2,0,100,0,0
142165,-83.3333333333333,4,2,0,100,0,1
142166,-80,4,2,0,100,0,1
142220,-76.9230769230769,4,2,0,100,0,1
142221,-74.0740740740741,4,2,0,100,0,1
142276,-83.3333333333333,4,2,0,100,0,0
142385,-83.3333333333333,4,2,0,100,0,1
142495,-83.3333333333333,4,2,0,100,0,0
142606,-83.3333333333333,4,2,0,100,0,1
142607,-80,4,2,0,100,0,1
142661,-76.9230769230769,4,2,0,100,0,1
142662,-74.0740740740741,4,2,0,100,0,1
142717,-83.3333333333333,4,2,0,100,0,0
142826,-83.3333333333333,4,2,0,100,0,1
142936,-83.3333333333333,4,2,0,100,0,0
143047,-83.3333333333333,4,2,0,100,0,1
143048,-80,4,2,0,100,0,1
143103,-76.9230769230769,4,2,0,100,0,1
143104,-74.0740740740741,4,2,0,100,0,1
143158,-83.3333333333333,4,2,0,100,0,0
143268,-83.3333333333333,4,2,0,100,0,1
143378,-83.3333333333333,4,2,0,100,0,0
143489,-83.3333333333333,4,2,0,100,0,1
143490,-80,4,2,0,100,0,1
143544,-76.9230769230769,4,2,0,100,0,1
143545,-74.0740740740741,4,2,0,100,0,1
143600,-83.3333333333333,4,2,0,100,0,0
143709,-83.3333333333333,4,2,0,100,0,1
143819,-83.3333333333333,4,2,0,100,0,0
143930,-83.3333333333333,4,2,0,100,0,1
143931,-80,4,2,0,100,0,1
143985,-76.9230769230769,4,2,0,100,0,1
143986,-74.0740740740741,4,2,0,100,0,1
144041,-83.3333333333333,4,2,0,100,0,0
144150,-83.3333333333333,4,2,0,100,0,1
144260,-83.3333333333333,4,2,0,100,0,0
144371,-83.3333333333333,4,2,0,100,0,1
144372,-80,4,2,0,100,0,1
144426,-76.9230769230769,4,2,0,100,0,1
144427,-74.0740740740741,4,2,0,100,0,1
144482,-83.3333333333333,4,2,0,100,0,0
144591,-83.3333333333333,4,2,0,100,0,1
144701,-83.3333333333333,4,2,0,100,0,0
144812,-83.3333333333333,4,2,0,100,0,1
144813,-80,4,2,0,100,0,1
144867,-76.9230769230769,4,2,0,100,0,1
144868,-74.0740740740741,4,2,0,100,0,1
144923,-83.3333333333333,4,2,0,100,0,0
145033,-83.3333333333333,4,2,0,100,0,1
145143,-83.3333333333333,4,2,0,100,0,0
145253,-83.3333333333333,4,2,0,100,0,1
145254,-80,4,2,0,100,0,1
145308,-76.9230769230769,4,2,0,100,0,1
145309,-74.0740740740741,4,2,0,100,0,1
145364,-83.3333333333333,4,2,0,100,0,0
145474,-83.3333333333333,4,2,0,100,0,1
145584,-83.3333333333333,4,2,0,100,0,0
145694,-83.3333333333333,4,2,0,100,0,1
145695,-80,4,2,0,100,0,1
145750,-76.9230769230769,4,2,0,100,0,1
145751,-74.0740740740741,4,2,0,100,0,1
145805,-83.3333333333333,4,2,0,100,0,0
145915,-83.3333333333333,4,2,0,100,0,1
146025,-83.3333333333333,4,2,0,100,0,0
146136,-83.3333333333333,4,2,0,100,0,1
146137,-80,4,2,0,100,0,1
146191,-76.9230769230769,4,2,0,100,0,1
146192,-74.0740740740741,4,2,0,100,0,1
146247,-83.3333333333333,4,2,0,100,0,0
146356,-83.3333333333333,4,2,0,100,0,1
146466,-83.3333333333333,4,2,0,100,0,0
146577,-83.3333333333333,4,2,0,100,0,1
146578,-80,4,2,0,100,0,1
146632,-76.9230769230769,4,2,0,100,0,1
146633,-74.0740740740741,4,2,0,100,0,1
146688,-83.3333333333333,4,2,0,100,0,0
146797,-83.3333333333333,4,2,0,100,0,1
146907,-83.3333333333333,4,2,0,100,0,0
147018,-83.3333333333333,4,2,0,100,0,1
147019,-80,4,2,0,100,0,1
147073,-76.9230769230769,4,2,0,100,0,1
147074,-74.0740740740741,4,2,0,100,0,1
147129,-83.3333333333333,4,2,0,100,0,0
147238,-83.3333333333333,4,2,0,100,0,1
147348,-83.3333333333333,4,2,0,100,0,0
147459,-83.3333333333333,4,2,0,100,0,1
147460,-80,4,2,0,100,0,1
147514,-76.9230769230769,4,2,0,100,0,1
147515,-74.0740740740741,4,2,0,100,0,1
147570,-83.3333333333333,4,2,0,100,0,0
147679,-83.3333333333333,4,2,0,100,0,1
147789,-83.3333333333333,4,2,0,100,0,0
147900,-83.3333333333333,4,2,0,100,0,1
147901,-80,4,2,0,100,0,1
147956,-76.9230769230769,4,2,0,100,0,1
147957,-74.0740740740741,4,2,0,100,0,1
148011,-83.3333333333333,4,2,0,100,0,0
148120,-83.3333333333333,4,2,0,100,0,1
148230,-83.3333333333333,4,2,0,100,0,0
148342,-83.3333333333333,4,2,0,100,0,1
148343,-80,4,2,0,100,0,1
148397,-76.9230769230769,4,2,0,100,0,1
148398,-74.0740740740741,4,2,0,100,0,1
148452,-83.3333333333333,4,2,0,100,0,0
148562,-83.3333333333333,4,2,0,100,0,1
148672,-83.3333333333333,4,2,0,100,0,0
148783,-71.4285714285714,4,2,0,100,0,1
148894,-83.3333333333333,4,2,0,100,0,0
149003,-83.3333333333333,4,2,0,100,0,1
149113,-83.3333333333333,4,2,0,100,0,0
149225,-71.4285714285714,4,2,0,100,0,1
149335,-83.3333333333333,4,2,0,100,0,0
149444,-83.3333333333333,4,2,0,100,0,1
149554,-83.3333333333333,4,2,0,100,0,0
149665,-71.4285714285714,4,2,0,100,0,1
149776,-83.3333333333333,4,2,0,100,0,0
149885,-83.3333333333333,4,2,0,100,0,1
149995,-83.3333333333333,4,2,0,100,0,0
150106,-71.4285714285714,4,2,0,100,0,1
150217,-83.3333333333333,4,2,0,100,0,0
150326,-83.3333333333333,4,2,0,100,0,1
150436,-83.3333333333333,4,2,0,100,0,0
150547,-71.4285714285714,4,2,0,100,0,1
150658,-83.3333333333333,4,2,0,100,0,0
150767,-83.3333333333333,4,2,0,100,0,1
150877,-83.3333333333333,4,2,0,100,0,0
150989,-71.4285714285714,4,2,0,100,0,1
151100,-83.3333333333333,4,2,0,100,0,0
151209,-83.3333333333333,4,2,0,100,0,1
151319,-83.3333333333333,4,2,0,100,0,0
151430,-71.4285714285714,4,2,0,100,0,1
151541,-83.3333333333333,4,2,0,100,0,0
151650,-83.3333333333333,4,2,0,100,0,1
151760,-83.3333333333333,4,2,0,100,0,0
151871,-71.4285714285714,4,2,0,100,0,1
151982,-83.3333333333333,4,2,0,100,0,0
152092,-83.3333333333333,4,2,0,100,0,1
152202,-83.3333333333333,4,2,0,100,0,0
152312,-71.4285714285714,4,2,0,100,0,1
152423,-83.3333333333333,4,2,0,100,0,0
152533,-83.3333333333333,4,2,0,100,0,1
152643,-83.3333333333333,4,2,0,100,0,0
152753,-71.4285714285714,4,2,0,100,0,1
152864,-83.3333333333333,4,2,0,100,0,0
152974,-83.3333333333333,4,2,0,100,0,1
153084,-83.3333333333333,4,2,0,100,0,0
153194,-71.4285714285714,4,2,0,100,0,1
153305,-83.3333333333333,4,2,0,100,0,0
153415,-83.3333333333333,4,2,0,100,0,1
153525,-83.3333333333333,4,2,0,100,0,0
153636,-71.4285714285714,4,2,0,100,0,1
153747,-83.3333333333333,4,2,0,100,0,0
153856,-83.3333333333333,4,2,0,100,0,1
153966,-83.3333333333333,4,2,0,100,0,0
154077,-71.4285714285714,4,2,0,100,0,1
154188,-83.3333333333333,4,2,0,100,0,0
154297,-83.3333333333333,4,2,0,100,0,1
154407,-83.3333333333333,4,2,0,100,0,0
154518,-71.4285714285714,4,2,0,100,0,1
154629,-83.3333333333333,4,2,0,100,0,0
154739,-83.3333333333333,4,2,0,100,0,1
154849,-83.3333333333333,4,2,0,100,0,0
154959,-71.4285714285714,4,2,0,100,0,1
155070,-83.3333333333333,4,2,0,100,0,0
155180,-83.3333333333333,4,2,0,100,0,1
155290,-83.3333333333333,4,2,0,100,0,0
155401,-71.4285714285714,4,2,0,100,0,1
155511,-83.3333333333333,4,2,0,100,0,0
155622,-40,4,2,0,100,0,0
157000,44.1176470588235,4,2,0,100,1,1
157000,-25,4,2,0,100,0,1
157827,441.176470588235,4,2,0,100,1,1
157827,-66.6666666666667,4,2,0,100,0,1
157882,-33.3333333333333,4,2,0,100,0,1
158268,-66.6666666666667,4,2,0,100,0,1
158323,-40,4,2,0,100,0,1
158709,-66.6666666666667,4,2,0,100,0,1
158764,-50,4,2,0,100,0,1
159150,-66.6666666666667,4,2,0,100,0,1
159205,-51.2820512820513,4,2,0,100,0,1
159371,-66.6666666666667,4,2,0,100,0,1
159426,-52.6315789473684,4,2,0,100,0,1
159591,-66.6666666666667,4,2,0,100,0,1
159646,-54.054054054054,4,2,0,100,0,1
159812,-66.6666666666667,4,2,0,100,0,1
159867,-55.5555555555556,4,2,0,100,0,1
160032,-66.6666666666667,4,2,0,100,0,1
160088,-57.1428571428571,4,2,0,100,0,1
160253,-66.6666666666667,4,2,0,100,0,1
160308,-58.8235294117647,4,2,0,100,0,1
160474,-66.6666666666667,4,2,0,100,0,1
160529,-60.6060606060606,4,2,0,100,0,1
160694,-66.6666666666667,4,2,0,100,0,1
160749,-62.5,4,2,0,100,0,1
160915,220.588235294118,4,2,0,100,1,1
160915,-66.6666666666667,4,2,0,100,0,1
160928,-62.8930817610063,4,2,0,100,0,1
161025,-66.6666666666667,4,2,0,100,0,1
161038,-63.2911392405063,4,2,0,100,0,1
161135,-66.6666666666667,4,2,0,100,0,1
161149,-63.6942675159236,4,2,0,100,0,1
161246,-66.6666666666667,4,2,0,100,0,1
161259,-64.1025641025641,4,2,0,100,0,1
161356,-66.6666666666667,4,2,0,100,0,1
161369,-64.5161290322581,4,2,0,100,0,1
161466,-66.6666666666667,4,2,0,100,0,1
161479,-64.9350649350649,4,2,0,100,0,1
161577,-66.6666666666667,4,2,0,100,0,1
161590,-65.359477124183,4,2,0,100,0,1
161687,-66.6666666666667,4,2,0,100,0,1
161700,-65.7894736842105,4,2,0,100,0,1
161797,-66.6666666666667,4,2,0,100,0,1
161810,-66.2251655629139,4,2,0,100,0,1
161907,-66.6666666666667,4,2,0,100,0,1
161921,-68.9655172413793,4,2,0,100,0,1
162018,-66.6666666666667,4,2,0,100,0,1
162031,-71.4285714285714,4,2,0,100,0,1
162128,-66.6666666666667,4,2,0,100,0,1
162141,-74.0740740740741,4,2,0,100,0,1
162238,-66.6666666666667,4,2,0,100,0,0
162679,441.176470588235,4,2,0,100,1,0
162679,-25,4,2,0,100,0,0
165989,-111.111111111111,4,2,0,100,0,0
166044,-105.263157894737,4,2,0,100,0,0
166100,-100,4,2,0,100,0,0
166210,-86.9565217391304,4,2,0,100,0,0
166283,-90.9090909090909,4,2,0,100,0,0
166357,-95.2380952380952,4,2,0,100,0,0
166430,-100,4,2,0,100,0,0
166541,-105.263157894737,4,2,0,100,0,0
166651,-117.647058823529,4,2,0,100,0,0
166725,-111.111111111111,4,2,0,100,0,0
166798,-105.263157894737,4,2,0,100,0,0
166872,-100,4,2,0,100,0,0
167644,-125,4,2,0,100,0,0
167699,-117.647058823529,4,2,0,100,0,0
167754,-111.111111111111,4,2,0,100,0,0
167809,-105.263157894737,4,2,0,100,0,0
167864,-100,4,2,0,100,0,0
168636,-83.3333333333333,4,2,0,100,0,0
168691,-86.9565217391304,4,2,0,100,0,0
168747,-90.9090909090909,4,2,0,100,0,0
168802,-95.2380952380952,4,2,0,100,0,0
168857,-100,4,2,0,100,0,0
169022,-111.111111111111,4,2,0,100,0,0
169077,-105.263157894737,4,2,0,100,0,0
169133,-100,4,2,0,100,0,0
171669,-83.3333333333333,4,2,0,100,0,0
171945,-100,4,2,0,100,0,0
172111,-83.3333333333333,4,2,0,100,0,0
172386,-100,4,2,0,100,0,0
172607,-95.2380952380952,4,2,0,100,0,0
172827,-100,4,2,0,100,0,0
173048,-111.111111111111,4,2,0,100,0,0
173103,-105.263157894737,4,2,0,100,0,0
173158,-100,4,2,0,100,0,0
173269,-86.9565217391304,4,2,0,100,0,0
173342,-90.9090909090909,4,2,0,100,0,0
173416,-95.2380952380952,4,2,0,100,0,0
173489,-100,4,2,0,100,0,0
173600,-105.263157894737,4,2,0,100,0,0
173710,-117.647058823529,4,2,0,100,0,0
173783,-111.111111111111,4,2,0,100,0,0
173857,-105.263157894737,4,2,0,100,0,0
173930,-100,4,2,0,100,0,0
174813,-95.2380952380952,4,2,0,100,0,0
174868,-90.9090909090909,4,2,0,100,0,0
174923,-86.9565217391304,4,2,0,100,0,0
174978,-83.3333333333333,4,2,0,100,0,0
175033,-80,4,2,0,100,0,0
175254,-100,4,2,0,100,0,0
176357,-50,4,2,0,100,0,0
176798,-90.9090909090909,4,2,0,100,0,0
180107,-25,4,2,0,100,0,0
180327,-100,4,2,0,100,0,0
180548,-83.3333333333333,4,2,0,100,0,1
180658,-100,4,2,0,100,0,0
180989,-83.3333333333333,4,2,0,100,0,1
181100,-100,4,2,0,100,0,0
181430,-83.3333333333333,4,2,0,100,0,1
181541,-100,4,2,0,100,0,0
181872,-83.3333333333333,4,2,0,100,0,1
181982,-100,4,2,0,100,0,0
182313,-83.3333333333333,4,2,0,100,0,1
182423,-100,4,2,0,100,0,0
182754,-83.3333333333333,4,2,0,100,0,1
182864,-100,4,2,0,100,0,0
183195,-83.3333333333333,4,2,0,100,0,1
183305,-100,4,2,0,100,0,0
183636,-83.3333333333333,4,2,0,100,0,1
183747,-90.9090909090909,4,2,0,100,0,0
187386,-83.3333333333333,4,2,0,100,0,0
189151,-66.6666666666667,4,2,0,100,0,0
189592,-76.9230769230769,4,2,0,100,0,0
190144,-83.3333333333333,4,2,0,100,0,0
190475,-90.9090909090909,4,2,0,100,0,0
190695,-100,4,2,0,100,0,0
190916,-133.333333333333,4,2,0,100,0,0
192350,-200,4,2,0,100,0,0
194776,-100,4,2,0,100,0,0
195879,-200,4,2,0,100,0,0
197975,-100,4,2,0,100,0,0
199408,-200,4,2,0,100,0,0
201835,-100,4,2,0,100,0,0
202938,-200,4,2,0,100,0,0
205033,-100,4,2,0,100,0,0
206467,-200,4,2,0,100,0,0
208894,-100,4,2,0,100,0,0
209997,-200,4,2,0,100,0,0
212092,-100,4,2,0,100,0,0
213526,-200,4,2,0,100,0,0
214739,-25,4,2,0,100,0,0
215952,-133.333333333333,4,2,0,100,0,0
216063,-25,4,2,0,100,0,0
216283,-133.333333333333,4,2,0,100,0,0
216504,-25,4,2,0,100,0,0
216614,-133.333333333333,4,2,0,100,0,0
216945,-133.333333333333,4,2,0,100,0,0
216973,-25,4,2,0,100,0,0
217055,-133.333333333333,4,2,0,100,0,0
217386,-25,4,2,0,100,0,0
219151,-66.6666666666667,4,2,0,100,0,0
220557,-25,4,2,0,100,0,0
223011,-66.6666666666667,4,2,0,100,0,0
224087,-25,4,2,0,100,0,0
226210,-66.6666666666667,4,2,0,100,0,0
227644,-25,4,2,0,100,0,0
230070,-66.6666666666667,4,2,0,100,0,0
231173,-25,4,2,0,100,0,0
233269,-66.6666666666667,4,2,0,100,0,0
234702,-25,4,2,0,100,0,0
237129,-66.6666666666667,4,2,0,100,0,0
238232,-25,4,2,0,100,0,0
240327,-66.6666666666667,4,2,0,100,0,0
241679,-25,4,2,0,100,0,0
242092,-66.6666666666667,4,2,0,100,0,0
242120,-25,4,2,0,100,0,0
242533,-66.6666666666667,4,2,0,100,0,0
242561,-25,4,2,0,100,0,0
242975,-66.6666666666667,4,2,0,100,0,0
243002,-25,4,2,0,100,0,0
243416,-66.6666666666667,4,2,0,100,0,0
243443,-25,4,2,0,100,0,0
243857,-66.6666666666667,4,2,0,100,0,0
243884,-25,4,2,0,100,0,0
244077,-66.6666666666667,4,2,0,100,0,0
244105,-25,4,2,0,100,0,0
244298,-66.6666666666667,4,2,0,100,0,0
244326,-25,4,2,0,100,0,0
244519,-66.6666666666667,4,2,0,100,0,0
244546,-25,4,2,0,100,0,0
244739,-66.6666666666667,4,2,0,100,0,0
244767,-25,4,2,0,100,0,0
244960,-66.6666666666667,4,2,0,100,0,0
244987,-25,4,2,0,100,0,0
245180,-66.6666666666667,4,2,0,100,0,0
245208,-25,4,2,0,100,0,0
245401,-66.6666666666667,4,2,0,100,0,0
245429,-25,4,2,0,100,0,0
245622,-66.6666666666667,4,2,0,100,0,0
245649,-25,4,2,0,100,0,0
245732,-66.6666666666667,4,2,0,100,0,0
245759,-25,4,2,0,100,0,0
245842,-66.6666666666667,4,2,0,100,0,0
245870,-25,4,2,0,100,0,0
245952,-66.6666666666667,4,2,0,100,0,0
245980,-25,4,2,0,100,0,0
246063,-66.6666666666667,4,2,0,100,0,0
246090,-25,4,2,0,100,0,0
246173,-66.6666666666667,4,2,0,100,0,0
246201,-25,4,2,0,100,0,0
246283,-66.6666666666667,4,2,0,100,0,0
246311,-25,4,2,0,100,0,0
246394,-66.6666666666667,4,2,0,100,0,0
246421,-25,4,2,0,100,0,0
246504,-66.6666666666667,4,2,0,100,0,0
246532,-25,4,2,0,100,0,0
246614,-66.6666666666667,4,2,0,100,0,0
246642,-25,4,2,0,100,0,0
246725,-66.6666666666667,4,2,0,100,0,0
246752,-25,4,2,0,100,0,0
246835,-66.6666666666667,4,2,0,100,0,0
246862,-25,4,2,0,100,0,0
246945,-50,4,2,0,100,0,0
247386,220.588235294118,4,2,0,100,1,1
247386,-100,4,2,0,100,0,1
247607,-100,4,2,0,100,0,0
247827,-100,4,2,0,100,0,1
248048,-100,4,2,0,100,0,0
248269,-100,4,2,0,100,0,1
248489,-100,4,2,0,100,0,0
248710,-100,4,2,0,100,0,1
248930,-100,4,2,0,100,0,0
249151,-100,4,2,0,100,0,1
249372,-100,4,2,0,100,0,0
249592,-100,4,2,0,100,0,1
249813,-100,4,2,0,100,0,0
250033,-100,4,2,0,100,0,1
250254,-100,4,2,0,100,0,0
250475,-100,4,2,0,100,0,1
250695,-100,4,2,0,100,0,0
250916,-100,4,2,0,100,0,1
251136,-100,4,2,0,100,0,0
251357,-100,4,2,0,100,0,1
251577,-100,4,2,0,100,0,0
251798,-100,4,2,0,100,0,1
252019,-100,4,2,0,100,0,0
252239,-100,4,2,0,100,0,1
252460,-100,4,2,0,100,0,0
252680,-100,4,2,0,100,0,1
252901,-100,4,2,0,100,0,0
253122,-100,4,2,0,100,0,1
253342,-100,4,2,0,100,0,0
253563,-100,4,2,0,100,0,1
253783,-100,4,2,0,100,0,0
254004,-100,4,2,0,100,0,1
254225,-100,4,2,0,100,0,0
254445,-100,4,2,0,100,0,1
254666,-100,4,2,0,100,0,0
254886,-100,4,2,0,100,0,1
255107,-100,4,2,0,100,0,0
255327,-100,4,2,0,100,0,1
255548,-100,4,2,0,100,0,0
255769,-100,4,2,0,100,0,1
255989,-100,4,2,0,100,0,0
256210,-100,4,2,0,100,0,1
256430,-100,4,2,0,100,0,0
256651,-100,4,2,0,100,0,1
256872,-100,4,2,0,100,0,0
257092,-100,4,2,0,100,0,1
257313,-100,4,2,0,100,0,0
257533,-100,4,2,0,100,0,1
257754,-100,4,2,0,100,0,0
257975,-100,4,2,0,100,0,1
258195,-100,4,2,0,100,0,0
258416,-100,4,2,0,100,0,1
258636,-100,4,2,0,100,0,0
258857,-100,4,2,0,100,0,1
259077,-100,4,2,0,100,0,0
259298,-100,4,2,0,100,0,1
259519,-100,4,2,0,100,0,0
259739,-100,4,2,0,100,0,1
259960,-100,4,2,0,100,0,0
260180,-100,4,2,0,100,0,1
260401,-100,4,2,0,100,0,0
260622,-100,4,2,0,100,0,1
260842,-100,4,2,0,100,0,0
261063,-100,4,2,0,100,0,1
261283,-100,4,2,0,100,0,0
261504,-100,4,2,0,100,0,1
261725,-100,4,2,0,100,0,0
261945,-100,4,2,0,100,0,1
262166,-100,4,2,0,100,0,0
262386,-100,4,2,0,100,0,1
262607,-100,4,2,0,100,0,0
262827,-100,4,2,0,100,0,1
263048,-100,4,2,0,100,0,0
263269,-100,4,2,0,100,0,1
263489,-100,4,2,0,100,0,0
263710,-100,4,2,0,100,0,1
263930,-100,4,2,0,100,0,0
264151,-100,4,2,0,100,0,1
264372,-100,4,2,0,100,0,0
264592,-100,4,2,0,100,0,1
264813,-100,4,2,0,100,0,0
265033,-100,4,2,0,100,0,1
265254,-100,4,2,0,100,0,0
265475,-100,4,2,0,100,0,1
265695,-100,4,2,0,100,0,0
265916,-100,4,2,0,100,0,1
266136,-100,4,2,0,100,0,0
266357,-100,4,2,0,100,0,1
266577,-100,4,2,0,100,0,0
266798,-100,4,2,0,100,0,1
267019,-100,4,2,0,100,0,0
267239,-100,4,2,0,100,0,1
267460,-100,4,2,0,100,0,0
267680,-100,4,2,0,100,0,1
267901,-100,4,2,0,100,0,0
268122,-100,4,2,0,100,0,1
268342,-100,4,2,0,100,0,0
268563,-100,4,2,0,100,0,1
268783,-100,4,2,0,100,0,0
269004,-100,4,2,0,100,0,1
269225,-100,4,2,0,100,0,0
269445,-100,4,2,0,100,0,1
269666,-100,4,2,0,100,0,0
269886,-100,4,2,0,100,0,1
270107,-100,4,2,0,100,0,0
270327,-100,4,2,0,100,0,1
270548,-100,4,2,0,100,0,0
270769,-100,4,2,0,100,0,1
270989,-100,4,2,0,100,0,0
271210,-100,4,2,0,100,0,1
271430,-100,4,2,0,100,0,0
271651,-100,4,2,0,100,0,1
271872,-100,4,2,0,100,0,0
272092,-100,4,2,0,100,0,1
272313,-100,4,2,0,100,0,0
272533,-100,4,2,0,100,0,1
272754,-100,4,2,0,100,0,0
272975,-100,4,2,0,100,0,1
273195,-100,4,2,0,100,0,0
273416,-100,4,2,0,100,0,1
273636,-100,4,2,0,100,0,0
273856,441.176470588235,4,2,0,100,1,0
273857,-66.6666666666667,4,2,0,100,0,0
275622,220.588235294118,4,2,0,100,1,9
275622,-100,4,2,0,100,0,1
276063,-100,4,2,0,100,0,0
276504,-100,4,2,0,100,0,1
276945,-100,4,2,0,100,0,0
277386,-100,4,2,0,100,0,1
277827,-100,4,2,0,100,0,0
278269,-100,4,2,0,100,0,1
278710,-100,4,2,0,100,0,0
279151,-100,4,2,0,100,0,1
279592,-100,4,2,0,100,0,0
280033,-100,4,2,0,100,0,1
280474,-100,4,2,0,100,0,0
280916,-100,4,2,0,100,0,1
281357,-100,4,2,0,100,0,0
281798,-100,4,2,0,100,0,1
282239,-100,4,2,0,100,0,0
282680,-100,4,2,0,100,0,1
283122,-100,4,2,0,100,0,0
283563,-100,4,2,0,100,0,1
284004,-100,4,2,0,100,0,0
284445,-100,4,2,0,100,0,1
284886,-100,4,2,0,100,0,0
285327,-100,4,2,0,100,0,1
285769,-100,4,2,0,100,0,0
286210,-100,4,2,0,100,0,1
286651,-100,4,2,0,100,0,0
287092,-100,4,2,0,100,0,1
287533,-100,4,2,0,100,0,0
287974,-100,4,2,0,100,0,1
288416,-100,4,2,0,100,0,0
288857,-100,4,2,0,100,0,1
289298,-100,4,2,0,100,0,0
289353,-102.040816326531,4,2,0,100,0,0
289408,-104.166666666667,4,2,0,100,0,0
289463,-106.382978723404,4,2,0,100,0,0
289519,-108.695652173913,4,2,0,100,0,0
289574,-111.111111111111,4,2,0,100,0,0
289629,-117.647058823529,4,2,0,100,0,0
289684,-125,4,2,0,100,0,0
289739,441.176470588235,4,2,0,100,1,0
289739,-66.6666666666667,4,2,0,100,0,0
303443,-25,4,2,0,100,0,0
303936,441.176470588235,4,2,0,100,1,0
303980,1E+17,4,1,0,100,1,8
303991,441.176470588235,4,1,0,100,1,0

[HitObjects]
160,104,328,5,4,0:0:0:0:
172,108,769,1,2,0:0:0:0:
172,108,989,1,0,0:0:0:0:
172,108,1210,1,2,0:0:0:0:
172,108,1541,1,0,0:0:0:0:
172,108,1872,1,2,0:0:0:0:
172,108,2202,1,2,0:0:0:0:
172,108,2313,1,2,0:0:0:0:
176,76,2533,1,2,0:0:0:0:
176,76,2754,1,2,0:0:0:0:
176,76,2975,1,2,0:0:0:0:
204,80,3048,1,0,0:0:0:0:
232,24,3122,1,0,0:0:0:0:
176,76,3195,1,2,0:0:0:0:
304,56,3416,1,0,0:0:0:0:
248,104,3857,1,0,0:0:0:0:
168,116,4077,1,2,0:0:0:0:
168,116,4298,1,0,0:0:0:0:
168,116,4408,1,0,0:0:0:0:
168,120,4629,1,2,0:0:0:0:
168,120,4739,1,0,0:0:0:0:
192,56,4960,1,0,0:0:0:0:
192,56,5070,1,2,0:0:0:0:
313,125,5291,1,0,0:0:0:0:
299,168,5401,1,0,0:0:0:0:
192,40,5511,1,2,0:0:0:0:
192,40,5622,1,0,0:0:0:0:
192,40,5842,1,2,0:0:0:0:
188,48,5952,1,2,0:0:0:0:
188,48,6063,1,0,0:0:0:0:
184,48,6283,1,0,0:0:0:0:
184,48,6394,1,2,0:0:0:0:
184,48,6504,1,0,0:0:0:0:
184,48,6614,1,2,0:0:0:0:
184,52,6725,1,2,0:0:0:0:
184,52,6835,1,0,0:0:0:0:
196,36,6945,1,2,0:0:0:0:
188,48,7055,1,0,0:0:0:0:
188,48,7166,1,2,0:0:0:0:
248,84,7276,1,2,0:0:0:0:
236,84,7386,1,4,0:0:0:0:
200,48,7827,1,2,0:0:0:0:
196,56,8048,1,0,0:0:0:0:
196,56,8269,1,2,0:0:0:0:
184,56,8600,1,0,0:0:0:0:
184,56,8930,1,2,0:0:0:0:
172,32,9261,1,2,0:0:0:0:
176,36,9372,1,2,0:0:0:0:
176,36,9592,1,2,0:0:0:0:
176,36,9813,1,2,0:0:0:0:
204,96,10033,1,2,0:0:0:0:
192,92,10107,1,0,0:0:0:0:
192,92,10180,1,0,0:0:0:0:
192,92,10254,1,2,0:0:0:0:
216,88,10475,1,0,0:0:0:0:
248,40,10916,1,0,0:0:0:0:
240,64,11136,1,2,0:0:0:0:
248,80,11357,1,0,0:0:0:0:
244,84,11467,1,2,0:0:0:0:
244,88,11688,1,8,0:0:0:0:
244,88,11798,1,0,0:0:0:0:
192,100,11908,1,0,0:0:0:0:
192,100,12129,1,0,0:0:0:0:
192,100,12239,1,2,0:0:0:0:
192,100,12460,1,0,0:0:0:0:
192,100,12570,1,2,0:0:0:0:
192,100,12680,1,0,0:0:0:0:
192,100,12901,1,2,0:0:0:0:
192,100,13011,1,2,0:0:0:0:
192,100,13122,1,0,0:0:0:0:
192,100,13342,1,0,0:0:0:0:
196,104,13452,1,0,0:0:0:0:
196,104,13563,1,2,0:0:0:0:
196,104,13673,1,2,0:0:0:0:
196,104,13783,1,0,0:0:0:0:
196,104,13894,1,2,0:0:0:0:
208,56,14004,1,2,0:0:0:0:
208,56,14114,1,0,0:0:0:0:
208,56,14225,1,2,0:0:0:0:
208,56,14335,1,0,0:0:0:0:
216,56,14445,1,0,0:0:0:0:
224,28,14886,1,2,0:0:0:0:
220,32,15107,1,0,0:0:0:0:
220,32,15327,1,2,0:0:0:0:
220,32,15658,1,0,0:0:0:0:
220,32,15989,1,2,0:0:0:0:
176,56,16210,1,0,0:0:0:0:
212,40,16320,1,2,0:0:0:0:
208,40,16430,1,2,0:0:0:0:
208,40,16651,1,2,0:0:0:0:
208,44,16872,1,2,0:0:0:0:
152,48,17092,1,4,0:0:0:0:
152,48,17533,1,4,0:0:0:0:
176,28,17975,1,6,0:0:0:0:
216,152,18002,2,4,L|272:136,146,35
16,64,19739,5,4,0:0:0:0:
120,112,19740,2,4,L|296:120,1,-1
120,112,19740,2,4,L|296:120,1,-1
120,112,19740,2,4,L|296:120,1,-1
120,112,19740,2,4,L|296:120,1,-1
120,112,19740,2,4,L|296:120,1,-1
120,112,19766,2,0,L|296:120,1,-1
120,112,19849,2,0,L|296:120,1,-1
120,112,19886,2,0,L|296:120,1,-1
120,112,19959,2,0,L|296:120,1,-1
120,112,19996,2,0,L|296:120,1,-1
120,112,20069,2,0,L|296:120,1,-1
120,112,20106,2,0,L|296:120,1,-1
120,112,20180,2,4,L|296:120,1,-1
120,112,20290,2,4,L|296:120,1,-1
120,112,20400,2,4,L|296:120,1,-1
120,112,20511,2,4,L|296:120,1,-1
192,76,20622,1,0,0:0:0:0:
188,80,20732,1,2,0:0:0:0:
172,80,21063,1,2,0:0:0:0:
172,80,21283,1,2,0:0:0:0:
172,80,21504,1,4,0:0:0:0:
120,112,21614,2,0,L|296:120,1,-1
120,112,21669,2,0,L|296:120,1,-1
120,112,21724,2,0,L|296:120,1,-1
120,112,21761,2,0,L|296:120,1,-1
120,112,21807,2,0,L|296:120,1,-1
120,112,21834,2,0,L|296:120,1,-1
120,112,21871,2,0,L|296:120,1,-1
120,112,21890,2,0,L|296:120,1,-1
260,96,21945,5,2,0:0:0:0:
240,104,22055,1,0,0:0:0:0:
236,104,22166,1,2,0:0:0:0:
120,112,22276,2,0,L|296:120,1,-1
224,104,22386,1,0,0:0:0:0:
120,112,22496,2,0,L|296:120,1,-1
220,104,22607,1,0,0:0:0:0:
220,104,22717,1,0,0:0:0:0:
208,40,22827,1,2,0:0:0:0:
120,112,22937,2,0,L|296:120,1,-1
220,104,23048,1,2,0:0:0:0:
216,104,23158,1,2,0:0:0:0:
216,104,23269,1,0,0:0:0:0:
120,112,23379,2,0,L|296:120,1,-1
208,40,23489,1,0,0:0:0:0:
120,112,23599,2,0,L|296:120,1,-1
184,52,23710,1,2,0:0:0:0:
120,112,23820,2,0,L|296:120,1,-1
192,48,23930,1,2,0:0:0:0:
192,52,24041,1,2,0:0:0:0:
192,52,24151,1,0,0:0:0:0:
120,112,24261,2,0,L|296:120,1,-1
184,52,24372,1,2,0:0:0:0:
120,112,24481,2,0,L|296:120,1,-1
184,52,24592,1,2,0:0:0:0:
184,52,24702,1,0,0:0:0:0:
184,52,24813,1,2,0:0:0:0:
184,52,24923,1,2,0:0:0:0:
184,52,25033,1,0,0:0:0:0:
120,112,25143,2,0,L|296:120,1,-1
184,52,25254,1,0,0:0:0:0:
184,52,25364,1,0,0:0:0:0:
184,52,25475,1,2,0:0:0:0:
120,112,25584,2,0,L|296:120,1,-1
184,52,25695,1,0,0:0:0:0:
184,52,25805,1,2,0:0:0:0:
184,52,25916,1,0,0:0:0:0:
184,52,26026,1,0,0:0:0:0:
120,112,26136,2,0,L|296:120,1,-1
184,52,26247,1,0,0:0:0:0:
184,52,26357,1,2,0:0:0:0:
120,112,26467,2,0,L|296:120,1,-1
184,52,26577,1,0,0:0:0:0:
184,52,26688,1,2,0:0:0:0:
184,52,26798,1,0,0:0:0:0:
120,112,26908,2,0,L|296:120,1,-1
184,40,27019,1,0,0:0:0:0:
184,40,27128,1,0,0:0:0:0:
184,40,27239,1,2,0:0:0:0:
156,160,27349,1,0,0:0:0:0:
120,112,27459,2,0,L|296:120,1,-1
232,80,27570,1,2,0:0:0:0:
184,40,27680,1,0,0:0:0:0:
184,40,27791,1,2,0:0:0:0:
184,40,27901,1,2,0:0:0:0:
184,40,28011,1,0,0:0:0:0:
184,40,28122,1,2,0:0:0:0:
184,40,28232,1,2,0:0:0:0:
184,40,28342,1,0,0:0:0:0:
120,112,28452,2,0,L|296:120,1,-1
232,44,28563,1,4,0:0:0:0:
16,64,28783,5,8,0:0:0:0:
120,112,28784,2,0,L|296:120,1,-1
120,112,28784,2,0,L|296:120,1,-1
16,64,28856,5,8,0:0:0:0:
120,112,28857,2,0,L|296:120,1,-1
120,112,28857,2,0,L|296:120,1,-1
16,64,28930,5,8,0:0:0:0:
120,112,28931,2,0,L|296:120,1,-1
120,112,28931,2,0,L|296:120,1,-1
16,64,29003,5,0,0:0:0:0:
120,112,29004,2,0,L|296:120,1,-1
120,112,29004,2,0,L|296:120,1,-1
120,112,29114,2,0,L|296:120,1,-1
176,240,29225,1,2,0:0:0:0:
280,120,29334,1,8,0:0:0:0:
188,72,29445,1,0,0:0:0:0:
120,112,29555,2,0,L|296:120,1,-1
148,64,29666,1,0,0:0:0:0:
148,64,29776,1,0,0:0:0:0:
148,64,29886,1,2,0:0:0:0:
120,112,29996,2,0,L|296:120,1,-1
156,64,30107,1,2,0:0:0:0:
156,64,30217,1,2,0:0:0:0:
156,64,30327,1,0,0:0:0:0:
156,64,30438,1,0,0:0:0:0:
120,112,30548,2,0,L|296:120,1,-1
156,64,30658,1,0,0:0:0:0:
180,24,30769,1,2,0:0:0:0:
120,112,30878,2,0,L|296:120,1,-1
180,24,30989,1,2,0:0:0:0:
180,24,31100,1,2,0:0:0:0:
180,24,31210,1,0,0:0:0:0:
120,112,31320,2,0,L|296:120,1,-1
180,24,31430,1,2,0:0:0:0:
120,112,31540,2,0,L|296:120,1,-1
180,24,31651,1,2,0:0:0:0:
120,112,31761,2,0,L|296:120,1,-1
180,24,31872,1,0,0:0:0:0:
120,112,31981,2,0,L|296:120,1,-1
112,136,32092,1,0,0:0:0:0:
112,136,32202,1,2,0:0:0:0:
112,136,32312,1,0,0:0:0:0:
120,112,32423,2,0,L|296:120,1,-1
140,60,32533,1,2,0:0:0:0:
120,112,32643,2,0,L|296:120,1,-1
140,60,32754,1,2,0:0:0:0:
140,60,32864,1,0,0:0:0:0:
140,60,32975,1,0,0:0:0:0:
120,112,33084,2,0,L|296:120,1,-1
140,60,33195,1,2,0:0:0:0:
140,60,33305,1,0,0:0:0:0:
140,60,33416,1,2,0:0:0:0:
120,112,33526,2,0,L|296:120,1,-1
140,60,33636,1,2,0:0:0:0:
156,64,33747,1,2,0:0:0:0:
140,60,33857,1,0,0:0:0:0:
120,112,33967,2,0,L|296:120,1,-1
140,60,34077,1,2,0:0:0:0:
156,48,34188,1,0,0:0:0:0:
156,48,34298,1,2,0:0:0:0:
156,48,34408,1,2,0:0:0:0:
120,112,34518,2,0,L|296:120,1,-1
156,48,34628,1,2,0:0:0:0:
156,48,34739,1,0,0:0:0:0:
156,48,34850,1,2,0:0:0:0:
156,48,34960,1,2,0:0:0:0:
156,48,35070,1,0,0:0:0:0:
156,48,35180,1,2,0:0:0:0:
272,116,35290,1,2,0:0:0:0:
168,56,35401,1,0,0:0:0:0:
120,112,35511,2,0,L|296:120,1,-1
184,28,35622,1,0,0:0:0:0:
16,64,35842,5,8,0:0:0:0:
120,112,35843,2,0,L|296:120,1,-1
120,112,35843,2,0,L|296:120,1,-1
16,64,35897,5,8,0:0:0:0:
120,112,35898,2,0,L|296:120,1,-1
120,112,35898,2,0,L|296:120,1,-1
16,64,35952,5,8,0:0:0:0:
120,112,35953,2,0,L|296:120,1,-1
120,112,35953,2,0,L|296:120,1,-1
16,64,36062,5,0,0:0:0:0:
120,112,36063,2,0,L|296:120,1,-1
120,112,36063,2,0,L|296:120,1,-1
120,112,36173,2,0,L|296:120,1,-1
120,112,36173,2,0,L|296:120,1,-1
144,56,36283,1,0,0:0:0:0:
144,56,36394,1,0,0:0:0:0:
144,56,36504,1,2,0:0:0:0:
120,112,36614,2,0,L|296:120,1,-1
120,112,36614,2,0,L|296:120,1,-1
144,56,36725,1,0,0:0:0:0:
144,56,36835,1,2,0:0:0:0:
144,56,36945,1,0,0:0:0:0:
120,112,37055,2,0,L|296:120,1,-1
120,112,37055,2,0,L|296:120,1,-1
164,52,37166,1,0,0:0:0:0:
164,52,37276,1,0,0:0:0:0:
164,52,37386,1,2,0:0:0:0:
120,112,37496,2,0,L|296:120,1,-1
164,52,37607,1,2,0:0:0:0:
120,112,37717,2,0,L|296:120,1,-1
120,112,37717,2,0,L|296:120,1,-1
164,52,37827,1,0,0:0:0:0:
120,112,37937,2,0,L|296:120,1,-1
120,112,37937,2,0,L|296:120,1,-1
164,52,38048,1,0,0:0:0:0:
164,52,38158,1,2,0:0:0:0:
164,52,38269,1,2,0:0:0:0:
120,112,38378,2,0,L|296:120,1,-1
120,112,38378,2,0,L|296:120,1,-1
164,52,38489,1,2,0:0:0:0:
164,52,38599,1,0,0:0:0:0:
164,52,38710,1,0,0:0:0:0:
164,52,38820,1,0,0:0:0:0:
164,52,38930,1,2,0:0:0:0:
120,112,39040,2,0,L|296:120,1,-1
120,112,39040,2,0,L|296:120,1,-1
164,52,39151,1,2,0:0:0:0:
188,92,39261,1,0,0:0:0:0:
188,92,39372,1,0,0:0:0:0:
188,92,39482,1,2,0:0:0:0:
188,92,39592,1,0,0:0:0:0:
120,112,39702,2,0,L|296:120,1,-1
120,112,39702,2,0,L|296:120,1,-1
188,92,39813,1,0,0:0:0:0:
188,92,39923,1,0,0:0:0:0:
188,92,40033,1,2,0:0:0:0:
344,104,40143,1,0,0:0:0:0:
184,84,40254,1,0,0:0:0:0:
184,84,40364,1,2,0:0:0:0:
288,96,40474,1,0,0:0:0:0:
184,84,40585,1,0,0:0:0:0:
184,84,40695,1,2,0:0:0:0:
320,136,40805,1,0,0:0:0:0:
184,84,40916,1,2,0:0:0:0:
120,112,41026,2,0,L|296:120,1,-1
120,112,41026,2,0,L|296:120,1,-1
184,84,41136,1,0,0:0:0:0:
184,84,41247,1,2,0:0:0:0:
184,84,41357,1,0,0:0:0:0:
120,112,41467,2,0,L|296:120,1,-1
120,112,41467,2,0,L|296:120,1,-1
184,84,41577,1,0,0:0:0:0:
184,84,41687,1,0,0:0:0:0:
184,84,41798,1,2,0:0:0:0:
184,84,41908,1,0,0:0:0:0:
184,84,42019,1,2,0:0:0:0:
184,84,42128,1,2,0:0:0:0:
184,84,42239,1,0,0:0:0:0:
312,92,42349,1,2,0:0:0:0:
136,232,42460,1,0,0:0:0:0:
120,112,42570,2,0,L|296:120,1,-1
120,112,42570,2,0,L|296:120,1,-1
136,232,42680,1,0,0:0:0:0:
120,112,42790,2,0,L|296:120,1,-1
120,112,42845,2,0,L|296:120,1,-1
120,112,42900,2,0,L|296:120,1,-1
120,112,42937,2,0,L|296:120,1,-1
120,112,42983,2,0,L|296:120,1,-1
120,112,43010,2,0,L|296:120,1,-1
120,112,43047,2,0,L|296:120,1,-1
120,112,43066,2,0,L|296:120,1,-1
176,100,43122,5,0,0:0:0:0:
120,112,43231,2,0,L|296:120,1,-1
120,112,43231,2,0,L|296:120,1,-1
212,128,43342,1,8,0:0:0:0:
120,112,43452,2,0,L|296:120,1,-1
120,112,43452,2,0,L|296:120,1,-1
212,128,43563,1,2,0:0:0:0:
212,128,43673,1,2,0:0:0:0:
212,128,43783,1,0,0:0:0:0:
212,128,43893,1,2,0:0:0:0:
212,128,44004,1,0,0:0:0:0:
120,112,44114,2,0,L|296:120,1,-1
120,112,44114,2,0,L|296:120,1,-1
212,128,44225,1,2,0:0:0:0:
164,28,44335,1,0,0:0:0:0:
212,128,44445,1,2,0:0:0:0:
120,112,44555,2,0,L|296:120,1,-1
120,112,44555,2,0,L|296:120,1,-1
192,40,44666,1,0,0:0:0:0:
212,128,44776,1,0,0:0:0:0:
164,28,44886,1,2,0:0:0:0:
120,112,44996,2,0,L|296:120,1,-1
120,112,44996,2,0,L|296:120,1,-1
196,56,45107,1,0,0:0:0:0:
192,56,45217,1,2,0:0:0:0:
188,56,45327,1,0,0:0:0:0:
120,112,45437,2,0,L|296:120,1,-1
120,112,45437,2,0,L|296:120,1,-1
176,40,45548,1,2,0:0:0:0:
120,112,45658,2,0,L|296:120,1,-1
120,112,45658,2,0,L|296:120,1,-1
176,40,45769,1,0,0:0:0:0:
120,112,45878,2,0,L|296:120,1,-1
120,112,45878,2,0,L|296:120,1,-1
176,40,45989,1,2,0:0:0:0:
120,112,46099,2,0,L|296:120,1,-1
120,112,46099,2,0,L|296:120,1,-1
176,40,46210,1,0,0:0:0:0:
176,40,46320,1,0,0:0:0:0:
176,40,46430,1,0,0:0:0:0:
168,228,46541,1,0,0:0:0:0:
176,40,46651,1,2,0:0:0:0:
120,112,46761,2,0,L|296:120,1,-1
120,112,46761,2,0,L|296:120,1,-1
176,40,46872,1,0,0:0:0:0:
176,40,46982,1,0,0:0:0:0:
176,40,47092,1,6,0:0:0:0:
328,108,47202,1,0,0:0:0:0:
176,40,47313,1,0,0:0:0:0:
176,40,47423,1,6,0:0:0:0:
320,112,47533,1,0,0:0:0:0:
176,40,47644,1,0,0:0:0:0:
176,40,47754,1,6,0:0:0:0:
120,112,47974,2,0,L|296:120,1,-1
120,112,47987,2,0,L|296:120,1,-1
120,112,48001,2,0,L|296:120,1,-1
120,112,48015,2,0,L|296:120,1,-1
120,112,48029,2,0,L|296:120,1,-1
120,112,48042,2,0,L|296:120,1,-1
120,112,48056,2,0,L|296:120,1,-1
120,112,48070,2,0,L|296:120,1,-1
120,112,48084,2,0,L|296:120,1,-1
120,112,48098,2,0,L|296:120,1,-1
120,112,48111,2,0,L|296:120,1,-1
120,112,48125,2,0,L|296:120,1,-1
120,112,48139,2,0,L|296:120,1,-1
120,112,48153,2,0,L|296:120,1,-1
120,112,48167,2,0,L|296:120,1,-1
172,220,48195,1,6,0:0:0:0:
120,112,48208,2,0,L|296:120,1,-1
120,112,48222,2,0,L|296:120,1,-1
120,112,48235,2,0,L|296:120,1,-1
120,112,48249,2,0,L|296:120,1,-1
120,112,48263,2,0,L|296:120,1,-1
120,112,48277,2,0,L|296:120,1,-1
120,112,48291,2,0,L|296:120,1,-1
120,112,48304,2,0,L|296:120,1,-1
120,112,48318,2,0,L|296:120,1,-1
120,112,48332,2,0,L|296:120,1,-1
120,112,48346,2,0,L|296:120,1,-1
120,112,48360,2,0,L|296:120,1,-1
120,112,48373,2,0,L|296:120,1,-1
120,112,48387,2,0,L|296:120,1,-1
212,128,48416,1,4,0:0:0:0:
120,112,48428,2,0,L|296:120,1,-1
120,112,48442,2,0,L|296:120,1,-1
120,112,48456,2,0,L|296:120,1,-1
120,112,48470,2,0,L|296:120,1,-1
120,112,48484,2,0,L|296:120,1,-1
120,112,48497,2,0,L|296:120,1,-1
212,128,48526,1,6,0:0:0:0:
120,112,48539,2,0,L|296:120,1,-1
120,112,48553,2,0,L|296:120,1,-1
120,112,48566,2,0,L|296:120,1,-1
120,112,48580,2,0,L|296:120,1,-1
120,112,48594,2,0,L|296:120,1,-1
120,112,48608,2,0,L|296:120,1,-1
120,112,48621,2,0,L|296:120,1,-1
120,112,48635,2,0,L|296:120,1,-1
120,112,48649,2,0,L|296:120,1,-1
120,112,48663,2,0,L|296:120,1,-1
120,112,48677,2,0,L|296:120,1,-1
120,112,48690,2,0,L|296:120,1,-1
120,112,48704,2,0,L|296:120,1,-1
120,112,48718,2,0,L|296:120,1,-1
176,8,48747,1,6,0:0:0:0:
120,112,48759,2,0,L|296:120,1,-1
120,112,48773,2,0,L|296:120,1,-1
120,112,48787,2,0,L|296:120,1,-1
120,112,48801,2,0,L|296:120,1,-1
120,112,48814,2,0,L|296:120,1,-1
120,112,48828,2,0,L|296:120,1,-1
120,112,48842,2,0,L|296:120,1,-1
120,112,48856,2,0,L|296:120,1,-1
120,112,48874,2,0,L|296:120,1,-1
120,112,48893,2,0,L|296:120,1,-1
120,112,48911,2,0,L|296:120,1,-1
120,112,48929,2,0,L|296:120,1,-1
224,120,48967,1,6,0:0:0:0:
120,112,48994,2,0,L|296:120,1,-1
120,112,49021,2,0,L|296:120,1,-1
120,112,49049,2,0,L|296:120,1,-1
120,112,49076,2,0,L|296:120,1,-1
120,112,49104,2,0,L|296:120,1,-1
120,112,49132,2,0,L|296:120,1,-1
120,112,49159,2,0,L|296:120,1,-1
168,24,49188,1,6,0:0:0:0:
120,112,49224,2,0,L|296:120,1,-1
120,112,49260,2,0,L|296:120,1,-1
120,112,49297,2,0,L|296:120,1,-1
120,112,49352,2,0,L|296:120,1,-1
120,112,49407,2,0,L|296:120,1,-1
120,112,49462,2,0,L|296:120,1,-1
168,24,49519,1,4,0:0:0:0:
120,112,49573,2,0,L|296:120,1,-1
120,112,49628,2,0,L|296:120,1,-1
120,112,49683,2,0,L|296:120,1,-1
16,64,49739,5,8,0:0:0:0:
120,112,49740,2,0,L|296:120,1,-1
120,112,49740,2,0,L|296:120,1,-1
16,64,50069,5,0,0:0:0:0:
120,112,50070,2,0,L|296:120,1,-1
120,112,50070,2,0,L|296:120,1,-1
16,64,50400,5,8,0:0:0:0:
120,112,50401,2,0,L|296:120,1,-1
120,112,50401,2,0,L|296:120,1,-1
16,64,50731,5,8,0:0:0:0:
120,112,50732,2,0,L|296:120,1,-1
120,112,50732,2,0,L|296:120,1,-1
16,64,51062,5,0,0:0:0:0:
120,112,51063,2,0,L|296:120,1,-1
120,112,51063,2,0,L|296:120,1,-1
7,140,51099,2,0,L|122:140,88,105.000004005432
16,64,53600,5,8,0:0:0:0:
120,112,53601,2,0,L|296:120,1,-1
120,112,53601,2,0,L|296:120,1,-1
16,64,53930,5,0,0:0:0:0:
120,112,53931,2,0,L|296:120,1,-1
120,112,53931,2,0,L|296:120,1,-1
16,64,54261,5,8,0:0:0:0:
120,112,54262,2,0,L|296:120,1,-1
120,112,54262,2,0,L|296:120,1,-1
16,64,54592,5,0,0:0:0:0:
120,112,54593,2,0,L|296:120,1,-1
120,112,54593,2,0,L|296:120,1,-1
83,80,54629,2,0,L|159:80,76,70
16,64,56798,5,8,0:0:0:0:
120,112,56799,2,0,L|296:120,1,-1
120,112,56799,2,0,L|296:120,1,-1
16,64,57128,5,8,0:0:0:0:
120,112,57129,2,0,L|296:120,1,-1
120,112,57129,2,0,L|296:120,1,-1
16,64,57459,5,0,0:0:0:0:
120,112,57460,2,0,L|296:120,1,-1
120,112,57460,2,0,L|296:120,1,-1
16,64,57790,5,0,0:0:0:0:
120,112,57791,2,0,L|296:120,1,-1
120,112,57791,2,0,L|296:120,1,-1
16,64,58121,5,8,0:0:0:0:
120,112,58122,2,0,L|296:120,1,-1
120,112,58122,2,0,L|296:120,1,-1
96,85,58158,2,0,L|207:85,88,105.000004005432
16,64,60658,5,0,0:0:0:0:
120,112,60659,2,0,L|296:120,1,-1
120,112,60659,2,0,L|296:120,1,-1
16,64,60988,5,8,0:0:0:0:
120,112,60989,2,0,L|296:120,1,-1
120,112,60989,2,0,L|296:120,1,-1
16,64,61319,5,8,0:0:0:0:
120,112,61320,2,0,L|296:120,1,-1
120,112,61320,2,0,L|296:120,1,-1
16,64,61650,5,0,0:0:0:0:
120,112,61651,2,0,L|296:120,1,-1
120,112,61651,2,0,L|296:120,1,-1
78,102,61687,2,4,L|222:103,85,140
16,64,63857,5,12,0:0:0:0:
120,112,63858,2,4,L|296:120,1,-1
120,112,63858,2,4,L|296:120,1,-1
16,64,64187,5,4,0:0:0:0:
120,112,64188,2,4,L|296:120,1,-1
120,112,64188,2,4,L|296:120,1,-1
16,64,64518,5,12,0:0:0:0:
120,112,64519,2,4,L|296:120,1,-1
120,112,64519,2,4,L|296:120,1,-1
16,64,64849,5,12,0:0:0:0:
120,112,64850,2,4,L|296:120,1,-1
120,112,64850,2,4,L|296:120,1,-1
16,64,65180,5,4,0:0:0:0:
120,112,65181,2,4,L|296:120,1,-1
120,112,65181,2,4,L|296:120,1,-1
30,163,65217,2,4,L|447:163,110,280
256,192,65250,12,0,67455,0:0:0:0:
16,64,67717,5,12,0:0:0:0:
120,112,67718,2,4,L|296:120,1,-1
120,112,67718,2,4,L|296:120,1,-1
16,64,68047,5,4,0:0:0:0:
120,112,68048,2,4,L|296:120,1,-1
120,112,68048,2,4,L|296:120,1,-1
16,64,68378,5,12,0:0:0:0:
120,112,68379,2,4,L|296:120,1,-1
120,112,68379,2,4,L|296:120,1,-1
16,64,68709,5,4,0:0:0:0:
120,112,68710,2,4,L|296:120,1,-1
120,112,68710,2,4,L|296:120,1,-1
52,170,68737,2,4,L|374:173,95,280
256,192,68781,12,0,70733,0:0:0:0:
16,64,70916,5,12,0:0:0:0:
120,112,70917,2,4,L|296:120,1,-1
120,112,70917,2,4,L|296:120,1,-1
16,64,71246,5,12,0:0:0:0:
120,112,71247,2,4,L|296:120,1,-1
120,112,71247,2,4,L|296:120,1,-1
16,64,71577,5,4,0:0:0:0:
120,112,71578,2,4,L|296:120,1,-1
120,112,71578,2,4,L|296:120,1,-1
16,64,71908,5,4,0:0:0:0:
120,112,71909,2,4,L|296:120,1,-1
120,112,71909,2,4,L|296:120,1,-1
16,64,72239,5,12,0:0:0:0:
120,112,72240,2,4,L|296:120,1,-1
120,112,72240,2,4,L|296:120,1,-1
93,200,72294,2,4,L|425:198,34,280
16,64,73122,5,8,0:0:0:0:
120,112,73123,2,0,L|296:120,1,-1
120,112,73123,2,0,L|296:120,1,-1
100,112,73177,2,4,L|440:132,1,315.000012016297
16,64,73563,5,8,0:0:0:0:
120,112,73564,2,0,L|296:120,1,-1
120,112,73564,2,0,L|296:120,1,-1
16,108,73618,2,4,L|300:112,1,262.5
16,64,74004,5,8,0:0:0:0:
120,112,74005,2,0,L|296:120,1,-1
120,112,74005,2,0,L|296:120,1,-1
32,88,74059,2,4,L|252:112,1,210
16,64,74445,5,8,0:0:0:0:
120,112,74446,2,0,L|296:120,1,-1
120,112,74446,2,0,L|296:120,1,-1
48,96,74500,2,4,L|140:112,1,68.2500002603531
16,64,74666,5,8,0:0:0:0:
120,112,74667,2,0,L|296:120,1,-1
120,112,74667,2,0,L|296:120,1,-1
56,88,74721,2,4,L|140:100,1,66.4999982242585
16,64,74886,5,8,0:0:0:0:
120,112,74887,2,0,L|296:120,1,-1
120,112,74887,2,0,L|296:120,1,-1
64,92,74941,2,4,L|136:108,1,64.7499997529984
16,64,75107,5,8,0:0:0:0:
120,112,75108,2,0,L|296:120,1,-1
120,112,75108,2,0,L|296:120,1,-1
92,96,75162,2,4,L|168:108,1,62.9999980773926
16,64,75327,5,8,0:0:0:0:
120,112,75328,2,0,L|296:120,1,-1
120,112,75328,2,0,L|296:120,1,-1
96,100,75383,2,4,L|160:120,1,61.2500005841255
16,64,75548,5,8,0:0:0:0:
120,112,75549,2,0,L|296:120,1,-1
120,112,75549,2,0,L|296:120,1,-1
124,120,75603,2,4,L|188:128,1,59.5000011348725
16,64,75769,5,8,0:0:0:0:
120,112,75770,2,0,L|296:120,1,-1
120,112,75770,2,0,L|296:120,1,-1
160,112,75824,2,4,L|224:124,1,57.7500005507469
16,64,75989,5,8,0:0:0:0:
120,112,75990,2,0,L|296:120,1,-1
120,112,75990,2,0,L|296:120,1,-1
140,92,76044,2,4,L|204:112,1,56
16,64,76210,5,8,0:0:0:0:
120,112,76211,2,0,L|296:120,1,-1
120,112,76211,2,0,L|296:120,1,-1
120,64,76265,2,4,L|140:64,1,13.9125000212288
16,64,76320,5,8,0:0:0:0:
120,112,76321,2,0,L|296:120,1,-1
120,112,76321,2,0,L|296:120,1,-1
133,64,76375,2,4,L|152:68,1,13.8250003375244
16,64,76430,5,8,0:0:0:0:
120,112,76431,2,0,L|296:120,1,-1
120,112,76431,2,0,L|296:120,1,-1
112,80,76486,2,4,L|132:80,1,13.7375000524044
16,64,76541,5,8,0:0:0:0:
120,112,76542,2,0,L|296:120,1,-1
120,112,76542,2,0,L|296:120,1,-1
132,80,76596,2,4,L|156:88,1,13.6500004582215
16,64,76651,5,8,0:0:0:0:
120,112,76652,2,0,L|296:120,1,-1
120,112,76652,2,0,L|296:120,1,-1
128,40,76706,2,4,L|148:48,1,13.5625001034737
16,64,76761,5,8,0:0:0:0:
120,112,76762,2,0,L|296:120,1,-1
120,112,76762,2,0,L|296:120,1,-1
120,68,76816,2,4,L|132:72,1,13.4749997327042
16,64,76872,5,8,0:0:0:0:
120,112,76873,2,0,L|296:120,1,-1
120,112,76873,2,0,L|296:120,1,-1
144,88,76927,2,4,L|164:88,1,13.3875006026173
16,64,76982,5,8,0:0:0:0:
120,112,76983,2,0,L|296:120,1,-1
120,112,76983,2,0,L|296:120,1,-1
120,68,77037,2,4,L|136:72,1,13.2999998376465
16,64,77092,5,8,0:0:0:0:
120,112,77093,2,0,L|296:120,1,-1
120,112,77093,2,0,L|296:120,1,-1
108,80,77147,2,4,L|120:84,1,13.2124998487949
16,64,77202,5,8,0:0:0:0:
120,112,77203,2,0,L|296:120,1,-1
120,112,77203,2,0,L|296:120,1,-1
120,80,77258,2,4,L|136:84,1,12.6875003871918
16,64,77313,5,8,0:0:0:0:
120,112,77314,2,0,L|296:120,1,-1
120,112,77314,2,0,L|296:120,1,-1
100,84,77368,2,4,L|112:88,1,12.2499996261597
16,64,77423,5,8,0:0:0:0:
120,112,77424,2,0,L|296:120,1,-1
120,112,77424,2,0,L|296:120,1,-1
116,84,77478,2,4,L|128:88,1,8.75
16,64,77533,5,8,0:0:0:0:
120,112,77534,2,8,L|296:120,1,-1
120,112,77534,2,8,L|296:120,1,-1
176,64,77754,1,0,0:0:0:0:
196,108,77975,1,4,0:0:0:0:
168,60,78305,1,0,0:0:0:0:
168,60,78416,1,2,0:0:0:0:
168,64,78636,1,0,0:0:0:0:
120,112,78664,2,4,L|296:120,1,-1
120,112,78691,2,4,L|296:120,1,-1
120,112,78719,2,4,L|296:120,1,-1
120,112,78747,2,4,L|296:120,1,-1
120,112,78774,2,4,L|296:120,1,-1
144,64,78967,1,0,0:0:0:0:
180,100,79077,1,2,0:0:0:0:
180,100,79188,1,0,0:0:0:0:
144,64,79298,1,2,0:0:0:0:
196,48,79519,1,2,0:0:0:0:
120,112,79546,2,4,L|296:120,1,-1
120,112,79574,2,4,L|296:120,1,-1
120,112,79601,2,4,L|296:120,1,-1
120,112,79629,2,4,L|296:120,1,-1
156,56,79739,1,0,0:0:0:0:
164,56,79960,1,2,0:0:0:0:
164,56,80180,1,0,0:0:0:0:
140,64,80401,1,2,0:0:0:0:
120,112,80429,2,4,L|296:120,1,-1
120,112,80456,2,4,L|296:120,1,-1
140,64,80511,1,0,0:0:0:0:
120,112,80539,2,4,L|296:120,1,-1
120,112,80566,2,4,L|296:120,1,-1
140,68,80622,1,0,0:0:0:0:
140,68,80732,1,2,0:0:0:0:
168,40,80952,1,0,0:0:0:0:
76,188,81283,2,4,L|396:193,1,280
156,60,81504,1,2,0:0:0:0:
216,56,81559,1,2,0:0:0:0:
200,72,81614,1,2,0:0:0:0:
200,72,81669,1,2,0:0:0:0:
200,72,81835,1,0,0:0:0:0:
168,56,81945,1,2,0:0:0:0:
180,40,82019,1,0,0:0:0:0:
180,40,82092,1,0,0:0:0:0:
180,40,82166,1,2,0:0:0:0:
347,72,82221,1,8,0:0:0:0:
232,220,82276,1,0,0:0:0:0:
204,48,82497,1,0,0:0:0:0:
204,48,82607,1,0,0:0:0:0:
204,48,82717,1,2,0:0:0:0:
192,40,82938,1,0,0:0:0:0:
236,56,83048,1,8,0:0:0:0:
236,56,83085,1,8,0:0:0:0:
236,56,83158,1,8,0:0:0:0:
213,134,83195,1,8,0:0:0:0:
284,72,83489,1,8,0:0:0:0:
160,80,83600,1,0,0:0:0:0:
160,80,83710,1,0,0:0:0:0:
108,64,83820,1,8,0:0:0:0:
404,176,83930,1,0,0:0:0:0:
108,64,84004,1,0,0:0:0:0:
376,129,84077,1,0,0:0:0:0:
108,64,84151,1,2,0:0:0:0:
326,203,84261,1,0,0:0:0:0:
108,64,84372,1,0,0:0:0:0:
321,205,84427,1,0,0:0:0:0:
108,64,84482,1,8,0:0:0:0:
350,65,84592,1,0,0:0:0:0:
112,72,84702,1,0,0:0:0:0:
112,72,84813,1,8,0:0:0:0:
256,142,84886,1,8,0:0:0:0:
256,142,84960,1,8,0:0:0:0:
112,72,85033,1,0,0:0:0:0:
204,64,85254,1,0,0:0:0:0:
188,72,85364,1,0,0:0:0:0:
188,72,85475,1,2,0:0:0:0:
188,72,85695,1,2,0:0:0:0:
120,112,85723,2,4,L|296:120,1,-1
120,112,85750,2,4,L|296:120,1,-1
120,112,85778,2,4,L|296:120,1,-1
120,112,85805,2,4,L|296:120,1,-1
188,72,85916,1,0,0:0:0:0:
275,59,86136,1,0,0:0:0:0:
220,72,86247,1,0,0:0:0:0:
220,72,86357,1,2,0:0:0:0:
224,64,86467,1,2,0:0:0:0:
160,76,86577,1,0,0:0:0:0:
120,112,86605,2,4,L|296:120,1,-1
120,112,86633,2,4,L|296:120,1,-1
120,112,86660,2,4,L|296:120,1,-1
120,112,86688,2,4,L|296:120,1,-1
216,64,86798,1,2,0:0:0:0:
147,178,86908,2,0,L|244:180,1,70
208,68,87019,1,0,0:0:0:0:
147,178,87046,2,0,L|263:175,1,70
147,178,87129,2,0,L|246:176,1,70
144,56,87239,1,0,0:0:0:0:
120,112,87377,2,4,L|296:120,1,-1
120,112,87405,2,4,L|296:120,1,-1
144,56,87460,1,2,0:0:0:0:
120,112,87515,2,4,L|296:120,1,-1
120,112,87543,2,4,L|296:120,1,-1
144,56,87680,1,0,0:0:0:0:
144,56,87791,1,2,0:0:0:0:
156,60,88011,1,2,0:0:0:0:
72,213,88342,2,0,L|267:215,1,140
256,192,88370,12,0,88397,0:0:0:0:
276,100,88563,5,2,0:0:0:0:
256,60,88618,1,2,0:0:0:0:
248,64,88673,1,2,0:0:0:0:
248,64,88728,1,2,0:0:0:0:
340,56,88894,1,0,0:0:0:0:
168,116,89004,1,0,0:0:0:0:
156,144,89077,1,2,0:0:0:0:
204,20,89151,1,2,0:0:0:0:
160,76,89225,1,0,0:0:0:0:
160,76,89335,1,0,0:0:0:0:
160,76,89445,1,2,0:0:0:0:
200,24,89666,1,0,0:0:0:0:
120,112,89693,2,4,L|296:120,1,-1
120,112,89721,2,4,L|296:120,1,-1
120,112,89776,2,4,L|296:120,1,-1
120,112,89804,2,4,L|296:120,1,-1
192,68,89886,1,2,0:0:0:0:
92,195,89914,2,0,L|308:195,1,210
192,68,90107,1,0,0:0:0:0:
256,192,90134,12,0,90217,0:0:0:0:
168,64,90327,5,2,0:0:0:0:
168,64,90658,1,0,0:0:0:0:
180,108,90989,1,2,0:0:0:0:
256,192,91017,12,0,91100,0:0:0:0:
208,112,91210,5,0,0:0:0:0:
256,192,91320,12,0,91541,0:0:0:0:
208,112,91651,5,2,0:0:0:0:
208,112,91872,1,0,0:0:0:0:
192,32,92092,1,4,0:0:0:0:
184,88,92423,1,2,0:0:0:0:
184,88,92533,1,0,0:0:0:0:
184,112,92754,1,2,0:0:0:0:
120,112,92781,2,4,L|296:120,1,-1
120,112,92809,2,4,L|296:120,1,-1
120,112,92836,2,4,L|296:120,1,-1
120,112,92864,2,4,L|296:120,1,-1
184,112,93085,1,2,0:0:0:0:
184,112,93195,1,0,0:0:0:0:
120,112,93223,2,4,L|296:120,1,-1
120,112,93250,2,4,L|296:120,1,-1
184,112,93305,1,0,0:0:0:0:
120,112,93333,2,4,L|296:120,1,-1
120,112,93361,2,4,L|296:120,1,-1
184,112,93416,1,2,0:0:0:0:
184,112,93636,1,2,0:0:0:0:
120,112,93664,2,4,L|296:120,1,-1
120,112,93692,2,4,L|296:120,1,-1
120,112,93719,2,4,L|296:120,1,-1
120,112,93747,2,4,L|296:120,1,-1
140,92,93857,1,0,0:0:0:0:
256,192,93967,12,0,94133,0:0:0:0:
140,92,94077,5,2,0:0:0:0:
148,96,94298,1,2,0:0:0:0:
120,112,94519,2,4,L|296:120,1,-1
120,112,94546,2,4,L|296:120,1,-1
120,112,94629,2,4,L|296:120,1,-1
120,112,94656,2,4,L|296:120,1,-1
148,96,94739,1,2,0:0:0:0:
148,96,94849,1,0,0:0:0:0:
148,96,95107,1,2,0:0:0:0:
88,112,95401,2,4,L|376:198,1,280
176,36,95622,1,0,0:0:0:0:
256,192,95732,12,0,95759,0:0:0:0:
156,148,95842,5,2,0:0:0:0:
156,148,95897,1,2,0:0:0:0:
256,192,95952,12,0,95980,0:0:0:0:
172,156,96063,5,0,0:0:0:0:
120,112,96173,2,4,L|296:120,1,-1
120,112,96201,2,4,L|296:120,1,-1
120,112,96228,2,4,L|296:120,1,-1
172,156,96283,1,2,0:0:0:0:
120,112,96311,2,4,L|296:120,1,-1
172,156,96339,1,2,0:0:0:0:
120,112,96394,2,4,L|296:120,1,-1
172,160,96504,1,0,0:0:0:0:
172,160,96725,1,2,0:0:0:0:
120,112,96752,2,0,L|296:120,1,-1
172,160,96780,1,2,0:0:0:0:
120,112,96835,2,0,L|296:120,1,-1
172,156,96945,1,0,0:0:0:0:
172,156,97166,1,2,0:0:0:0:
120,112,97193,2,4,L|296:120,1,-1
172,156,97221,1,2,0:0:0:0:
120,112,97276,2,4,L|296:120,1,-1
120,112,97304,2,4,L|296:120,1,-1
172,160,97386,1,0,0:0:0:0:
172,160,97607,1,2,0:0:0:0:
172,160,97662,1,0,0:0:0:0:
172,156,97827,1,2,0:0:0:0:
172,156,98048,1,2,0:0:0:0:
120,112,98076,2,4,L|296:120,1,-1
172,156,98103,5,0,0:0:0:0:
120,112,98131,2,4,L|296:120,1,-1
120,112,98158,2,4,L|296:120,1,-1
120,112,98186,2,4,L|296:120,1,-1
120,112,98213,2,4,L|296:120,1,-1
172,160,98269,1,2,0:0:0:0:
172,160,98489,1,2,0:0:0:0:
120,112,98517,2,4,L|296:120,1,-1
172,160,98544,1,2,0:0:0:0:
120,112,98572,2,0,L|296:120,1,-1
172,156,98710,1,2,0:0:0:0:
172,156,98930,1,2,0:0:0:0:
120,112,98958,2,0,L|296:120,1,-1
172,156,98986,1,2,0:0:0:0:
120,112,99013,2,0,L|296:120,1,-1
120,112,99041,2,0,L|296:120,1,-1
120,112,99068,2,0,L|296:120,1,-1
120,112,99096,2,0,L|296:120,1,-1
172,160,99151,1,0,0:0:0:0:
212,84,99372,1,0,0:0:0:0:
212,84,99482,1,0,0:0:0:0:
212,84,99592,1,2,0:0:0:0:
196,104,99813,1,2,0:0:0:0:
120,112,99840,2,4,L|296:120,1,-1
120,112,99868,2,4,L|296:120,1,-1
120,112,99895,2,4,L|296:120,1,-1
120,112,99923,2,4,L|296:120,1,-1
184,104,100033,1,2,0:0:0:0:
184,104,100254,1,0,0:0:0:0:
120,112,100281,2,4,L|296:120,1,-1
120,112,100309,2,4,L|296:120,1,-1
184,104,100364,1,0,0:0:0:0:
120,112,100392,2,4,L|296:120,1,-1
120,112,100419,2,4,L|296:120,1,-1
184,104,100475,1,2,0:0:0:0:
184,104,100585,1,0,0:0:0:0:
120,112,100612,2,0,L|296:120,1,-1
120,112,100640,2,0,L|296:120,1,-1
184,104,100695,1,0,0:0:0:0:
120,112,100723,2,4,L|296:120,1,-1
120,112,100751,2,4,L|296:120,1,-1
120,112,100778,2,4,L|296:120,1,-1
120,112,100806,2,4,L|296:120,1,-1
120,112,100833,2,4,L|296:120,1,-1
188,104,100916,1,2,0:0:0:0:
184,104,101136,1,0,0:0:0:0:
184,104,101247,1,0,0:0:0:0:
272,56,101357,1,0,0:0:0:0:
120,112,101577,2,4,L|296:120,1,-1
120,112,101605,2,4,L|296:120,1,-1
120,112,101688,2,4,L|296:120,1,-1
120,112,101715,2,4,L|296:120,1,-1
188,104,102019,5,0,0:0:0:0:
188,104,102239,1,2,0:0:0:0:
188,104,102460,1,0,0:0:0:0:
92,188,102487,2,4,L|196:192,1,105
248,96,102680,1,2,0:0:0:0:
248,96,102827,1,0,0:0:0:0:
280,116,102975,1,0,0:0:0:0:
280,116,103122,1,2,0:0:0:0:
280,116,103269,1,0,0:0:0:0:
280,116,103416,1,0,0:0:0:0:
280,116,103563,1,2,0:0:0:0:
280,116,103710,1,0,0:0:0:0:
280,116,103857,1,0,0:0:0:0:
280,116,104004,1,2,0:0:0:0:
280,116,104151,1,0,0:0:0:0:
280,116,104298,1,0,0:0:0:0:
120,112,104417,2,4,L|296:120,1,-20
120,112,104419,2,4,L|296:120,1,-60
120,112,104421,2,4,L|296:120,1,-100
120,112,104423,2,4,L|296:120,1,-140
120,112,104425,2,4,L|296:120,1,-180
120,112,104427,2,4,L|296:120,1,-220
120,112,104429,2,4,L|296:120,1,-260
120,112,104431,2,4,L|296:120,1,-300
16,64,104445,5,12,0:0:0:0:
120,112,104446,2,12,L|296:120,1,-1
120,112,104446,2,12,L|296:120,1,-1
120,112,104446,2,12,L|296:120,1,-1
120,112,104446,2,12,L|296:120,1,-1
120,112,104446,2,12,L|296:120,1,-1
120,112,104473,2,0,L|296:120,1,-1
120,112,104487,2,0,L|296:120,1,-1
120,112,104501,2,0,L|296:120,1,-1
120,112,104514,2,0,L|296:120,1,-1
120,112,104528,2,0,L|296:120,1,-1
120,112,104542,2,0,L|296:120,1,-1
120,112,104556,2,0,L|296:120,1,-1
120,112,104574,2,0,L|296:120,1,-1
120,112,104593,2,0,L|296:120,1,-1
120,112,104611,2,0,L|296:120,1,-1
120,112,104625,2,0,L|296:120,1,-1
120,112,104639,2,0,L|296:120,1,-1
120,112,104652,2,0,L|296:120,1,-1
120,112,104666,2,0,L|296:120,1,-1
120,112,104680,2,0,L|296:120,1,-1
120,112,104694,2,0,L|296:120,1,-1
120,112,104712,2,0,L|296:120,1,-1
120,112,104721,2,0,L|296:120,1,-1
120,112,104731,2,0,L|296:120,1,-1
120,112,104735,2,0,L|296:120,1,-1
120,112,104749,2,0,L|296:120,1,-1
120,112,104762,2,0,L|296:120,1,-1
120,112,104776,2,0,L|296:120,1,-1
296,68,104886,1,0,0:0:0:0:
296,68,104997,1,0,0:0:0:0:
296,68,105107,1,0,0:0:0:0:
296,68,105217,1,0,0:0:0:0:
240,60,105327,1,2,0:0:0:0:
244,48,105438,1,2,0:0:0:0:
192,80,105548,5,0,0:0:0:0:
240,52,105769,1,2,0:0:0:0:
168,48,105989,1,2,0:0:0:0:
208,168,106210,5,4,0:0:0:0:
120,112,106320,2,0,L|296:120,1,-1
120,112,106375,2,0,L|296:120,1,-1
120,112,106430,2,0,L|296:120,1,-1
120,112,106467,2,0,L|296:120,1,-1
120,112,106513,2,0,L|296:120,1,-1
120,112,106540,2,0,L|296:120,1,-1
120,112,106577,2,0,L|296:120,1,-1
120,112,106596,2,0,L|296:120,1,-1
16,64,106651,5,8,0:0:0:0:
120,112,106652,2,0,L|296:120,1,-1
120,112,106652,2,0,L|296:120,1,-1
16,64,106761,5,8,0:0:0:0:
120,112,106762,2,0,L|296:120,1,-1
120,112,106762,2,0,L|296:120,1,-1
152,92,106872,1,0,0:0:0:0:
152,92,106982,1,0,0:0:0:0:
16,64,107092,5,8,0:0:0:0:
120,112,107093,2,0,L|296:120,1,-1
120,112,107093,2,0,L|296:120,1,-1
120,112,107202,2,0,L|296:120,1,-1
120,112,107202,2,0,L|296:120,1,-1
176,112,107313,1,0,0:0:0:0:
176,112,107423,1,0,0:0:0:0:
16,64,107533,5,8,0:0:0:0:
120,112,107534,2,0,L|296:120,1,-1
120,112,107534,2,0,L|296:120,1,-1
120,112,107644,2,0,L|296:120,1,-1
120,112,107644,2,0,L|296:120,1,-1
172,108,107754,1,0,0:0:0:0:
168,108,107864,1,0,0:0:0:0:
16,64,107974,5,8,0:0:0:0:
120,112,107975,2,0,L|296:120,1,-1
120,112,107975,2,0,L|296:120,1,-1
168,108,108085,1,0,0:0:0:0:
168,108,108195,1,0,0:0:0:0:
168,108,108305,1,0,0:0:0:0:
16,64,108416,5,8,0:0:0:0:
120,112,108417,2,0,L|296:120,1,-1
120,112,108417,2,0,L|296:120,1,-1
120,112,108526,2,0,L|296:120,1,-1
120,112,108526,2,0,L|296:120,1,-1
172,108,108636,1,0,0:0:0:0:
16,64,108747,5,8,0:0:0:0:
120,112,108748,2,0,L|296:120,1,-1
120,112,108748,2,0,L|296:120,1,-1
16,64,108857,5,8,0:0:0:0:
120,112,108858,2,0,L|296:120,1,-1
120,112,108858,2,0,L|296:120,1,-1
120,112,108967,2,0,L|296:120,1,-1
120,112,108967,2,0,L|296:120,1,-1
16,64,109077,5,8,0:0:0:0:
120,112,109078,2,0,L|296:120,1,-1
120,112,109078,2,0,L|296:120,1,-1
168,108,109188,1,0,0:0:0:0:
16,64,109298,5,8,0:0:0:0:
120,112,109299,2,0,L|296:120,1,-1
120,112,109299,2,0,L|296:120,1,-1
120,112,109408,2,0,L|296:120,1,-1
120,112,109408,2,0,L|296:120,1,-1
16,64,109519,5,8,0:0:0:0:
120,112,109520,2,0,L|296:120,1,-1
120,112,109520,2,0,L|296:120,1,-1
16,64,109629,5,8,0:0:0:0:
120,112,109630,2,0,L|296:120,1,-1
120,112,109630,2,0,L|296:120,1,-1
168,56,109739,1,0,0:0:0:0:
16,64,109849,5,8,0:0:0:0:
120,112,109850,2,0,L|296:120,1,-1
120,112,109850,2,0,L|296:120,1,-1
168,56,109960,1,0,0:0:0:0:
168,56,110070,1,0,0:0:0:0:
16,64,110180,5,8,0:0:0:0:
120,112,110181,2,0,L|296:120,1,-1
120,112,110181,2,0,L|296:120,1,-1
120,112,110291,2,0,L|296:120,1,-1
120,112,110291,2,0,L|296:120,1,-1
16,64,110401,5,8,0:0:0:0:
120,112,110402,2,0,L|296:120,1,-1
120,112,110402,2,0,L|296:120,1,-1
16,64,110511,5,8,0:0:0:0:
120,112,110512,2,0,L|296:120,1,-1
120,112,110512,2,0,L|296:120,1,-1
140,52,110622,1,0,0:0:0:0:
120,112,110732,2,0,L|296:120,1,-1
120,112,110732,2,0,L|296:120,1,-1
172,64,110842,1,0,0:0:0:0:
16,64,110952,5,8,0:0:0:0:
120,112,110953,2,0,L|296:120,1,-1
120,112,110953,2,0,L|296:120,1,-1
120,112,111063,2,0,L|296:120,1,-1
120,112,111063,2,0,L|296:120,1,-1
172,64,111173,1,0,0:0:0:0:
16,64,111283,5,8,0:0:0:0:
120,112,111284,2,0,L|296:120,1,-1
120,112,111284,2,0,L|296:120,1,-1
120,112,111394,2,0,L|296:120,1,-1
120,112,111394,2,0,L|296:120,1,-1
172,64,111504,1,0,0:0:0:0:
172,64,111614,1,0,0:0:0:0:
172,64,111725,1,0,0:0:0:0:
16,64,111835,5,8,0:0:0:0:
120,112,111836,2,0,L|296:120,1,-1
120,112,111836,2,0,L|296:120,1,-1
16,64,111945,5,8,0:0:0:0:
120,112,111946,2,0,L|296:120,1,-1
120,112,111946,2,0,L|296:120,1,-1
172,64,112055,1,0,0:0:0:0:
16,64,112166,5,8,0:0:0:0:
120,112,112167,2,0,L|296:120,1,-1
120,112,112167,2,0,L|296:120,1,-1
172,64,112276,1,0,0:0:0:0:
16,64,112386,5,8,0:0:0:0:
120,112,112387,2,0,L|296:120,1,-1
120,112,112387,2,0,L|296:120,1,-1
120,112,112497,2,0,L|296:120,1,-1
120,112,112497,2,0,L|296:120,1,-1
172,64,112607,1,0,0:0:0:0:
172,64,112717,1,0,0:0:0:0:
16,64,112827,5,8,0:0:0:0:
120,112,112828,2,0,L|296:120,1,-1
120,112,112828,2,0,L|296:120,1,-1
120,112,112938,2,0,L|296:120,1,-1
120,112,112938,2,0,L|296:120,1,-1
200,72,113048,1,0,0:0:0:0:
120,112,113158,2,0,L|296:120,1,-1
120,112,113158,2,0,L|296:120,1,-1
168,152,113269,1,0,0:0:0:0:
120,112,113379,2,0,L|296:120,1,-1
120,112,113379,2,0,L|296:120,1,-1
16,64,113489,5,8,0:0:0:0:
120,112,113490,2,0,L|296:120,1,-1
120,112,113490,2,0,L|296:120,1,-1
16,64,113562,5,8,0:0:0:0:
120,112,113563,2,0,L|296:120,1,-1
120,112,113563,2,0,L|296:120,1,-1
16,64,113636,5,8,0:0:0:0:
120,112,113637,2,0,L|296:120,1,-1
120,112,113637,2,0,L|296:120,1,-1
16,64,113709,5,0,0:0:0:0:
120,112,113710,2,0,L|296:120,1,-1
120,112,113710,2,0,L|296:120,1,-1
120,112,113820,2,0,L|296:120,1,-1
120,112,113820,2,0,L|296:120,1,-1
248,84,113930,1,2,0:0:0:0:
120,112,114041,2,0,L|296:120,1,-1
120,112,114041,2,0,L|296:120,1,-1
172,64,114151,1,2,0:0:0:0:
16,64,114261,5,0,0:0:0:0:
120,112,114262,2,0,L|296:120,1,-1
120,112,114262,2,0,L|296:120,1,-1
16,64,114372,5,0,0:0:0:0:
120,112,114373,2,0,L|296:120,1,-1
120,112,114373,2,0,L|296:120,1,-1
172,64,114482,1,2,0:0:0:0:
16,64,114592,5,0,0:0:0:0:
120,112,114593,2,0,L|296:120,1,-1
120,112,114593,2,0,L|296:120,1,-1
16,64,114702,5,0,0:0:0:0:
120,112,114703,2,0,L|296:120,1,-1
120,112,114703,2,0,L|296:120,1,-1
172,64,114813,1,2,0:0:0:0:
120,112,114923,2,0,L|296:120,1,-1
120,112,114923,2,0,L|296:120,1,-1
16,64,115033,5,0,0:0:0:0:
120,112,115034,2,0,L|296:120,1,-1
120,112,115034,2,0,L|296:120,1,-1
120,112,115144,2,0,L|296:120,1,-1
120,112,115144,2,0,L|296:120,1,-1
196,68,115254,1,2,0:0:0:0:
16,64,115364,5,0,0:0:0:0:
120,112,115365,2,0,L|296:120,1,-1
120,112,115365,2,0,L|296:120,1,-1
192,72,115475,1,2,0:0:0:0:
120,112,115585,2,0,L|296:120,1,-1
120,112,115585,2,0,L|296:120,1,-1
16,64,115695,5,0,0:0:0:0:
120,112,115696,2,0,L|296:120,1,-1
120,112,115696,2,0,L|296:120,1,-1
16,64,115805,5,0,0:0:0:0:
120,112,115806,2,0,L|296:120,1,-1
120,112,115806,2,0,L|296:120,1,-1
160,88,115916,1,2,0:0:0:0:
16,64,116026,5,0,0:0:0:0:
120,112,116027,2,0,L|296:120,1,-1
120,112,116027,2,0,L|296:120,1,-1
188,80,116136,1,2,0:0:0:0:
16,64,116247,5,0,0:0:0:0:
120,112,116248,2,0,L|296:120,1,-1
120,112,116248,2,0,L|296:120,1,-1
156,52,116357,1,2,0:0:0:0:
156,52,116467,1,2,0:0:0:0:
16,64,116577,5,0,0:0:0:0:
120,112,116578,2,0,L|296:120,1,-1
120,112,116578,2,0,L|296:120,1,-1
16,64,116688,5,0,0:0:0:0:
120,112,116689,2,0,L|296:120,1,-1
120,112,116689,2,0,L|296:120,1,-1
156,52,116798,1,2,0:0:0:0:
120,112,116908,2,0,L|296:120,1,-1
120,112,116908,2,0,L|296:120,1,-1
16,64,117019,5,0,0:0:0:0:
120,112,117020,2,0,L|296:120,1,-1
120,112,117020,2,0,L|296:120,1,-1
16,64,117129,5,0,0:0:0:0:
120,112,117130,2,0,L|296:120,1,-1
120,112,117130,2,0,L|296:120,1,-1
160,56,117239,1,2,0:0:0:0:
120,112,117349,2,0,L|296:120,1,-1
120,112,117349,2,0,L|296:120,1,-1
16,64,117460,5,0,0:0:0:0:
120,112,117461,2,0,L|296:120,1,-1
120,112,117461,2,0,L|296:120,1,-1
120,112,117570,2,0,L|296:120,1,-1
120,112,117570,2,0,L|296:120,1,-1
160,56,117680,1,2,0:0:0:0:
16,64,117791,5,0,0:0:0:0:
120,112,117792,2,0,L|296:120,1,-1
120,112,117792,2,0,L|296:120,1,-1
16,64,117901,5,0,0:0:0:0:
120,112,117902,2,0,L|296:120,1,-1
120,112,117902,2,0,L|296:120,1,-1
276,176,118011,1,2,0:0:0:0:
16,64,118122,5,0,0:0:0:0:
120,112,118123,2,0,L|296:120,1,-1
120,112,118123,2,0,L|296:120,1,-1
16,64,118232,5,0,0:0:0:0:
120,112,118233,2,0,L|296:120,1,-1
120,112,118233,2,0,L|296:120,1,-1
192,52,118342,1,2,0:0:0:0:
192,52,118452,1,2,0:0:0:0:
16,64,118563,5,0,0:0:0:0:
120,112,118564,2,0,L|296:120,1,-1
120,112,118564,2,0,L|296:120,1,-1
120,112,118673,2,0,L|296:120,1,-1
120,112,118673,2,0,L|296:120,1,-1
16,64,118783,5,0,0:0:0:0:
120,112,118784,2,0,L|296:120,1,-1
120,112,118784,2,0,L|296:120,1,-1
160,56,118894,1,2,0:0:0:0:
160,56,119004,1,2,0:0:0:0:
148,24,119114,1,2,0:0:0:0:
16,64,119224,5,0,0:0:0:0:
120,112,119225,2,0,L|296:120,1,-1
120,112,119225,2,0,L|296:120,1,-1
148,24,119335,1,2,0:0:0:0:
16,64,119445,5,0,0:0:0:0:
120,112,119446,2,0,L|296:120,1,-1
120,112,119446,2,0,L|296:120,1,-1
148,24,119555,1,2,0:0:0:0:
148,24,119666,1,2,0:0:0:0:
16,64,119776,5,0,0:0:0:0:
120,112,119777,2,0,L|296:120,1,-1
120,112,119777,2,0,L|296:120,1,-1
148,24,119886,1,2,0:0:0:0:
148,24,119997,1,2,0:0:0:0:
16,64,120107,5,0,0:0:0:0:
120,112,120108,2,0,L|296:120,1,-1
120,112,120108,2,0,L|296:120,1,-1
120,112,120217,2,0,L|296:120,1,-1
120,112,120217,2,0,L|296:120,1,-1
184,64,120327,1,0,0:0:0:0:
120,112,120438,2,0,L|296:120,1,-1
120,112,120438,2,0,L|296:120,1,-1
16,64,120548,5,8,0:0:0:0:
120,112,120549,2,0,L|296:120,1,-1
120,112,120549,2,0,L|296:120,1,-1
16,64,120603,5,8,0:0:0:0:
120,112,120604,2,0,L|296:120,1,-1
120,112,120604,2,0,L|296:120,1,-1
16,64,120658,5,8,0:0:0:0:
120,112,120659,2,0,L|296:120,1,-1
120,112,120659,2,0,L|296:120,1,-1
16,64,120769,5,8,0:0:0:0:
120,112,120770,2,8,L|296:120,1,-1
120,112,120770,2,8,L|296:120,1,-1
208,52,120879,1,0,0:0:0:0:
208,52,120989,1,0,0:0:0:0:
208,52,121100,1,0,0:0:0:0:
16,64,121210,5,8,0:0:0:0:
120,112,121211,2,8,L|296:120,1,-1
120,112,121211,2,8,L|296:120,1,-1
120,112,121320,2,0,L|296:120,1,-1
120,112,121320,2,0,L|296:120,1,-1
16,64,121430,5,0,0:0:0:0:
120,112,121431,2,0,L|296:120,1,-1
120,112,121431,2,0,L|296:120,1,-1
224,72,121541,1,2,0:0:0:0:
16,64,121651,5,0,0:0:0:0:
120,112,121652,2,0,L|296:120,1,-1
120,112,121652,2,0,L|296:120,1,-1
120,112,121761,2,0,L|296:120,1,-1
120,112,121761,2,0,L|296:120,1,-1
16,64,121872,5,8,0:0:0:0:
120,112,121873,2,8,L|296:120,1,-1
120,112,121873,2,8,L|296:120,1,-1
208,72,121982,1,0,0:0:0:0:
208,72,122092,1,0,0:0:0:0:
120,112,122202,2,0,L|296:120,1,-1
120,112,122202,2,0,L|296:120,1,-1
16,64,122313,5,0,0:0:0:0:
120,112,122314,2,0,L|296:120,1,-1
120,112,122314,2,0,L|296:120,1,-1
16,64,122423,5,0,0:0:0:0:
120,112,122424,2,0,L|296:120,1,-1
120,112,122424,2,0,L|296:120,1,-1
184,40,122533,1,2,0:0:0:0:
120,112,122644,2,0,L|296:120,1,-1
120,112,122644,2,0,L|296:120,1,-1
16,64,122754,5,8,0:0:0:0:
120,112,122755,2,8,L|296:120,1,-1
120,112,122755,2,8,L|296:120,1,-1
16,64,122864,5,8,0:0:0:0:
120,112,122865,2,8,L|296:120,1,-1
120,112,122865,2,8,L|296:120,1,-1
184,40,122975,1,0,0:0:0:0:
120,112,123085,2,0,L|296:120,1,-1
120,112,123085,2,0,L|296:120,1,-1
184,48,123195,1,2,0:0:0:0:
16,64,123305,5,0,0:0:0:0:
120,112,123306,2,0,L|296:120,1,-1
120,112,123306,2,0,L|296:120,1,-1
184,48,123416,1,2,0:0:0:0:
120,112,123526,2,0,L|296:120,1,-1
120,112,123526,2,0,L|296:120,1,-1
180,52,123636,1,0,0:0:0:0:
120,112,123747,2,0,L|296:120,1,-1
120,112,123747,2,0,L|296:120,1,-1
16,64,123857,5,8,0:0:0:0:
120,112,123858,2,8,L|296:120,1,-1
120,112,123858,2,8,L|296:120,1,-1
240,164,123967,1,0,0:0:0:0:
16,64,124077,5,8,0:0:0:0:
120,112,124078,2,8,L|296:120,1,-1
120,112,124078,2,8,L|296:120,1,-1
160,104,124188,1,0,0:0:0:0:
160,104,124298,1,0,0:0:0:0:
120,112,124408,2,0,L|296:120,1,-1
120,112,124408,2,0,L|296:120,1,-1
16,64,124519,5,0,0:0:0:0:
120,112,124520,2,0,L|296:120,1,-1
120,112,124520,2,0,L|296:120,1,-1
16,64,124629,5,0,0:0:0:0:
120,112,124630,2,0,L|296:120,1,-1
120,112,124630,2,0,L|296:120,1,-1
160,104,124739,1,2,0:0:0:0:
16,64,124849,5,0,0:0:0:0:
120,112,124850,2,0,L|296:120,1,-1
120,112,124850,2,0,L|296:120,1,-1
16,64,124960,5,0,0:0:0:0:
120,112,124961,2,0,L|296:120,1,-1
120,112,124961,2,0,L|296:120,1,-1
160,104,125070,1,2,0:0:0:0:
16,64,125180,5,0,0:0:0:0:
120,112,125181,2,0,L|296:120,1,-1
120,112,125181,2,0,L|296:120,1,-1
16,64,125291,5,0,0:0:0:0:
120,112,125292,2,0,L|296:120,1,-1
120,112,125292,2,0,L|296:120,1,-1
160,104,125401,1,2,0:0:0:0:
120,112,125511,2,0,L|296:120,1,-1
120,112,125511,2,0,L|296:120,1,-1
160,104,125622,1,0,0:0:0:0:
120,112,125732,2,0,L|296:120,1,-1
120,112,125732,2,0,L|296:120,1,-1
16,64,125842,5,8,0:0:0:0:
120,112,125843,2,8,L|296:120,1,-1
120,112,125843,2,8,L|296:120,1,-1
16,64,125952,5,8,0:0:0:0:
120,112,125953,2,8,L|296:120,1,-1
120,112,125953,2,8,L|296:120,1,-1
16,64,126063,5,8,0:0:0:0:
120,112,126064,2,8,L|296:120,1,-1
120,112,126064,2,8,L|296:120,1,-1
184,68,126173,1,0,0:0:0:0:
16,64,126283,5,8,0:0:0:0:
120,112,126284,2,8,L|296:120,1,-1
120,112,126284,2,8,L|296:120,1,-1
200,52,126394,1,0,0:0:0:0:
160,60,126504,1,0,0:0:0:0:
120,112,126614,2,0,L|296:120,1,-1
120,112,126614,2,0,L|296:120,1,-1
156,48,126725,1,2,0:0:0:0:
16,64,126835,5,0,0:0:0:0:
120,112,126836,2,0,L|296:120,1,-1
120,112,126836,2,0,L|296:120,1,-1
160,56,126945,1,2,0:0:0:0:
120,112,127055,2,0,L|296:120,1,-1
120,112,127055,2,0,L|296:120,1,-1
160,56,127166,1,0,0:0:0:0:
120,112,127276,2,0,L|296:120,1,-1
120,112,127276,2,0,L|296:120,1,-1
184,136,127386,1,0,0:0:0:0:
120,112,127497,2,0,L|296:120,1,-1
120,112,127497,2,0,L|296:120,1,-1
16,64,127607,5,8,0:0:0:0:
120,112,127608,2,0,L|296:120,1,-1
120,112,127608,2,0,L|296:120,1,-1
16,64,127680,5,0,0:0:0:0:
120,112,127681,2,0,L|296:120,1,-1
120,112,127681,2,0,L|296:120,1,-1
16,64,127754,5,0,0:0:0:0:
120,112,127755,2,0,L|296:120,1,-1
120,112,127755,2,0,L|296:120,1,-1
16,64,127827,5,0,0:0:0:0:
120,112,127828,2,0,L|296:120,1,-1
120,112,127828,2,0,L|296:120,1,-1
120,112,127938,2,0,L|296:120,1,-1
120,112,127938,2,0,L|296:120,1,-1
16,64,128048,5,0,0:0:0:0:
120,112,128049,2,0,L|296:120,1,-1
120,112,128049,2,0,L|296:120,1,-1
120,112,128158,2,0,L|296:120,1,-1
120,112,128158,2,0,L|296:120,1,-1
16,64,128269,5,8,0:0:0:0:
120,112,128270,2,8,L|296:120,1,-1
120,112,128270,2,8,L|296:120,1,-1
16,64,128379,5,8,0:0:0:0:
120,112,128380,2,8,L|296:120,1,-1
120,112,128380,2,8,L|296:120,1,-1
16,64,128489,5,0,0:0:0:0:
120,112,128490,2,0,L|296:120,1,-1
120,112,128490,2,0,L|296:120,1,-1
16,64,128599,5,8,0:0:0:0:
120,112,128600,2,8,L|296:120,1,-1
120,112,128600,2,8,L|296:120,1,-1
120,112,128710,2,0,L|296:120,1,-1
120,112,128710,2,0,L|296:120,1,-1
16,64,128820,5,0,0:0:0:0:
120,112,128821,2,0,L|296:120,1,-1
120,112,128821,2,0,L|296:120,1,-1
16,64,128930,5,8,0:0:0:0:
120,112,128931,2,8,L|296:120,1,-1
120,112,128931,2,8,L|296:120,1,-1
16,64,129041,5,0,0:0:0:0:
120,112,129042,2,0,L|296:120,1,-1
120,112,129042,2,0,L|296:120,1,-1
16,64,129151,5,8,0:0:0:0:
120,112,129152,2,8,L|296:120,1,-1
120,112,129152,2,8,L|296:120,1,-1
120,112,129261,2,0,L|296:120,1,-1
120,112,129261,2,0,L|296:120,1,-1
16,64,129372,5,8,0:0:0:0:
120,112,129373,2,8,L|296:120,1,-1
120,112,129373,2,8,L|296:120,1,-1
16,64,129482,5,0,0:0:0:0:
120,112,129483,2,0,L|296:120,1,-1
120,112,129483,2,0,L|296:120,1,-1
16,64,129592,5,8,0:0:0:0:
120,112,129593,2,8,L|296:120,1,-1
120,112,129593,2,8,L|296:120,1,-1
120,112,129702,2,0,L|296:120,1,-1
120,112,129702,2,0,L|296:120,1,-1
16,64,129813,5,0,0:0:0:0:
120,112,129814,2,0,L|296:120,1,-1
120,112,129814,2,0,L|296:120,1,-1
16,64,129923,5,8,0:0:0:0:
120,112,129924,2,8,L|296:120,1,-1
120,112,129924,2,8,L|296:120,1,-1
16,64,130033,5,0,0:0:0:0:
120,112,130034,2,0,L|296:120,1,-1
120,112,130034,2,0,L|296:120,1,-1
120,112,130144,2,0,L|296:120,1,-1
120,112,130144,2,0,L|296:120,1,-1
16,64,130254,5,8,0:0:0:0:
120,112,130255,2,8,L|296:120,1,-1
120,112,130255,2,8,L|296:120,1,-1
120,112,130364,2,0,L|296:120,1,-1
120,112,130364,2,0,L|296:120,1,-1
16,64,130474,5,8,0:0:0:0:
120,112,130475,2,8,L|296:120,1,-1
120,112,130475,2,8,L|296:120,1,-1
120,112,130585,2,0,L|296:120,1,-1
120,112,130585,2,0,L|296:120,1,-1
16,64,130695,5,0,0:0:0:0:
120,112,130696,2,0,L|296:120,1,-1
120,112,130696,2,0,L|296:120,1,-1
120,112,130805,2,0,L|296:120,1,-1
120,112,130805,2,0,L|296:120,1,-1
16,64,130916,5,8,0:0:0:0:
120,112,130917,2,8,L|296:120,1,-1
120,112,130917,2,8,L|296:120,1,-1
16,64,131026,5,0,0:0:0:0:
120,112,131027,2,0,L|296:120,1,-1
120,112,131027,2,0,L|296:120,1,-1
16,64,131136,5,0,0:0:0:0:
120,112,131137,2,0,L|296:120,1,-1
120,112,131137,2,0,L|296:120,1,-1
16,64,131247,5,0,0:0:0:0:
120,112,131248,2,0,L|296:120,1,-1
120,112,131248,2,0,L|296:120,1,-1
16,64,131357,5,8,0:0:0:0:
120,112,131358,2,8,L|296:120,1,-1
120,112,131358,2,8,L|296:120,1,-1
120,112,131467,2,0,L|296:120,1,-1
120,112,131467,2,0,L|296:120,1,-1
16,64,131577,5,8,0:0:0:0:
120,112,131578,2,8,L|296:120,1,-1
120,112,131578,2,8,L|296:120,1,-1
16,64,131688,5,8,0:0:0:0:
120,112,131689,2,8,L|296:120,1,-1
120,112,131689,2,8,L|296:120,1,-1
168,76,131798,1,4,0:0:0:0:
16,64,131908,5,8,0:0:0:0:
120,112,131909,2,8,L|296:120,1,-1
120,112,131909,2,8,L|296:120,1,-1
16,64,132019,5,8,0:0:0:0:
120,112,132020,2,8,L|296:120,1,-1
120,112,132020,2,8,L|296:120,1,-1
176,76,132129,1,4,0:0:0:0:
16,64,132239,5,8,0:0:0:0:
120,112,132240,2,8,L|296:120,1,-1
120,112,132240,2,8,L|296:120,1,-1
16,64,132349,5,8,0:0:0:0:
120,112,132350,2,8,L|296:120,1,-1
120,112,132350,2,8,L|296:120,1,-1
176,76,132460,1,4,0:0:0:0:
120,112,132515,2,4,L|296:120,1,-1
120,112,132543,2,4,L|296:120,1,-1
120,112,132570,2,4,L|296:120,1,-1
120,112,132598,2,4,L|296:120,1,-1
120,112,132625,2,4,L|296:120,1,-1
120,112,132653,2,4,L|296:120,1,-1
120,112,132680,2,4,L|296:120,1,-1
120,112,132708,2,4,L|296:120,1,-1
120,112,132736,2,4,L|296:120,1,-1
120,112,132763,2,4,L|296:120,1,-1
120,112,132791,2,4,L|296:120,1,-1
120,112,132818,2,4,L|296:120,1,-1
120,112,132846,2,4,L|296:120,1,-1
104,44,132901,1,2,0:0:0:0:
312,180,132956,1,2,0:0:0:0:
312,180,133011,1,2,0:0:0:0:
312,180,133066,1,2,0:0:0:0:
144,96,133122,1,0,0:0:0:0:
144,96,133232,1,2,0:0:0:0:
144,96,133452,1,2,0:0:0:0:
144,96,133673,1,0,0:0:0:0:
144,96,133894,1,2,0:0:0:0:
144,96,134225,1,0,0:0:0:0:
196,128,134445,5,4,0:0:0:0:
16,64,134665,5,2,0:0:0:0:
120,112,134666,2,2,L|296:120,1,-1
120,112,134666,2,2,L|296:120,1,-1
120,112,134666,2,2,L|296:120,1,-1
16,64,134720,5,2,0:0:0:0:
120,112,134721,2,2,L|296:120,1,-1
120,112,134721,2,2,L|296:120,1,-1
120,112,134721,2,2,L|296:120,1,-1
268,68,134886,1,0,0:0:0:0:
16,64,135106,5,2,0:0:0:0:
120,112,135107,2,2,L|296:120,1,-1
120,112,135107,2,2,L|296:120,1,-1
120,112,135107,2,2,L|296:120,1,-1
16,64,135161,5,2,0:0:0:0:
120,112,135162,2,2,L|296:120,1,-1
120,112,135162,2,2,L|296:120,1,-1
120,112,135162,2,2,L|296:120,1,-1
216,64,135327,1,0,0:0:0:0:
16,64,135547,5,2,0:0:0:0:
120,112,135548,2,2,L|296:120,1,-1
120,112,135548,2,2,L|296:120,1,-1
120,112,135548,2,2,L|296:120,1,-1
16,64,135603,5,0,0:0:0:0:
120,112,135604,2,0,L|296:120,1,-1
120,112,135604,2,0,L|296:120,1,-1
120,112,135604,2,0,L|296:120,1,-1
168,52,135769,1,0,0:0:0:0:
16,64,135989,5,2,0:0:0:0:
120,112,135990,2,2,L|296:120,1,-1
120,112,135990,2,2,L|296:120,1,-1
120,112,135990,2,2,L|296:120,1,-1
16,64,136044,5,0,0:0:0:0:
120,112,136045,2,0,L|296:120,1,-1
120,112,136045,2,0,L|296:120,1,-1
120,112,136045,2,0,L|296:120,1,-1
176,68,136210,1,0,0:0:0:0:
16,64,136430,5,2,0:0:0:0:
120,112,136431,2,2,L|296:120,1,-1
120,112,136431,2,2,L|296:120,1,-1
120,112,136431,2,2,L|296:120,1,-1
16,64,136485,5,2,0:0:0:0:
120,112,136486,2,2,L|296:120,1,-1
120,112,136486,2,2,L|296:120,1,-1
120,112,136486,2,2,L|296:120,1,-1
180,64,136651,1,0,0:0:0:0:
16,64,136871,5,2,0:0:0:0:
120,112,136872,2,2,L|296:120,1,-1
120,112,136872,2,2,L|296:120,1,-1
120,112,136872,2,2,L|296:120,1,-1
16,64,136926,5,0,0:0:0:0:
120,112,136927,2,0,L|296:120,1,-1
120,112,136927,2,0,L|296:120,1,-1
120,112,136927,2,0,L|296:120,1,-1
220,56,137092,1,0,0:0:0:0:
16,64,137312,5,2,0:0:0:0:
120,112,137313,2,2,L|296:120,1,-1
120,112,137313,2,2,L|296:120,1,-1
120,112,137313,2,2,L|296:120,1,-1
16,64,137367,5,2,0:0:0:0:
120,112,137368,2,2,L|296:120,1,-1
120,112,137368,2,2,L|296:120,1,-1
120,112,137368,2,2,L|296:120,1,-1
212,60,137533,1,0,0:0:0:0:
16,64,137753,5,2,0:0:0:0:
120,112,137754,2,2,L|296:120,1,-1
120,112,137754,2,2,L|296:120,1,-1
120,112,137754,2,2,L|296:120,1,-1
16,64,137808,5,0,0:0:0:0:
120,112,137809,2,0,L|296:120,1,-1
120,112,137809,2,0,L|296:120,1,-1
120,112,137809,2,0,L|296:120,1,-1
212,60,137975,1,0,0:0:0:0:
16,64,138194,5,0,0:0:0:0:
120,112,138195,2,0,L|296:120,1,-1
120,112,138195,2,0,L|296:120,1,-1
120,112,138195,2,0,L|296:120,1,-1
16,64,138250,5,0,0:0:0:0:
120,112,138251,2,0,L|296:120,1,-1
120,112,138251,2,0,L|296:120,1,-1
120,112,138251,2,0,L|296:120,1,-1
220,72,138416,1,0,0:0:0:0:
16,64,138636,5,0,0:0:0:0:
120,112,138637,2,0,L|296:120,1,-1
120,112,138637,2,0,L|296:120,1,-1
120,112,138637,2,0,L|296:120,1,-1
16,64,138691,5,2,0:0:0:0:
120,112,138692,2,2,L|296:120,1,-1
120,112,138692,2,2,L|296:120,1,-1
120,112,138692,2,2,L|296:120,1,-1
172,52,138857,1,0,0:0:0:0:
16,64,139077,5,0,0:0:0:0:
120,112,139078,2,0,L|296:120,1,-1
120,112,139078,2,0,L|296:120,1,-1
120,112,139078,2,0,L|296:120,1,-1
16,64,139132,5,0,0:0:0:0:
120,112,139133,2,0,L|296:120,1,-1
120,112,139133,2,0,L|296:120,1,-1
120,112,139133,2,0,L|296:120,1,-1
172,52,139298,1,0,0:0:0:0:
16,64,139518,5,0,0:0:0:0:
120,112,139519,2,0,L|296:120,1,-1
120,112,139519,2,0,L|296:120,1,-1
120,112,139519,2,0,L|296:120,1,-1
16,64,139573,5,2,0:0:0:0:
120,112,139574,2,2,L|296:120,1,-1
120,112,139574,2,2,L|296:120,1,-1
120,112,139574,2,2,L|296:120,1,-1
172,56,139739,1,2,0:0:0:0:
16,64,139959,5,2,0:0:0:0:
120,112,139960,2,2,L|296:120,1,-1
120,112,139960,2,2,L|296:120,1,-1
120,112,139960,2,2,L|296:120,1,-1
16,64,140014,5,0,0:0:0:0:
120,112,140015,2,0,L|296:120,1,-1
120,112,140015,2,0,L|296:120,1,-1
120,112,140015,2,0,L|296:120,1,-1
180,60,140180,1,2,0:0:0:0:
16,64,140400,5,0,0:0:0:0:
120,112,140401,2,0,L|296:120,1,-1
120,112,140401,2,0,L|296:120,1,-1
120,112,140401,2,0,L|296:120,1,-1
16,64,140456,5,2,0:0:0:0:
120,112,140457,2,2,L|296:120,1,-1
120,112,140457,2,2,L|296:120,1,-1
120,112,140457,2,2,L|296:120,1,-1
128,52,140622,1,2,0:0:0:0:
16,64,140842,5,2,0:0:0:0:
120,112,140843,2,2,L|296:120,1,-1
120,112,140843,2,2,L|296:120,1,-1
120,112,140843,2,2,L|296:120,1,-1
16,64,140897,5,0,0:0:0:0:
120,112,140898,2,0,L|296:120,1,-1
120,112,140898,2,0,L|296:120,1,-1
120,112,140898,2,0,L|296:120,1,-1
156,56,141063,1,2,0:0:0:0:
16,64,141283,5,0,0:0:0:0:
120,112,141284,2,0,L|296:120,1,-1
120,112,141284,2,0,L|296:120,1,-1
120,112,141284,2,0,L|296:120,1,-1
16,64,141338,5,2,0:0:0:0:
120,112,141339,2,2,L|296:120,1,-1
120,112,141339,2,2,L|296:120,1,-1
120,112,141339,2,2,L|296:120,1,-1
156,52,141504,1,0,0:0:0:0:
16,64,141724,5,2,0:0:0:0:
120,112,141725,2,2,L|296:120,1,-1
120,112,141725,2,2,L|296:120,1,-1
120,112,141725,2,2,L|296:120,1,-1
16,64,141779,5,2,0:0:0:0:
120,112,141780,2,2,L|296:120,1,-1
120,112,141780,2,2,L|296:120,1,-1
120,112,141780,2,2,L|296:120,1,-1
160,60,141945,1,0,0:0:0:0:
16,64,142165,5,0,0:0:0:0:
120,112,142166,2,0,L|296:120,1,-1
120,112,142166,2,0,L|296:120,1,-1
120,112,142166,2,0,L|296:120,1,-1
16,64,142220,5,0,0:0:0:0:
120,112,142221,2,0,L|296:120,1,-1
120,112,142221,2,0,L|296:120,1,-1
120,112,142221,2,0,L|296:120,1,-1
160,60,142386,1,2,0:0:0:0:
16,64,142606,5,2,0:0:0:0:
120,112,142607,2,2,L|296:120,1,-1
120,112,142607,2,2,L|296:120,1,-1
120,112,142607,2,2,L|296:120,1,-1
16,64,142661,5,0,0:0:0:0:
120,112,142662,2,0,L|296:120,1,-1
120,112,142662,2,0,L|296:120,1,-1
120,112,142662,2,0,L|296:120,1,-1
160,60,142827,1,0,0:0:0:0:
16,64,143047,5,0,0:0:0:0:
120,112,143048,2,0,L|296:120,1,-1
120,112,143048,2,0,L|296:120,1,-1
120,112,143048,2,0,L|296:120,1,-1
16,64,143103,5,2,0:0:0:0:
120,112,143104,2,2,L|296:120,1,-1
120,112,143104,2,2,L|296:120,1,-1
120,112,143104,2,2,L|296:120,1,-1
160,60,143269,1,2,0:0:0:0:
16,64,143489,5,2,0:0:0:0:
120,112,143490,2,2,L|296:120,1,-1
120,112,143490,2,2,L|296:120,1,-1
120,112,143490,2,2,L|296:120,1,-1
16,64,143544,5,0,0:0:0:0:
120,112,143545,2,0,L|296:120,1,-1
120,112,143545,2,0,L|296:120,1,-1
120,112,143545,2,0,L|296:120,1,-1
160,64,143710,1,2,0:0:0:0:
16,64,143930,5,2,0:0:0:0:
120,112,143931,2,2,L|296:120,1,-1
120,112,143931,2,2,L|296:120,1,-1
120,112,143931,2,2,L|296:120,1,-1
16,64,143985,5,2,0:0:0:0:
120,112,143986,2,2,L|296:120,1,-1
120,112,143986,2,2,L|296:120,1,-1
120,112,143986,2,2,L|296:120,1,-1
156,48,144151,1,2,0:0:0:0:
16,64,144371,5,2,0:0:0:0:
120,112,144372,2,2,L|296:120,1,-1
120,112,144372,2,2,L|296:120,1,-1
120,112,144372,2,2,L|296:120,1,-1
16,64,144426,5,0,0:0:0:0:
120,112,144427,2,0,L|296:120,1,-1
120,112,144427,2,0,L|296:120,1,-1
120,112,144427,2,0,L|296:120,1,-1
168,52,144592,1,2,0:0:0:0:
16,64,144812,5,2,0:0:0:0:
120,112,144813,2,2,L|296:120,1,-1
120,112,144813,2,2,L|296:120,1,-1
120,112,144813,2,2,L|296:120,1,-1
16,64,144867,5,2,0:0:0:0:
120,112,144868,2,2,L|296:120,1,-1
120,112,144868,2,2,L|296:120,1,-1
120,112,144868,2,2,L|296:120,1,-1
168,56,145033,1,0,0:0:0:0:
16,64,145253,5,0,0:0:0:0:
120,112,145254,2,0,L|296:120,1,-1
120,112,145254,2,0,L|296:120,1,-1
120,112,145254,2,0,L|296:120,1,-1
16,64,145308,5,0,0:0:0:0:
120,112,145309,2,0,L|296:120,1,-1
120,112,145309,2,0,L|296:120,1,-1
120,112,145309,2,0,L|296:120,1,-1
168,56,145475,1,2,0:0:0:0:
16,64,145694,5,0,0:0:0:0:
120,112,145695,2,0,L|296:120,1,-1
120,112,145695,2,0,L|296:120,1,-1
120,112,145695,2,0,L|296:120,1,-1
16,64,145750,5,2,0:0:0:0:
120,112,145751,2,2,L|296:120,1,-1
120,112,145751,2,2,L|296:120,1,-1
120,112,145751,2,2,L|296:120,1,-1
168,56,145916,1,2,0:0:0:0:
16,64,146136,5,2,0:0:0:0:
120,112,146137,2,2,L|296:120,1,-1
120,112,146137,2,2,L|296:120,1,-1
120,112,146137,2,2,L|296:120,1,-1
16,64,146191,5,2,0:0:0:0:
120,112,146192,2,2,L|296:120,1,-1
120,112,146192,2,2,L|296:120,1,-1
120,112,146192,2,2,L|296:120,1,-1
164,60,146357,1,2,0:0:0:0:
16,64,146577,5,2,0:0:0:0:
120,112,146578,2,2,L|296:120,1,-1
120,112,146578,2,2,L|296:120,1,-1
120,112,146578,2,2,L|296:120,1,-1
16,64,146632,5,0,0:0:0:0:
120,112,146633,2,0,L|296:120,1,-1
120,112,146633,2,0,L|296:120,1,-1
120,112,146633,2,0,L|296:120,1,-1
164,60,146798,1,2,0:0:0:0:
16,64,147018,5,0,0:0:0:0:
120,112,147019,2,0,L|296:120,1,-1
120,112,147019,2,0,L|296:120,1,-1
120,112,147019,2,0,L|296:120,1,-1
16,64,147073,5,2,0:0:0:0:
120,112,147074,2,2,L|296:120,1,-1
120,112,147074,2,2,L|296:120,1,-1
120,112,147074,2,2,L|296:120,1,-1
164,60,147239,1,2,0:0:0:0:
16,64,147459,5,0,0:0:0:0:
120,112,147460,2,0,L|296:120,1,-1
120,112,147460,2,0,L|296:120,1,-1
120,112,147460,2,0,L|296:120,1,-1
16,64,147514,5,2,0:0:0:0:
120,112,147515,2,2,L|296:120,1,-1
120,112,147515,2,2,L|296:120,1,-1
120,112,147515,2,2,L|296:120,1,-1
164,60,147680,1,2,0:0:0:0:
16,64,147900,5,2,0:0:0:0:
120,112,147901,2,2,L|296:120,1,-1
120,112,147901,2,2,L|296:120,1,-1
120,112,147901,2,2,L|296:120,1,-1
16,64,147956,5,0,0:0:0:0:
120,112,147957,2,0,L|296:120,1,-1
120,112,147957,2,0,L|296:120,1,-1
120,112,147957,2,0,L|296:120,1,-1
164,60,148122,1,2,0:0:0:0:
16,64,148342,5,2,0:0:0:0:
120,112,148343,2,2,L|296:120,1,-1
120,112,148343,2,2,L|296:120,1,-1
120,112,148343,2,2,L|296:120,1,-1
16,64,148397,5,2,0:0:0:0:
120,112,148398,2,2,L|296:120,1,-1
120,112,148398,2,2,L|296:120,1,-1
120,112,148398,2,2,L|296:120,1,-1
172,64,148563,1,4,0:0:0:0:
16,64,148783,5,2,0:0:0:0:
120,112,148784,2,2,L|296:120,1,-1
120,112,148784,2,2,L|296:120,1,-1
120,112,148784,2,2,L|296:120,1,-1
180,140,148838,1,2,0:0:0:0:
164,72,149004,1,2,0:0:0:0:
124,80,149225,1,2,0:0:0:0:
16,64,149279,5,2,0:0:0:0:
120,112,149280,2,2,L|296:120,1,-1
120,112,149280,2,2,L|296:120,1,-1
120,112,149280,2,2,L|296:120,1,-1
124,80,149445,1,0,0:0:0:0:
160,120,149665,1,0,0:0:0:0:
16,64,149720,5,0,0:0:0:0:
120,112,149721,2,0,L|296:120,1,-1
120,112,149721,2,0,L|296:120,1,-1
120,112,149721,2,0,L|296:120,1,-1
132,68,149886,1,2,0:0:0:0:
16,64,150106,5,0,0:0:0:0:
120,112,150107,2,0,L|296:120,1,-1
120,112,150107,2,0,L|296:120,1,-1
120,112,150107,2,0,L|296:120,1,-1
84,48,150162,1,0,0:0:0:0:
100,56,150327,1,0,0:0:0:0:
16,64,150547,5,2,0:0:0:0:
120,112,150548,2,2,L|296:120,1,-1
120,112,150548,2,2,L|296:120,1,-1
120,112,150548,2,2,L|296:120,1,-1
16,64,150603,5,0,0:0:0:0:
120,112,150604,2,0,L|296:120,1,-1
120,112,150604,2,0,L|296:120,1,-1
120,112,150604,2,0,L|296:120,1,-1
124,72,150769,1,2,0:0:0:0:
16,64,150989,5,0,0:0:0:0:
120,112,150990,2,0,L|296:120,1,-1
120,112,150990,2,0,L|296:120,1,-1
120,112,150990,2,0,L|296:120,1,-1
16,64,151044,5,2,0:0:0:0:
120,112,151045,2,2,L|296:120,1,-1
120,112,151045,2,2,L|296:120,1,-1
120,112,151045,2,2,L|296:120,1,-1
112,48,151210,1,0,0:0:0:0:
16,64,151430,5,2,0:0:0:0:
120,112,151431,2,2,L|296:120,1,-1
120,112,151431,2,2,L|296:120,1,-1
120,112,151431,2,2,L|296:120,1,-1
200,112,151485,1,2,0:0:0:0:
116,40,151651,1,2,0:0:0:0:
16,64,151871,5,0,0:0:0:0:
120,112,151872,2,0,L|296:120,1,-1
120,112,151872,2,0,L|296:120,1,-1
120,112,151872,2,0,L|296:120,1,-1
184,68,151926,1,0,0:0:0:0:
116,44,152092,1,0,0:0:0:0:
180,112,152312,1,0,0:0:0:0:
16,64,152367,5,2,0:0:0:0:
120,112,152368,2,2,L|296:120,1,-1
120,112,152368,2,2,L|296:120,1,-1
120,112,152368,2,2,L|296:120,1,-1
116,44,152533,1,2,0:0:0:0:
16,64,152753,5,0,0:0:0:0:
120,112,152754,2,0,L|296:120,1,-1
120,112,152754,2,0,L|296:120,1,-1
120,112,152754,2,0,L|296:120,1,-1
168,72,152808,1,2,0:0:0:0:
116,44,152975,1,0,0:0:0:0:
16,64,153194,5,2,0:0:0:0:
120,112,153195,2,2,L|296:120,1,-1
120,112,153195,2,2,L|296:120,1,-1
120,112,153195,2,2,L|296:120,1,-1
108,72,153250,1,0,0:0:0:0:
108,72,153416,1,0,0:0:0:0:
112,64,153636,1,2,0:0:0:0:
16,64,153691,5,0,0:0:0:0:
120,112,153692,2,0,L|296:120,1,-1
120,112,153692,2,0,L|296:120,1,-1
120,112,153692,2,0,L|296:120,1,-1
112,64,153857,1,2,0:0:0:0:
16,64,154077,5,2,0:0:0:0:
120,112,154078,2,2,L|296:120,1,-1
120,112,154078,2,2,L|296:120,1,-1
120,112,154078,2,2,L|296:120,1,-1
16,64,154132,5,0,0:0:0:0:
120,112,154133,2,0,L|296:120,1,-1
120,112,154133,2,0,L|296:120,1,-1
120,112,154133,2,0,L|296:120,1,-1
116,64,154298,1,2,0:0:0:0:
16,64,154518,5,0,0:0:0:0:
120,112,154519,2,0,L|296:120,1,-1
120,112,154519,2,0,L|296:120,1,-1
120,112,154519,2,0,L|296:120,1,-1
16,64,154573,5,0,0:0:0:0:
120,112,154574,2,0,L|296:120,1,-1
120,112,154574,2,0,L|296:120,1,-1
120,112,154574,2,0,L|296:120,1,-1
112,64,154739,1,2,0:0:0:0:
16,64,154959,5,2,0:0:0:0:
120,112,154960,2,2,L|296:120,1,-1
120,112,154960,2,2,L|296:120,1,-1
120,112,154960,2,2,L|296:120,1,-1
128,64,155014,1,0,0:0:0:0:
128,64,155180,1,0,0:0:0:0:
128,64,155401,1,2,0:0:0:0:
16,64,155456,5,0,0:0:0:0:
120,112,155457,2,0,L|296:120,1,-1
120,112,155457,2,0,L|296:120,1,-1
120,112,155457,2,0,L|296:120,1,-1
128,60,155622,1,6,0:0:0:0:
236,116,155952,1,6,0:0:0:0:
236,116,156283,1,4,0:0:0:0:
236,116,156614,1,4,0:0:0:0:
236,116,156945,1,6,0:0:0:0:
93,200,157000,2,4,L|425:198,34,280
16,64,157827,5,8,0:0:0:0:
120,112,157828,2,0,L|296:120,1,-1
120,112,157828,2,0,L|296:120,1,-1
84,136,157882,2,4,L|152:140,8,40.8333337227503
16,64,158268,5,8,0:0:0:0:
120,112,158269,2,0,L|296:120,1,-1
120,112,158269,2,0,L|296:120,1,-1
28,120,158323,2,4,L|72:120,8,35.0000013351441
16,64,158709,5,8,0:0:0:0:
120,112,158710,2,0,L|296:120,1,-1
120,112,158710,2,0,L|296:120,1,-1
28,112,158764,2,4,L|84:104,4,52.5
16,64,159150,5,8,0:0:0:0:
120,112,159151,2,0,L|296:120,1,-1
120,112,159151,2,0,L|296:120,1,-1
120,112,159206,2,4,L|296:120,1,-1
120,112,159233,2,4,L|296:120,1,-100
120,112,159261,2,4,L|296:120,1,-1
120,112,159316,2,4,L|296:120,1,-1
16,64,159371,5,8,0:0:0:0:
120,112,159372,2,0,L|296:120,1,-1
120,112,159372,2,0,L|296:120,1,-1
120,112,159426,2,4,L|296:120,1,-1
120,112,159454,2,4,L|296:120,1,-100
120,112,159481,2,4,L|296:120,1,-1
120,112,159536,2,4,L|296:120,1,-1
16,64,159592,5,8,0:0:0:0:
120,112,159593,2,0,L|296:120,1,-1
120,112,159593,2,0,L|296:120,1,-1
120,112,159647,2,4,L|296:120,1,-1
120,112,159674,2,4,L|296:120,1,-100
120,112,159702,2,4,L|296:120,1,-1
120,112,159757,2,4,L|296:120,1,-1
16,64,159812,5,8,0:0:0:0:
120,112,159813,2,0,L|296:120,1,-1
120,112,159813,2,0,L|296:120,1,-1
120,112,159867,2,4,L|296:120,1,-1
120,112,159895,2,4,L|296:120,1,-100
120,112,159922,2,4,L|296:120,1,-1
120,112,159978,2,4,L|296:120,1,-1
16,64,160033,5,8,0:0:0:0:
120,112,160034,2,0,L|296:120,1,-1
120,112,160034,2,0,L|296:120,1,-1
120,112,160088,2,4,L|296:120,1,-1
120,112,160115,2,4,L|296:120,1,-100
120,112,160143,2,4,L|296:120,1,-1
120,112,160171,2,4,L|296:120,1,-1
120,112,160198,2,4,L|296:120,1,-1
120,112,160226,2,4,L|296:120,1,-1
16,64,160253,5,8,0:0:0:0:
120,112,160254,2,0,L|296:120,1,-1
120,112,160254,2,0,L|296:120,1,-1
120,112,160308,2,4,L|296:120,1,-1
120,112,160336,2,4,L|296:120,1,-100
120,112,160364,2,4,L|296:120,1,-1
120,112,160391,2,4,L|296:120,1,-1
120,112,160419,2,4,L|296:120,1,-1
120,112,160446,2,4,L|296:120,1,-1
16,64,160474,5,8,0:0:0:0:
120,112,160475,2,0,L|296:120,1,-1
120,112,160475,2,0,L|296:120,1,-1
120,112,160529,2,4,L|296:120,1,-1
120,112,160557,2,4,L|296:120,1,-100
120,112,160584,2,4,L|296:120,1,-1
120,112,160612,2,4,L|296:120,1,-1
120,112,160639,2,4,L|296:120,1,-1
120,112,160667,2,4,L|296:120,1,-1
16,64,160694,5,8,0:0:0:0:
120,112,160695,2,0,L|296:120,1,-1
120,112,160695,2,0,L|296:120,1,-1
120,112,160750,2,4,L|296:120,1,-1
120,112,160777,2,4,L|296:120,1,-100
120,112,160805,2,4,L|296:120,1,-1
120,112,160832,2,4,L|296:120,1,-1
120,112,160860,2,4,L|296:120,1,-1
120,112,160888,2,4,L|296:120,1,-1
16,64,160915,5,8,0:0:0:0:
120,112,160916,2,0,L|296:120,1,-1
120,112,160916,2,0,L|296:120,1,-1
120,112,160928,2,4,L|296:120,1,-100
120,112,160942,2,4,L|296:120,1,-1
120,112,160942,2,4,L|296:120,1,-1
120,112,160970,2,4,L|296:120,1,-1
120,112,160970,2,4,L|296:120,1,-1
120,112,160997,2,4,L|296:120,1,-1
120,112,160997,2,4,L|296:120,1,-1
16,64,161025,5,8,0:0:0:0:
120,112,161026,2,0,L|296:120,1,-1
120,112,161026,2,0,L|296:120,1,-1
120,112,161039,2,4,L|296:120,1,-100
120,112,161052,2,4,L|296:120,1,-1
120,112,161052,2,4,L|296:120,1,-1
120,112,161080,2,4,L|296:120,1,-1
120,112,161080,2,4,L|296:120,1,-1
120,112,161108,2,4,L|296:120,1,-1
120,112,161108,2,4,L|296:120,1,-1
16,64,161136,5,8,0:0:0:0:
120,112,161137,2,0,L|296:120,1,-1
120,112,161137,2,0,L|296:120,1,-1
120,112,161149,2,4,L|296:120,1,-100
120,112,161163,2,4,L|296:120,1,-1
120,112,161163,2,4,L|296:120,1,-1
120,112,161190,2,4,L|296:120,1,-1
120,112,161190,2,4,L|296:120,1,-1
120,112,161218,2,4,L|296:120,1,-1
120,112,161218,2,4,L|296:120,1,-1
16,64,161246,5,8,0:0:0:0:
120,112,161247,2,0,L|296:120,1,-1
120,112,161247,2,0,L|296:120,1,-1
120,112,161259,2,4,L|296:120,1,-100
120,112,161273,2,4,L|296:120,1,-1
120,112,161273,2,4,L|296:120,1,-1
120,112,161301,2,4,L|296:120,1,-1
120,112,161301,2,4,L|296:120,1,-1
120,112,161328,2,4,L|296:120,1,-1
120,112,161328,2,4,L|296:120,1,-1
16,64,161356,5,8,0:0:0:0:
120,112,161357,2,0,L|296:120,1,-1
120,112,161357,2,0,L|296:120,1,-1
120,112,161369,2,4,L|296:120,1,-100
120,112,161383,2,4,L|296:120,1,-1
120,112,161383,2,4,L|296:120,1,-1
120,112,161411,2,4,L|296:120,1,-1
120,112,161411,2,4,L|296:120,1,-1
120,112,161438,2,4,L|296:120,1,-1
120,112,161438,2,4,L|296:120,1,-1
16,64,161467,5,8,0:0:0:0:
120,112,161468,2,0,L|296:120,1,-1
120,112,161468,2,0,L|296:120,1,-1
120,112,161480,2,4,L|296:120,1,-100
120,112,161494,2,4,L|296:120,1,-1
120,112,161494,2,4,L|296:120,1,-1
120,112,161521,2,4,L|296:120,1,-1
120,112,161521,2,4,L|296:120,1,-1
120,112,161549,2,4,L|296:120,1,-1
120,112,161549,2,4,L|296:120,1,-1
16,64,161577,5,8,0:0:0:0:
120,112,161578,2,0,L|296:120,1,-1
120,112,161578,2,0,L|296:120,1,-1
120,112,161590,2,4,L|296:120,1,-100
120,112,161604,2,4,L|296:120,1,-1
120,112,161604,2,4,L|296:120,1,-1
120,112,161631,2,4,L|296:120,1,-1
120,112,161631,2,4,L|296:120,1,-1
120,112,161659,2,4,L|296:120,1,-1
120,112,161659,2,4,L|296:120,1,-1
16,64,161687,5,8,0:0:0:0:
120,112,161688,2,0,L|296:120,1,-1
120,112,161688,2,0,L|296:120,1,-1
120,112,161700,2,4,L|296:120,1,-100
120,112,161714,2,4,L|296:120,1,-1
120,112,161714,2,4,L|296:120,1,-1
120,112,161742,2,4,L|296:120,1,-1
120,112,161742,2,4,L|296:120,1,-1
120,112,161769,2,4,L|296:120,1,-1
120,112,161769,2,4,L|296:120,1,-1
16,64,161797,5,8,0:0:0:0:
120,112,161798,2,0,L|296:120,1,-1
120,112,161798,2,0,L|296:120,1,-1
120,112,161811,2,4,L|296:120,1,-100
120,112,161824,2,4,L|296:120,1,-1
120,112,161824,2,4,L|296:120,1,-1
120,112,161852,2,4,L|296:120,1,-1
120,112,161852,2,4,L|296:120,1,-1
120,112,161880,2,4,L|296:120,1,-1
120,112,161880,2,4,L|296:120,1,-1
16,64,161908,5,8,0:0:0:0:
120,112,161909,2,0,L|296:120,1,-1
120,112,161909,2,0,L|296:120,1,-1
120,112,161921,2,4,L|296:120,1,-100
120,112,161935,2,4,L|296:120,1,-1
120,112,161935,2,4,L|296:120,1,-1
120,112,161962,2,4,L|296:120,1,-1
120,112,161962,2,4,L|296:120,1,-1
120,112,161990,2,4,L|296:120,1,-1
120,112,161990,2,4,L|296:120,1,-1
16,64,162018,5,8,0:0:0:0:
120,112,162019,2,0,L|296:120,1,-1
120,112,162019,2,0,L|296:120,1,-1
120,112,162031,2,4,L|296:120,1,-100
120,112,162045,2,4,L|296:120,1,-1
120,112,162045,2,4,L|296:120,1,-1
120,112,162073,2,4,L|296:120,1,-1
120,112,162073,2,4,L|296:120,1,-1
120,112,162100,2,4,L|296:120,1,-1
120,112,162100,2,4,L|296:120,1,-1
16,64,162128,5,8,0:0:0:0:
120,112,162129,2,0,L|296:120,1,-1
120,112,162129,2,0,L|296:120,1,-1
120,112,162142,2,4,L|296:120,1,-100
120,112,162155,2,4,L|296:120,1,-1
120,112,162155,2,4,L|296:120,1,-1
120,112,162183,2,4,L|296:120,1,-1
120,112,162183,2,4,L|296:120,1,-1
120,112,162210,2,4,L|296:120,1,-1
120,112,162210,2,4,L|296:120,1,-1
16,64,162238,5,12,0:0:0:0:
120,112,162239,2,4,L|296:120,1,-1
120,112,162239,2,4,L|296:120,1,-1
120,112,162239,2,4,L|296:120,1,-1
120,112,162239,2,4,L|296:120,1,-1
120,112,162239,2,4,L|296:120,1,-1
16,64,162459,5,4,0:0:0:0:
120,112,162460,2,4,L|296:120,1,-1
120,112,162460,2,4,L|296:120,1,-1
120,112,162460,2,4,L|296:120,1,-1
120,112,162460,2,4,L|296:120,1,-1
120,112,162460,2,4,L|296:120,1,-1
16,64,162679,5,4,0:0:0:0:
120,112,162680,2,4,L|296:120,1,-1
120,112,162680,2,4,L|296:120,1,-1
120,112,162680,2,4,L|296:120,1,-1
120,112,162680,2,4,L|296:120,1,-1
120,112,162680,2,4,L|296:120,1,-1
