osu file format v14

[General]
AudioFilename: audio.mp3
AudioLeadIn: 0
PreviewTime: 135629
Countdown: 1
SampleSet: None
StackLeniency: 0.7
Mode: 0
LetterboxInBreaks: 0
WidescreenStoryboard: 1

[Editor]
DistanceSpacing: 1.2
BeatDivisor: 4
GridSize: 8
TimelineZoom: 2.6

[Metadata]
Title:Rueckblende
TitleUnicode:Rückblende
Artist:Reol
ArtistUnicode:Reol
Creator:Nuggel
Version:singletap
Source:
Tags:
BeatmapID:1943504
BeatmapSetID:930672

[Difficulty]
HPDrainRate:1
CircleSize:4.2
OverallDifficulty:7
ApproachRate:9.5
SliderMultiplier:1
SliderTickRate:1

[Events]
//Background and Video events
0,0,"flagge_nordrhein_westfalen_001.png",0,0
//Break Periods
2,114241,116371
//Storyboard Layer 0 (Background)
//Storyboard Layer 1 (Fail)
//Storyboard Layer 2 (Pass)
//Storyboard Layer 3 (Foreground)
//Storyboard Sound Samples

[TimingPoints]
1422,285.714285714286,4,1,0,100,1,0
1422,-83.3333333333333,4,1,0,100,0,0
4850,-76.9230769230769,4,1,0,100,0,0
15426,333.333333333333,4,1,0,100,1,0
18092,-66.6666666666667,4,1,0,100,0,0
25362,317.460317460317,4,1,0,100,1,0
25362,-71.4285714285714,4,1,0,100,0,0
40664,206.896551724138,4,1,0,100,1,0
40664,-66.6666666666667,4,1,0,100,0,0
40981,-66.6666666666667,4,1,0,100,0,0
53266,342.857142857143,4,1,0,100,1,0
53266,-71.4285714285714,4,1,0,100,0,0
64237,297.029702970297,4,1,0,100,1,0
64237,-55.5555555555556,4,1,0,100,0,0
67801,-47.6190476190476,4,1,0,100,0,0
68395,-55.5555555555556,4,1,0,100,0,0
74962,357.142857142857,4,1,0,100,1,0
87525,324.324324324324,4,1,0,100,1,0
87525,-71.4285714285714,4,1,0,100,0,0
92714,-40,4,1,0,100,0,0
93038,-62.5,4,1,0,100,0,0
95633,-86.9565217391304,4,1,0,100,0,0
98031,333.333333333333,4,1,0,100,1,0
98031,-71.4285714285714,4,1,0,100,0,0
105598,222.222222222222,4,1,0,100,1,0
116896,375,4,1,0,100,1,0
116896,-35.7142857142857,4,1,0,100,0,0
118021,-47.6190476190476,4,1,0,100,0,0
119896,-35.7142857142857,4,1,0,100,0,0
120271,-47.6190476190476,4,1,0,100,0,0
121489,-35.7142857142857,4,1,0,100,0,0
121771,-47.6190476190476,4,1,0,100,0,0
124421,329.67032967033,4,1,0,100,1,0
124421,-142.857142857143,4,1,0,100,0,0
124915,-71.4285714285714,4,1,0,40,0,0
125739,-71.4285714285714,4,1,0,40,0,0
126975,-100,4,1,0,40,0,0
127552,-71.4285714285714,4,1,0,40,0,0
128377,-100,4,1,0,40,0,0
130190,-71.4285714285714,4,1,0,40,0,0
131014,-100,4,1,0,40,0,0
134805,-117.647058823529,4,1,0,40,0,0
135629,428.571428571429,4,1,0,100,1,0
139057,-50,4,1,0,100,0,0
145914,-95.2380952380951,4,1,0,100,0,0
146343,-30.3030303030303,4,1,0,100,0,0
163486,-52.6315789473684,4,1,0,100,0,0
165200,-34.4827586206897,4,1,0,100,0,0
169914,-50,4,1,0,100,0,0
170557,-33.3333333333333,4,1,0,100,0,0
174843,-40,4,1,0,100,0,0

[HitObjects]
118,188,1422,6,0,L|138:264,1,59.9999981689454
267,178,1707,2,0,L|286:254,1,59.9999981689454
57,106,1993,1,0,0:0:0:0:
194,45,2136,1,0,0:0:0:0:
44,37,2279,1,0,0:0:0:0:
166,123,2422,1,0,0:0:0:0:
290,204,2564,6,0,L|270:280,1,59.9999981689454
117,268,2850,6,0,L|132:210,1,59.9999981689454
245,109,3136,1,0,0:0:0:0:
395,208,3279,1,0,0:0:0:0:
194,193,3422,1,0,0:0:0:0:
441,114,3564,1,0,0:0:0:0:
115,286,3707,6,0,L|202:282,1,59.9999981689454
408,226,3993,2,0,L|341:218,1,59.9999981689454
183,142,4279,1,0,0:0:0:0:
382,100,4422,1,0,0:0:0:0:
184,52,4564,1,0,0:0:0:0:
257,242,4707,1,0,0:0:0:0:
405,38,4850,2,0,P|442:37|457:57,1,64.9999970245363
81,136,5850,6,0,P|121:91|206:86,1,129.999994049073
173,184,6279,2,0,P|208:189|243:178,1,64.9999970245363
421,60,6564,1,0,0:0:0:0:
204,16,6707,1,0,0:0:0:0:
212,271,6850,1,0,0:0:0:0:
438,158,6993,6,0,P|455:77|430:32,1,129.999994049073
366,99,7422,2,0,P|332:96|301:104,1,64.9999970245363
135,249,7707,1,0,0:0:0:0:
219,44,7850,2,0,P|254:56|288:86,1,64.9999970245363
337,265,8136,6,0,P|401:270|474:225,1,129.999994049073
378,152,8564,1,0,0:0:0:0:
188,265,8707,1,0,0:0:0:0:
391,350,8850,1,0,0:0:0:0:
234,193,8993,1,0,0:0:0:0:
453,164,9136,1,0,0:0:0:0:
262,51,9279,1,0,0:0:0:0:
116,217,9422,6,0,P|149:231|184:222,1,64.9999970245363
361,104,9707,1,0,0:0:0:0:
139,106,9850,1,0,0:0:0:0:
259,291,9993,1,0,0:0:0:0:
216,73,10136,2,0,P|247:80|275:95,1,64.9999970245363
296,208,10422,6,0,P|363:234|438:208,1,129.999994049073
369,129,10850,2,0,L|438:109,1,64.9999970245363
188,184,11136,1,0,0:0:0:0:
391,271,11279,1,0,0:0:0:0:
173,310,11422,2,0,P|202:333|248:338,1,64.9999970245363
280,124,11707,5,0,0:0:0:0:
72,199,11850,1,0,0:0:0:0:
275,284,11993,1,0,0:0:0:0:
161,94,12136,1,0,0:0:0:0:
363,182,12279,2,0,L|298:191,1,64.9999970245363
93,273,12564,2,0,L|180:260,1,64.9999970245363
98,238,15426,2,0,L|124:135,1,100
168,251,16092,2,0,L|217:156,1,100
246,275,16759,2,0,L|340:204,1,100
331,313,17425,2,0,L|443:285,1,100
251,240,18092,2,0,B|301:207|391:91|317:-11|254:102|254:102|243:115|243:115|239:104|239:104|213:-18|91:142|218:239,1,600.000022888185
72,107,20759,5,0,0:0:0:0:
107,358,20925,1,0,0:0:0:0:
196,118,21092,1,0,0:0:0:0:
266,363,21259,1,0,0:0:0:0:
75,195,21425,1,0,0:0:0:0:
328,228,21592,1,0,0:0:0:0:
82,298,21759,1,0,0:0:0:0:
237,108,21925,2,0,P|283:93|330:112,1,75.0000028610231
432,322,22259,5,0,0:0:0:0:
201,215,22425,1,0,0:0:0:0:
428,98,22592,1,0,0:0:0:0:
289,312,22759,1,0,0:0:0:0:
263,59,22925,1,0,0:0:0:0:
464,216,23092,1,0,0:0:0:0:
233,325,23259,1,0,0:0:0:0:
399,133,23425,6,0,P|353:118|306:137,1,75.0000028610231
125,282,23759,1,0,0:0:0:0:
115,28,23925,1,0,0:0:0:0:
209,265,24092,1,0,0:0:0:0:
220,9,24259,1,0,0:0:0:0:
55,202,24425,1,0,0:0:0:0:
297,196,24592,2,0,P|368:205|447:170,1,150.000005722046
193,56,25362,5,0,0:0:0:0:
114,254,25521,1,0,0:0:0:0:
226,177,25679,2,0,P|264:189|292:219,1,69.9999978637696
335,336,25996,1,0,0:0:0:0:
335,336,26155,2,0,L|255:322,1,69.9999978637696
80,190,26473,5,0,0:0:0:0:
123,334,26631,1,0,0:0:0:0:
222,163,26790,1,0,0:0:0:0:
205,281,26949,1,0,0:0:0:0:
141,101,27108,1,0,0:0:0:0:
138,250,27266,1,0,0:0:0:0:
228,50,27425,1,0,0:0:0:0:
0,74,27584,1,0,0:0:0:0:
216,266,28377,5,0,0:0:0:0:
110,181,28536,2,0,P|145:184|184:196,1,69.9999978637696
338,293,28854,6,0,B|372:315|372:315|374:275|374:275|299:213,1,174.999994659424
279,195,29330,1,0,0:0:0:0:
160,112,29488,1,0,0:0:0:0:
186,239,29647,1,0,0:0:0:0:
311,104,29806,1,0,0:0:0:0:
123,30,29965,1,0,0:0:0:0:
256,172,30123,6,0,B|297:176|331:230|308:254|255:261|260:226,1,139.999995727539
260,233,30917,1,0,0:0:0:0:
91,184,31076,2,0,P|125:208|164:212,1,69.9999978637696
275,103,31393,2,0,P|203:105|146:144,1,139.999995727539
81,263,31869,1,0,0:0:0:0:
147,141,32028,2,0,B|171:118|194:106|220:100|220:100|231:86|233:60|226:39,1,139.999995727539
124,10,32504,5,0,0:0:0:0:
225,197,32663,1,0,0:0:0:0:
339,39,32822,2,0,B|363:104|334:152|334:152|302:214|330:278,1,244.999992523194
349,299,33457,1,0,0:0:0:0:
440,175,33615,1,0,0:0:0:0:
239,119,33774,1,0,0:0:0:0:
181,305,33933,2,0,P|186:268|171:226,1,69.9999978637696
67,136,34250,2,0,P|100:144|135:139,1,69.9999978637696
237,49,34568,5,0,0:0:0:0:
231,276,34727,1,0,0:0:0:0:
292,135,34885,1,0,0:0:0:0:
320,295,35044,1,0,0:0:0:0:
326,33,35203,2,0,B|311:63|311:63|356:79|388:109|388:109|374:159|386:204,1,209.999993591309
383,194,35996,5,0,0:0:0:0:
207,136,36155,1,0,0:0:0:0:
223,277,36314,1,0,0:0:0:0:
284,149,36473,2,0,P|277:97|197:60,1,139.999995727539
77,152,36949,1,0,0:0:0:0:
204,58,37108,2,0,P|249:40|339:67,1,139.999995727539
383,197,37584,1,0,0:0:0:0:
334,63,37742,2,0,P|282:97|253:170,1,139.999995727539
272,304,38219,5,0,0:0:0:0:
216,240,38377,1,0,0:0:0:0:
216,360,38536,1,0,0:0:0:0:
328,360,38695,1,0,0:0:0:0:
328,240,38854,1,0,0:0:0:0:
115,154,40664,6,0,L|174:215,1,75
206,134,40870,2,0,L|281:152,1,75
352,159,41077,1,0,0:0:0:0:
394,96,41181,1,0,0:0:0:0:
142,84,41284,6,0,L|87:232,1,150.000005722046
149,342,41698,1,0,0:0:0:0:
433,323,41905,1,0,0:0:0:0:
503,302,42008,2,0,L|451:161,1,150.000005722046
347,98,42319,5,0,0:0:0:0:
152,247,42526,1,0,0:0:0:0:
254,88,42732,1,0,0:0:0:0:
254,88,42836,1,0,0:0:0:0:
254,88,42939,2,0,L|86:148,1,150.000005722046
59,263,43250,6,0,P|122:216|199:202,1,150.000005722046
367,203,43560,1,0,0:0:0:0:
368,341,43767,2,0,P|328:339|293:348,1,75.0000028610231
120,301,43974,6,0,P|156:291|193:293,1,75.0000028610231
299,199,44181,2,0,P|259:197|224:206,1,75.0000028610231
120,175,44388,1,0,0:0:0:0:
190,91,44491,1,0,0:0:0:0:
289,54,44595,2,0,P|343:14|425:34,2,150.000005722046
239,317,45215,6,0,P|201:319|165:309,1,75.0000028610231
306,264,45422,2,0,P|342:272|379:270,1,75.0000028610231
274,177,45629,2,0,P|236:179|200:169,1,75.0000028610231
375,123,45836,2,0,P|411:131|448:129,1,75.0000028610231
451,47,46043,1,0,0:0:0:0:
377,14,46146,1,0,0:0:0:0:
148,259,46250,2,0,L|280:172,1,150.000005722046
307,49,46560,6,0,L|181:131,1,150.000005722046
58,211,46870,2,0,P|47:284|109:355,1,150.000005722046
148,259,47284,2,0,P|197:199|284:195,2,150.000005722046
246,291,47905,2,0,P|320:279|365:202,1,150.000005722046
383,129,48319,5,0,0:0:0:0:
269,40,48526,1,0,0:0:0:0:
194,42,48629,1,0,0:0:0:0:
133,85,48732,2,0,P|141:168|224:197,1,150.000005722046
363,211,49042,1,0,0:0:0:0:
217,288,49146,2,0,P|275:245|277:173,1,150.000005722046
129,129,49560,5,0,0:0:0:0:
243,40,49767,1,0,0:0:0:0:
318,42,49870,1,0,0:0:0:0:
379,85,49973,2,0,P|371:168|290:198,1,150.000005722046
149,211,50283,1,0,0:0:0:0:
295,288,50387,2,0,P|237:245|235:173,1,150.000005722046
311,132,50801,1,0,0:0:0:0:
153,145,51008,1,0,0:0:0:0:
109,85,53266,6,0,B|224:68|223:68,1,104.999996795654
165,158,53608,2,0,B|176:156|61:173,1,104.999996795654
243,144,53951,2,0,B|358:127|357:127,1,104.999996795654
299,217,54293,2,0,B|310:215|195:232,1,104.999996795654
192,132,54637,6,0,L|98:53,1,104.999996795654
320,132,54980,2,0,L|414:53,1,104.999996795654
320,252,55323,2,0,L|400:319,1,104.999996795654
192,252,55666,1,0,0:0:0:0:
88,136,55837,1,0,0:0:0:0:
290,114,56008,6,0,B|337:101|360:41,1,104.999996795654
290,270,56351,2,0,B|337:283|360:342,1,104.999996795654
222,270,56694,2,0,B|175:283|151:342,1,104.999996795654
222,114,57037,2,0,B|175:101|151:41,1,104.999996795654
389,262,57380,6,0,B|389:316|389:316|327:316,1,104.999996795654
174,316,57723,2,0,B|123:316|123:316|123:262,1,104.999996795654
123,122,58066,2,0,B|123:68|123:68|185:68,1,104.999996795654
338,68,58408,1,0,0:0:0:0:
338,68,58580,1,0,0:0:0:0:
256,308,58751,5,0,0:0:0:0:
139,191,58923,1,0,0:0:0:0:
256,75,59094,1,0,0:0:0:0:
372,192,59266,1,0,0:0:0:0:
151,296,59437,5,0,0:0:0:0:
151,87,59608,1,0,0:0:0:0:
360,87,59780,1,0,0:0:0:0:
360,296,59951,1,0,0:0:0:0:
91,191,60123,5,0,0:0:0:0:
257,26,60294,1,0,0:0:0:0:
422,192,60466,1,0,0:0:0:0:
255,357,60637,1,0,0:0:0:0:
92,27,60808,5,0,0:0:0:0:
421,26,60980,1,0,0:0:0:0:
421,356,61151,1,0,0:0:0:0:
92,356,61323,1,0,0:0:0:0:
256,17,61494,5,0,0:0:0:0:
263,33,61580,1,0,0:0:0:0:
248,45,61666,1,0,0:0:0:0:
263,55,61751,1,0,0:0:0:0:
245,70,61837,1,0,0:0:0:0:
264,83,61923,1,0,0:0:0:0:
248,98,62008,1,0,0:0:0:0:
267,111,62094,1,0,0:0:0:0:
244,128,62180,1,0,0:0:0:0:
269,139,62266,1,0,0:0:0:0:
247,155,62351,1,0,0:0:0:0:
271,166,62437,1,0,0:0:0:0:
238,186,62523,1,0,0:0:0:0:
272,203,62608,1,0,0:0:0:0:
240,224,62694,1,0,0:0:0:0:
275,241,62780,1,0,0:0:0:0:
244,265,62866,2,0,B|391:218|447:76|194:133|80:265,1,454.999986114502
132,85,64237,5,0,2:0:0:0:
185,250,64385,1,0,2:0:0:0:
257,82,64534,1,0,2:0:0:0:
323,259,64682,1,0,2:0:0:0:
384,71,64831,2,0,P|422:101|444:154,1,89.9999972534181,0|0,2:0|2:0,2:0:0:0:
257,320,65128,1,0,0:0:0:0:
257,320,65202,1,0,0:0:0:0:
257,320,65276,2,0,P|217:298|189:262,1,89.9999972534181
98,192,65573,5,0,2:0:0:0:
256,31,65721,1,0,2:0:0:0:
419,189,65870,1,0,2:0:0:0:
256,360,66019,1,0,0:0:0:0:
256,192,66167,1,0,0:0:0:0:
419,189,66316,2,0,L|517:189,1,89.9999972534181
98,192,66613,2,0,L|0:192,1,89.9999972534181
256,31,66910,2,0,L|354:31,1,89.9999972534181
256,353,67207,2,0,L|158:353,1,89.9999972534181
144,88,67504,5,0,0:0:0:0:
376,88,67652,1,0,0:0:0:0:
256,272,67801,2,0,P|192:248|296:256,1,419.999987182618
112,184,68543,5,0,0:0:0:0:
200,80,68692,1,0,0:0:0:0:
256,216,68840,1,0,0:0:0:0:
344,88,68989,2,0,L|417:161,1,89.9999972534181
320,312,69286,1,0,0:0:0:0:
280,136,69435,1,0,0:0:0:0:
128,240,69583,2,0,L|72:352,1,89.9999972534181
376,304,69880,5,0,0:0:0:0:
224,240,70029,1,0,0:0:0:0:
376,168,70177,1,0,0:0:0:0:
296,336,70326,1,0,0:0:0:0:
280,144,70474,1,0,0:0:0:0:
168,312,70623,5,0,0:0:0:0:
192,104,70771,1,0,0:0:0:0:
64,280,70920,1,0,0:0:0:0:
120,64,71068,1,0,0:0:0:0:
288,216,71217,1,0,0:0:0:0:
432,104,71365,6,0,L|456:208,1,89.9999972534181
80,280,71662,2,0,L|56:176,1,89.9999972534181
395,330,71959,6,0,L|318:378,1,89.9999972534181
116,53,72256,2,0,L|193:5,1,89.9999972534181
256,192,72553,1,0,0:0:0:0:
118,111,74962,6,0,P|138:158|189:191,1,100
215,97,75676,6,0,P|257:73|316:70,1,100
285,237,76212,1,0,0:0:0:0:
434,157,76390,6,0,P|407:148|381:154,1,50
231,222,76747,1,0,0:0:0:0:
401,231,76926,1,0,0:0:0:0:
310,87,77104,2,0,P|259:81|210:98,1,100
101,225,77640,1,0,0:0:0:0:
254,299,77819,5,0,0:0:0:0:
157,159,77997,1,0,0:0:0:0:
78,310,78176,2,0,P|103:314|149:305,1,50
260,228,78533,2,0,P|307:218|373:218,1,100
287,371,79069,1,0,0:0:0:0:
112,236,79247,6,0,P|142:195|183:166,1,100
346,120,79783,1,0,0:0:0:0:
236,250,79962,1,0,0:0:0:0:
160,95,80140,1,0,0:0:0:0:
178,63,80229,1,0,0:0:0:0:
208,38,80319,1,0,0:0:0:0:
330,240,80497,1,0,0:0:0:0:
399,71,80676,6,0,P|374:65|350:70,1,50
141,229,81033,2,0,L|190:230,1,50
348,334,81390,2,0,P|410:328|443:285,1,100
332,167,81926,1,0,0:0:0:0:
211,286,82104,6,0,P|186:285|161:283,1,50
162,112,82462,2,0,L|221:92,1,50
379,90,82819,1,0,0:0:0:0:
265,215,82997,2,0,P|244:228|217:229,1,50
151,73,83354,1,0,0:0:0:0:
302,174,83533,6,0,P|329:173|360:170,1,50
476,27,83890,1,0,0:0:0:0:
257,21,84069,1,0,0:0:0:0:
458,96,84247,2,0,P|408:92|359:102,1,100
216,196,84783,1,0,0:0:0:0:
376,252,84962,6,0,P|416:241|434:222,1,50
244,39,85319,2,0,P|268:42|290:54,1,50
286,282,85676,2,0,P|261:279|240:267,1,50
266,71,86033,1,0,0:0:0:0:
273,99,86122,1,0,0:0:0:0:
276,128,86212,1,0,0:0:0:0:
271,157,86301,1,0,0:0:0:0:
257,183,86390,1,0,0:0:0:0:
232,200,86480,1,0,0:0:0:0:
203,210,86569,1,0,0:0:0:0:
173,213,86658,1,0,0:0:0:0:
143,211,86747,1,0,0:0:0:0:
113,204,86837,1,0,0:0:0:0:
89,185,86926,1,0,0:0:0:0:
239,62,87525,5,0,0:0:0:0:
343,64,87687,1,0,0:0:0:0:
416,139,87849,1,0,0:0:0:0:
420,243,88011,1,0,0:0:0:0:
348,319,88173,1,0,0:0:0:0:
243,319,88335,1,0,0:0:0:0:
171,242,88497,1,0,0:0:0:0:
176,136,88660,1,0,0:0:0:0:
294,128,88822,5,0,0:0:0:0:
191,188,88984,1,0,0:0:0:0:
125,80,89146,1,0,0:0:0:0:
237,22,89308,1,0,0:0:0:0:
356,60,89470,5,0,0:0:0:0:
350,186,89633,1,0,0:0:0:0:
251,264,89795,1,0,0:0:0:0:
126,261,89957,2,0,L|83:234,1,34.9999989318848
64,90,90119,5,0,0:0:0:0:
108,110,90200,1,0,0:0:0:0:
156,112,90281,1,0,0:0:0:0:
196,84,90362,1,0,0:0:0:0:
150,65,90443,5,0,0:0:0:0:
108,92,90525,1,0,0:0:0:0:
86,136,90606,1,0,0:0:0:0:
95,183,90687,1,0,0:0:0:0:
143,174,90768,5,0,0:0:0:0:
173,135,90849,1,0,0:0:0:0:
220,121,90930,1,0,0:0:0:0:
268,129,91011,1,0,0:0:0:0:
302,163,91092,1,0,0:0:0:0:
310,211,91173,1,0,0:0:0:0:
285,253,91254,1,0,0:0:0:0:
244,280,91335,1,0,0:0:0:0:
195,276,91416,2,0,L|145:253,1,34.9999989318848
88,157,91579,2,0,L|56:112,1,34.9999989318848
218,40,91741,5,0,0:0:0:0:
218,40,91822,1,0,0:0:0:0:
297,73,91903,2,0,L|319:117,1,34.9999989318848
354,200,92065,1,0,0:0:0:0:
423,190,92146,1,0,0:0:0:0:
437,257,92227,1,0,0:0:0:0:
366,272,92308,2,0,L|319:301,1,34.9999989318848
144,291,92714,6,0,P|72:269|171:227,1,250
219,275,93119,1,0,0:0:0:0:
271,309,93200,1,0,0:0:0:0:
331,324,93281,1,0,0:0:0:0:
392,311,93362,1,0,0:0:0:0:
440,271,93443,1,0,0:0:0:0:
460,210,93525,6,0,L|465:155,1,40
231,59,93687,2,0,L|193:100,1,40
321,218,93849,1,0,0:0:0:0:
321,218,93930,1,0,0:0:0:0:
321,218,94011,2,0,L|396:134,1,80
169,56,94335,5,0,0:0:0:0:
169,56,94416,1,0,0:0:0:0:
169,56,94497,2,0,L|126:97,1,40
35,268,94660,2,0,L|62:313,1,40
273,178,94822,2,0,L|307:153,1,40
330,339,94984,1,0,0:0:0:0:
330,339,95065,1,0,0:0:0:0:
330,339,95146,2,0,L|401:283,1,80
235,78,95633,6,0,L|226:34,1,28.7500005483627
65,83,95795,2,0,L|16:99,1,28.7500005483627
158,218,95957,2,0,L|187:248,1,28.7500005483627
294,39,96119,6,0,L|315:58,1,28.7500005483627
451,186,96281,1,0,0:0:0:0:
454,254,96362,1,0,0:0:0:0:
416,310,96443,1,0,0:0:0:0:
351,330,96524,1,0,0:0:0:0:
286,314,96606,2,0,L|249:294,3,28.7500005483627
156,211,96930,2,0,L|192:190,3,28.7500005483627
144,98,98031,6,0,P|134:157|141:221,1,104.999996795654
154,251,98364,1,0,0:0:0:0:
278,70,98531,1,0,0:0:0:0:
312,72,98614,1,0,0:0:0:0:
343,88,98697,1,0,0:0:0:0:
366,114,98781,1,0,0:0:0:0:
377,147,98864,1,0,0:0:0:0:
375,182,98947,1,0,0:0:0:0:
361,213,99031,1,0,0:0:0:0:
264,288,99197,5,0,0:0:0:0:
256,235,99281,1,0,0:0:0:0:
272,184,99364,2,0,L|291:142,1,34.9999989318848
201,58,99531,1,0,0:0:0:0:
166,54,99614,1,0,0:0:0:0:
131,59,99697,1,0,0:0:0:0:
99,73,99780,1,0,0:0:0:0:
71,94,99864,1,0,0:0:0:0:
50,122,99947,1,0,0:0:0:0:
36,154,100030,1,0,0:0:0:0:
31,189,100114,1,0,0:0:0:0:
50,217,100197,1,0,0:0:0:0:
77,240,100280,1,0,0:0:0:0:
108,256,100364,1,0,0:0:0:0:
141,244,100447,1,0,0:0:0:0:
163,271,100531,1,0,0:0:0:0:
196,261,100614,1,0,0:0:0:0:
217,288,100697,6,0,L|212:322,1,34.9999989318848
279,259,100864,2,0,L|274:293,1,34.9999989318848
331,305,101031,2,0,L|326:339,1,34.9999989318848
341,230,101197,2,0,L|346:196,1,34.9999989318848
279,259,101364,2,0,L|284:225,1,34.9999989318848
227,213,101531,2,0,L|232:179,1,34.9999989318848
265,79,101697,1,0,0:0:0:0:
297,66,101780,1,0,0:0:0:0:
332,62,101863,1,0,0:0:0:0:
366,65,101946,1,0,0:0:0:0:
399,77,102030,5,0,0:0:0:0:
416,127,102114,1,0,0:0:0:0:
416,179,102197,1,0,0:0:0:0:
400,229,102280,1,0,0:0:0:0:
371,272,102363,1,0,0:0:0:0:
330,305,102447,1,0,0:0:0:0:
281,324,102530,1,0,0:0:0:0:
229,328,102613,1,0,0:0:0:0:
178,316,102697,1,0,0:0:0:0:
133,290,102780,1,0,0:0:0:0:
97,251,102863,1,0,0:0:0:0:
75,204,102947,1,0,0:0:0:0:
67,152,103030,1,0,0:0:0:0:
84,102,103114,1,0,0:0:0:0:
134,114,103197,1,0,0:0:0:0:
165,71,103281,1,0,0:0:0:0:
215,83,103364,6,0,P|272:83|323:116,1,104.999996795654
246,154,103697,2,0,P|189:154|138:121,1,104.999996795654
142,60,104031,1,0,0:0:0:0:
209,43,104114,1,0,0:0:0:0:
278,54,104197,1,0,0:0:0:0:
336,92,104281,1,0,0:0:0:0:
374,150,104364,1,0,0:0:0:0:
386,219,104447,1,0,0:0:0:0:
370,286,104531,1,0,0:0:0:0:
328,342,104614,1,0,0:0:0:0:
260,357,104697,5,0,0:0:0:0:
210,307,104781,1,0,0:0:0:0:
140,307,104864,1,0,0:0:0:0:
100,249,104947,1,0,0:0:0:0:
30,249,105030,1,0,0:0:0:0:
77,183,105598,2,0,L|182:166,1,100
259,250,106042,2,0,L|160:265,1,100
435,183,106486,2,0,L|330:166,1,100
253,250,106930,2,0,L|351:265,1,100
220,103,107375,2,0,P|297:77|368:111,1,150
336,167,107820,2,0,P|401:166|444:148,1,100
411,67,108153,2,0,L|453:93,1,50
375,21,108375,2,0,L|424:29,1,50
288,63,108598,2,0,L|188:71,1,100
224,153,108931,2,0,L|257:217,1,50
188,71,109153,2,0,P|121:198|258:59,1,700
428,286,110931,2,0,B|336:226|217:248|217:248|266:162|166:142,1,350
124,89,111820,2,0,P|168:66|221:74,1,100
269,138,112264,2,0,P|297:75|283:29,1,100
362,109,112709,2,0,L|472:118,1,100
325,180,113153,2,0,P|364:209|382:255,1,100
279,277,113597,2,0,P|208:234|253:139,1,200
149,90,116896,6,0,P|211:88|127:152,1,279.999991455078
72,94,117364,5,0,0:0:0:0:
113,37,117458,1,0,0:0:0:0:
183,34,117552,1,0,0:0:0:0:
233,82,117646,1,0,0:0:0:0:
308,181,117739,5,0,0:0:0:0:
342,235,117833,1,0,0:0:0:0:
394,188,117927,1,0,0:0:0:0:
380,119,118021,2,0,L|317:100,1,52.4999983978272
182,103,118208,2,0,L|132:119,1,52.4999983978272
135,270,118396,2,0,B|180:285|180:285|226:317|226:317|286:341,1,157.499995193482
378,298,118771,5,0,0:0:0:0:
425,249,118864,1,0,0:0:0:0:
450,185,118958,1,0,0:0:0:0:
436,117,119052,1,0,0:0:0:0:
337,133,119146,1,0,0:0:0:0:
336,200,119239,1,0,0:0:0:0:
278,159,119333,2,0,B|259:120|259:120|235:97|235:97|216:62,1,104.999996795654
131,45,119614,5,0,0:0:0:0:
153,126,119708,1,0,0:0:0:0:
97,62,119802,5,0,0:0:0:0:
122,145,119896,2,0,P|53:227|75:151,1,279.999991455078
66,100,120364,1,0,0:0:0:0:
139,71,120458,1,0,0:0:0:0:
211,102,120552,1,0,0:0:0:0:
249,170,120646,1,0,0:0:0:0:
254,247,120739,1,0,0:0:0:0:
295,313,120833,1,0,0:0:0:0:
369,338,120927,1,0,0:0:0:0:
442,308,121021,6,0,L|485:94,1,209.999993591309
408,73,121489,1,0,0:0:0:0:
390,142,121583,2,0,L|351:283,1,139.999995727539
221,258,121864,1,0,0:0:0:0:
145,235,121958,2,0,L|69:224,1,52.4999983978272
338,128,122146,1,0,0:0:0:0:
422,130,122240,2,0,L|464:161,1,52.4999983978272
304,311,122427,1,0,0:0:0:0:
218,335,122521,2,0,L|136:332,1,52.4999983978272
192,96,122708,5,0,0:0:0:0:
149,30,122802,1,0,0:0:0:0:
71,45,122896,1,0,0:0:0:0:
118,106,122989,1,0,0:0:0:0:
166,168,123083,1,0,0:0:0:0:
87,179,123177,1,0,0:0:0:0:
42,113,123271,1,0,0:0:0:0:
180,56,124421,6,0,L|201:72,1,17.4999994659424
356,134,124585,6,0,L|331:144,1,17.4999994659424,0|0,0:3|0:3,0:3:0:0:
224,228,124750,6,8,L|227:201,1,17.4999994659424,8|8,0:3|0:3,0:3:0:0:
305,48,124915,6,0,P|259:97|249:161,1,104.999996795654
173,287,125245,2,0,P|150:239|117:206,1,69.9999978637696
158,82,125574,1,0,0:0:0:0:
456,179,125739,6,0,L|440:136,1,34.9999989318848
292,114,125903,6,0,L|306:77,1,34.9999989318848
161,181,126068,6,0,L|144:140,1,34.9999989318848
257,192,126234,5,0,0:0:0:0:
164,63,126399,5,0,0:0:0:0:
203,304,126563,1,0,0:0:0:0:
359,153,126728,2,0,P|314:149|251:170,1,104.999996795654
160,203,127058,6,0,L|189:210,1,25
286,231,127223,6,0,L|274:219|271:216|267:212|264:209|281:214,1,25
58,179,127388,6,0,L|86:185,1,25
286,231,127552,6,0,P|323:238|400:211,1,104.999996795654
447,39,127882,1,0,0:0:0:0:
386,220,128047,6,0,P|379:257|406:334,1,104.999996795654
456,179,128377,6,0,L|443:144,1,25
292,114,128541,6,0,L|304:82,1,25
161,181,128706,6,0,L|149:148,1,25
29,102,128871,5,0,0:0:0:0:
235,97,129036,1,0,0:0:0:0:
61,181,129201,1,0,0:0:0:0:
157,36,129366,1,0,0:0:0:0:
190,223,129530,1,0,0:0:0:0:
328,96,129695,6,0,L|301:96,1,25
160,136,129860,6,0,L|186:136,1,25
360,168,130025,6,0,L|333:168,1,25
191,209,130190,6,0,P|240:188|260:131,1,104.999996795654
259,30,130519,6,0,P|280:76|328:95,1,104.999996795654
420,107,130849,1,0,0:0:0:0:
406,270,131014,6,0,L|392:231,1,25
328,95,131179,6,0,L|313:128,1,25
229,260,131344,6,0,L|216:226,1,25
71,79,131508,5,0,0:0:0:0:
206,41,131673,5,0,0:0:0:0:
115,230,131838,1,0,0:0:0:0:
310,176,132003,1,0,0:0:0:0:
184,269,132168,1,0,0:0:0:0:
233,90,132333,6,0,L|255:120,1,25
364,146,132497,6,0,L|358:182,1,25
412,280,132662,6,8,L|382:302,1,25
272,333,132827,1,0,0:0:0:0:
203,169,132992,1,0,0:0:0:0:
153,343,133157,1,0,0:0:0:0:
294,98,133322,1,0,0:0:0:0:
78,206,133486,1,0,0:0:0:0:
315,223,133651,6,0,L|346:221,1,25
181,102,133816,6,0,L|167:69,1,25
152,273,133981,6,0,L|132:301,1,25
222,195,134146,5,0,0:0:0:0:
484,17,134311,5,0,0:0:0:0:
386,146,134475,1,0,0:0:0:0:
280,118,134640,1,0,0:0:0:0:
203,156,134805,2,0,P|181:168|169:236,1,85.0000016212464
256,192,135629,12,0,138843,0:0:0:0:
121,192,139057,5,0,0:0:0:0:
256,78,139271,1,0,0:0:0:0:
391,192,139486,2,0,L|340:257,1,50
350,300,139700,1,0,0:0:0:0:
296,257,139807,1,0,0:0:0:0:
190,267,139914,2,0,P|125:253|80:213,1,100
225,94,140343,2,0,L|296:67,1,50
322,27,140557,1,0,0:0:0:0:
341,92,140664,1,0,0:0:0:0:
395,37,140771,5,0,0:0:0:0:
451,253,140986,2,0,L|382:231,1,50
286,223,141200,1,0,0:0:0:0:
126,121,141414,1,0,0:0:0:0:
72,162,141521,1,0,0:0:0:0:
132,195,141629,2,0,L|109:260,1,50
242,289,141843,2,0,L|221:339,1,50
294,186,142057,2,0,L|253:130,1,50
364,281,142271,2,0,L|431:280,1,50
304,253,142486,5,0,0:0:0:0:
177,86,142700,1,0,0:0:0:0:
177,86,142914,2,0,L|211:86,4,25
347,150,143343,2,0,L|373:136,4,25
118,75,143771,5,0,0:0:0:0:
134,68,143825,1,0,0:0:0:0:
151,64,143879,1,0,0:0:0:0:
168,61,143932,1,0,0:0:0:0:
186,61,143986,1,0,0:0:0:0:
203,63,144039,1,0,0:0:0:0:
220,67,144093,1,0,0:0:0:0:
236,72,144146,1,0,0:0:0:0:
252,80,144200,1,0,0:0:0:0:
267,90,144254,1,0,0:0:0:0:
280,101,144307,1,0,0:0:0:0:
292,114,144361,1,0,0:0:0:0:
302,128,144414,1,0,0:0:0:0:
311,143,144468,1,0,0:0:0:0:
318,159,144521,1,0,0:0:0:0:
322,176,144575,1,0,0:0:0:0:
327,199,144629,2,0,L|333:241,20,25
306,247,145914,6,0,P|274:269|226:264,1,78.7499975967408
206,158,146343,6,0,P|100:125|101:212,1,165.000001573563
144,168,146771,2,0,L|199:265,1,82.5000007867813
270,323,146986,1,0,0:0:0:0:
367,315,147093,2,0,L|455:298,1,82.5000007867813
379,100,147414,6,0,L|275:130,1,82.5000007867813
226,103,147629,2,0,L|134:56,1,82.5000007867813
87,92,147843,2,0,L|32:178,1,82.5000007867813
100,214,148057,1,0,0:0:0:0:
39,274,148164,1,0,0:0:0:0:
118,287,148271,1,0,0:0:0:0:
227,131,148486,6,0,P|237:43|264:88,1,165.000001573563
335,210,148914,2,0,P|364:119|388:151,1,165.000001573563
438,197,149236,5,0,0:0:0:0:
426,289,149343,2,0,L|360:355,1,82.5000007867813
308,268,149557,2,0,L|236:327,1,82.5000007867813
185,258,149771,2,0,B|74:249|74:249|131:75,1,247.500002360344
132,49,150200,1,0,0:0:0:0:
189,170,150414,5,0,0:0:0:0:
260,122,150521,1,0,0:0:0:0:
291,202,150629,2,0,L|302:302,1,82.5000007867813
374,293,150843,2,0,L|364:201,1,82.5000007867813
421,43,151057,1,0,0:0:0:0:
323,214,151271,5,0,0:0:0:0:
252,262,151378,1,0,0:0:0:0:
221,182,151486,2,0,L|210:82,1,82.5000007867813
138,91,151700,2,0,L|148:183,1,82.5000007867813
91,341,151914,1,0,0:0:0:0:
91,341,152129,6,0,P|197:326|266:280,1,165.000001573563
445,235,152557,2,0,L|408:254,2,41.2500003933907
447,223,152771,2,0,L|443:130,1,82.5000007867813
399,62,152986,2,0,B|293:43|294:43,1,82.5000007867813
217,11,153200,1,0,0:0:0:0:
142,137,153414,5,0,0:0:0:0:
72,187,153521,1,0,0:0:0:0:
59,273,153629,2,0,P|77:354|110:257,1,247.500002360344
71,182,154057,2,0,P|77:79|162:133,1,165.000001573563
204,116,154379,5,0,0:0:0:0:
296,84,154486,2,0,L|380:44,1,82.5000007867813
400,129,154700,2,0,L|489:155,1,82.5000007867813
405,217,154914,2,0,L|451:300,1,82.5000007867813
373,338,155129,5,0,0:0:0:0:
282,348,155236,1,0,0:0:0:0:
187,323,155343,2,0,P|179:223|84:300,1,247.500002360344
143,274,155771,2,0,P|130:179|34:205,1,165.000001573563
47,131,156093,5,0,0:0:0:0:
100,68,156200,2,0,L|189:32,1,82.5000007867813
248,145,156414,2,0,L|162:125,1,82.5000007867813
289,53,156629,2,0,L|383:32,2,82.5000007867813
86,328,157057,6,0,L|163:288,1,82.5000007867813
361,184,157379,1,0,0:0:0:0:
390,254,157486,1,0,0:0:0:0:
317,248,157593,2,0,L|238:302,1,82.5000007867813
110,61,157914,6,0,L|141:159,1,82.5000007867813
451,338,158343,6,0,L|362:261,1,82.5000007867813
52,338,158557,2,0,L|148:259,1,82.5000007867813
406,73,158771,2,0,L|337:142,1,82.5000007867813
263,57,158986,1,0,0:0:0:0:
164,129,159093,1,0,0:0:0:0:
115,232,159200,2,0,P|203:316|355:352,1,247.500002360344
424,262,159629,5,0,0:0:0:0:
395,177,159736,1,0,0:0:0:0:
324,239,159843,1,0,0:0:0:0:
411,145,160057,2,0,P|330:77|172:42,1,247.500002360344
180,41,160486,1,0,0:0:0:0:
96,152,160700,5,0,0:0:0:0:
158,209,160807,1,0,0:0:0:0:
88,247,160914,2,0,P|108:344|244:358,1,247.500002360344
280,306,161343,2,0,P|171:351|124:282,1,165.000001573563
99,234,161664,5,0,0:0:0:0:
120,145,161771,2,0,L|182:73,1,82.5000007867813
345,87,161986,2,0,L|281:171,1,82.5000007867813
435,97,162200,1,0,0:0:0:0:
419,269,162414,5,0,0:0:0:0:
354,327,162521,1,0,0:0:0:0:
319,248,162629,1,0,0:0:0:0:
372,46,162843,1,0,0:0:0:0:
194,45,163057,5,0,0:0:0:0:
205,123,163164,1,0,0:0:0:0:
130,92,163271,1,0,0:0:0:0:
132,171,163379,1,0,0:0:0:0:
62,139,163486,2,0,P|48:216|75:295,1,142.49999619484
188,327,163914,1,0,0:0:0:0:
228,129,164129,5,0,0:0:0:0:
207,210,164236,1,0,0:0:0:0:
150,151,164343,2,0,P|239:186|319:187,1,142.49999619484
341,161,164771,2,0,L|377:110,2,63.3333316421509
343,297,165200,6,0,P|424:342|426:342,1,62.5
432,240,165414,1,0,0:0:0:0:
169,297,165629,2,0,P|88:342|86:342,1,62.5
80,240,165843,1,0,0:0:0:0:
147,183,165950,1,0,0:0:0:0:
65,152,166057,1,0,0:0:0:0:
215,40,166271,5,0,0:0:0:0:
313,51,166379,1,0,0:0:0:0:
392,117,166486,1,0,0:0:0:0:
416,220,166593,1,0,0:0:0:0:
378,305,166700,1,0,0:0:0:0:
131,266,166914,2,0,P|185:208|97:209,2,187.5
64,187,167664,1,0,0:0:0:0:
109,93,167771,1,0,0:0:0:0:
338,38,167986,5,0,0:0:0:0:
318,117,168093,1,0,0:0:0:0:
401,108,168200,1,0,0:0:0:0:
383,187,168307,1,0,0:0:0:0:
466,182,168414,1,0,0:0:0:0:
319,304,168629,2,0,P|281:210|268:218,1,125
246,269,168950,1,0,0:0:0:0:
230,276,169057,2,0,P|90:275|34:151,1,290.000008850098
210,62,169593,1,0,0:0:0:0:
125,189,169700,1,0,0:0:0:0:
281,309,169807,1,0,0:0:0:0:
95,75,169914,2,0,B|-54:131|239:193|-3:260,1,250
143,72,170557,6,0,B|88:240|88:240|112:162|112:162|169:181|169:181|203:85|203:85|147:275,1,600
264,113,171521,2,0,L|221:267,1,150.000005722046
312,260,171843,2,0,B|334:84|334:84|389:256|389:256|420:68|420:68|402:86,1,525.000020027161
444,90,172700,2,0,B|485:169|485:169|509:84|509:84|446:277|446:277,1,375.000014305115
397,354,173343,2,0,L|37:353,1,300.000011444092
99,79,174200,6,0,B|85:167|85:167|182:170|183:170|137:170|137:170|142:140|142:140|128:271|128:271,1,300.000011444092
257,91,174843,6,0,B|316:49|316:49|301:275,1,250
