osu file format v14

[General]
AudioFilename: audio.mp3
AudioLeadIn: 0
PreviewTime: 52127
Countdown: 0
SampleSet: None
StackLeniency: 1
Mode: 0
LetterboxInBreaks: 0
WidescreenStoryboard: 0

[Editor]
DistanceSpacing: 1
BeatDivisor: 8
GridSize: 4
TimelineZoom: 3.099999

[Metadata]
Title:Rettou Joutou BRING IT ON
TitleUnicode:劣等上等 BRING IT ON
Artist:Reol
ArtistUnicode:れをる
Creator:Poivila_qwq
Version:Childish
Source:
Tags:Vocaloid
BeatmapID:1939481
BeatmapSetID:928554

[Difficulty]
HPDrainRate:8.1
CircleSize:4.1
OverallDifficulty:9
ApproachRate:9.3
SliderMultiplier:2.4
SliderTickRate:1

[Events]
//Background and Video events
0,0,"Rettou_Joutou.png",0,0
//Break Periods
2,183577,189386
//Storyboard Layer 0 (Background)
//Storyboard Layer 1 (Fail)
//Storyboard Layer 2 (Pass)
//Storyboard Layer 3 (Foreground)
//Storyboard Layer 4 (Overlay)
//Storyboard Sound Samples

[TimingPoints]
940,375,4,3,0,100,1,0
940,-100,4,3,0,100,0,1
1221,-100,4,2,0,5,0,0
1690,-100,4,1,0,25,0,0
1877,-100,4,3,0,60,0,0
2065,-100,4,1,0,40,0,0
2252,-100,4,2,0,65,0,0
2346,-100,4,3,0,25,0,0
2440,-100,4,1,0,75,0,0
2627,-100,4,2,0,100,0,0
2768,-100,4,1,0,100,0,0
3096,-100,4,2,0,100,0,0
3658,-100,4,3,0,100,0,0
4268,-100,4,1,0,30,0,0
4502,-100,4,3,0,55,0,0
4971,-100,4,3,0,35,0,0
5252,-100,4,2,0,60,0,0
5440,-100,4,1,0,100,0,0
5908,-100,4,1,0,55,0,0
6190,-100,4,2,0,60,0,0
6377,-100,4,3,0,55,0,0
6518,-100,4,2,0,100,0,0
21565,-200,4,1,0,100,0,0
21658,-100,4,2,0,100,0,0
23440,-80,4,1,0,100,0,1
24940,-100,4,3,0,100,0,0
27190,-80,4,3,0,100,0,1
27940,-80,4,2,0,100,0,0
30658,-80,4,1,0,100,0,0
32440,-80,4,3,0,100,0,1
33002,-80,4,1,0,100,0,0
33565,-50,4,1,0,100,0,1
33658,-100,4,1,0,100,0,0
38908,-100,4,3,0,100,0,0
41861,-100,4,2,0,100,0,0
42940,-66.6666666666667,4,3,0,100,0,1
43408,-100,4,1,0,100,0,0
44815,-100,4,3,0,100,0,1
45752,-100,4,2,0,100,0,0
48049,-100,4,3,0,100,0,0
48940,-66.6666666666667,4,2,0,100,0,1
49080,-100,4,1,0,100,0,0
49690,-66.6666666666667,4,3,0,100,0,1
50065,-100,4,2,0,100,0,0
50440,-66.6666666666667,4,3,0,100,0,1
50627,-100,4,1,0,100,0,0
50815,-66.6666666666667,4,2,0,100,0,1
51940,-100,4,3,0,100,0,0
53440,-100,4,2,0,100,0,1
53815,-66.6666666666667,4,1,0,100,0,1
54190,-50,4,3,0,100,0,1
54377,-133.333333333333,4,2,0,100,0,0
55127,-66.6666666666667,4,1,0,100,0,1
55690,-50,4,3,0,100,0,1
56440,-133.333333333333,4,2,0,100,0,0
56908,-66.6666666666667,4,3,0,100,0,0
57658,-100,4,1,0,100,0,0
59158,-80,4,2,0,100,0,0
59815,-66.6666666666667,4,3,0,100,0,1
60190,-50,4,1,0,100,0,1
60377,-66.6666666666667,4,2,0,100,0,0
61127,-80,4,3,0,100,0,1
61690,-50,4,1,0,100,0,1
62533,-50,4,3,0,90,0,0
63377,-50,4,1,0,100,0,1
64690,-100,4,2,0,100,0,1
64877,-100,4,1,0,75,0,0
65533,-66.6666666666667,4,3,0,100,0,1
65908,-66.6666666666667,4,1,0,100,0,0
66611,-66.6666666666667,4,2,0,100,0,1
67549,-66.6666666666667,4,3,0,100,0,0
68721,-66.6666666666667,4,1,0,100,0,1
69518,-66.6666666666667,4,3,0,100,0,0
70127,-133.333333333333,4,2,0,75,0,0
78190,-200,4,3,0,75,0,0
78658,-133.333333333333,4,2,0,75,0,0
79690,-200,4,3,0,75,0,0
79877,-133.333333333333,4,2,0,75,0,0
80158,-133.333333333333,4,1,0,75,0,0
83440,-66.6666666666667,4,3,0,100,0,1
83815,-133.333333333333,4,2,0,70,0,0
84190,-400,4,1,0,70,0,0
84377,-133.333333333333,4,2,0,70,0,0
85690,-400,4,1,0,70,0,0
85877,-133.333333333333,4,2,0,70,0,0
87658,-66.6666666666667,4,1,0,100,0,1
88690,-400,4,2,0,70,0,0
88783,-66.6666666666667,4,1,0,100,0,1
89065,-66.6666666666667,4,3,0,100,0,1
89533,-133.333333333333,4,2,0,70,0,0
99752,-66.6666666666667,4,3,0,100,0,1
101908,-133.333333333333,4,1,0,70,0,0
107440,-66.6666666666667,4,2,0,100,0,1
107815,-133.333333333333,4,3,0,70,0,0
113065,-80,4,1,0,100,0,1
113815,-80,4,3,0,100,0,1
114002,-66.6666666666667,4,2,0,100,0,1
114471,-100,4,1,0,100,0,1
114940,-100,4,3,0,100,0,0
115315,-80,4,2,0,100,0,1
115690,-50,4,1,0,100,0,0
116440,-100,4,2,0,100,0,1
116815,-80,4,3,0,100,0,0
117002,-100,4,1,0,100,0,1
119627,-66.6666666666667,4,2,0,100,0,0
120190,-80,4,3,0,100,0,1
120377,-100,4,1,0,100,0,0
121315,-80,4,3,0,100,0,1
121690,-66.6666666666667,4,2,0,100,0,0
124690,-133.333333333333,4,1,0,100,0,1
125440,-100,4,2,0,100,0,0
131440,-133.333333333333,4,1,0,65,0,0
134065,-80,4,3,0,100,0,1
134440,-133.333333333333,4,1,0,65,0,0
134627,-66.6666666666667,4,2,0,100,0,0
135940,-50,4,1,0,100,0,1
136690,-133.333333333333,4,3,0,65,0,0
137440,-66.6666666666667,4,2,0,100,0,0
138940,-50,4,1,0,100,0,1
140065,-100,4,2,0,100,0,0
140815,-66.6666666666667,4,3,0,65,0,0
141187,-100,4,1,0,100,0,0
142315,-66.6666666666667,4,2,0,100,0,0
143440,-50,4,3,0,100,0,1
146440,-100,4,1,0,100,0,0
149440,-133.333333333333,4,2,0,65,0,0
155440,-200,4,3,0,65,0,0
164440,-133.333333333333,4,2,0,65,0,0
167440,-66.6666666666667,4,3,0,65,0,1
170440,-50,4,1,0,100,0,1
180002,-66.6666666666667,4,3,0,65,0,0
180565,-133.333333333333,4,2,0,65,0,0
191440,-100,4,1,0,100,0,1
191815,-66.6666666666667,4,3,0,100,0,0
192190,-40,4,2,0,100,0,1
192565,-133.333333333333,4,1,0,75,0,0
193315,-66.6666666666667,4,3,0,100,0,1
193690,-33.3333333333333,4,2,0,100,0,0
194440,-100,4,1,0,100,0,1
195846,-100,4,3,0,100,0,0
197627,-66.6666666666667,4,2,0,100,0,1
198190,-66.6666666666667,4,3,0,100,0,0
204002,-66.6666666666667,4,2,0,100,0,1
204565,-66.6666666666667,4,3,0,100,0,0
204846,-66.6666666666667,4,1,0,100,0,1
205877,-66.6666666666667,4,2,0,100,0,0
206627,-66.6666666666667,4,3,0,100,0,1
208502,-66.6666666666667,4,2,0,100,0,0
208690,-100,4,1,0,50,0,0
215440,-133.333333333333,4,2,0,50,0,1
216002,-133.333333333333,4,3,0,50,0,0
221065,-66.6666666666667,4,2,0,100,0,0
221440,-66.6666666666667,4,1,0,100,0,1
226690,-50,4,2,0,100,0,1
227440,-1000,4,3,0,100,0,0
229877,-50,4,2,0,100,0,1
230065,-66.6666666666667,4,1,0,100,0,0

[Colours]
Combo1 : 200,0,0
Combo2 : 0,0,136
Combo3 : 255,255,0
Combo4 : 0,128,0
Combo5 : 176,98,255
Combo6 : 255,128,64
Combo7 : 255,255,187

[HitObjects]
276,185,940,6,14,P|378:185|312:98,1,240
283,90,1408,2,4,L|307:60,30,30
105,144,3002,6,8,P|159:146|201:209,1,120
117,229,3377,1,2,0:0:0:0:
49,288,3565,2,0,B|46:260|46:260|100:341,1,120
215,128,3940,6,14,P|121:92|133:192,1,240
133,192,4408,2,2,L|101:191,46,30
353,245,6940,5,0,0:0:0:0:
460,142,7127,1,0,0:0:0:0:
139,57,7315,1,0,0:0:0:0:
90,68,7690,1,0,0:0:0:0:
44,92,8065,1,0,0:0:0:0:
243,347,8440,5,6,0:0:0:0:
374,270,8627,1,6,0:0:0:0:
27,54,8815,1,6,0:0:0:0:
105,149,9190,1,6,0:0:0:0:
224,254,9565,1,0,0:0:0:0:
434,174,9752,1,0,0:0:0:0:
311,107,9940,6,0,P|263:131|289:179,1,120
425,132,10315,1,0,0:0:0:0:
391,82,10408,1,0,0:0:0:0:
338,56,10502,1,0,0:0:0:0:
279,46,10596,1,0,0:0:0:0:
221,58,10690,1,0,0:0:0:0:
152,200,10877,1,0,0:0:0:0:
405,166,11065,6,2,P|341:171|328:110,1,120
288,254,11440,6,12,B|327:307|307:366|307:366|365:334|369:336,2,180,12|12|12,2:0|2:0|2:0,2:0:0:0:
249,190,12190,1,0,0:0:0:0:
256,187,12565,6,14,L|300:183,2,30
285,114,12940,5,0,0:0:0:0:
207,259,13127,1,0,0:0:0:0:
201,79,13315,5,0,0:0:0:0:
284,307,13502,1,0,0:0:0:0:
331,65,13690,5,0,0:0:0:0:
140,311,13877,1,0,0:0:0:0:
65,48,14065,5,0,0:0:0:0:
377,299,14252,1,0,0:0:0:0:
367,86,14440,6,0,P|375:55|402:34,2,60
461,146,14721,1,0,0:0:0:0:
476,131,14815,2,0,L|452:207,1,60
346,89,15002,2,0,L|339:14,1,60
335,183,15190,6,0,P|262:199|235:249,1,120
308,264,15471,1,0,0:0:0:0:
367,314,15565,6,0,B|414:299|414:299|454:234,1,120
405,180,15846,1,0,0:0:0:0:
332,148,15940,5,0,0:0:0:0:
187,287,16127,1,0,0:0:0:0:
387,300,16315,5,0,0:0:0:0:
289,55,16502,1,0,0:0:0:0:
105,299,16690,5,0,0:0:0:0:
399,168,16877,1,0,0:0:0:0:
174,22,17065,5,0,0:0:0:0:
72,369,17252,1,0,0:0:0:0:
296,260,17440,6,0,P|269:218|265:191,1,60
232,184,17627,1,0,0:0:0:0:
199,165,17721,1,0,0:0:0:0:
164,180,17815,5,0,0:0:0:0:
85,343,18002,1,0,0:0:0:0:
307,269,18190,2,0,L|355:216,2,60
86,198,18565,6,2,B|60:226|121:258|66:309,2,120
201,83,19127,2,0,P|175:119|168:146,2,60
420,152,19502,1,0,0:0:0:0:
371,205,19596,1,0,0:0:0:0:
308,240,19690,2,4,P|227:229|203:173,1,120
321,75,20065,5,0,0:0:0:0:
488,194,20252,1,0,0:0:0:0:
219,198,20440,2,8,P|194:116|199:114,1,120
306,44,20721,1,0,0:0:0:0:
335,28,20815,2,2,B|312:72|312:72|304:157,1,120
432,215,21096,1,0,0:0:0:0:
457,231,21190,6,8,P|463:133|459:109,1,120
274,81,21565,6,0,L|268:56,2,15
292,150,21752,5,0,0:0:0:0:
316,217,21846,1,0,0:0:0:0:
244,253,21940,2,6,P|310:259|342:299,1,120
277,330,22221,2,0,B|294:372|294:372|332:389,2,60
383,270,22502,1,0,0:0:0:0:
383,270,22690,6,8,L|310:155,1,120
206,80,22971,1,2,0:0:0:0:
184,78,23065,2,0,P|211:135|236:216,1,120
148,264,23346,1,2,0:0:0:0:
54,215,23440,6,6,P|127:181|172:128,1,150
313,24,23815,2,0,P|210:44|179:102,1,150
144,179,24096,1,0,0:0:0:0:
141,210,24190,2,8,L|200:274,1,75
306,291,24377,2,8,L|402:306,1,75
400,157,24565,2,10,L|311:129,1,75
223,100,24752,2,12,L|141:43,1,75
92,40,24940,5,4,0:0:0:0:
92,40,25127,2,8,L|120:96,2,60
50,169,25408,1,0,0:0:0:0:
81,177,25502,2,4,L|180:180,1,60
240,232,25690,2,12,L|293:272,1,60
171,331,25877,1,2,0:0:0:0:
131,348,25971,1,2,0:0:0:0:
79,352,26065,6,10,B|121:297|121:297|173:250,1,120
317,205,26440,1,0,0:0:0:0:
425,332,26627,1,0,0:0:0:0:
89,328,26815,1,0,0:0:0:0:
263,207,27002,2,14,P|346:192|414:260,1,180
284,324,27377,6,12,P|241:231|287:195,1,150
262,206,27752,1,8,0:0:0:0:
323,244,27846,1,0,0:0:0:0:
393,223,27940,2,8,L|390:114,1,75
294,62,28127,2,4,L|188:56,1,75
119,130,28315,2,8,L|126:209,1,75
244,257,28502,2,6,L|346:263,1,75
384,88,28690,1,0,0:0:0:0:
222,42,28877,1,0,0:0:0:0:
152,216,29065,1,0,0:0:0:0:
344,285,29252,1,0,0:0:0:0:
401,83,29440,6,2,P|327:111|298:175,2,150
480,89,29908,1,4,0:0:0:0:
443,152,30002,1,8,0:0:0:0:
372,157,30096,1,4,0:0:0:0:
327,101,30190,1,10,0:0:0:0:
348,32,30283,1,0,0:0:0:0:
430,38,30377,2,0,L|462:87,2,37.5
360,86,30565,6,2,B|271:116|271:116|209:171,1,150
229,153,30940,2,8,L|285:219,1,75
387,268,31127,2,8,L|298:325,1,75
249,325,31315,1,0,0:0:0:0:
244,251,31408,1,0,0:0:0:0:
276,184,31502,1,2,0:0:0:0:
349,149,31596,1,0,0:0:0:0:
433,159,31690,6,4,B|407:233|407:233|430:302,1,150
480,266,31971,1,0,0:0:0:0:
490,246,32065,2,0,L|457:175,1,75
368,150,32252,2,4,L|299:84,1,75
236,55,32440,6,10,B|165:28|165:28|79:94,1,150
83,137,32721,1,0,0:0:0:0:
111,195,32815,1,8,0:0:0:0:
129,265,32908,1,0,0:0:0:0:
193,299,33002,1,10,0:0:0:0:
262,272,33096,1,2,0:0:0:0:
288,205,33190,1,14,0:0:0:0:
218,46,33377,1,2,0:0:0:0:
218,46,33565,6,2,P|256:10|303:57,2,120
255,132,33846,1,0,0:0:0:0:
278,143,33940,6,12,B|331:182|331:182|410:203,1,120
355,41,34221,1,0,0:0:0:0:
269,51,34315,2,4,B|234:92|234:92|276:141,1,120
399,96,34596,1,0,0:0:0:0:
277,142,34690,2,4,P|302:175|273:243,1,120
159,201,35065,1,0,0:0:0:0:
274,241,35252,1,0,0:0:0:0:
183,312,35440,2,6,L|78:220,1,120
338,142,35815,2,2,L|443:227,1,120
161,229,36190,6,8,L|113:183,1,60
192,78,36377,2,0,L|263:42,1,60
378,112,36565,2,8,L|420:190,1,60
361,295,36752,2,0,L|281:308,1,60
156,233,36940,6,4,P|124:140|159:90,1,120
129,125,37315,2,2,L|296:117,1,120
371,182,37690,1,0,0:0:0:0:
371,182,37877,2,0,L|341:159,2,30
433,202,38065,2,8,L|440:172,4,30
445,306,38440,5,2,0:0:0:0:
393,276,38533,1,0,0:0:0:0:
330,253,38627,2,4,B|315:219|315:219|272:202,1,60
238,283,38815,6,8,P|247:236|183:223,1,120
126,303,39190,1,0,0:0:0:0:
126,303,39377,2,0,P|113:249|120:221,1,60
181,197,39565,2,4,P|126:153|66:146,1,120
71,260,39846,1,0,0:0:0:0:
45,282,39940,6,8,P|132:280|162:263,1,120
289,203,40315,2,2,P|258:139|206:105,1,120
52,190,40690,1,8,0:0:0:0:
177,344,40877,1,0,0:0:0:0:
270,182,41065,1,0,0:0:0:0:
140,120,41252,2,8,L|109:82,2,30
161,189,41440,6,2,L|230:155,1,60
347,126,41627,2,4,L|395:195,1,60
319,306,41815,2,2,L|249:336,1,60
126,248,42002,2,12,L|86:172,1,60
83,126,42190,1,10,0:0:0:0:
284,142,42377,1,0,0:0:0:0:
347,350,42565,1,0,0:0:0:0:
130,308,42752,1,0,0:0:0:0:
133,147,42940,6,2,P|235:96|242:211,1,270.000010299683
167,253,43315,1,4,0:0:0:0:
106,291,43408,2,0,P|75:279|62:190,1,120
62,128,43690,2,0,B|78:103|78:103|147:45,1,120
324,87,44065,1,12,0:0:0:0:
177,186,44252,1,0,0:0:0:0:
313,229,44440,2,14,P|331:176|266:114,1,120
176,100,44721,1,0,0:0:0:0:
144,79,44815,6,8,B|146:115|199:138|179:189,1,120
103,254,45096,1,0,0:0:0:0:
69,269,45190,2,2,P|121:257|191:258,1,120
262,304,45471,1,0,0:0:0:0:
302,340,45565,2,4,P|327:276|330:208,1,120
210,29,45940,6,2,P|247:104|255:146,1,120
166,291,46315,2,8,P|117:223|111:168,1,120
322,117,46690,1,4,0:0:0:0:
166,291,46877,1,0,0:0:0:0:
145,93,47065,1,6,0:0:0:0:
208,75,47158,1,2,0:0:0:0:
272,57,47252,1,10,0:0:0:0:
473,72,47440,5,8,0:0:0:0:
383,154,47627,1,0,0:0:0:0:
251,243,47815,2,8,B|216:246|179:305|106:319,2,120
404,262,48377,2,0,L|409:352,2,60
345,153,48752,1,0,0:0:0:0:
279,61,48940,6,12,P|193:65|239:136,1,180.000006866455
354,114,49221,1,0,0:0:0:0:
377,104,49315,2,0,P|426:117|434:182,1,120
435,178,49690,6,6,B|396:220|396:220|354:162|354:162|297:174,1,180.000006866455
182,174,49971,1,0,0:0:0:0:
102,115,50065,6,0,B|154:78|154:78|249:87,1,120
303,106,50346,1,0,0:0:0:0:
388,153,50440,5,2,0:0:0:0:
189,332,50627,1,8,0:0:0:0:
287,81,50815,1,14,0:0:0:0:
428,335,51002,1,14,0:0:0:0:
166,139,51190,6,10,P|184:107|159:60,1,90.0000034332277
318,265,51377,2,6,P|294:301|317:338,1,90.0000034332277
176,340,51565,2,10,B|186:311|186:311|169:283|169:283|169:257,1,90.0000034332277
334,93,51752,2,12,B|335:98|335:98|312:115|312:115|337:135|337:135|319:150,1,90.0000034332277
249,225,51940,6,2,L|250:254,2,30
256,192,52127,12,14,53065,0:0:0:0:
260,86,53252,5,0,0:0:0:0:
378,82,53440,6,8,B|355:59|348:52|333:37|281:39|227:80,1,120
384,81,53815,6,10,B|377:96|375:100|370:110|423:182|520:194,1,180.000006866455
378,82,54190,6,12,B|314:94|314:94|267:132|267:132|250:202|250:202|293:164,1,240
353,183,54471,1,0,0:0:0:0:
461,163,54565,2,0,L|455:118,1,45.0000017166138
417,243,54752,2,0,L|469:264,1,45.0000017166138
429,331,54940,6,8,L|452:354|459:361|474:376|518:475,1,90.0000034332277,0|0,0:0|0:0,0:0:0:0:
429,331,55315,6,8,B|417:319|414:316|406:308|373:294|373:294|398:221|398:221|335:175,1,180.000006866455
429,331,55690,6,6,B|367:241|349:391|349:391|294:316,1,240
225,98,56065,1,4,0:0:0:0:
187,254,56252,1,0,0:0:0:0:
60,174,56440,6,2,P|91:135|122:123,2,45.0000017166138
60,174,56815,1,8,0:0:0:0:
125,224,56908,1,0,0:0:0:0:
133,308,57002,2,2,P|176:306|208:276,1,90.0000034332277
229,196,57190,5,4,0:0:0:0:
100,15,57377,1,4,0:0:0:0:
63,193,57565,2,6,L|14:230,2,45.0000017166138
175,170,57752,2,4,P|115:142|78:150,1,60
63,193,57940,6,0,P|91:253|149:296,1,120
237,249,58221,1,2,0:0:0:0:
325,220,58315,2,0,P|327:144|286:99,1,120
202,101,58596,1,2,0:0:0:0:
124,55,58690,2,4,L|46:10,1,60
106,215,58877,2,0,L|120:298,1,60
310,177,59065,2,12,B|375:224|375:224|316:229,1,120
85,331,59440,5,0,0:0:0:0:
85,331,59815,6,14,B|96:254|96:254|202:279,1,180.000006866455
85,328,60190,6,10,B|91:291|121:255|121:255|102:150|215:147,1,240
247,222,60471,1,0,0:0:0:0:
321,271,60565,2,10,P|346:266|377:256,2,45.0000017166138
267,343,60752,1,0,0:0:0:0:
146,290,60940,5,4,0:0:0:0:
207,158,61127,1,4,0:0:0:0:
276,56,61315,6,10,B|271:72|367:36|385:48|393:54|419:73,1,150
480,207,61690,6,14,B|492:269|492:269|470:249|424:268|424:268|431:339|359:338,1,240
305,304,61971,1,0,0:0:0:0:
247,249,62065,1,2,0:0:0:0:
261,172,62158,1,0,0:0:0:0:
312,122,62252,2,8,P|314:150|330:178,2,60
322,69,62440,6,4,P|406:98|347:219,1,240
295,207,62721,1,0,0:0:0:0:
204,197,62815,6,8,B|220:137|263:102|263:102|347:86|437:141,1,240
423,184,63096,1,0,0:0:0:0:
377,239,63190,6,6,B|332:243|332:243|320:277|320:277|275:263,1,120
200,156,63377,2,12,B|255:156|255:156|253:229,1,120
282,265,63565,2,0,B|237:309|237:309|166:259,1,120
93,162,63752,2,0,B|146:143|146:143|219:175,1,120
281,259,63940,6,8,L|313:320,2,60
204,160,64127,2,6,L|229:66,2,60
287,232,64315,6,10,L|222:259,4,60
287,232,64690,6,10,P|340:194|286:106,1,180
175,77,65065,5,0,0:0:0:0:
175,77,65252,1,0,0:0:0:0:
175,77,65440,2,2,P|111:86|74:133,1,120
135,213,65721,1,0,0:0:0:0:
164,249,65815,2,4,P|88:270|69:368,1,180.000006866455
118,365,66096,1,0,0:0:0:0:
152,347,66190,1,8,0:0:0:0:
262,223,66377,1,4,0:0:0:0:
154,101,66565,2,2,P|101:106|67:155,2,90.0000034332277
202,235,66846,1,0,0:0:0:0:
239,254,66940,6,12,P|142:235|181:177,1,180.000006866455
220,144,67221,1,0,0:0:0:0:
288,118,67315,2,2,P|321:147|347:184,1,90.0000034332277
400,276,67502,2,8,P|352:314|301:312,1,90.0000034332277
117,330,67690,1,14,0:0:0:0:
109,329,67877,6,8,P|104:233|154:144,1,180.000006866455
213,122,68158,1,0,0:0:0:0:
300,100,68252,2,0,P|418:127|431:137,1,90.0000034332277
459,167,68440,1,14,0:0:0:0:
459,167,68627,6,2,P|430:252|364:316,1,180.000006866455
265,244,68908,1,0,0:0:0:0:
207,194,69002,2,8,L|177:73,1,90.0000034332277
118,66,69190,1,14,0:0:0:0:
258,73,69377,6,8,P|294:34|360:21,2,90.0000034332277
321,123,69658,1,0,0:0:0:0:
410,193,69752,2,0,L|293:193,1,90.0000034332277
181,183,69940,1,2,0:0:0:0:
246,106,70127,1,4,0:0:0:0:
320,193,70315,6,8,P|379:160|440:160,2,90.0000034332277
233,169,70877,2,8,P|281:176|330:196,1,90.0000034332277
380,225,71158,1,2,0:0:0:0:
424,271,71252,1,6,0:0:0:0:
456,324,71346,1,2,0:0:0:0:
256,192,71440,12,6,77440,0:0:0:0:
146,312,77815,6,8,P|151:261|227:261,1,135.000005149841
224,315,78190,2,2,P|172:264|153:264,2,90
136,339,78846,1,4,0:0:0:0:
83,345,78940,2,8,L|81:291,1,45.0000017166138
158,216,79127,2,8,L|174:149,1,45.0000017166138
264,137,79315,2,0,L|318:145|388:168,1,90.0000034332277
236,265,79690,6,2,P|278:236|294:234,1,60
408,250,79971,1,8,0:0:0:0:
378,277,80065,2,4,P|350:227|383:194,1,90.0000034332277
363,203,80440,5,8,0:0:0:0:
310,213,80533,1,0,0:0:0:0:
258,214,80627,1,10,0:0:0:0:
220,174,80721,1,0,0:0:0:0:
181,129,80815,2,14,L|170:79,1,45.0000017166138
348,181,81002,2,4,L|351:232,1,45.0000017166138
168,133,81190,2,8,P|129:108|101:72,1,90.0000034332277
102,73,81565,1,0,0:0:0:0:
127,108,81658,1,0,0:0:0:0:
138,151,81752,1,0,0:0:0:0:
129,196,81846,1,0,0:0:0:0:
94,218,81940,6,0,L|87:295,1,45.0000017166138
214,294,82127,2,0,L|219:359,1,45.0000017166138
304,225,82315,1,2,0:0:0:0:
279,169,82408,1,2,0:0:0:0:
214,148,82502,1,2,0:0:0:0:
147,127,82596,1,0,0:0:0:0:
115,63,82690,2,0,P|123:48|128:28,4,22.5000008583069
65,108,82971,1,0,0:0:0:0:
40,144,83065,6,2,L|51:180,1,22.5000008583069
117,284,83252,6,12,L|124:259,1,22.5000008583069
206,112,83440,6,14,P|264:87|274:234,1,270.000010299683
254,167,83815,1,8,0:0:0:0:
260,203,84190,6,14,P|281:184|286:179,1,30
338,134,84471,1,8,0:0:0:0:
398,89,84565,2,2,P|407:146|393:172,1,90.0000034332277
343,231,84846,1,0,0:0:0:0:
299,280,84940,2,4,L|315:341,1,45.0000017166138
183,330,85127,2,0,L|140:280,1,45.0000017166138
76,302,85315,2,8,B|108:276|108:276|153:295,1,90.0000034332277
232,301,85690,6,14,P|216:293|203:285,1,30
118,272,85971,5,0,0:0:0:0:
60,317,86065,2,0,L|81:193,1,90.0000034332277
137,92,86440,6,0,L|176:131,1,45.0000017166138
309,201,86627,2,0,L|263:203,1,45.0000017166138
165,213,86815,2,0,P|166:162|224:128,1,112.500004291535
346,168,87190,1,0,0:0:0:0:
373,185,87283,5,10,0:0:0:0:
387,220,87377,5,10,0:0:0:0:
398,218,87471,5,10,0:0:0:0:
382,233,87565,2,0,L|262:232,1,90.0000034332277
120,201,87940,6,12,L|148:108,1,90.0000034332277
343,107,88127,2,12,L|451:180,1,90.0000034332277
413,263,88315,2,6,B|380:305|380:305|312:324,1,90.0000034332277
221,298,88502,2,12,L|186:342,2,45.0000017166138
255,173,88690,6,14,B|255:165,1,7.5
302,240,88877,6,0,P|372:220|398:186,2,90.0000034332277
238,242,89158,1,0,0:0:0:0:
183,207,89252,1,0,0:0:0:0:
191,144,89346,1,0,0:0:0:0:
219,73,89440,6,0,B|271:86|271:86|323:124,1,90.0000034332277
429,39,89815,6,4,L|393:133,1,90.0000034332277
286,136,90096,1,0,0:0:0:0:
259,161,90190,2,2,L|242:91,2,45.0000017166138
376,268,90565,2,2,L|422:264,2,45.0000017166138
246,270,90940,1,8,0:0:0:0:
145,197,91127,1,8,0:0:0:0:
73,288,91315,1,8,0:0:0:0:
80,300,91502,5,2,0:0:0:0:
133,190,91690,1,2,0:0:0:0:
211,57,91877,1,2,0:0:0:0:
420,53,92065,1,2,0:0:0:0:
438,48,92440,5,14,0:0:0:0:
435,40,92815,6,8,L|421:148,1,90.0000034332277
314,86,93190,2,8,L|242:162,1,90.0000034332277
137,237,93565,2,0,L|78:176,2,45.0000017166138
283,273,93940,1,6,0:0:0:0:
155,353,94127,1,0,0:0:0:0:
209,62,94315,1,4,0:0:0:0:
390,157,94502,1,0,0:0:0:0:
390,157,94690,5,10,0:0:0:0:
270,105,94877,1,10,0:0:0:0:
224,311,95065,1,10,0:0:0:0:
114,104,95252,1,10,0:0:0:0:
116,97,95440,5,0,0:0:0:0:
116,97,95627,5,8,0:0:0:0:
160,104,95721,1,0,0:0:0:0:
215,123,95815,1,8,0:0:0:0:
254,152,95908,1,0,0:0:0:0:
287,205,96002,2,2,L|353:250,1,45.0000017166138
406,309,96190,2,12,L|396:360,1,45.0000017166138
245,352,96377,6,6,P|209:326|183:320,1,45.0000017166138
162,229,96565,2,2,P|167:189|167:179,1,45.0000017166138
291,148,96752,1,8,0:0:0:0:
342,182,96846,1,0,0:0:0:0:
383,231,96940,1,12,0:0:0:0:
395,284,97033,1,0,0:0:0:0:
287,330,97127,6,2,L|234:332,1,45.0000017166138
135,261,97315,2,4,L|140:208,1,45.0000017166138
166,81,97502,1,0,0:0:0:0:
235,109,97596,1,8,0:0:0:0:
286,168,97690,1,0,0:0:0:0:
295,244,97783,1,4,0:0:0:0:
270,317,97877,1,0,0:0:0:0:
220,376,97971,1,14,0:0:0:0:
90,320,98065,6,2,L|34:328,2,45.0000017166138
185,258,98346,1,0,0:0:0:0:
223,211,98440,1,14,0:0:0:0:
255,167,98533,1,4,0:0:0:0:
277,117,98627,2,4,L|204:114,1,45.0000017166138
67,173,98815,2,4,L|73:227,1,45.0000017166138
192,278,99002,2,8,P|233:308|270:320,1,90.0000034332277
371,306,99283,1,0,0:0:0:0:
449,286,99377,5,0,0:0:0:0:
480,212,99471,1,0,0:0:0:0:
441,142,99565,1,0,0:0:0:0:
359,138,99658,1,0,0:0:0:0:
249,195,99752,6,14,L|190:198,1,45.0000017166138
155,292,99940,6,14,L|179:335,1,45.0000017166138
293,357,100127,6,2,L|394:314,1,90.0000034332277
469,162,100315,2,2,L|417:64,1,90.0000034332277
214,50,100502,2,2,P|139:111|88:112,1,90.0000034332277
189,327,100690,5,14,0:0:0:0:
486,232,100877,5,14,0:0:0:0:
259,58,101065,5,14,0:0:0:0:
40,202,101440,5,4,0:0:0:0:
40,202,101815,2,10,B|77:167|104:93|104:93|147:161,1,180.000006866455
157,219,102096,2,8,P|175:253|184:262,2,45.0000017166138
132,137,102377,1,4,0:0:0:0:
132,137,102565,2,2,P|189:91|210:79,1,90.0000034332277
265,53,102846,1,0,0:0:0:0:
344,61,102940,2,8,P|366:106|378:147,1,90.0000034332277
377,144,103315,2,12,L|281:166,1,90.0000034332277
289,164,103690,2,0,P|235:122|254:76,1,90.0000034332277
263,32,103971,2,0,L|231:-1,2,45.0000017166138
341,62,104252,1,0,0:0:0:0:
430,76,104440,6,0,P|467:153|497:156,1,90.0000034332277
315,338,104815,2,4,B|277:367|217:370,1,90.0000034332277
62,174,105190,2,8,P|37:138|31:122,2,45.0000017166138
172,347,105565,1,0,0:0:0:0:
256,190,105752,1,0,0:0:0:0:
423,139,105940,6,2,P|433:196|358:181,2,135.000005149841
351,118,106690,1,4,0:0:0:0:
306,125,106783,1,4,0:0:0:0:
291,167,106877,1,4,0:0:0:0:
446,239,107065,1,8,0:0:0:0:
446,239,107252,6,0,L|372:237,1,45.0000017166138
250,276,107440,2,0,B|200:303|200:303|277:207,2,180.000006866455
368,162,108002,2,0,L|367:95,1,45.0000017166138
267,78,108190,2,0,P|201:107|164:105,2,90.0000034332277
128,41,108752,2,0,L|107:100,1,45.0000017166138
91,154,108940,1,0,0:0:0:0:
73,321,109127,2,8,L|40:367,2,45.0000017166138
200,127,109502,2,12,L|221:222,1,90.0000034332277
270,319,109877,6,0,B|239:362|239:362|231:312,1,90.0000034332277
240,220,110158,2,0,L|268:163,2,45.0000017166138
192,305,110440,5,0,0:0:0:0:
452,188,110627,1,0,0:0:0:0:
313,26,110815,1,0,0:0:0:0:
70,279,111002,1,4,0:0:0:0:
213,144,111190,1,0,0:0:0:0:
337,258,111377,1,6,0:0:0:0:
279,227,111471,1,2,0:0:0:0:
220,195,111565,1,10,0:0:0:0:
257,50,111752,1,0,0:0:0:0:
257,50,111846,1,14,0:0:0:0:
257,50,111940,6,10,B|267:121|217:170|245:203|245:203|281:169|269:152,1,180.000006866455
306,126,112690,5,14,0:0:0:0:
250,356,112877,1,12,0:0:0:0:
102,34,113065,1,10,0:0:0:0:
107,53,113440,5,0,0:0:0:0:
106,50,113815,6,0,P|178:29|260:98,1,150
106,50,114190,6,0,B|168:49|191:9|191:9|209:77|260:75,1,180.000006866455
304,96,114471,1,0,0:0:0:0:
399,123,114565,2,0,P|400:166|375:217,1,60
319,248,114752,2,0,P|304:285|270:318,1,60
157,248,114940,6,0,P|196:217|186:261,1,120
157,248,115315,6,0,P|211:256|166:226,1,150
165,226,115690,6,0,B|219:191|219:191|250:241|210:282|210:282|128:282,1,240
22,211,116065,2,0,B|17:158|17:158|76:129,1,120
176,79,116252,2,0,B|228:120|228:120|291:91,1,120
365,38,116440,5,0,0:0:0:0:
465,127,116627,5,0,0:0:0:0:
415,237,116815,6,0,P|335:186|274:204,1,150
252,274,117096,1,0,0:0:0:0:
238,350,117190,2,0,P|304:352|322:351,1,60,0|0,3:0|3:0,3:0:0:0:
379,284,117377,2,0,P|410:245|424:202,1,60
323,124,117565,2,0,B|266:95|222:96,2,60
384,264,117940,6,0,P|322:316|246:250,1,180
217,198,118315,1,0,0:0:0:0:
327,58,118502,1,0,0:0:0:0:
393,247,118690,2,0,B|366:258|366:258|317:246,1,60
167,225,118877,2,0,B|150:256|150:256|167:324,1,60
314,325,119065,2,0,P|377:300|332:254,1,150
202,314,119440,5,0,0:0:0:0:
238,263,119627,5,0,0:0:0:0:
391,364,119815,6,0,P|347:352|313:324,1,90.0000034332277
189,182,120002,6,0,B|209:134|209:134|241:114,1,90.0000034332277
392,163,120190,6,0,B|365:206|379:273|379:273|334:195,1,150
287,150,120471,1,0,0:0:0:0:
256,108,120565,2,0,L|168:81,1,60
71,154,120752,2,0,L|73:232,1,60
237,308,120940,5,0,0:0:0:0:
361,167,121127,5,0,0:0:0:0:
203,70,121315,6,0,P|241:100|206:142,1,75
95,195,121502,6,0,B|62:221|62:221|60:261,1,75
281,205,121690,6,0,B|210:179|167:68|167:68|237:121,1,270.000010299683
371,156,122065,2,0,L|472:210,1,90.0000034332277
363,269,122252,2,0,L|285:346,1,90.0000034332277
208,257,122440,2,0,B|194:206|194:206|217:154,2,90.0000034332277
278,302,122721,1,0,0:0:0:0:
352,325,122815,6,0,B|396:354|406:349|406:349|425:265|386:237,1,180.000006866455
363,225,123096,1,0,0:0:0:0:
338,210,123190,1,0,0:0:0:0:
211,288,123377,1,0,0:0:0:0:
81,64,123565,2,2,L|95:165,1,90.0000034332277
304,251,123752,2,4,L|334:156,1,90.0000034332277
81,64,123940,6,8,B|67:106|67:106|59:151,1,90.0000034332277
304,251,124127,2,0,B|329:210|329:210|358:179,1,90.0000034332277
81,64,124315,2,8,L|29:138,1,90.0000034332277
304,251,124502,2,2,L|340:168,1,90.0000034332277
81,64,124690,6,10,P|156:42|198:101,1,135.000005149841,0|0,0:0|0:0,0:0:0:0:
105,163,125065,5,0,0:0:0:0:
81,64,125252,1,0,0:0:0:0:
255,188,125440,2,0,P|325:196|357:243,1,120
304,293,125721,1,0,0:0:0:0:
245,337,125815,2,0,B|169:340|169:340|142:305,1,120
127,272,126096,1,0,0:0:0:0:
118,259,126190,1,0,0:0:0:0:
140,50,126377,1,0,0:0:0:0:
275,227,126565,2,0,P|253:185|256:146,2,60
356,220,126846,1,0,0:0:0:0:
381,205,126940,6,0,B|319:243|319:243|231:210,1,120
218,166,127221,1,0,0:0:0:0:
184,112,127315,2,0,L|212:47,1,60
357,43,127502,2,0,L|425:69,1,60
469,104,127690,1,0,0:0:0:0:
469,104,127877,6,0,P|385:168|388:196,1,120
430,231,128158,1,0,0:0:0:0:
489,232,128252,2,0,L|408:230,1,60
357,226,128440,1,0,0:0:0:0:
357,226,128627,2,0,P|415:216|405:149,1,120
367,111,128908,1,0,0:0:0:0:
302,78,129002,2,0,L|206:66,1,60
175,66,129190,1,0,0:0:0:0:
155,191,129377,6,0,L|154:104,2,60
162,270,129658,1,0,0:0:0:0:
150,345,129752,2,0,L|226:344,1,60
400,343,129940,1,0,0:0:0:0:
273,181,130127,1,0,0:0:0:0:
33,348,130315,1,0,0:0:0:0:
274,263,130502,1,0,0:0:0:0:
274,263,130596,1,0,0:0:0:0:
266,259,130690,6,0,P|335:162|232:133,1,240
165,187,131252,1,0,0:0:0:0:
165,187,131440,6,0,B|51:271|51:271|94:277,2,180.000006866455
245,135,132565,1,0,0:0:0:0:
332,88,132940,5,0,0:0:0:0:
332,88,133127,1,0,0:0:0:0:
462,193,133315,1,0,0:0:0:0:
462,193,133502,1,0,0:0:0:0:
310,217,133690,1,0,0:0:0:0:
310,217,133783,1,0,0:0:0:0:
310,217,133877,2,0,L|223:208,1,45.0000017166138
225,87,134065,2,0,B|147:54|147:54|195:110|166:124,1,150
166,222,134440,6,0,P|231:265|272:258,1,90.0000034332277
328,152,134815,6,0,B|290:125|290:125|343:125|366:102|366:102|450:135,1,180.000006866455
451,219,135096,1,0,0:0:0:0:
357,248,135190,2,0,L|248:268,1,90.0000034332277
113,346,135377,2,0,L|97:240,1,90.0000034332277
57,101,135565,2,0,L|161:84,1,90.0000034332277
314,25,135752,2,0,L|344:130,1,90.0000034332277
208,355,135940,6,0,B|108:341|108:341|94:238|-3:182,1,240
46,219,136315,2,0,P|102:214|148:156,1,120
234,90,136502,2,0,P|280:47|358:63,1,120
453,205,136690,6,0,P|386:199|368:157,1,90.0000034332277
419,120,136971,1,0,0:0:0:0:
502,86,137065,2,0,L|417:120,1,90.0000034332277
252,192,137440,1,0,0:0:0:0:
283,300,137815,6,0,P|307:204|237:198,1,180.000006866455
172,296,138190,2,0,L|135:330,4,45.0000017166138
260,102,138565,2,0,L|257:30,4,45.0000017166138
300,320,138940,6,0,P|281:235|304:176,1,120
326,137,139127,2,0,B|352:136|352:136|272:221,1,120
228,302,139315,6,0,P|262:222|315:187,1,120,0|0,0:3|0:3,0:3:0:0:
362,168,139502,2,0,B|383:182|383:182|268:204,1,120,0|0,0:3|0:3,0:3:0:0:
207,305,139690,6,0,B|281:276|281:276|238:258,1,120
362,168,139877,2,0,B|294:205|294:205|312:160,1,120
211,171,140065,2,0,L|158:136,2,60
350,276,140440,1,0,0:0:0:0:
137,315,140815,6,0,B|149:258|149:258|210:256|195:200|195:200|156:225,1,180.000006866455
61,312,141190,6,0,P|117:342|133:342,2,60
44,237,141471,1,0,0:0:0:0:
81,170,141565,2,0,L|126:123,1,60
190,165,141752,1,0,0:0:0:0:
253,111,141846,1,0,0:0:0:0:
325,121,141940,2,0,L|329:246,1,120
177,339,142315,6,0,L|178:238,1,90.0000034332277
426,187,142502,2,0,L|425:282,1,90.0000034332277
290,333,142690,2,0,P|277:284|235:266,1,90.0000034332277
406,177,142877,2,0,P|429:238|456:260,1,90.0000034332277
271,325,143065,2,0,B|307:293|334:291|334:291|231:254,1,180.000006866455
167,133,143440,6,0,B|129:106|129:106|182:106|289:47|289:47|318:86,1,240
235,212,143815,1,0,0:0:0:0:
243,217,144002,2,0,L|387:270,1,120
501,257,144190,2,0,L|425:354,1,120
306,359,144377,2,0,P|231:336|184:339,1,120
86,282,144565,2,0,B|71:190|95:153,1,120
221,102,144752,2,0,P|279:134|338:183,1,120
344,274,144940,6,0,L|366:347,4,60
212,321,145315,2,0,P|144:315|96:294,1,120
282,249,145502,2,0,B|367:240|374:246|374:246|338:268,1,120
35,208,145690,2,0,P|99:289|130:192,1,240
253,77,146065,1,0,0:0:0:0:
120,189,146440,5,0,0:0:0:0:
177,243,147190,1,0,0:0:0:0:
173,225,147377,1,0,0:0:0:0:
142,60,147752,1,0,0:0:0:0:
459,185,147940,5,14,0:0:0:0:
357,94,148127,1,0,0:0:0:0:
483,60,148315,1,0,0:0:0:0:
456,202,148690,1,0,0:0:0:0:
398,302,149065,1,0,0:0:0:0:
217,340,149252,1,0,0:0:0:0:
275,203,149440,5,14,0:0:0:0:
361,81,150190,1,0,0:0:0:0:
361,81,150377,1,0,0:0:0:0:
81,160,150752,1,0,0:0:0:0:
390,64,150940,5,14,0:0:0:0:
227,74,151127,1,0,0:0:0:0:
254,186,151315,1,0,0:0:0:0:
274,214,151690,2,0,L|379:240,1,90.0000034332277
282,66,152065,1,0,0:0:0:0:
139,137,152252,1,0,0:0:0:0:
316,135,152440,6,0,P|377:168|391:191,2,90.0000034332277
101,221,153190,1,0,0:0:0:0:
271,247,153377,2,0,P|251:210|259:158,1,90.0000034332277
438,88,153752,1,0,0:0:0:0:
416,127,153846,1,0,0:0:0:0:
449,157,153940,6,0,P|442:197|421:251,1,90.0000034332277
219,174,154315,1,0,0:0:0:0:
215,178,154690,1,0,0:0:0:0:
189,152,155065,1,0,0:0:0:0:
84,84,155252,1,0,0:0:0:0:
361,149,155440,6,0,P|343:184|249:200,1,135
288,283,156002,6,0,P|300:247|271:155,1,135
148,157,156565,6,0,P|186:142|150:87,2,120
43,123,157502,2,0,L|28:131,2,15
132,62,157690,5,0,0:0:0:0:
305,126,158065,1,0,0:0:0:0:
309,255,158440,5,0,0:0:0:0:
169,128,158627,1,0,0:0:0:0:
214,88,158815,2,0,P|189:119|169:134,1,60
48,235,159190,1,0,0:0:0:0:
284,258,159377,2,0,L|285:296,2,30
442,166,159752,1,0,0:0:0:0:
377,345,159940,1,0,0:0:0:0:
377,345,160127,6,0,P|323:345|311:335,1,60
182,299,160502,1,0,0:0:0:0:
304,239,160690,1,0,0:0:0:0:
326,251,161065,1,0,0:0:0:0:
431,323,161440,5,0,0:0:0:0:
70,272,161627,1,0,0:0:0:0:
172,228,161815,2,0,L|171:162,1,60
54,255,162190,1,0,0:0:0:0:
252,327,162377,2,0,P|242:305|242:286,2,30
315,298,162752,2,0,L|338:309,4,15
432,338,163127,5,0,0:0:0:0:
349,240,163315,1,0,0:0:0:0:
243,286,163502,1,0,0:0:0:0:
208,179,163690,1,0,0:0:0:0:
207,179,164065,1,0,0:0:0:0:
430,262,164440,5,0,0:0:0:0:
169,128,164627,1,0,0:0:0:0:
295,58,164815,2,0,P|270:89|222:113,1,90.0000034332277
58,261,165190,1,0,0:0:0:0:
282,327,165377,2,0,B|330:288|330:288|303:267,1,90.0000034332277
442,166,165752,1,0,0:0:0:0:
377,345,165940,1,0,0:0:0:0:
384,174,166127,1,0,0:0:0:0:
267,294,166315,1,0,0:0:0:0:
248,118,166502,1,0,0:0:0:0:
34,175,166690,1,0,0:0:0:0:
36,177,167065,1,0,0:0:0:0:
101,108,167440,6,12,P|15:112|61:183,1,180.000006866455
149,196,167721,1,0,0:0:0:0:
249,224,167815,2,0,P|217:305|124:324,1,180.000006866455
103,195,168190,6,6,B|31:198|31:198|43:252|6:309,1,180.000006866455
148,321,168471,1,0,0:0:0:0:
221,258,168565,6,0,B|273:221|273:221|378:226,1,135.000005149841
187,101,168846,1,0,0:0:0:0:
130,133,168940,5,2,0:0:0:0:
421,195,169127,1,8,0:0:0:0:
81,209,169315,1,14,0:0:0:0:
402,127,169502,1,14,0:0:0:0:
147,313,169690,6,10,P|165:281|140:234,1,90.0000034332277
211,109,169877,2,6,P|243:99|277:141,1,90.0000034332277
331,226,170065,2,10,B|308:246|308:246|308:279|308:279|295:301,1,90.0000034332277
196,345,170252,2,12,B|187:323|187:323|160:340|160:340|152:312|152:312|135:311,1,90.0000034332277
88,238,170440,6,0,B|189:189|189:189|131:54,1,240
139,72,171002,6,0,B|204:155|204:155|259:-3,1,240
248,29,171565,6,0,B|278:101|171:125|281:218|282:268,1,240
449,322,172127,6,0,P|402:271|350:243,1,120
270,287,172315,2,0,P|223:321|156:326,1,120
38,312,172502,2,0,L|158:195,1,120
238,138,172690,2,0,L|379:65,1,120
461,161,172877,2,0,B|371:203|371:203|414:336,1,240
357,150,173440,6,0,P|250:98|130:35,1,240
142,41,174002,2,0,P|218:99|126:189,1,240
143,191,174565,2,0,P|251:228|191:325,1,240
100,360,175127,6,0,B|158:309|158:309|180:235,1,120
148,126,175315,2,0,B|208:93|208:93|202:144,1,120
296,312,175502,2,0,P|368:271|360:224,1,120
361,112,175690,2,0,P|459:19|470:113,1,300
425,177,176065,6,0,L|438:238,2,60
315,75,176440,6,0,L|75:78,1,240
251,256,177002,6,0,P|324:344|435:318,1,240
95,289,177565,6,0,B|95:250|205:157|98:133|128:61,1,240
438,90,178127,6,0,P|392:156|339:169,1,120
255,134,178315,2,0,P|213:89|155:96,1,120
54,153,178502,2,0,L|165:199,1,120
204,307,178690,2,0,L|307:231,1,120
393,269,178877,2,4,B|302:233|302:233|313:96|329:58|398:67|398:67|412:41,1,300
442,73,179440,6,0,P|349:146|240:226,1,240
58,48,180002,2,0,P|132:116|178:191,1,180.000006866455
401,310,180565,2,0,P|331:308|346:218,1,180.000006866455
256,192,181127,12,0,183377,0:0:0:0:
256,192,189940,12,0,191065,0:0:0:0:
290,121,191440,6,8,B|267:98|260:91|245:76|193:78|139:119,1,120
91,144,191815,6,0,B|140:126|140:125|139:126|139:126|203:179|273:182,1,180.000006866455
287,116,192190,6,12,B|223:128|223:128|111:237|111:237|159:236|159:236|189:209,1,300
275,220,192471,1,0,0:0:0:0:
356,227,192565,2,0,L|335:173,1,45.0000017166138
249,45,192752,2,0,L|197:57,1,45.0000017166138
172,130,192940,6,8,L|149:153|142:160|127:175|83:274,1,90.0000034332277,0|0,0:0|0:0,0:0:0:0:
115,270,193315,6,8,B|111:254|110:250|108:239|115:203|115:203|41:183|41:183|38:105,1,180.000006866455
88,60,193690,6,6,B|198:59|109:208|109:208|235:98,1,360.000013732911
250,252,194065,1,4,0:0:0:0:
392,153,194252,1,0,0:0:0:0:
461,274,194440,6,2,P|429:313|399:320,2,60
399,205,194815,1,8,0:0:0:0:
338,172,194908,1,0,0:0:0:0:
267,192,195002,2,2,P|304:164|341:168,1,60
368,233,195190,5,4,0:0:0:0:
217,163,195377,1,4,0:0:0:0:
455,264,195565,2,6,L|505:293,2,30
386,225,195752,2,4,P|326:197|289:205,1,60
264,160,195940,6,0,P|215:206|193:272,1,120
283,286,196221,1,2,0:0:0:0:
305,306,196315,2,0,P|355:249|352:188,1,120
273,138,196596,1,2,0:0:0:0:
243,111,196690,2,4,L|165:66,1,60
141,183,196877,2,0,L|147:255,1,60
317,253,197065,2,12,B|380:304|380:304|321:307,1,120
156,281,197440,5,0,0:0:0:0:
208,61,197627,5,0,0:0:0:0:
317,253,197815,6,0,P|298:306|314:368,1,90.0000034332277
450,196,198002,6,0,B|469:147|469:147|454:81,1,90.0000034332277
241,106,198190,6,0,B|191:112|131:66|131:66|188:145,1,180.000006866455
209,195,198471,1,0,0:0:0:0:
351,276,198565,2,0,P|306:279|252:234,1,90.0000034332277
126,353,198752,2,0,B|172:340|172:340|209:310,1,90.0000034332277
269,247,198940,5,0,0:0:0:0:
164,124,199127,5,0,0:0:0:0:
272,33,199315,6,0,P|310:63|275:105,1,75
151,146,199502,6,0,B|149:187|149:187|179:215,1,75
379,142,199690,6,0,B|386:217|301:301|301:301|320:215,1,270.000010299683,0|0,3:0|3:0,3:0:0:0:
227,215,200065,2,0,L|101:206,1,90.0000034332277
42,99,200252,2,0,L|158:74,1,90.0000034332277
297,138,200440,2,0,B|283:87|283:87|306:35,2,90.0000034332277
360,192,200721,1,0,0:0:0:0:
406,218,200815,6,0,B|451:189|451:178|451:178|366:178|323:124,1,180.000006866455
333,134,201096,1,0,0:0:0:0:
340,136,201190,1,0,0:0:0:0:
467,85,201377,1,0,0:0:0:0:
452,173,201565,2,2,L|472:47,1,90.0000034332277
344,219,201752,2,4,L|284:298,1,90.0000034332277
256,140,201940,6,8,B|282:102|282:102|283:24,1,90.0000034332277
149,238,202127,2,0,B|134:286|134:286|76:333,1,90.0000034332277
135,105,202315,2,8,L|186:30,1,90.0000034332277
36,219,202502,2,2,L|0:301,1,90.0000034332277
164,173,202690,5,0,0:0:0:0:
175,188,202783,1,0,0:0:0:0:
160,204,202877,5,0,0:0:0:0:
149,213,202971,5,0,0:0:0:0:
118,234,203065,6,0,P|59:156|125:117,1,180.000006866455
253,188,203440,1,0,0:0:0:0:
175,77,203627,2,2,P|235:28|322:70,1,180.000006866455
430,151,203908,1,0,0:0:0:0:
421,192,204002,2,4,P|346:169|277:241,1,180.000006866455
358,258,204377,1,8,0:0:0:0:
396,276,204565,1,4,0:0:0:0:
471,146,204752,2,2,P|433:108|373:113,2,90.0000034332277
415,224,205127,5,0,0:0:0:0:
304,252,205315,2,2,P|218:197|210:187,1,90.0000034332277
127,176,205502,2,8,P|92:132|95:75,1,90.0000034332277
151,51,205690,1,14,0:0:0:0:
322,260,205877,6,0,P|322:357|245:349,1,180.000006866455
144,259,206252,1,0,0:0:0:0:
171,131,206440,2,2,P|231:82|318:124,1,180.000006866455
356,179,206721,1,0,0:0:0:0:
421,192,206815,2,4,P|346:169|277:241,1,180.000006866455
358,258,207190,1,8,0:0:0:0:
289,315,207377,1,4,0:0:0:0:
223,229,207565,2,2,P|171:241|143:294,2,90.0000034332277
279,321,207940,5,0,0:0:0:0:
207,274,208127,2,2,P|238:171|228:111,1,90.0000034332277
214,59,208315,2,8,P|167:98|159:149,1,90.0000034332277
143,249,208502,1,14,0:0:0:0:
143,249,208690,5,0,0:0:0:0:
319,125,208877,1,0,0:0:0:0:
423,314,209065,2,0,L|300:272,1,120
407,163,209440,5,0,0:0:0:0:
431,64,209627,1,0,0:0:0:0:
257,188,209815,2,0,P|187:196|155:243,1,120
208,293,210096,1,0,0:0:0:0:
267,337,210190,2,0,B|342:340|342:340|369:305,1,120
369,305,210471,1,0,0:0:0:0:
385,294,210565,1,0,0:0:0:0:
361,97,210752,1,0,0:0:0:0:
237,227,210940,2,0,P|259:185|256:146,2,60
156,220,211221,1,0,0:0:0:0:
131,205,211315,6,0,B|192:243|192:243|280:210,1,120
294,166,211596,1,0,0:0:0:0:
328,112,211690,2,0,L|300:47,1,60
155,43,211877,2,0,L|87:69,1,60
43,104,212065,1,0,0:0:0:0:
43,104,212252,6,0,P|127:168|124:196,1,120
82,231,212533,1,0,0:0:0:0:
23,232,212627,2,0,L|104:230,1,60
155,226,212815,1,0,0:0:0:0:
155,226,213002,2,0,P|97:216|107:149,1,120
145,111,213283,1,0,0:0:0:0:
210,78,213377,2,0,L|306:66,1,60
337,66,213565,1,0,0:0:0:0:
337,66,213752,2,0,L|347:137,1,60
181,330,213940,2,0,L|172:255,1,60
256,192,214127,12,0,215440,0:0:0:0:
117,76,215815,6,0,B|166:108|213:58|258:72,1,135.000005149841
321,94,216190,2,0,P|358:132|334:208,1,135.000005149841
251,217,216565,2,0,B|226:175|226:174|161:187,1,90.0000034332277
48,189,216940,6,0,B|97:221|144:171|189:185,1,135.000005149841
233,106,217315,2,0,P|270:144|246:220,1,135.000005149841
109,266,217690,2,0,B|84:224|84:223|19:236,1,90.0000034332277
232,312,218065,2,0,P|260:342|315:339,1,90.0000034332277
414,296,218440,6,0,B|386:244|321:265|288:231,1,135.000005149841
254,106,218815,2,0,P|204:167|231:218,1,135.000005149841
218,296,219190,2,0,B|265:286|265:287|290:329,1,90.0000034332277
124,320,219565,6,0,B|112:246|139:191|139:191,1,135.000005149841
233,106,219940,2,0,P|270:144|246:220,1,135.000005149841
169,182,220315,2,0,B|128:209|127:209|145:273,1,90.0000034332277
273,330,220690,2,0,P|315:348|357:325,1,90.0000034332277
364,263,221065,6,0,L|424:262,2,45.0000017166138
188,305,221440,5,10,0:0:0:0:
303,105,221627,1,2,0:0:0:0:
324,348,221815,5,6,0:0:0:0:
213,26,222002,1,2,0:0:0:0:
147,338,222190,5,10,0:0:0:0:
413,33,222377,1,2,0:0:0:0:
341,382,222565,5,6,0:0:0:0:
178,13,222752,1,2,0:0:0:0:
178,371,222940,5,10,0:0:0:0:
341,2,223127,1,2,0:0:0:0:
413,351,223315,5,6,0:0:0:0:
147,46,223502,1,6,0:0:0:0:
213,358,223690,5,14,0:0:0:0:
267,20,223877,1,10,0:0:0:0:
303,279,224065,5,14,0:0:0:0:
188,79,224252,1,14,0:0:0:0:
275,191,224440,6,8,B|303:153|303:153|301:206|323:230|323:230|287:313,1,180.000006866455
239,329,224721,1,2,0:0:0:0:
179,366,224815,2,4,L|162:256,1,90.0000034332277
87,180,225002,2,0,L|193:167,1,90.0000034332277
274,99,225190,2,8,L|287:203,1,90.0000034332277
351,251,225377,2,0,L|245:277,1,90.0000034332277
108,336,225565,6,12,B|79:268|79:268|143:249|132:170,1,180.000006866455
111,112,225846,1,2,0:0:0:0:
90,59,225940,2,8,P|156:67|188:111,1,90.0000034332277
271,158,226127,2,8,P|242:214|181:230,1,90.0000034332277
55,186,226315,5,14,0:0:0:0:
271,32,226502,5,14,0:0:0:0:
436,305,226690,6,14,B|359:384|317:216|317:216|306:383,1,360.000013732911
306,378,227065,5,0,0:0:0:0:
84,324,227440,6,14,P|98:294|137:271,2,78,6|6|6,0:0|0:0|0:0,0:0:0:0:
164,345,230065,5,8,0:0:0:0:
