osu file format v14

[General]
AudioFilename: audio.mp3
AudioLeadIn: 0
PreviewTime: 115231
Countdown: 0
SampleSet: Soft
StackLeniency: 0.7
Mode: 0
LetterboxInBreaks: 0
WidescreenStoryboard: 1

[Editor]
Bookmarks: 12653,25153,35153,45153,55153,65153,75153,85309,95309,105309,115153,127653,137653,147653,157653,160153,167809
DistanceSpacing: 0.5
BeatDivisor: 4
GridSize: 16
TimelineZoom: 2.599999

[Metadata]
Title:Raspberry*Monster
TitleUnicode:ラズベリー*モンスター
Artist:Reol
ArtistUnicode:れをる
Creator:Fendi_ofc
Version:Collab Insane
Source:
Tags:j-rock jrock rock japanese female vocals vocalist mrforse nemidnight nemi baack Kudou Chitose
BeatmapID:3712746
BeatmapSetID:1801145

[Difficulty]
HPDrainRate:4.8
CircleSize:3.8
OverallDifficulty:7
ApproachRate:9
SliderMultiplier:1.6
SliderTickRate:1

[Events]
//Background and Video events
0,0,"71894681_p0.jpg",0,0
//Break Periods
//Storyboard Layer 0 (Background)
//Storyboard Layer 1 (Fail)
//Storyboard Layer 2 (Pass)
//Storyboard Layer 3 (Foreground)
//Storyboard Layer 4 (Overlay)
//Storyboard Sound Samples

[TimingPoints]
309,312.5,4,2,0,60,1,0
309,-100,4,2,1,40,0,0
2496,-142.857142857143,4,2,1,40,0,0
2809,-142.857142857143,4,2,1,60,0,0
6246,-250,4,2,1,60,0,0
6481,-250,4,2,1,5,0,0
6559,-125,4,2,1,60,0,0
6715,-125,4,2,1,65,0,0
6949,-125,4,2,1,5,0,0
7028,-125,4,2,1,65,0,0
7653,-125,4,2,1,65,0,0
7809,-125,4,2,1,60,0,0
7965,-166.666666666667,4,2,1,60,0,0
8746,-125,4,2,1,60,0,0
9215,-166.666666666667,4,2,1,60,0,0
9996,-125,4,2,1,60,0,0
10465,-166.666666666667,4,2,1,60,0,0
11246,-125,4,2,1,60,0,0
11715,-166.666666666667,4,2,1,65,0,0
11949,-166.666666666667,4,2,1,5,0,0
12028,-111.111111111111,4,2,1,65,0,0
12653,-111.111111111111,4,2,1,75,0,0
21559,-90.9090909090908,4,2,1,75,0,0
21715,-90.9090909090908,4,2,1,5,0,0
21793,-100,4,2,1,75,0,0
21949,-100,4,2,1,5,0,0
22028,-111.111111111111,4,2,1,75,0,0
22184,-111.111111111111,4,2,1,5,0,0
22340,-111.111111111111,4,2,1,75,0,0
22809,-111.111111111111,4,2,1,70,0,0
24684,-125,4,2,1,70,0,0
25074,-125,4,2,1,70,0,0
25153,-125,4,2,1,65,0,0
30152,-125,4,2,1,70,0,0
30621,-111.111111111111,4,2,1,70,0,0
34371,-99.9999999999999,4,2,1,70,0,0
35153,-125,4,2,1,65,0,0
40153,-111.111111111111,4,2,1,68,0,0
42652,-111.111111111111,4,2,1,71,0,0
43902,-111.111111111111,4,2,1,74,0,0
45309,-142.857142857143,4,2,1,60,0,0
49684,-125,4,2,1,60,0,0
49918,-125,4,2,1,5,0,0
49996,-125,4,2,1,60,0,0
50309,-142.857142857143,4,2,1,60,0,0
52809,-83.3333333333333,4,2,1,65,0,0
52965,-83.3333333333333,4,2,1,5,0,0
53043,-125,4,2,1,65,0,0
53199,-125,4,2,1,5,0,0
53278,-250,4,2,1,65,0,0
53512,-250,4,2,1,5,0,0
53590,-250,4,2,1,65,0,0
53746,-250,4,2,1,65,0,0
54606,-250,4,2,1,5,0,0
54684,-125,4,2,1,65,0,0
55152,-90.9090909090909,4,2,1,70,0,1
65152,-90.9090909090909,4,2,1,75,0,1
74059,-166.666666666667,4,2,1,75,0,0
74528,-125,4,2,1,75,0,0
75153,-111.111111111111,4,2,1,70,0,0
84059,-90.9090909090908,4,2,1,70,0,0
84215,-90.9090909090908,4,2,1,5,0,0
84293,-100,4,2,1,70,0,0
84449,-100,4,2,1,5,0,0
84528,-111.111111111111,4,2,1,70,0,0
84684,-111.111111111111,4,2,1,5,0,0
84840,-111.111111111111,4,2,1,70,0,0
85309,-166.666666666666,4,2,1,50,0,0
86871,-166.666666666666,4,2,1,75,0,0
87496,-166.666666666666,4,2,1,40,0,0
87809,-166.666666666666,4,2,1,50,0,0
89371,-166.666666666666,4,2,1,75,0,0
89996,-166.666666666666,4,2,1,50,0,0
90934,-166.666666666666,4,2,1,40,0,0
91246,-166.666666666666,4,2,1,50,0,0
91871,-166.666666666666,4,2,1,75,0,0
92496,-166.666666666666,4,2,1,50,0,0
94371,-166.666666666666,4,2,1,75,0,0
94840,-166.666666666666,4,2,1,50,0,0
95309,-142.857142857142,4,2,1,50,0,0
96871,-142.857142857142,4,2,1,75,0,0
97496,-142.857142857142,4,2,1,50,0,0
99371,-142.857142857142,4,2,1,75,0,0
99996,-142.857142857142,4,2,1,50,0,0
100153,-125,4,2,1,50,0,0
101246,-142.857142857143,4,2,1,50,0,0
101481,-142.857142857143,4,2,1,5,0,0
101559,-125,4,2,1,50,0,0
101871,-125,4,2,1,75,0,0
102496,-142.857142857143,4,2,1,75,0,0
102731,-142.857142857143,4,2,1,5,0,0
102809,-117.647058823529,4,2,1,75,0,0
102965,-117.647058823529,4,2,1,40,0,0
104059,-117.647058823529,4,2,1,60,0,0
104684,-117.647058823529,4,2,1,75,0,0
105309,-250,4,2,1,70,0,0
105699,-250,4,2,1,5,0,0
105778,-111.111111111111,4,2,1,70,0,0
106168,-111.111111111111,4,2,1,5,0,0
106246,-142.857142857143,4,2,1,70,0,0
106637,-142.857142857143,4,2,1,5,0,0
106715,-142.857142857143,4,2,1,70,0,0
107809,-250,4,2,1,70,0,0
108199,-250,4,2,1,5,0,0
108278,-142.857142857143,4,2,1,70,0,0
108668,-142.857142857143,4,2,1,5,0,0
108746,-111.111111111111,4,2,1,70,0,0
109137,-111.111111111111,4,2,1,5,0,0
109215,-83.3333333333333,4,2,1,70,0,0
109684,-125,4,2,1,70,0,0
110309,-250,4,2,1,70,0,0
110699,-250,4,2,1,5,0,0
110778,-111.111111111111,4,2,1,70,0,0
111168,-111.111111111111,4,2,1,5,0,0
111246,-142.857142857143,4,2,1,70,0,0
111637,-142.857142857143,4,2,1,5,0,0
111715,-83.3333333333333,4,2,1,70,0,0
112184,-125,4,2,1,70,0,0
112809,-250,4,2,1,70,0,0
113199,-250,4,2,1,5,0,0
113278,-111.111111111111,4,2,1,70,0,0
113668,-111.111111111111,4,2,1,5,0,0
113746,-142.857142857143,4,2,1,70,0,0
113981,-142.857142857143,4,2,1,5,0,0
114059,-83.3333333333333,4,2,1,70,0,0
114684,-125,4,2,1,70,0,0
115309,-142.857142857143,4,2,1,70,0,0
120309,-125,4,2,1,70,0,0
120387,-125,4,2,1,35,0,0
121559,-125,4,2,1,40,0,0
122184,-125,4,2,1,50,0,0
122496,-125,4,2,1,60,0,0
122809,-333.333333333333,4,2,1,60,0,0
127652,-90.9090909090909,4,2,1,75,0,1
137652,-90.9090909090909,4,2,1,80,0,1
145309,-90.9090909090909,4,2,1,80,0,0
147652,-83.3333333333333,4,2,1,85,0,1
147887,-83.3333333333333,4,2,1,5,0,1
147965,-83.3333333333333,4,2,1,85,0,1
149137,-83.3333333333333,4,2,1,5,0,1
149215,-83.3333333333333,4,2,1,85,0,1
150387,-83.3333333333333,4,2,1,5,0,1
150465,-83.3333333333333,4,2,1,85,0,1
151637,-83.3333333333333,4,2,1,5,0,1
151715,-83.3333333333333,4,2,1,85,0,1
152887,-83.3333333333333,4,2,1,5,0,1
152965,-83.3333333333333,4,2,1,85,0,1
154137,-83.3333333333333,4,2,1,5,0,1
154215,-83.3333333333333,4,2,1,85,0,1
155152,-166.666666666667,4,2,1,85,0,0
156324,-166.666666666667,4,2,1,5,0,0
156403,-250.000000000001,4,2,1,85,0,0
157574,-250.000000000001,4,2,1,5,0,0
157653,-111.111111111111,4,2,1,75,0,0
166559,-90.909090909091,4,2,1,75,0,0
166715,-90.909090909091,4,2,1,5,0,0
166793,-100,4,2,1,75,0,0
166949,-100,4,2,1,5,0,0
167028,-111.111111111111,4,2,1,75,0,0
167184,-111.111111111111,4,2,1,5,0,0
167340,-111.111111111111,4,2,1,75,0,0
167809,-250,4,2,1,75,0,0
171012,-250,4,2,1,5,0,0

[Colours]
Combo1 : 102,255,102
Combo2 : 234,2,106

[HitObjects]
74,27,309,5,2,0:3:0:0:
74,27,934,5,2,0:3:0:0:
74,27,1559,5,2,0:3:0:0:
74,27,1871,5,2,0:3:0:0:
74,27,2184,5,2,0:3:0:0:
74,27,2496,6,0,L|78:54,1,27.9999991455078,2|0,0:2|0:0,0:0:0:0:
136,130,2653,5,2,3:2:0:0:
119,134,2809,2,0,L|63:142,1,55.9999982910157,2|0,3:2|3:0,0:0:0:0:
5,222,3121,1,0,0:0:0:0:
24,227,3277,2,0,L|79:235,1,55.9999982910157
165,303,3590,2,0,L|173:247,1,55.9999982910157
257,171,3903,6,0,L|252:143,2,27.9999991455078,2|0|2,3:2|0:0|3:2,0:0:0:0:
278,194,4215,2,0,L|259:83,1,111.999996582031,2|0,3:2|0:0,0:0:0:0:
326,0,4684,2,0,P|379:2|408:47,1,111.999996582031
477,136,5153,5,2,3:2:0:0:
457,139,5309,2,0,L|401:147,1,55.9999982910157,2|2,3:2|3:2,0:0:0:0:
342,228,5621,1,0,0:0:0:0:
362,232,5777,2,0,L|417:240,1,55.9999982910157
510,251,6090,1,0,0:0:0:0:
454,337,6246,2,0,B|449:361|449:361|434:339,1,48
433,261,6559,1,2,3:2:0:0:
298,366,6715,6,0,B|264:362|264:362|245:334|245:334|208:328,1,96,14|0,0:0|0:0,0:0:0:0:
179,321,7028,1,0,3:0:0:0:
318,285,7184,1,8,0:3:0:0:
148,237,7340,1,4,0:3:0:0:
148,237,7653,6,0,L|153:205,1,32,6|0,3:2|0:0,0:0:0:0:
212,127,7809,1,2,3:2:0:0:
227,120,7965,2,0,B|274:98|331:130|301:144|347:186|413:158,1,191.999994140625,2|0,3:2|0:0,0:0:0:0:
403,161,8746,6,0,P|389:168|374:185,1,32
339,249,8903,1,2,3:2:0:0:
255,207,9059,1,2,3:2:0:0:
240,200,9215,2,0,B|193:178|136:210|166:224|120:266|54:238,1,191.999994140625,2|0,3:2|0:0,0:0:0:0:
64,241,9996,6,0,P|78:248|93:265,1,32
128,329,10153,1,2,3:2:0:0:
212,287,10309,1,2,3:2:0:0:
227,280,10465,2,0,B|274:258|331:290|301:304|347:346|413:318,1,191.999994140625,2|0,3:2|0:0,0:0:0:0:
471,279,11246,2,0,L|476:247,1,32
429,180,11403,1,2,3:2:0:0:
417,166,11559,1,2,3:2:0:0:
496,37,11715,6,0,P|502:7|481:25,1,71.9999978027344,14|0,0:0|0:0,0:0:0:0:
436,91,12028,6,0,L|410:116,1,35.9999989013672,0|0,3:0|0:0,0:0:0:0:
347,191,12184,1,10,0:0:0:0:
242,44,12340,1,8,0:0:0:0:
242,44,12653,6,0,B|276:92|276:92|246:189,1,143.999995605469,6|0,3:2|3:0,0:0:0:0:
63,151,13121,2,0,B|93:132|93:132|128:142,1,71.9999978027344,10|0,3:2|3:0,0:0:0:0:
145,255,13434,2,0,B|114:273|114:273|79:263,1,71.9999978027344,2|0,3:2|3:0,0:0:0:0:
342,203,13746,6,0,B|312:183|312:183|277:194,1,71.9999978027344,10|0,3:2|3:0,0:0:0:0:
258,305,14059,2,0,B|289:323|289:323|324:312,1,71.9999978027344,2|0,3:2|3:0,0:0:0:0:
440,181,14371,2,0,L|428:252,1,71.9999978027344,10|0,3:2|3:0,0:0:0:0:
477,368,14684,1,2,3:2:0:0:
354,301,14840,2,0,L|365:372,1,71.9999978027344,2|8,3:2|3:2,0:0:0:0:
420,155,15153,6,0,B|387:130|346:155|346:155|329:189|289:195,1,143.999995605469,6|0,3:2|3:0,0:0:0:0:
256,42,15621,2,0,B|275:72|275:72|265:107,1,71.9999978027344,10|0,3:2|3:0,0:0:0:0:
152,124,15934,2,0,B|134:93|134:93|144:58,1,71.9999978027344,2|0,3:2|3:0,0:0:0:0:
199,215,16246,6,0,L|187:286,1,71.9999978027344,10|0,3:2|3:0,0:0:0:0:
329,362,16559,1,6,3:2:0:0:
285,228,16715,1,0,3:0:0:0:
167,379,16871,1,10,3:2:0:0:
110,230,17028,1,0,3:0:0:0:
27,316,17184,1,6,3:2:0:0:
36,315,17262,1,0,3:0:0:0:
45,314,17340,2,0,L|80:308,1,35.9999989013672,0|0,3:0|3:0,0:0:0:0:
172,291,17496,1,8,3:2:0:0:
179,95,17653,6,0,B|211:76|211:76|193:190,1,143.999995605469,6|0,3:2|3:0,0:0:0:0:
32,111,18121,2,0,B|66:102|66:102|96:122,1,71.9999978027344,10|0,3:2|3:0,0:0:0:0:
76,234,18434,2,0,B|40:241|40:241|10:221,1,71.9999978027344,2|0,3:2|3:0,0:0:0:0:
318,235,18746,6,0,B|283:226|283:226|253:246,1,71.9999978027344,10|0,3:2|3:0,0:0:0:0:
274,358,19059,2,0,B|309:365|309:365|339:345,1,71.9999978027344,2|0,3:2|3:0,0:0:0:0:
479,259,19371,2,0,L|407:247,1,71.9999978027344,10|0,3:2|3:0,0:0:0:0:
318,143,19684,1,2,3:2:0:0:
396,35,19840,2,0,L|324:46,1,71.9999978027344,2|8,3:2|3:2,0:0:0:0:
88,134,20153,6,0,B|139:142|139:142|176:119|176:119|232:128,1,143.999995605469,6|0,3:2|3:0,0:0:0:0:
186,285,20621,2,0,B|177:250|177:250|197:220,1,71.9999978027344,10|0,3:2|3:0,0:0:0:0:
310,239,20934,2,0,B|317:274|317:274|297:304,1,71.9999978027344,2|0,3:2|3:0,0:0:0:0:
115,364,21246,6,0,L|79:369,3,35.9999989013672,10|0|0|0,3:2|3:0|3:0|3:0,0:0:0:0:
146,354,21559,6,0,P|179:326|185:284,1,88.000002685547,2|0,3:0|0:0,0:0:0:0:
207,262,21793,6,0,P|187:227|152:209,1,80,2|0,3:0|0:0,0:0:0:0:
150,177,22028,6,0,P|114:178|83:195,1,71.9999978027344,8|0,3:2|0:0,0:0:0:0:
50,289,22340,5,0,3:0:0:0:
3,169,22496,1,8,3:0:0:0:
22,141,22653,1,8,3:0:0:0:
145,93,22809,6,0,L|109:98,3,35.9999989013672,0|0|0|0,3:0|0:0|0:0|0:0,0:0:0:0:
192,20,23121,2,0,L|156:14,3,35.9999989013672,0|0|0|0,3:0|0:0|0:0|0:0,0:0:0:0:
265,58,23434,2,0,L|300:52,3,35.9999989013672,0|0|0|0,3:0|0:0|0:0|0:0,0:0:0:0:
221,131,23746,2,0,L|256:136,3,35.9999989013672,0|0|0|0,3:0|0:0|0:0|0:0,0:0:0:0:
150,177,24059,6,0,L|161:248,1,71.9999978027344,2|0,3:2|0:0,0:0:0:0:
268,300,24371,2,0,L|279:228,1,71.9999978027344,2|2,3:2|0:0,0:0:0:0:
378,121,24684,2,0,B|389:192|389:192|400:198|400:198|413:278,1,160,2|0,3:2|3:0,0:0:0:0:
480,335,25153,6,0,B|444:345|426:376|426:376|407:352|375:352,1,128,6|2,3:2|3:2,0:0:0:0:
332,371,25543,1,0,3:2:0:0:
333,362,25621,2,0,P|334:330|322:300,1,64,10|2,0:0|3:2,0:0:0:0:
256,241,25934,1,2,3:2:0:0:
268,223,26090,1,2,0:0:0:0:
415,207,26246,2,0,P|384:219|352:218,1,64,8|2,0:0|0:0,0:0:0:0:
288,132,26559,5,2,0:0:0:0:
292,112,26715,2,0,L|302:48,1,64,2|8,0:0|0:0,0:0:0:0:
429,0,27028,2,0,P|486:33|487:108,1,128,2|0,0:0|0:0,0:0:0:0:
440,188,27496,1,8,0:0:0:0:
292,112,27653,6,0,B|260:113|244:137|244:137|195:140|180:102,1,128,6|2,3:2|3:2,0:0:0:0:
153,63,28043,1,0,3:0:0:0:
158,71,28121,2,0,P|168:101|166:132,1,64,10|2,0:0|3:2,0:0:0:0:
27,151,28434,2,0,P|47:127|76:112,1,64,2|0,3:2|0:0,0:0:0:0:
162,225,28746,2,0,P|130:218|104:201,1,64,10|0,0:0|0:0,0:0:0:0:
10,319,29059,2,0,P|36:301|67:295,1,64,2|0,0:0|0:0,0:0:0:0:
146,347,29371,1,10,0:0:0:0:
245,212,29528,5,2,3:2:0:0:
218,285,29684,5,8,3:0:0:0:
257,339,29840,5,4,3:0:0:0:
286,354,29996,5,4,3:0:0:0:
302,357,30153,6,0,B|352:349|352:349|373:323|373:323|426:315,1,128,6|0,3:2|3:0,0:0:0:0:
454,314,30543,1,0,3:0:0:0:
456,305,30621,2,0,B|466:269|466:269|446:240,1,71.9999978027344,10|0,0:0|0:0,0:0:0:0:
312,149,30934,5,10,0:0:0:0:
372,290,31090,1,2,0:0:0:0:
433,126,31246,1,10,0:0:0:0:
276,242,31403,6,0,B|192:272|192:272|140:231,1,143.999995605469,6|0,3:2|3:0,0:0:0:0:
120,216,31793,1,0,3:0:0:0:
122,206,31871,2,0,L|133:134,1,71.9999978027344,10|2,0:0|0:0,0:0:0:0:
277,53,32184,5,10,0:0:0:0:
212,177,32340,1,2,0:0:0:0:
155,22,32496,1,10,0:0:0:0:
297,140,32653,6,0,B|339:160|383:139|355:123|401:95|450:123,1,143.999995605469,4|2,3:2|3:2,0:0:0:0:
461,131,33043,1,0,3:0:0:0:
467,138,33121,2,0,P|481:170|477:205,1,71.9999978027344,8|2,0:0|0:0,0:0:0:0:
343,354,33434,5,8,0:0:0:0:
389,214,33590,1,2,0:0:0:0:
478,369,33746,1,10,0:0:0:0:
300,262,33903,6,0,B|234:251|234:251|229:255|229:255|159:244,1,143.999995605469,2|0,3:2|3:0,0:0:0:0:
121,238,34293,1,0,3:0:0:0:
118,229,34371,2,0,B|106:189|106:189|128:157,1,80,10|2,0:0|0:0,0:0:0:0:
224,36,34684,6,0,L|184:42,1,40,8|0,3:0|3:0,0:0:0:0:
36,64,34840,1,8,3:0:0:0:
45,67,34918,1,4,3:0:0:0:
54,69,34996,2,0,L|113:78,1,40,4|0,3:0|0:0,0:0:0:0:
150,136,35153,6,0,B|182:137|198:161|198:161|247:164|262:126,1,128,6|2,3:2|3:2,0:0:0:0:
284,96,35543,1,0,3:0:0:0:
289,104,35621,2,0,P|304:132|329:152,1,64,10|2,0:0|3:2,0:0:0:0:
450,92,35934,1,2,3:2:0:0:
455,68,36090,1,2,0:0:0:0:
378,11,36246,2,0,L|367:74,1,64,10|0,0:0|0:0,0:0:0:0:
394,233,36559,5,2,0:0:0:0:
397,249,36715,2,0,L|407:313,1,64,2|10,0:0|0:0,0:0:0:0:
313,217,37028,2,0,P|346:160|421:158,1,128,2|0,0:0|0:0,0:0:0:0:
475,200,37496,1,8,0:0:0:0:
412,342,37653,6,0,B|372:352|339:331|353:316|316:304|288:308,1,128,6|0,3:2|3:0,0:0:0:0:
265,337,38043,1,0,3:0:0:0:
263,328,38121,2,0,P|256:297|239:271,1,64,10|2,0:0|3:2,0:0:0:0:
88,285,38434,2,0,P|119:287|150:277,1,64,2|0,3:2|0:0,0:0:0:0:
209,138,38746,2,0,P|191:165|184:195,1,64,10|2,0:0|0:0,0:0:0:0:
88,285,39059,2,0,L|78:221,1,64,2|0,0:0|0:0,0:0:0:0:
109,132,39371,1,10,0:0:0:0:
181,229,39528,5,2,3:2:0:0:
281,240,39684,5,8,3:0:0:0:
331,178,39840,5,4,3:0:0:0:
339,147,39996,5,4,3:0:0:0:
336,132,40153,6,0,B|420:102|420:102|472:143,1,143.999995605469,6|0,3:2|3:0,0:0:0:0:
486,155,40543,1,0,3:0:0:0:
489,164,40621,2,0,L|500:236,1,71.9999978027344,10|0,0:0|0:0,0:0:0:0:
346,324,40934,5,10,0:0:0:0:
405,199,41090,1,2,0:0:0:0:
480,354,41246,1,10,0:0:0:0:
316,221,41403,6,0,B|296:179|317:135|333:163|361:117|333:68,1,143.999995605469,6|0,3:2|3:0,0:0:0:0:
329,59,41793,1,0,3:0:0:0:
322,52,41871,2,0,P|289:37|253:41,1,71.9999978027344,10|2,0:0|0:0,0:0:0:0:
91,108,42184,5,10,0:0:0:0:
235,128,42340,1,2,0:0:0:0:
105,11,42496,1,10,0:0:0:0:
153,189,42653,6,0,B|142:255|142:255|146:260|146:260|135:330,1,143.999995605469,6|0,3:2|3:0,0:0:0:0:
130,359,43043,1,0,3:0:0:0:
121,361,43121,2,0,B|85:371|85:371|56:351,1,71.9999978027344,10|2,0:0|0:0,0:0:0:0:
59,194,43434,5,10,0:0:0:0:
180,279,43590,1,2,0:0:0:0:
0,294,43746,1,10,0:0:0:0:
185,188,43903,6,0,B|224:186|249:219|249:219|260:182|318:162,1,143.999995605469,6|8,3:2|0:0,0:0:0:0:
335,164,44293,1,8,0:0:0:0:
337,174,44371,2,0,L|342:209,3,35.9999989013672,8|8|8|8,0:0|0:0|3:2|0:0,0:0:0:0:
426,213,44684,2,0,L|420:248,3,35.9999989013672,10|8|8|8,3:2|0:0|0:0|0:0,0:0:0:0:
500,173,44996,2,0,L|494:137,1,35.9999989013672,10|8,3:2|0:0,0:0:0:0:
410,18,45153,2,0,L|404:53,1,35.9999989013672,8|8,0:0|0:0,0:0:0:0:
383,136,45309,6,0,L|272:118,1,111.999996582031,6|0,3:2|3:2,0:0:0:0:
190,73,45778,1,0,0:0:0:0:
186,56,45934,2,0,L|176:-2,1,55.9999982910157,2|0,3:2|0:0,0:0:0:0:
91,63,46246,1,0,3:2:0:0:
89,81,46402,6,0,L|79:139,2,55.9999982910157,0|2|0,0:0|3:2|0:0,0:0:0:0:
170,161,46871,2,0,L|178:216,1,55.9999982910157,0|0,3:2|0:2,0:0:0:0:
239,275,47184,2,0,P|186:260|140:290,1,111.999996582031,2|0,3:2|3:0,0:0:0:0:
355,365,47809,6,0,L|365:298,1,55.9999982910157,2|0,3:2|0:0,0:0:0:0:
501,331,48121,2,0,L|438:355,1,55.9999982910157,0|0,3:0|0:0,0:0:0:0:
399,222,48434,2,0,L|451:264,1,55.9999982910157,2|0,3:2|0:0,0:0:0:0:
489,114,48746,1,0,3:0:0:0:
468,118,48903,2,0,L|357:135,1,111.999996582031
272,184,49371,2,0,L|263:128,1,55.9999982910157,0|0,3:0|0:0,0:0:0:0:
171,30,49684,6,0,P|123:24|86:54,1,96,2|0,3:2|0:0,0:0:0:0:
69,89,49996,2,0,L|79:152,1,64,0|0,3:2|0:0,0:0:0:0:
157,265,50309,6,0,L|223:254,1,55.9999982910157,2|0,3:2|0:0,0:0:0:0:
191,119,50621,2,0,L|166:181,1,55.9999982910157,0|0,3:0|0:0,0:0:0:0:
300,221,50934,2,0,L|257:168,1,55.9999982910157,2|0,3:2|0:0,0:0:0:0:
408,131,51246,1,0,3:0:0:0:
404,152,51403,2,0,L|386:262,1,111.999996582031
480,372,51871,2,0,L|471:316,1,55.9999982910157,0|0,3:0|0:0,0:0:0:0:
386,262,52184,5,2,3:2:0:0:
381,286,52340,1,0,0:0:0:0:
308,347,52496,5,0,3:0:0:0:
313,371,52652,1,0,0:0:0:0:
232,283,52809,6,0,B|190:260|190:260|147:282,1,95.9999970703126,2|0,1:2|0:0,0:0:0:0:
116,329,53043,6,0,B|144:311|144:311|146:277,1,64,2|0,1:2|0:0,0:0:0:0:
127,244,53278,6,0,B|127:268|127:268|148:282,1,48,2|0,1:2|0:0,0:0:0:0:
232,283,53590,5,2,3:2:0:0:
236,274,53668,1,0,3:0:0:0:
241,266,53746,2,0,B|261:225|253:166|223:195|204:140|236:88,1,176,10|0,0:0|0:0,0:0:0:0:
253,77,54684,6,0,P|249:52|236:73,2,64,2|2|2,0:0|0:0|0:0,0:0:0:0:
311,154,55153,6,0,B|354:191|406:154|406:154|416:103|483:88,1,176.000005371094,6|0,1:2|1:0,0:0:0:0:
489,91,55543,1,0,1:0:0:0:
480,91,55622,2,0,P|437:82|409:50,1,88.000002685547,8|0,0:0|1:0,0:0:0:0:
503,186,55934,2,0,P|494:228|462:256,1,88.000002685547,0|0,1:0|1:0,0:0:0:0:
307,294,56247,1,8,0:0:0:0:
335,131,56403,2,0,L|348:217,1,88.000002685547,4|0,1:2|0:0,0:0:0:0:
369,371,56716,5,0,1:0:0:0:
259,212,56871,2,0,P|223:187|180:190,1,88.000002685547,8|0,0:0|1:0,0:0:0:0:
187,362,57184,2,0,L|200:275,1,88.000002685547,2|2,1:2|1:2,0:0:0:0:
249,105,57497,1,8,0:0:0:0:
101,229,57653,6,0,B|80:249|54:236|54:236|33:103,1,176.000005371094,6|0,1:2|1:0,0:0:0:0:
50,89,58043,1,0,1:0:0:0:
59,91,58121,2,0,L|102:97,1,44.0000013427735,8|0,0:0|0:0,0:0:0:0:
173,146,58278,2,0,L|179:189,3,44.0000013427735,0|0|8|8,1:0|0:0|3:0|3:0,0:0:0:0:
249,105,58590,2,0,L|292:98,3,44.0000013427735,4|4|4|0,3:0|3:0|3:0|0:0,0:0:0:0:
369,138,58903,1,0,3:0:0:0:
446,317,59059,6,0,B|454:262|454:262|481:240|481:240|491:181,2,132.00000402832,6|6|6,1:2|1:2|1:2,0:0:0:0:
335,375,59684,1,8,0:0:0:0:
333,365,59762,1,8,0:0:0:0:
331,355,59840,2,0,L|324:311,3,44.0000013427735,8|8|8|8,0:0|0:0|0:0|0:0,0:0:0:0:
295,288,60153,6,0,L|208:301,1,88.000002685547,6|0,1:2|0:0,0:0:0:0:
96,218,60465,1,2,1:2:0:0:
99,227,60543,1,0,1:0:0:0:
102,236,60621,1,10,0:0:0:0:
63,338,60778,1,2,1:2:0:0:
193,218,60935,1,2,1:2:0:0:
84,106,61091,1,2,1:2:0:0:
10,234,61247,1,10,0:0:0:0:
200,129,61403,6,0,B|243:130|271:176|271:176|284:126|340:102,1,176.000005371094,6|0,1:2|1:0,0:0:0:0:
365,103,61793,1,0,1:0:0:0:
357,102,61871,2,0,P|317:82|299:44,1,88.000002685547,10|0,0:0|1:0,0:0:0:0:
483,93,62185,1,2,1:2:0:0:
366,196,62341,1,2,1:2:0:0:
396,17,62497,1,10,0:0:0:0:
453,180,62653,6,0,B|473:227|443:281|414:248|389:303|407:350,1,176.000005371094,6|0,1:2|1:0,0:0:0:0:
426,375,63043,1,0,1:0:0:0:
421,368,63121,2,0,P|391:335|349:327,1,88.000002685547,8|0,0:0|1:0,0:0:0:0:
171,356,63434,2,0,L|257:342,2,88.000002685547,2|0|8,1:2|1:0|0:0,0:0:0:0:
85,306,63903,1,0,1:0:0:0:
207,171,64060,5,2,1:2:0:0:
121,213,64216,1,0,1:0:0:0:
113,215,64294,1,0,1:0:0:0:
105,215,64371,2,0,P|65:195|47:157,1,88.000002685547,8|0,0:0|1:0,0:0:0:0:
35,59,64685,1,2,1:2:0:0:
129,133,64841,1,10,0:0:0:0:
136,128,64919,1,8,0:0:0:0:
143,122,64996,1,10,0:0:0:0:
226,17,65153,6,0,B|276:78|276:78|240:167,1,176.000005371094,6|0,1:2|1:0,0:0:0:0:
207,189,65543,1,0,1:0:0:0:
200,184,65622,2,0,B|164:159|164:159|121:172,1,88.000002685547,8|0,0:0|1:0,0:0:0:0:
52,301,65934,2,0,B|88:326|88:326|131:313,1,88.000002685547,0|0,1:0|1:0,0:0:0:0:
289,221,66247,1,8,0:0:0:0:
243,384,66403,2,0,L|229:296,1,88.000002685547,4|0,1:2|0:0,0:0:0:0:
251,144,66716,5,0,1:0:0:0:
260,140,66793,1,0,1:0:0:0:
269,137,66871,2,0,P|312:134|347:159,1,88.000002685547,8|0,0:0|1:0,0:0:0:0:
418,348,67184,2,0,L|431:261,1,88.000002685547,2|2,1:2|1:2,0:0:0:0:
459,112,67497,1,8,0:0:0:0:
381,52,67653,6,0,B|316:62|316:62|290:99|290:99|198:114,1,176.000005371094,6|0,1:2|1:0,0:0:0:0:
147,67,68043,1,0,1:0:0:0:
145,58,68121,2,0,L|139:15,3,44.0000013427735,8|0|0|0,0:0|0:0|1:0|0:0,0:0:0:0:
55,83,68434,2,0,L|11:76,1,44.0000013427735,8|0,3:0|3:0,0:0:0:0:
103,160,68590,2,0,L|146:153,1,44.0000013427735,4|0,3:0|3:0,0:0:0:0:
191,144,68746,1,8,0:0:0:0:
71,245,68903,1,0,3:0:0:0:
184,361,69059,6,0,B|149:320|149:320|184:215,2,132.00000402832,6|6|6,1:2|1:2|1:2,0:0:0:0:
302,290,69684,1,8,0:0:0:0:
294,292,69762,1,8,0:0:0:0:
286,294,69840,2,0,L|242:300,2,44.0000013427735,8|8|8,0:0|0:0|0:0,0:0:0:0:
418,362,70153,6,0,L|405:275,1,88.000002685547,6|0,1:2|0:0,0:0:0:0:
451,163,70465,1,2,1:2:0:0:
457,156,70543,1,0,1:0:0:0:
462,149,70621,1,10,0:0:0:0:
409,52,70778,1,2,1:2:0:0:
333,197,70935,1,2,1:2:0:0:
512,232,71090,1,2,1:2:0:0:
492,38,71247,1,10,0:0:0:0:
371,126,71403,6,0,B|331:97|267:123|301:141|246:169|197:144,1,176.000005371094,6|0,1:2|1:0,0:0:0:0:
180,116,71793,1,0,1:0:0:0:
172,121,71871,2,0,P|140:151|130:193,1,88.000002685547,10|2,0:0|1:2,0:0:0:0:
64,127,72185,1,2,1:2:0:0:
215,191,72341,1,2,1:2:0:0:
135,37,72497,1,10,0:0:0:0:
10,233,72653,6,0,P|53:164|130:192,1,176.000005371094,6|0,1:2|1:0,0:0:0:0:
155,221,73043,1,0,1:0:0:0:
154,230,73121,2,0,L|146:273,3,44.0000013427735,8|0|0|0,0:0|0:0|1:0|1:0,0:0:0:0:
109,350,73434,2,0,L|152:356,1,44.0000013427735,8|0,0:0|0:0,0:0:0:0:
266,314,73590,2,0,L|222:307,1,44.0000013427735,0|0,1:0|1:0,0:0:0:0:
146,273,73746,1,8,0:0:0:0:
272,208,73903,1,0,1:0:0:0:
318,374,74059,6,0,P|301:318|333:270,1,119.999996337891,8|0,0:0|0:0,0:0:0:0:
398,217,74528,6,0,B|415:214|415:214|440:230|440:230|460:227,3,64,2|2|2|2,0:0|0:0|0:0|0:0,0:0:0:0:
323,53,75153,6,0,B|355:34|355:34|337:148,1,143.999995605469,4|0,1:2|1:0,0:0:0:0:
206,216,75621,2,0,B|236:196|236:196|271:206,1,71.9999978027344,10|0,0:0|1:0,0:0:0:0:
288,319,75934,2,0,B|257:337|257:337|222:327,1,71.9999978027344,2|0,1:2|1:0,0:0:0:0:
125,138,76246,6,0,B|95:118|95:118|60:129,1,71.9999978027344,10|0,0:0|1:0,0:0:0:0:
40,239,76559,2,0,B|71:257|71:257|106:246,1,71.9999978027344,2|0,1:2|1:0,0:0:0:0:
219,121,76871,2,0,L|231:50,1,71.9999978027344,10|0,0:0|1:0,0:0:0:0:
378,30,77184,1,2,1:2:0:0:
329,174,77340,2,0,L|318:103,1,71.9999978027344,2|8,1:2|0:0,0:0:0:0:
292,259,77653,6,0,B|331:264|348:298|348:298|354:259|408:231,1,143.999995605469,6|0,1:2|1:0,0:0:0:0:
420,246,78043,1,0,1:0:0:0:
427,252,78121,2,0,B|457:271|457:271|492:261,1,71.9999978027344,10|0,0:0|1:0,0:0:0:0:
509,148,78434,2,0,B|478:130|478:130|443:140,1,71.9999978027344,2|0,1:2|1:0,0:0:0:0:
247,70,78746,6,0,B|277:51|277:51|312:61,1,71.9999978027344,10|0,0:0|1:0,0:0:0:0:
329,174,79059,2,0,B|298:192|298:192|263:182,1,71.9999978027344,6|0,1:2|1:0,0:0:0:0:
232,161,79293,1,0,1:0:0:0:
230,170,79371,2,0,L|218:241,1,71.9999978027344,10|0,0:0|1:0,0:0:0:0:
127,345,79684,1,2,1:2:0:0:
126,336,79762,1,0,0:0:0:0:
124,328,79840,2,0,L|118:293,1,35.9999989013672,2|0,1:2|1:0,0:0:0:0:
100,210,79996,1,8,0:0:0:0:
226,334,80153,6,0,B|276:325|276:325|305:292|305:292|361:283,1,143.999995605469,6|0,1:2|1:0,0:0:0:0:
475,198,80621,2,0,B|441:189|441:189|411:209,1,71.9999978027344,10|0,0:0|1:0,0:0:0:0:
431,321,80934,2,0,B|467:328|467:328|497:308,1,71.9999978027344,2|0,1:2|1:0,0:0:0:0:
327,256,81246,6,0,B|291:265|291:265|261:245,1,71.9999978027344,10|0,0:0|1:0,0:0:0:0:
283,132,81559,2,0,B|318:125|318:125|348:145,1,71.9999978027344,2|0,1:2|1:0,0:0:0:0:
201,174,81871,2,0,L|129:162,1,71.9999978027344,10|0,0:0|1:0,0:0:0:0:
3,100,82184,1,2,1:2:0:0:
127,19,82340,2,0,L|55:30,1,71.9999978027344,2|8,1:2|0:0,0:0:0:0:
251,54,82653,6,0,B|284:29|325:54|325:54|342:88|382:94,1,143.999995605469,6|8,1:2|1:3,0:0:0:0:
460,220,83121,2,0,B|469:184|469:184|449:154,1,71.9999978027344,10|8,0:0|1:3,0:0:0:0:
336,172,83434,2,0,B|329:206|329:206|349:237,1,71.9999978027344,4|4,1:3|1:3,0:0:0:0:
389,329,83746,6,0,L|425:334,3,35.9999989013672,8|0|0|0,0:0|0:0|1:0|1:0,0:0:0:0:
358,321,84059,6,0,P|325:293|319:251,1,88.000002685547,2|0,1:2|0:0,0:0:0:0:
336,215,84293,6,0,P|361:185|399:179,1,80,2|0,1:2|0:0,0:0:0:0:
429,194,84528,6,0,P|456:217|461:251,1,71.9999978027344,10|0,0:0|0:0,0:0:0:0:
444,333,84840,1,8,0:3:0:0:
445,342,84918,1,8,0:3:0:0:
446,351,84996,1,8,0:3:0:0:
358,321,85153,1,8,0:3:0:0:
264,370,85309,6,0,P|218:362|187:322,2,95.9999970703126,4|2|2,1:2|0:0|0:0,0:0:0:0:
44,289,86246,2,0,P|90:281|120:245,2,95.9999970703126,2|2|2,3:2|0:0|3:2,0:0:0:0:
209,240,87184,1,8,0:0:0:0:
161,169,87496,1,8,0:0:0:0:
163,160,87653,2,0,L|166:136,1,23.9999992675781,8|0,0:0|0:0,0:0:0:0:
237,78,87809,6,0,L|142:93,2,95.9999970703126,2|2|2,3:2|0:0|0:0,0:0:0:0:
54,24,88746,6,0,B|117:97|117:97|79:184,1,191.999994140625,2|2,3:2|3:2,0:0:0:0:
79,184,89684,2,0,L|94:278,1,95.9999970703126,10|2,0:0|0:3,0:0:0:0:
10,383,90309,5,2,3:0:0:0:
10,383,90621,2,0,L|57:375,1,47.9999985351563,2|0,0:0|0:0,0:0:0:0:
135,358,90934,1,10,0:0:0:0:
152,355,91090,1,8,0:0:0:0:
169,352,91246,1,2,0:0:0:0:
273,218,91559,6,0,P|248:258|201:274,2,95.9999970703126,2|0|8,0:0|3:0|0:0,0:0:0:0:
244,115,92496,1,2,0:3:0:0:
244,115,92809,2,0,L|338:130,2,95.9999970703126,2|2|2,3:2|0:0|0:0,0:0:0:0:
437,49,93746,6,0,B|415:22|364:31|360:78|360:78|374:163,1,191.999994140625,2|2,3:2|3:2,0:0:0:0:
374,163,94684,2,0,L|366:210,1,47.9999985351563,10|0,0:0|3:0,0:0:0:0:
351,289,94996,1,8,3:0:0:0:
348,302,95153,1,4,3:0:0:0:
346,315,95309,6,0,L|456:297,1,111.999996582031,0|2,3:0|0:0,0:0:0:0:
272,217,95934,2,0,L|161:199,1,111.999996582031,2|2,0:0|3:2,0:0:0:0:
41,346,96559,1,2,0:0:0:0:
61,350,96715,1,2,0:0:0:0:
80,354,96871,2,0,P|130:333|149:282,1,111.999996582031,2|8,3:2|0:0,0:0:0:0:
73,191,97496,1,0,0:0:0:0:
48,168,97809,6,0,L|39:112,1,55.9999982910157,2|0,3:2|0:0,0:0:0:0:
104,46,98121,2,0,L|159:54,2,55.9999982910157,2|2|2,0:0|0:0|0:0,0:0:0:0:
154,154,98590,1,2,0:0:0:0:
170,170,98746,2,0,B|207:181|237:163|222:154|249:136|298:148,1,111.999996582031,2|0,3:2|0:0,0:0:0:0:
407,60,99371,1,2,3:2:0:0:
389,82,99684,2,0,B|352:93|322:75|337:66|310:48|261:60,1,111.999996582031,10|2,0:0|0:3,0:0:0:0:
304,208,100152,5,2,0:3:0:0:
313,226,100309,2,0,P|329:252|357:268,1,64,2|0,3:2|0:0,0:0:0:0:
449,167,100621,2,0,P|418:167|390:184,1,64,2|0,0:0|0:0,0:0:0:0:
429,311,100934,2,0,P|443:284|443:251,1,64,2|0,0:0|0:0,0:0:0:0:
319,128,101246,2,0,L|236:114,1,83.9999974365235,2|0,3:2|0:0,0:0:0:0:
207,109,101559,6,0,P|191:135|163:151,1,64,2|0,0:0|0:0,0:0:0:0:
29,90,101871,2,0,P|59:90|87:107,1,64,2|0,3:2|0:0,0:0:0:0:
69,254,102184,2,0,P|69:223|86:195,1,64,10|0,0:0|0:0,0:0:0:0:
211,251,102496,2,0,L|197:333,1,83.9999974365235,2|0,3:2|0:0,0:0:0:0:
220,357,102809,6,0,L|287:367,2,68.0000012969971,4|8|8,3:0|0:0|0:0,0:0:0:0:
387,270,103278,2,0,L|319:280,2,68.0000012969971,8|8|8,0:0|0:0|0:0,0:0:0:0:
453,196,103746,1,8,0:0:0:0:
439,177,103902,5,8,0:0:0:0:
390,113,104059,1,8,0:0:0:0:
359,187,104215,1,8,0:0:0:0:
473,101,104371,5,8,0:0:0:0:
310,123,104528,1,8,0:0:0:0:
401,261,104684,6,0,B|406:261|406:261|406:255|401:255|401:255|395:255|395:261|395:261|395:266|401:266|401:266|406:266|406:255,2,34.0000006484985,8|0|8,1:2|0:0|1:2,0:0:0:0:
160,304,105309,6,0,P|194:309|221:356,1,80,4|0,1:2|0:0,0:0:0:0:
256,320,105778,6,0,B|219:287|160:313|190:336|154:319|184:343|134:370|92:346,1,179.999994506836,4|0,1:2|0:0,0:0:0:0:
62,325,106246,2,0,P|37:267|74:190,1,139.999995727539,4|0,1:2|0:0,0:0:0:0:
129,137,106715,5,0,1:0:0:0:
123,110,106793,1,0,1:0:0:0:
117,83,106871,1,8,0:0:0:0:
226,148,107184,1,8,1:3:0:0:
63,198,107496,6,0,B|66:198|66:198|66:194|63:194|63:194|59:194|59:198|59:198|59:201|63:201|63:201|66:201|66:194,2,27.9999991455078,6|0|2,1:3|0:0|0:3,0:0:0:0:
199,244,107809,6,0,P|165:249|138:296,1,80,4|0,1:2|0:0,0:0:0:0:
105,279,108278,6,0,B|133:253|179:273|156:291|184:278|161:296|200:318|235:302,1,139.999995727539,4|0,1:2|0:0,0:0:0:0:
267,290,108746,2,0,P|296:221|252:129,1,179.999994506836,4|0,1:2|0:0,0:0:0:0:
254,131,109215,2,0,L|301:138,1,47.9999985351563,0|0,1:0|0:0,0:0:0:0:
345,63,109371,2,0,L|250:47,1,95.9999970703126,8|0,0:0|1:0,0:0:0:0:
105,154,109684,6,0,B|114:154|114:154|114:140|105:140|105:140|91:140|91:154|91:154|91:163|105:163|105:163|114:163|114:140,2,85.3333333333333,8|4|4,3:0|3:0|3:0,0:0:0:0:
315,313,110309,6,0,P|281:318|254:365,1,80,4|0,1:2|0:0,0:0:0:0:
216,356,110778,6,0,B|253:323|312:349|282:372|318:355|288:379|338:406|380:382,1,179.999994506836,4|0,1:2|0:0,0:0:0:0:
410,361,111246,2,0,P|435:303|398:226,1,139.999995727539,4|0,1:2|0:0,0:0:0:0:
408,234,111715,2,0,L|455:241,1,47.9999985351563,0|0,1:0|1:0,0:0:0:0:
499,165,111871,2,0,L|404:149,1,95.9999970703126,8|0,0:0|0:0,0:0:0:0:
277,84,112184,5,8,0:0:0:0:
321,219,112340,1,0,1:0:0:0:
271,305,112496,6,0,B|267:305|267:305|267:299|271:299|271:299|276:299|276:305|276:305|276:308|271:308|271:308|267:308|267:299,2,32,10|0|2,1:3|0:0|0:3,0:0:0:0:
112,164,112809,6,0,P|146:169|173:216,1,80,4|0,1:2|0:0,0:0:0:0:
211,207,113278,6,0,B|174:174|115:200|145:223|109:206|139:230|89:257|47:233,1,179.999994506836,4|0,1:2|0:0,0:0:0:0:
21,206,113746,2,0,P|5:169|28:120,1,83.9999974365235,4|0,1:2|0:0,0:0:0:0:
45,97,114059,5,8,0:0:0:0:
127,216,114215,1,0,1:0:0:0:
189,50,114371,5,8,0:0:0:0:
180,76,114528,1,0,1:0:0:0:
247,172,114684,6,0,L|310:161,1,64,0|0,1:0|1:0,0:0:0:0:
384,71,114996,2,0,L|447:81,1,64,2|0,0:0|0:0,0:0:0:0:
426,231,115309,6,0,P|407:210|398:184,1,55.9999982910157,2|0,3:2|0:0,0:0:0:0:
489,287,115621,2,0,P|468:305|442:314,1,55.9999982910157,0|0,3:0|0:0,0:0:0:0:
295,297,115934,2,0,L|351:288,1,55.9999982910157,2|0,3:2|0:0,0:0:0:0:
228,361,116246,2,0,L|172:352,1,55.9999982910157,0|0,3:0|0:0,0:0:0:0:
58,282,116559,5,2,3:2:0:0:
55,299,116715,2,0,L|46:354,2,55.9999982910157,0|0|0,0:0|3:0|0:0,0:0:0:0:
73,183,117184,2,0,P|48:170|20:168,1,55.9999982910157,2|0,3:2|0:0,0:0:0:0:
134,247,117496,2,0,P|152:226|161:200,1,55.9999982910157,0|0,3:0|0:0,0:0:0:0:
175,101,117809,6,0,L|183:45,1,55.9999982910157,2|0,3:2|0:0,0:0:0:0:
300,128,118121,2,0,L|247:150,1,55.9999982910157,0|0,3:0|0:0,0:0:0:0:
261,6,118434,2,0,L|306:38,2,55.9999982910157,2|0|0,3:2|0:0|3:0,0:0:0:0:
385,89,118903,2,0,P|413:86|437:74,1,55.9999982910157,0|2,0:0|3:2,0:0:0:0:
321,207,119215,5,0,0:0:0:0:
302,210,119371,2,0,P|273:207|249:195,1,55.9999982910157,0|0,3:0|0:0,0:0:0:0:
166,133,119684,2,0,P|146:114|119:106,1,55.9999982910157,2|0,3:2|0:0,0:0:0:0:
19,196,119996,2,0,P|48:193|73:182,1,55.9999982910157,0|0,3:0|0:0,0:0:0:0:
188,43,120309,6,0,L|220:48,3,32,10|8|8|8,3:2|0:0|0:0|0:0,0:0:0:0:
282,102,120621,2,0,L|314:96,3,32,8|8|8|8,3:2|0:0|0:0|0:0,0:0:0:0:
392,135,120934,6,0,L|399:165,1,31.4999990386963,10|8,3:2|0:0,0:0:0:0:
345,232,121090,1,8,0:0:0:0:
345,241,121168,1,8,0:0:0:0:
345,250,121246,2,0,L|339:282,3,32,8|8|8|8,3:2|0:0|0:0|0:0,0:0:0:0:
424,351,121559,2,0,L|418:319,3,32,10|8|8|8,3:2|0:0|0:0|0:0,0:0:0:0:
270,335,121871,6,0,L|238:329,3,32,8|8|8|8,3:2|0:0|0:0|0:0,0:0:0:0:
313,255,122184,2,0,L|345:249,3,32,10|8|8|8,0:0|0:0|0:0|0:0,0:0:0:0:
242,196,122496,2,0,L|210:191,1,32,8|8,0:0|0:0,0:0:0:0:
131,175,122653,5,8,0:0:0:0:
124,170,122731,1,8,0:0:0:0:
118,165,122809,2,0,B|138:105|239:132|221:221|170:293|52:277|38:190,1,335.999989746094,6|2,3:2|0:0,0:0:0:0:
39,192,125309,5,2,0:3:0:0:
32,171,125934,5,2,0:3:0:0:
22,140,126559,5,2,0:3:0:0:
75,65,126871,1,2,0:3:0:0:
75,65,127184,5,2,0:0:0:0:
120,150,127340,1,2,0:0:0:0:
44,241,127496,1,2,0:0:0:0:
111,354,127653,6,0,B|158:326|216:349|182:378|233:407|304:369,1,176.000005371094,6|0,1:2|1:0,0:0:0:0:
295,369,128044,1,0,1:0:0:0:
302,361,128122,2,0,P|322:322|315:280,1,88.000002685547,8|0,0:0|1:0,0:0:0:0:
165,233,128434,2,0,P|144:271|151:313,1,88.000002685547,0|0,1:0|1:0,0:0:0:0:
315,280,128747,1,8,0:0:0:0:
259,88,128903,2,0,L|245:176,1,88.000002685547,4|0,1:2|0:0,0:0:0:0:
151,313,129216,5,0,1:0:0:0:
142,317,129293,1,0,1:0:0:0:
133,320,129371,2,0,P|90:323|55:298,1,88.000002685547,8|0,0:0|1:0,0:0:0:0:
148,123,129684,2,0,L|161:210,1,88.000002685547,2|2,1:2|1:2,0:0:0:0:
19,135,129997,1,8,0:0:0:0:
135,25,130153,6,0,B|200:35|200:35|226:72|226:72|318:87,1,176.000005371094,6|0,1:2|1:0,0:0:0:0:
368,63,130543,1,0,1:0:0:0:
370,54,130621,2,0,L|376:11,3,44.0000013427735,8|0|0|0,0:0|0:0|1:0|0:0,0:0:0:0:
460,79,130934,2,0,L|504:72,1,44.0000013427735,8|8,3:0|3:0,0:0:0:0:
412,156,131090,2,0,L|369:149,1,44.0000013427735,4|4,3:0|3:0,0:0:0:0:
324,140,131246,1,4,3:0:0:0:
444,241,131403,1,0,3:0:0:0:
374,384,131559,6,0,B|405:362|395:323|395:323|360:302|359:262,2,132.00000402832,6|6|6,1:2|1:2|1:2,0:0:0:0:
214,326,132184,1,8,0:0:0:0:
222,328,132262,1,8,0:0:0:0:
230,330,132340,2,0,L|274:336,2,44.0000013427735,8|8|8,0:0|0:0|0:0,0:0:0:0:
94,349,132653,6,0,B|84:306|84:306|107:268,1,88.000002685547,6|0,1:2|0:0,0:0:0:0:
177,157,132965,1,0,1:0:0:0:
176,147,133043,1,0,1:0:0:0:
175,138,133121,1,10,0:0:0:0:
147,35,133278,1,2,1:2:0:0:
58,160,133435,1,2,1:2:0:0:
242,248,133591,1,2,1:2:0:0:
226,64,133747,1,10,0:0:0:0:
95,243,133903,6,0,B|121:199|177:208|177:208|199:250|242:247,1,176.000005371094,6|2,1:2|1:2,0:0:0:0:
271,241,134293,1,0,1:0:0:0:
278,236,134371,2,0,P|310:206|320:164,1,88.000002685547,8|0,0:0|1:0,0:0:0:0:
326,9,134685,1,2,1:2:0:0:
417,122,134841,1,2,1:2:0:0:
245,55,134997,1,10,0:0:0:0:
418,214,135153,6,0,P|477:197|500:80,1,176.000005371094,6|2,1:2|1:2,0:0:0:0:
500,63,135543,1,0,1:0:0:0:
492,61,135621,2,0,P|451:42|430:5,1,88.000002685547,10|2,0:0|1:2,0:0:0:0:
289,123,135934,2,0,P|329:104|350:67,2,88.000002685547,2|2|10,1:2|1:2|0:0,0:0:0:0:
150,92,136403,1,2,1:2:0:0:
261,35,136560,5,2,1:2:0:0:
167,198,136716,1,2,1:2:0:0:
166,188,136794,1,0,1:0:0:0:
163,178,136871,2,0,L|149:91,1,88.000002685547,8|0,0:0|1:0,0:0:0:0:
268,215,137185,1,2,1:2:0:0:
158,318,137340,1,10,0:0:0:0:
148,316,137418,1,8,0:0:0:0:
139,314,137496,1,10,0:0:0:0:
20,106,137653,6,0,B|46:93|66:113|66:113|45:246,1,176.000005371094,6|0,1:2|1:0,0:0:0:0:
20,256,138044,1,0,1:0:0:0:
27,251,138122,2,0,B|63:226|63:226|106:239,1,88.000002685547,8|0,0:0|1:0,0:0:0:0:
268,215,138434,2,0,B|232:190|232:190|189:203,1,88.000002685547,0|0,1:0|1:0,0:0:0:0:
274,339,138747,1,8,0:0:0:0:
386,238,138903,2,0,L|372:150,1,88.000002685547,4|0,1:2|0:0,0:0:0:0:
242,49,139216,5,0,1:0:0:0:
251,45,139293,1,0,1:0:0:0:
260,42,139371,2,0,P|303:39|338:64,1,88.000002685547,8|0,0:0|1:2,0:0:0:0:
268,215,139684,2,0,L|281:128,1,88.000002685547,2|2,1:2|1:2,0:0:0:0:
438,75,139997,1,8,0:0:0:0:
242,49,140153,6,0,B|201:63|188:115|188:115|161:72|100:66,1,176.000005371094,6|0,1:2|1:0,0:0:0:0:
93,91,140543,1,0,1:0:0:0:
91,99,140621,2,0,L|85:142,3,44.0000013427735,8|0|0|0,0:0|0:0|1:0|0:0,0:0:0:0:
158,201,140934,2,0,L|165:245,1,44.0000013427735,8|8,3:0|3:0,0:0:0:0:
78,345,141090,2,0,L|71:302,1,44.0000013427735,4|4,3:0|3:0,0:0:0:0:
58,221,141246,1,8,0:0:0:0:
178,328,141403,1,0,3:0:0:0:
259,183,141559,6,0,B|314:191|314:191|336:218|336:218|395:228,2,132.00000402832,6|6|6,1:2|1:2|1:2,0:0:0:0:
266,271,142184,1,8,0:0:0:0:
268,279,142262,1,8,0:0:0:0:
270,287,142340,2,0,L|276:331,2,44.0000013427735,8|8|8,0:0|0:0|0:0,0:0:0:0:
453,281,142653,6,0,L|466:194,1,88.000002685547,6|0,1:2|0:0,0:0:0:0:
447,73,142965,1,2,1:2:0:0:
441,66,143043,1,0,1:0:0:0:
435,59,143121,1,10,0:0:0:0:
297,135,143278,1,2,1:2:0:0:
349,249,143435,1,2,1:2:0:0:
485,175,143591,1,2,1:2:0:0:
347,45,143747,1,10,0:0:0:0:
240,218,143903,6,0,B|193:238|139:208|172:179|116:154|70:172,1,176.000005371094,6|0,1:2|1:0,0:0:0:0:
54,190,144293,1,0,1:0:0:0:
52,199,144371,2,0,L|44:243,3,44.0000013427735,8|0|8|0,1:2|1:0|1:3|1:0,0:0:0:0:
130,327,144684,2,0,L|122:282,3,44.0000013427735,0|0|4|4,1:0|1:3|1:3|1:3,0:0:0:0:
201,367,144996,1,8,1:3:0:0:
210,364,145074,1,8,1:3:0:0:
218,361,145153,2,0,L|261:354,1,44.0000013427735,4|4,1:3|1:3,0:0:0:0:
354,279,145309,6,0,B|358:251|358:251|356:245|356:245|360:220,1,58.6666684570313,12|0,1:2|1:0,0:0:0:0:
371,127,145517,2,0,P|393:107|420:98,1,58.6666684570313,8|0,1:3|1:0,0:0:0:0:
490,151,145725,2,0,P|467:170|440:179,1,58.6666684570313,4|0,1:3|1:0,0:0:0:0:
280,62,145934,6,0,B|284:89|284:89|282:95|282:95|286:120,1,58.6666684570313,12|0,1:2|1:0,0:0:0:0:
279,209,146142,2,0,P|256:228|229:237,1,58.6666684570313,8|0,1:3|1:0,0:0:0:0:
160,185,146350,2,0,P|182:165|209:156,1,58.6666684570313,4|0,1:3|1:0,0:0:0:0:
358,167,146559,5,14,1:2:0:0:
360,176,146637,1,2,0:0:0:0:
362,185,146715,2,0,L|369:230,1,44.0000013427735,2|14,0:0|0:0,0:0:0:0:
462,291,146871,1,2,0:0:0:0:
464,282,146949,1,2,0:0:0:0:
466,273,147027,2,0,L|473:227,1,44.0000013427735,14|0,0:0|0:0,0:0:0:0:
501,132,147184,1,8,0:0:0:0:
492,134,147262,1,8,0:0:0:0:
483,136,147340,2,0,L|437:143,3,44.0000013427735,8|8|8|8,0:0|0:0|0:0|0:0,0:0:0:0:
437,34,147653,6,0,B|385:42|385:42|359:71|359:71|307:79,1,143.999995605469,6|0,1:2|0:0,0:0:0:0:
218,58,147965,1,0,1:0:0:0:
219,68,148043,1,0,1:0:0:0:
221,77,148121,2,0,L|228:124,1,47.9999985351563,8|0,0:0|0:0,0:0:0:0:
243,212,148278,5,0,1:0:0:0:
144,107,148434,1,8,0:0:0:0:
153,262,148590,5,0,1:0:0:0:
218,57,148746,1,8,0:0:0:0:
1,202,148903,6,0,B|97:186|97:186|60:213,1,143.999995605469,4|0,1:2|0:0,0:0:0:0:
17,280,149215,1,0,1:0:0:0:
18,290,149293,1,0,1:0:0:0:
20,299,149371,2,0,L|27:346,1,47.9999985351563,8|0,0:0|0:0,0:0:0:0:
101,384,149528,5,0,1:0:0:0:
247,277,149684,2,0,L|152:261,1,95.9999970703126,10|2,0:0|1:2,0:0:0:0:
69,154,149996,1,8,0:0:0:0:
170,12,150153,6,0,B|135:66|135:66|176:150,1,143.999995605469,6|0,1:2|0:0,0:0:0:0:
248,201,150465,1,0,1:0:0:0:
249,192,150543,1,0,1:0:0:0:
251,183,150621,2,0,L|258:135,1,47.9999985351563,8|0,0:0|0:0,0:0:0:0:
275,53,150778,5,0,1:0:0:0:
340,222,150934,1,8,0:0:0:0:
381,106,151090,5,0,1:0:0:0:
277,292,151246,1,8,0:0:0:0:
169,136,151403,6,0,P|112:113|104:175,1,143.999995605469,4|0,1:2|0:0,0:0:0:0:
163,236,151715,1,0,1:0:0:0:
172,235,151793,1,0,1:0:0:0:
181,233,151871,2,0,L|229:226,1,47.9999985351563,8|0,0:0|0:0,0:0:0:0:
312,215,152028,5,0,1:0:0:0:
194,311,152184,1,10,0:0:0:0:
293,384,152340,5,2,1:2:0:0:
113,301,152496,1,10,0:0:0:0:
295,129,152653,6,0,L|272:271,1,143.999995605469,6|0,1:2|0:0,0:0:0:0:
348,320,152965,1,0,1:0:0:0:
350,311,153043,1,0,1:0:0:0:
352,302,153121,2,0,L|359:254,1,47.9999985351563,8|0,0:0|0:0,0:0:0:0:
376,174,153278,5,0,1:0:0:0:
443,310,153434,1,8,0:0:0:0:
463,133,153590,5,0,1:0:0:0:
348,320,153746,1,8,0:0:0:0:
279,106,153903,6,0,B|199:83|199:83|148:122,1,143.999995605469,4|0,1:2|0:0,0:0:0:0:
93,179,154215,1,0,1:0:0:0:
96,188,154293,1,0,1:0:0:0:
98,197,154371,2,0,L|105:245,1,47.9999985351563,8|0,0:0|0:0,0:0:0:0:
125,327,154528,5,0,1:0:0:0:
215,180,154684,1,10,0:0:0:0:
12,277,154840,5,2,1:2:0:0:
216,368,154996,1,8,0:0:0:0:
126,146,155153,6,0,B|81:129|69:74|69:74|86:189|86:189|104:205|104:205|124:329,1,359.999989013672,6|0,1:2|0:0,0:0:0:0:
216,368,156403,6,0,B|360:344|360:344|306:353|272:318,1,240,2|0,0:0|0:0,0:0:0:0:
193,281,157653,6,0,B|203:212|203:212|201:203|201:203|212:133,1,143.999995605469,6|0,1:2|1:0,0:0:0:0:
384,163,158121,2,0,B|354:183|354:183|319:173,1,71.9999978027344,10|0,0:0|1:0,0:0:0:0:
302,60,158434,2,0,B|333:42|333:42|368:52,1,71.9999978027344,2|0,1:2|1:0,0:0:0:0:
140,72,158746,6,0,B|110:52|110:52|75:63,1,71.9999978027344,10|0,0:0|1:0,0:0:0:0:
55,172,159059,2,0,B|85:189|85:189|120:178,1,71.9999978027344,2|0,1:2|1:0,0:0:0:0:
224,69,159371,2,0,L|212:140,1,71.9999978027344,10|0,0:0|1:0,0:0:0:0:
262,271,159684,1,2,1:2:0:0:
384,163,159840,2,0,L|395:234,1,71.9999978027344,2|8,1:2|0:0,0:0:0:0:
407,349,160153,6,0,B|357:340|357:340|328:307|328:307|272:298,1,143.999995605469,6|0,1:2|1:0,0:0:0:0:
262,271,160543,1,0,1:0:0:0:
267,264,160621,2,0,B|286:234|286:234|276:199,1,71.9999978027344,10|0,0:0|1:0,0:0:0:0:
162,189,160934,2,0,B|144:220|144:220|154:255,1,71.9999978027344,2|0,1:2|1:0,0:0:0:0:
98,92,161246,6,0,B|79:62|79:62|89:27,1,71.9999978027344,10|0,0:0|1:0,0:0:0:0:
203,17,161559,2,0,B|221:48|221:48|211:83,1,71.9999978027344,6|0,1:2|1:0,0:0:0:0:
223,114,161793,1,0,1:0:0:0:
232,113,161871,2,0,L|303:101,1,71.9999978027344,10|0,0:0|1:0,0:0:0:0:
404,17,162184,1,6,1:2:0:0:
401,26,162262,1,0,1:0:0:0:
399,35,162340,2,0,L|393:70,1,35.9999989013672,2|0,1:2|1:0,0:0:0:0:
373,156,162496,1,8,0:0:0:0:
512,227,162653,6,0,B|479:252|438:227|438:227|421:193|381:187,1,143.999995605469,6|0,1:2|1:0,0:0:0:0:
350,340,163121,2,0,B|369:310|369:310|359:275,1,71.9999978027344,10|0,0:0|1:0,0:0:0:0:
247,260,163434,2,0,B|229:292|229:292|238:326,1,71.9999978027344,2|0,1:2|1:0,0:0:0:0:
284,93,163746,6,0,B|303:124|303:124|293:159,1,71.9999978027344,10|0,0:0|1:0,0:0:0:0:
179,173,164059,2,0,B|161:141|161:141|171:107,1,71.9999978027344,2|0,1:2|1:0,0:0:0:0:
247,260,164371,2,0,L|175:272,1,71.9999978027344,10|0,0:0|1:0,0:0:0:0:
32,269,164684,1,2,1:2:0:0:
88,149,164840,2,0,L|16:138,1,71.9999978027344,2|8,1:2|0:0,0:0:0:0:
162,38,165153,6,0,B|197:54|203:92|203:92|220:57|280:47,1,143.999995605469,6|0,1:2|1:0,0:0:0:0:
396,130,165621,2,0,B|360:138|360:138|330:118,1,71.9999978027344,10|0,0:0|1:0,0:0:0:0:
347,6,165934,2,0,B|381:0|381:0|412:18,1,71.9999978027344,2|0,1:2|1:0,0:0:0:0:
484,153,166246,6,0,L|489:117,3,35.9999989013672,10|0|0|0,0:0|0:0|1:0|1:0,0:0:0:0:
473,181,166559,6,0,P|445:214|403:220,1,88.000002685547,6|0,1:2|0:0,0:0:0:0:
400,255,166793,6,0,P|438:261|462:291,1,80,6|0,1:2|0:0,0:0:0:0:
497,272,167028,6,0,P|485:238|497:206,1,71.9999978027344,14|0,0:0|0:0,0:0:0:0:
408,125,167340,1,8,0:3:0:0:
399,122,167418,1,8,0:3:0:0:
390,119,167496,1,4,0:3:0:0:
321,203,167653,1,4,0:3:0:0:
197,119,167809,6,0,B|154:132|154:132|209:93|209:93|240:98|256:145|256:145|234:167|233:202|233:202|214:210|214:210|223:220|223:220|207:225|207:225|176:270|193:318|193:318|208:313|208:313|205:333|205:333|232:327|232:327|226:345|226:345|279:392|316:368|316:368|305:366|305:366|354:357|354:357|342:348,1,656,4|0,1:2|0:0,0:0:0:0:
