osu file format v14

[General]
AudioFilename: audio.mp3
AudioLeadIn: 0
PreviewTime: 32499
Countdown: 0
SampleSet: Soft
StackLeniency: 0.7
Mode: 0
LetterboxInBreaks: 0
WidescreenStoryboard: 0

[Editor]
Bookmarks: 73082,158749
DistanceSpacing: 1.4
BeatDivisor: 4
GridSize: 32
TimelineZoom: 1.7

[Metadata]
Title:Q?
TitleUnicode:Q?
Artist:Reol
ArtistUnicode:Reol
Creator:greenhue
Version:Expert
Source:デジモンアドベンチャー:
Tags:japanese jpop dnb drum and bass agatsu mir bells jennifer jennglebells gigap pop ギガ れをる digimon adventure
BeatmapID:2696100
BeatmapSetID:1299595

[Difficulty]
HPDrainRate:6
CircleSize:4
OverallDifficulty:8
ApproachRate:9.6
SliderMultiplier:1.8
SliderTickRate:1

[Events]
//Background and Video events
0,0,"q.jpg",0,0
//Break Periods
2,106116,110740
//Storyboard Layer 0 (Background)
//Storyboard Layer 1 (Fail)
//Storyboard Layer 2 (Pass)
//Storyboard Layer 3 (Foreground)
//Storyboard Layer 4 (Overlay)
//Storyboard Sound Samples

[TimingPoints]
583,333.333333333333,4,2,1,80,1,0
583,-125,4,2,1,80,0,0
9916,-83.3333333333333,4,2,1,80,0,0
10082,-100,4,2,1,80,0,0
10249,-125,4,2,1,80,0,0
10416,-166.666666666667,4,2,1,80,0,0
10749,-83.3333333333333,4,2,1,80,0,0
11249,-66.6666666666667,4,2,1,80,0,0
11582,-90.9090909090909,4,2,1,80,0,0
31082,-66.6666666666667,4,2,1,80,0,0
31916,-55.5555555555556,4,2,1,80,0,0
32082,-45.4545454545455,4,2,1,80,0,0
32249,-45.4545454545455,4,2,2,80,0,0
32582,-62.5,4,2,1,92,0,1
51582,-62.5,4,2,1,92,0,0
53249,-62.5,4,2,1,80,0,0
53832,-62.5,4,2,1,5,0,0
53916,-111.111111111111,4,2,1,80,0,0
54249,-83.3333333333334,4,2,2,69,0,0
54416,-34.4827586206897,4,2,2,69,0,0
54916,-111.111111111111,4,2,2,69,0,0
55374,-111.111111111111,4,2,2,5,0,0
55416,-111.111111111111,4,2,2,69,0,0
55749,-34.4827586206897,4,2,2,69,0,0
56249,-111.111111111111,4,2,2,69,0,0
57082,-34.4827586206897,4,2,2,69,0,0
57582,-111.111111111111,4,2,2,69,0,0
58582,-52.6315789473684,4,2,2,69,0,0
58916,-55.5555555555556,4,2,2,69,0,0
59041,-55.5555555555556,4,2,2,5,0,0
59082,-55.5555555555556,4,2,2,69,0,0
59207,-55.5555555555556,4,2,2,5,0,0
59249,-111.111111111111,4,2,2,69,0,0
59749,-34.4827586206897,4,2,2,69,0,0
60082,-83.3333333333333,4,2,2,69,0,0
60916,-125,4,2,2,69,0,0
61249,-58.8235294117647,4,2,2,69,0,0
61916,-50,4,2,2,69,0,0
62166,-83.3333333333333,4,2,2,69,0,0
62916,-83.3333333333333,4,2,2,69,0,0
63000,-83.3333333333333,4,2,2,69,0,0
63207,-83.3333333333333,4,2,2,5,0,0
63249,-83.3333333333333,4,2,2,69,0,0
63499,-83.3333333333333,4,2,2,5,0,0
63582,-83.3333333333333,4,2,2,69,0,0
63916,-62.5,4,2,2,69,0,0
64582,-50,4,2,2,69,0,0
64874,-50,4,2,2,5,0,0
64916,-50,4,2,2,69,0,0
65082,-34.4827586206897,4,2,2,69,0,0
65416,-83.3333333333333,4,2,2,69,0,0
65916,-34.4827586206897,4,2,2,69,0,0
68249,-66.6666666666667,4,2,2,69,0,0
68499,-66.6666666666667,4,2,2,5,0,0
68582,-66.6666666666667,4,2,2,69,0,0
71166,-66.6666666666667,4,2,2,5,0,0
71249,-66.6666666666667,4,2,2,69,0,0
72749,-66.6666666666667,4,2,0,69,0,0
72916,-62.5,4,2,2,69,0,0
73249,-83.3333333333333,4,2,2,69,0,0
73582,-125,4,2,2,69,0,0
73916,-66.6666666666667,4,2,1,80,0,0
74249,-90.9090909090909,4,2,1,80,0,0
84582,-66.6666666666667,4,2,1,80,0,0
84749,-90.9090909090909,4,2,1,80,0,0
92582,-125,4,2,1,80,0,0
95249,-62.5,4,2,1,92,0,1
105582,-62.5,4,2,2,92,0,1
105749,-62.5,4,2,1,92,0,1
105916,-62.5,4,2,1,100,0,0
111082,-62.5,4,2,1,69,0,0
111249,-200,4,2,1,69,0,0
115249,-55.5555555555556,4,2,1,69,0,0
115582,-62.5,4,2,1,69,0,0
115915,-83.3333333333333,4,2,1,69,0,0
116248,-125,4,2,1,69,0,0
116582,-90.9090909090909,4,2,1,80,0,0
126082,-90.9090909090909,4,2,1,80,0,0
126166,-90.9090909090909,4,2,1,80,0,0
126499,-90.9090909090909,4,2,1,5,0,0
126583,-90.9090909090909,4,2,1,80,0,0
131416,-90.9090909090909,4,2,1,5,0,0
131500,-90.9090909090909,4,2,1,80,0,0
131832,-90.9090909090909,4,2,1,5,0,0
131916,-90.9090909090909,4,2,1,80,0,0
132499,-90.9090909090909,4,2,1,5,0,0
132583,-90.9090909090909,4,2,1,80,0,0
136916,-200,4,2,1,80,0,0
137916,-100,4,2,1,80,0,0
145916,-100,4,2,1,80,0,0
147582,-142.857142857143,4,2,1,80,0,0
147916,-90.9090909090909,4,2,1,80,0,0
148082,-40,4,2,1,80,0,0
148249,-40,4,2,2,80,0,0
148582,-62.5,4,2,1,80,0,1
167249,-62.5,4,2,1,80,0,0
168916,-142.857142857143,4,2,1,80,0,0
169249,-83.3333333333333,4,2,1,80,0,0
169916,-52.6315789473684,4,2,2,69,0,0
170249,-142.857142857143,4,2,2,69,0,0
170332,-142.857142857143,4,2,2,5,0,0
170416,-142.857142857143,4,2,2,69,0,0
170582,-66.6666666666667,4,2,2,69,0,0
171916,-83.3333333333333,4,2,2,69,0,0
173082,-34.4827586206897,4,2,2,69,0,0
173416,-83.3333333333333,4,2,2,69,0,0
174249,-47.6190476190476,4,2,2,69,0,0
174916,-125,4,2,2,69,0,0
175041,-125,4,2,2,5,0,0
175082,-125,4,2,2,69,0,0
175207,-125,4,2,2,5,0,0
175249,-47.6190476190476,4,2,2,69,0,0
175666,-47.6190476190476,4,2,2,5,0,0
175749,-34.4827586206897,4,2,2,69,0,0
176249,-76.9230769230769,4,2,2,69,0,0
176916,-34.4827586206897,4,2,2,69,0,0
177916,-62.5,4,2,2,69,0,0
180582,-52.6315789473684,4,2,2,69,0,0
180916,-34.4827586206897,4,2,2,69,0,0
180999,-34.4827586206897,4,2,2,5,0,0
181083,-34.4827586206897,4,2,2,69,0,0
181582,-90.9090909090909,4,2,2,69,0,0
181916,-34.4827586206897,4,2,2,69,0,0
182582,-111.111111111111,4,2,2,69,0,0
183082,-34.4827586206897,4,2,2,69,0,0
184249,-250,4,2,2,69,0,0
184582,-55.5555555555556,4,2,2,69,0,0
185916,-76.9230769230769,4,2,2,69,0,0
186916,-58.8235294117647,4,2,2,69,0,0
186957,-58.8235294117647,4,2,2,5,0,0
186999,-58.8235294117647,4,2,2,69,0,0
187249,-62.5,4,2,2,69,0,0
188916,-83.3333333333333,4,2,2,69,0,0
189249,-100,4,2,2,69,0,0
189582,-142.857142857143,4,2,2,69,0,0

[Colours]
Combo1 : 210,160,226
Combo2 : 250,220,222
Combo3 : 213,108,184
Combo4 : 200,215,240

[HitObjects]
222,371,583,6,0,P|289:348|362:373,1,144,2|0,0:0|0:0,0:0:0:0:
356,369,1082,1,0,0:0:0:0:
425,278,1249,2,0,P|439:311|481:340,1,72
466,334,1749,1,0,0:0:0:0:
329,260,1916,6,0,P|336:200|345:130,2,108
329,260,2749,1,0,0:0:0:0:
503,175,2916,2,0,P|463:180|422:185,1,72
333,18,3249,6,0,B|356:44|356:44|339:174,1,144,2|0,0:0|0:0,0:0:0:0:
341,152,3749,1,0,0:0:0:0:
512,81,3916,2,0,L|440:89,1,72
440,89,4416,1,0,0:0:0:0:
491,276,4582,6,0,L|418:264,1,72
419,264,5082,1,0,0:0:0:0:
312,349,5249,1,0,0:0:0:0:
292,362,5332,1,0,0:0:0:0:
267,365,5416,1,0,0:0:0:0:
246,357,5499,1,0,0:0:0:0:
219,314,5582,1,0,0:0:0:0:
175,288,5666,1,0,0:0:0:0:
124,284,5749,1,0,0:0:0:0:
77,303,5832,1,0,0:0:0:0:
50,346,5916,6,0,B|45:274|45:274|40:267|40:267|36:201,1,144,2|0,0:0|0:0,0:0:0:0:
36,203,6416,1,0,0:0:0:0:
132,122,6582,2,0,L|124:209,1,72
125,193,7082,1,0,0:0:0:0:
26,112,7249,6,0,L|18:5,2,108
26,112,8082,1,0,0:0:0:0:
107,30,8249,2,0,L|181:38,1,72
304,157,8582,6,0,L|450:140,1,144,2|0,0:0|0:0,0:0:0:0:
447,140,9082,1,0,0:0:0:0:
334,245,9249,1,0,0:0:0:0:
363,162,9416,1,0,0:0:0:0:
451,236,9582,2,0,L|392:221,1,36,8|0,0:3|0:0,0:0:0:0:
248,168,9749,2,0,L|283:177,1,36,8|0,0:3|0:0,0:0:0:0:
422,355,9916,6,0,P|408:325|387:305,1,53.9999983520508,0|0,1:2|0:0,0:0:0:0:
344,373,10082,2,0,P|316:354|288:348,1,45,0|0,1:2|0:0,0:0:0:0:
253,262,10249,6,0,P|240:272|205:284,1,36,0|0,1:2|0:0,0:0:0:0:
209,358,10416,2,0,P|190:359|170:352,1,26.9999991760254,0|0,1:2|0:0,0:0:0:0:
124,198,10582,5,0,1:2:0:0:
134,209,10666,1,0,0:0:0:0:
141,225,10749,2,0,P|141:252|129:285,1,53.9999983520508,0|0,1:2|0:0,0:0:0:0:
27,253,10916,6,0,P|32:220|50:187,1,53.9999983520508,0|0,1:2|0:0,0:0:0:0:
133,298,11082,2,0,P|114:318|67:329,1,53.9999983520508,0|0,1:2|0:2,0:2:0:0:
0,116,11249,6,0,B|120:97|77:173|202:154,1,202.500007724762,2|0,3:2|0:2,0:2:0:0:
216,145,11582,2,0,P|209:91|198:35,1,99.0000030212403,8|2,0:2|0:2,0:0:0:0:
292,80,11916,1,0,0:0:0:0:
410,19,12082,1,0,3:2:0:0:
399,29,12166,1,0,0:0:0:0:
389,43,12249,2,0,P|381:67|379:107,1,49.5000015106202,8|0,0:2|0:0,0:0:0:0:
327,157,12416,2,0,P|338:179|366:208,1,49.5000015106202,0|0,0:2|0:0,0:0:0:0:
512,298,12582,5,2,3:2:0:0:
464,297,12666,1,0,0:0:0:0:
416,295,12749,1,2,0:2:0:0:
363,292,12832,1,2,0:2:0:0:
315,291,12916,1,10,0:2:0:0:
443,212,13082,1,2,0:2:0:0:
390,381,13249,1,2,0:2:0:0:
447,199,13416,1,2,3:2:0:0:
499,384,13582,1,10,0:2:0:0:
255,189,13749,6,0,P|270:284|285:389,1,198.000006042481,2|2,0:2|0:2,0:2:0:0:
383,96,14249,2,0,P|376:132|368:163,1,49.5000015106202,10|0,0:2|0:2,0:2:0:0:
347,220,14416,1,2,0:2:0:0:
467,111,14582,1,0,0:0:0:0:
255,189,14749,1,0,3:2:0:0:
267,0,14916,2,0,L|282:101,1,99.0000030212403,8|0,0:2|0:2,0:2:0:0:
360,16,15249,5,2,3:2:0:0:
255,189,15416,1,2,0:2:0:0:
240,186,15499,1,2,0:2:0:0:
226,183,15582,2,0,P|192:177|148:169,1,49.5000015106202,10|0,0:2|0:0,0:0:0:0:
162,83,15749,2,0,P|137:90|113:105,1,49.5000015106202,2|0,0:2|0:0,0:0:0:0:
20,268,15916,2,0,P|61:246|127:248,1,99.0000030212403,2|2,0:2|3:2,0:0:0:0:
215,340,16249,1,10,0:2:0:0:
261,366,16332,1,2,0:2:0:0:
315,364,16416,1,2,0:2:0:0:
360,334,16499,1,2,0:2:0:0:
379,283,16582,6,0,P|370:224|357:148,1,99.0000030212403,2|0,3:2|0:0,0:2:0:0:
363,185,16832,1,0,0:2:0:0:
363,185,16916,1,8,0:2:0:0:
288,273,17082,1,2,0:2:0:0:
469,93,17249,2,0,L|463:167,1,49.5000015106202,0|0,0:0|0:2,0:0:0:0:
457,226,17416,1,0,3:2:0:0:
392,28,17582,2,0,P|360:73|303:80,1,99.0000030212403,8|2,0:2|0:2,0:0:0:0:
127,0,17916,6,0,P|137:49|147:96,1,99.0000030212403,2|2,3:2|0:2,0:0:0:0:
226,27,18249,1,10,0:2:0:0:
49,75,18416,1,2,0:2:0:0:
222,149,18582,2,0,P|212:199|202:245,1,99.0000030212403,2|2,0:2|3:2,0:0:0:0:
293,208,18916,1,10,0:2:0:0:
132,177,19082,1,2,0:2:0:0:
62,357,19249,6,0,P|141:345|225:335,1,148.50000453186,2|0,3:2|0:2,0:2:0:0:
237,333,19582,1,10,0:2:0:0:
499,315,19749,2,0,P|473:324|435:323,1,49.5000015106202,2|2,0:2|0:2,0:0:0:0:
299,260,19916,2,0,P|327:271|362:273,1,49.5000015106202,2|0,0:2|0:0,0:0:0:0:
477,205,20082,2,0,P|453:213|416:215,1,49.5000015106202,2|0,3:2|0:0,0:0:0:0:
329,368,20249,2,0,P|277:356|225:322,1,99.0000030212403,10|0,0:2|0:2,0:2:0:0:
212,246,20499,1,0,0:2:0:0:
200,237,20582,6,0,P|168:250|151:284,1,49.5000015106202,2|0,3:2|0:0,0:2:0:0:
81,234,20749,1,0,0:2:0:0:
66,239,20832,2,0,P|66:274|91:303,1,49.5000015106202,2|8,0:2|0:2,0:2:0:0:
44,93,21082,2,0,P|96:143|168:142,1,148.50000453186,2|2,0:2|0:2,0:2:0:0:
193,124,21416,2,0,L|185:69,1,49.5000015106202,0|0,3:2|0:2,0:0:0:0:
300,0,21582,1,10,0:2:0:0:
296,49,21666,1,0,0:0:0:0:
292,98,21749,1,0,0:0:0:0:
288,147,21832,1,0,0:2:0:0:
283,196,21916,5,2,3:2:0:0:
446,91,22082,1,0,0:0:0:0:
412,93,22166,1,0,0:2:0:0:
383,96,22249,1,8,0:2:0:0:
406,13,22416,1,2,0:2:0:0:
355,248,22582,2,0,P|381:242|403:240,1,49.5000015106202,2|0,0:2|0:2,0:2:0:0:
512,182,22749,2,0,P|483:177|463:174,1,49.5000015106202,2|0,3:2|0:2,0:2:0:0:
350,384,22916,2,0,P|313:338|213:322,1,148.50000453186,10|0,0:2|0:2,0:2:0:0:
228,318,23249,5,2,3:2:0:0:
52,303,23416,1,2,0:2:0:0:
58,280,23499,1,2,0:2:0:0:
63,260,23582,1,10,0:2:0:0:
132,363,23749,1,2,0:2:0:0:
5,139,23916,2,0,L|22:185,1,49.5000015106202,2|2,0:3|0:3,0:0:0:0:
58,280,24082,1,2,3:3:0:0:
209,118,24249,1,10,0:2:0:0:
121,354,24416,1,2,0:3:0:0:
137,17,24582,6,0,B|123:42|106:57|106:57|106:77|122:99|122:99|121:123|115:163,1,148.50000453186,2|0,3:2|0:2,0:2:0:0:
177,214,24916,2,0,P|232:206|290:201,1,99.0000030212403,10|2,0:2|0:2,0:2:0:0:
348,50,25249,2,0,P|357:72|365:99,1,49.5000015106202,2|0,0:2|0:2,0:2:0:0:
432,170,25416,2,0,P|441:140|449:121,1,49.5000015106202,2|0,3:2|0:2,0:2:0:0:
433,39,25582,1,10,0:2:0:0:
209,118,25749,1,0,0:0:0:0:
238,115,25832,1,0,0:2:0:0:
268,113,25916,5,2,3:2:0:0:
246,200,26082,1,2,0:2:0:0:
359,105,26249,1,10,0:2:0:0:
315,292,26416,1,2,0:2:0:0:
227,34,26582,1,2,0:3:0:0:
124,183,26749,1,2,3:3:0:0:
74,174,26832,1,0,0:2:0:0:
47,131,26916,1,10,0:2:0:0:
50,81,26999,1,2,0:2:0:0:
86,47,27082,2,0,L|169:67,1,49.5000015106202,2|2,0:3|0:2,0:0:0:0:
336,206,27249,6,0,P|262:215|225:274,1,148.50000453186,0|0,3:2|0:2,0:2:0:0:
204,280,27582,2,0,L|222:404,1,99.0000030212403,8|0,0:2|0:2,0:0:0:0:
482,229,27916,2,0,P|461:244|439:277,1,49.5000015106202,2|0,0:2|0:2,0:2:0:0:
315,292,28082,2,0,P|345:294|378:307,1,49.5000015106202,2|0,3:2|0:2,0:2:0:0:
436,353,28249,1,10,0:2:0:0:
413,117,28416,1,0,0:0:0:0:
408,143,28499,1,0,0:2:0:0:
404,166,28582,5,2,3:2:0:0:
312,29,28749,1,2,0:2:0:0:
313,135,28916,1,10,0:2:0:0:
445,0,29082,1,2,0:2:0:0:
306,147,29249,1,2,0:3:0:0:
512,80,29416,1,2,3:3:0:0:
300,23,29582,1,10,0:2:0:0:
440,268,29749,6,0,L|414:121,1,148.50000453186,2|0,0:3|0:0,0:0:0:0:
407,99,30082,1,0,0:0:0:0:
336,238,30249,1,10,0:2:0:0:
512,174,30416,1,2,0:2:0:0:
178,121,30582,1,0,0:0:0:0:
424,181,30749,1,0,3:2:0:0:
225,273,30916,1,8,0:2:0:0:
356,112,31082,6,0,B|373:91|394:82|394:82|310:90|253:35|253:35|300:94|274:167,1,337.500012874604,0|0,3:2|0:2,0:0:0:0:
148,41,31582,6,0,P|237:58|244:165,1,202.500007724762,2|0,1:2|0:2,0:2:0:0:
164,198,31916,6,0,P|125:183|101:152,1,80.9999975280763,2|0,1:2|0:0,0:0:0:0:
398,27,32082,6,0,P|365:63|355:111,1,99.0000030212403,2|0,1:2|0:2,0:2:0:0:
471,305,32249,5,10,0:2:0:0:
479,295,32582,6,0,P|435:224|296:247,1,216,6|0,3:2|0:2,0:2:0:0:
289,256,32916,2,0,P|295:293|301:333,1,72,10|0,0:2|0:2,0:2:0:0:
197,315,33082,1,2,0:2:0:0:
400,100,33249,2,0,P|392:165|385:262,1,144,0|2,0:0|3:2,0:0:0:0:
493,175,33582,1,10,0:2:0:0:
281,93,33749,6,2,P|287:123|292:155,3,48,2|2|2|2,0:2|0:2|0:2|3:2,0:2:0:0:
479,18,34082,1,2,0:2:0:0:
263,85,34249,2,0,P|267:62|274:0,1,72,10|0,0:2|0:2,0:2:0:0:
507,182,34416,2,0,P|503:205|500:240,3,48,2|0|0|0,0:2|0:2|0:2|0:2,0:2:0:0:
372,0,34749,2,0,P|383:93|398:252,1,216,2|0,3:2|0:0,0:2:0:0:
399,237,35082,1,2,0:2:0:0:
139,50,35249,6,0,P|236:59|233:157,1,216,2|0,3:2|0:2,0:2:0:0:
206,267,35582,2,0,P|132:250|55:236,1,144,10|2,0:2|0:2,0:2:0:0:
139,147,35916,1,2,0:2:0:0:
193,357,36082,1,2,3:2:0:0:
134,135,36249,1,10,0:2:0:0:
26,352,36416,2,0,P|66:339|102:332,1,72,2|0,0:2|0:0,0:0:0:0:
232,157,36582,6,0,B|358:146|303:226|446:215,1,216,2|0,3:2|0:2,0:2:0:0:
498,168,36916,2,0,L|513:93,1,72,10|0,0:2|0:2,0:2:0:0:
300,30,37082,2,0,L|311:93,3,48,2|0|0|0,0:2|0:2|0:2|0:2,0:2:0:0:
300,30,37416,1,2,3:2:0:0:
368,278,37582,1,10,0:2:0:0:
376,234,37666,1,2,0:2:0:0:
383,183,37749,1,2,0:2:0:0:
391,139,37832,1,2,0:2:0:0:
399,92,37916,5,2,3:2:0:0:
282,257,38082,1,0,0:0:0:0:
479,258,38249,1,10,0:2:0:0:
253,152,38416,1,2,0:2:0:0:
269,382,38582,2,0,P|185:365|88:351,1,144,2|2,0:2|3:2,0:0:0:0:
75,83,38916,1,10,0:2:0:0:
75,83,39082,2,0,P|79:125|85:180,1,72
127,355,39249,5,2,3:2:0:0:
170,112,39416,1,2,0:2:0:0:
16,286,39582,2,0,P|44:288|76:271,2,48,10|0|0,0:2|0:2|0:2,0:2:0:0:
204,256,39749,2,0,P|210:235|211:208,3,48,2|0|0|0,0:2|0:2|0:2|0:2,0:2:0:0:
204,256,40082,1,2,3:2:0:0:
208,54,40249,2,0,P|182:79|169:112,1,72,10|0,0:2|0:0,0:0:0:0:
0,129,40416,2,0,P|13:162|34:191,1,72,2|0,0:2|0:0,0:0:0:0:
97,336,40582,6,0,L|171:328,3,48,2|0|0|0,3:2|0:2|0:2|0:2,0:2:0:0:
16,286,40916,1,10,0:2:0:0:
258,136,41082,1,0,0:0:0:0:
258,136,41416,1,2,3:2:0:0:
473,180,41582,1,10,0:2:0:0:
381,288,41749,2,0,P|372:249|360:188,1,72,2|0,0:2|0:0,0:0:0:0:
325,29,41916,5,2,3:2:0:0:
212,371,42082,1,2,0:2:0:0:
217,333,42166,1,0,0:0:0:0:
223,298,42249,2,0,L|229:246,4,48,10|0|0|0|0,0:2|0:2|0:2|0:2|0:2,0:2:0:0:
41,151,42582,1,2,0:2:0:0:
72,186,42666,1,0,0:0:0:0:
84,228,42749,1,2,3:2:0:0:
78,271,42832,1,0,0:0:0:0:
41,296,42916,2,0,P|56:253|99:226,1,72,10|2,0:2|0:2,0:2:0:0:
157,98,43082,2,0,P|185:104|236:149,1,72,2|2,0:2|0:2,0:2:0:0:
366,0,43249,6,0,P|377:110|395:253,1,216,6|0,3:2|0:2,0:2:0:0:
406,305,43582,1,10,0:2:0:0:
474,42,43749,1,2,0:2:0:0:
278,138,43916,1,2,0:2:0:0:
500,217,44082,1,2,3:2:0:0:
266,136,44249,1,10,0:2:0:0:
353,0,44416,6,0,L|358:53,3,48,0|2|2|2,0:0|0:2|0:2|3:2,0:0:0:0:
253,40,44749,1,2,0:2:0:0:
504,200,44916,2,0,P|465:178|409:175,1,72,10|0,0:2|0:0,0:2:0:0:
399,278,45082,2,0,P|371:297|321:304,3,48,2|0|0|0,0:2|0:2|0:2|0:2,0:2:0:0:
248,351,45416,2,0,P|256:245|267:124,1,216,2|0,3:2|0:0,0:2:0:0:
284,42,45749,1,2,0:2:0:0:
45,295,45916,6,0,P|122:320|122:208,1,216,2|0,3:2|0:2,0:2:0:0:
143,116,46249,2,0,P|64:124|-19:130,1,144,10|0,0:2|0:0,0:2:0:0:
72,36,46582,1,2,0:2:0:0:
43,205,46749,1,0,3:2:0:0:
70,24,46916,1,10,0:2:0:0:
128,328,47082,1,2,0:2:0:0:
264,191,47249,5,2,3:2:0:0:
27,211,47416,1,2,0:2:0:0:
237,320,47582,2,0,P|224:279|233:240,2,48,10|0|0,0:2|0:2|0:2,0:2:0:0:
129,225,47749,2,0,P|144:205|166:190,3,48,2|0|0|0,0:2|0:2|0:2|0:2,0:2:0:0:
139,93,48082,2,0,P|177:91|216:107,1,72,2|0,3:2|0:2,0:2:0:0:
286,33,48249,1,10,0:2:0:0:
311,72,48332,1,2,0:2:0:0:
354,97,48416,1,2,0:2:0:0:
403,105,48499,1,2,0:2:0:0:
451,94,48582,5,2,3:2:0:0:
208,102,48749,1,0,0:0:0:0:
391,8,48916,1,10,0:2:0:0:
293,234,49082,1,2,0:2:0:0:
97,10,49249,2,0,P|111:129|122:238,1,216,2|0,0:2|0:0,0:0:0:0:
133,311,49582,1,10,0:2:0:0:
0,153,49749,6,0,P|19:176|28:195,3,48,2|0|0|2,0:2|0:2|0:2|3:2,0:2:0:0:
228,113,50082,1,2,0:2:0:0:
206,139,50165,1,0,0:0:0:0:
200,172,50249,1,10,0:2:0:0:
139,358,50416,2,0,P|135:332|133:311,3,48,2|0|0|0,0:2|0:2|0:2|0:2,0:2:0:0:
428,179,50749,2,0,B|377:266|343:198|281:212|281:212|325:151|393:173,1,288,2|2,3:2|0:2,0:2:0:0:
506,91,51249,6,0,P|510:121|515:155,3,48,2|0|0|2,3:2|0:2|0:2|0:2,0:2:0:0:
298,340,51582,2,0,P|404:328|512:316,1,216,2|0,3:2|0:0,0:2:0:0:
512,316,51916,1,0,3:2:0:0:
212,211,52082,1,2,3:2:0:0:
369,244,52249,1,2,3:2:0:0:
353,241,52332,1,0,3:2:0:0:
338,240,52415,1,2,3:2:0:0:
324,235,52499,1,0,3:2:0:0:
310,232,52582,5,2,3:2:0:0:
274,343,53916,6,0,P|222:316|154:312,1,121.499996292114,4|0,3:2|0:2,0:2:0:0:
100,247,54249,2,0,P|74:276|65:299,1,53.9999983520508,2|0,0:2|0:0,0:2:0:0:
127,384,54416,2,0,P|118:232|110:109,2,261.000007965088,0|10|0,0:2|0:2|0:0,0:0:0:0:
243,133,54916,2,0,P|206:177|199:208,1,80.9999975280763,2|2,0:2|0:2,0:0:0:0:
309,66,55249,6,0,P|242:36|177:59,1,121.499996292114,2|0,0:2|0:2,0:2:0:0:
175,65,55582,1,2,3:2:0:0:
407,0,55749,2,0,P|400:130|392:284,2,261.000007965088,2|10|2,0:2|0:2|0:2,0:0:0:0:
496,27,56249,1,2,0:2:0:0:
374,127,56416,1,0,0:0:0:0:
511,238,56582,6,0,B|458:245|458:245|449:252|449:252|387:261,1,121.499996292114,2|0,3:2|0:2,0:2:0:0:
392,260,56916,1,2,0:2:0:0:
304,384,57082,2,0,L|287:103,2,261.000007965088,0|10|0,0:2|0:2|0:2,0:0:0:0:
135,340,57582,6,0,L|221:348,2,80.9999975280763,2|0|2,3:2|1:2|0:2,0:0:0:0:
111,252,58082,1,2,1:2:0:0:
203,186,58249,2,0,B|197:223|197:223|200:237|200:237|193:281,1,80.9999975280763,2|2,3:2|0:2,0:0:0:0:
78,110,58582,2,0,B|33:103|33:103|-3:127,1,85.4999977169037,10|0,0:2|0:2,0:2:0:0:
0,146,58749,2,0,B|47:152|47:152|95:122,1,85.4999977169037,2|0,1:2|0:2,0:2:0:0:
264,93,58916,2,0,B|246:55|209:30|173:28|130:41|130:41|168:75|157:133,1,242.999992584229,2|0,0:2|0:0,0:2:0:0:
122,283,59249,6,0,P|52:264|84:218,1,121.499996292114,6|0,3:2|0:2,0:2:0:0:
73,223,59582,1,2,0:2:0:0:
140,378,59749,2,0,L|160:110,2,261.000007965088,0|10|0,0:2|0:2|0:0,0:0:0:0:
345,232,60249,2,0,P|293:217|239:210,1,107.999996704102,0|2,0:2|0:2,0:0:0:0:
258,108,60582,6,0,P|330:95|439:82,1,161.999995056153,0|0,0:2|0:0,0:0:0:0:
419,85,60916,2,0,P|457:82|458:22,1,108,0|0,3:2|0:0,0:0:0:0:
473,96,61249,2,0,P|453:1|403:5,1,153.000002918243,2|0,1:2|0:0,0:0:0:0:
345,156,61499,2,0,P|336:81|302:13,1,153.000002918243,2|0,1:2|0:0,0:0:0:0:
283,226,61749,2,0,P|305:195|318:160,1,76.5000014591217,2|0,1:2|0:0,0:0:0:0:
479,184,61916,5,2,3:2:0:0:
478,344,62082,1,0,0:2:0:0:
481,327,62166,2,0,P|405:288|329:318,1,161.999995056153,2|2,0:2|0:2,0:2:0:0:
273,374,62582,1,8,0:1:0:0:
199,126,62749,1,0,0:2:0:0:
0,236,62916,2,0,B|67:228|67:228|86:234|86:234|179:225,1,161.999995056153,2|0,3:2|0:0,0:0:0:0:
171,238,63249,6,0,L|155:57,1,161.999995056153,0|0,0:0|0:2,0:0:0:0:
156,76,63582,1,2,3:2:0:0:
297,21,63749,1,2,0:2:0:0:
63,75,63916,1,8,0:1:0:0:
355,148,64082,1,0,0:0:0:0:
355,148,64166,2,0,B|270:161|242:93|242:93|289:118|334:105,1,216
184,312,64582,6,0,B|178:276|155:254|155:254|200:177|271:237|271:237|254:268|259:304,1,270,6|0,3:2|0:2,0:2:0:0:
258,299,64916,1,2,0:2:0:0:
379,384,65082,2,0,P|370:241|360:112,2,261.000007965088,0|10|2,0:0|0:2|0:2,0:0:0:0:
496,277,65582,1,2,3:2:0:0:
337,238,65749,1,0,0:2:0:0:
477,77,65916,6,0,P|467:207|458:337,2,261.000007965088,0|8|2,0:0|0:0|0:2,0:0:0:0:
397,31,66416,1,2,3:2:0:0:
283,136,66582,1,2,3:2:0:0:
322,112,66694,1,2,0:2:0:0:
246,111,66805,1,0,0:2:0:0:
282,178,66916,1,2,0:2:0:0:
376,169,67082,6,0,P|245:159|115:150,2,261.000007965088,0|8|0,0:0|0:2|0:0,0:0:0:0:
89,234,67582,1,2,3:2:0:0:
178,328,67749,2,0,L|159:67,2,261.000007965088,0|8|0,0:0|0:2|3:2,0:0:0:0:
394,286,68249,2,2,P|310:263|320:368,1,202.500007724762,2|0,3:2|0:2,0:1:0:0:
320,375,68582,6,0,B|417:369|417:369|427:371|427:371|561:362,2,180.000006866455,2|2|2,3:2|3:2|3:2,0:0:0:0:
457,127,69249,1,6,3:2:0:0:
466,204,69471,1,2,3:2:0:0:
476,282,69694,1,2,3:2:0:0:
340,30,69916,5,2,1:2:0:0:
319,49,70027,1,2,0:2:0:0:
301,63,70138,1,2,0:2:0:0:
317,149,70249,1,2,0:2:0:0:
227,181,70360,1,2,0:2:0:0:
166,109,70471,1,2,0:2:0:0:
221,30,70582,1,10,0:2:0:0:
229,24,70916,2,0,P|236:97|256:285,1,202.500007724762,12|0,3:3|0:2,0:2:0:0:
312,273,71249,6,0,P|383:262|504:245,1,135.000005149842,6|2,3:2|0:2,0:0:0:0:
401,341,71582,1,0,0:0:0:0:
325,182,71749,1,2,0:2:0:0:
503,72,71916,2,0,B|472:117|472:117|315:86,1,202.500007724762,8|0,0:1|0:0,0:2:0:0:
326,88,72249,1,2,0:2:0:0:
232,271,72416,6,0,P|146:273|97:224,1,135.000005149842,2|0,3:2|0:0,0:2:0:0:
70,172,72666,1,0,0:0:0:0:
71,153,72749,1,0,1:2:0:0:
228,146,72916,6,0,P|202:181|155:194,1,72,0|0,1:2|0:0,0:0:0:0:
96,73,73082,2,0,P|128:87|149:116,1,72,0|0,1:2|0:0,0:0:0:0:
202,13,73249,6,0,P|213:37|210:63,1,53.9999983520508,0|0,1:2|0:0,0:0:0:0:
355,105,73416,2,0,P|328:114|282:103,1,53.9999983520508,0|0,1:2|0:0,0:0:0:0:
330,0,73582,6,0,P|319:14|306:26,1,36,0|0,1:2|0:0,0:0:0:0:
439,68,73749,2,0,P|429:52|417:39,1,36,0|0,1:2|0:0,0:0:0:0:
506,269,73916,6,0,P|445:171|379:238,1,202.500007724762,2|0,3:2|0:2,0:2:0:0:
373,209,74249,2,0,P|381:265|389:318,1,99.0000030212403,8|2,0:2|0:2,0:0:0:0:
480,149,74582,1,0,0:0:0:0:
375,323,74749,1,0,3:2:0:0:
235,156,74916,2,0,P|168:147|135:170,1,99.0000030212403,8|0,0:2|0:2,0:0:0:0:
143,161,75166,1,0,0:0:0:0:
143,161,75249,5,2,3:2:0:0:
287,227,75416,1,2,0:2:0:0:
180,380,75582,2,0,L|188:308,1,49.5000015106202,10|0,0:2|0:0,0:0:0:0:
193,243,75749,1,2,0:2:0:0:
0,268,75916,2,0,L|118:254,2,99.0000030212403,2|2|10,0:2|3:2|0:2,0:0:0:0:
0,44,76416,6,0,P|45:79|141:55,1,148.50000453186,2|0,0:2|0:0,0:2:0:0:
145,47,76749,1,2,0:2:0:0:
325,101,76916,1,10,0:2:0:0:
227,0,77082,2,0,P|232:47|239:116,1,99.0000030212403,2|0,0:2|0:2,0:2:0:0:
133,40,77416,1,0,3:2:0:0:
328,18,77582,1,8,0:2:0:0:
175,195,77749,1,2,0:2:0:0:
177,169,77832,1,2,0:2:0:0:
180,143,77916,5,2,3:2:0:0:
0,234,78082,1,2,0:2:0:0:
26,240,78165,1,2,0:2:0:0:
52,246,78248,2,0,P|86:252|130:260,1,49.5000015106202,10|0,0:2|0:0,0:0:0:0:
156,323,78415,2,0,P|185:316|209:311,1,49.5000015106202,2|0,0:2|0:0,0:0:0:0:
285,142,78582,2,0,P|278:199|271:281,1,99.0000030212403,2|0,0:2|3:2,0:0:0:0:
478,321,78915,1,10,0:2:0:0:
452,353,78999,1,2,0:2:0:0:
413,366,79082,1,2,0:2:0:0:
372,356,79165,1,2,0:2:0:0:
346,324,79249,5,2,3:2:0:0:
498,186,79416,1,0,0:0:0:0:
392,146,79582,2,0,P|397:195|402:247,1,99.0000030212403,8|2,0:2|0:2,0:0:0:0:
337,44,79916,1,0,0:0:0:0:
476,77,80082,1,0,3:2:0:0:
192,115,80249,2,0,P|241:115|283:138,1,99.0000030212403,8|0,0:2|0:2,0:2:0:0:
325,204,80499,1,0,0:0:0:0:
324,221,80582,5,2,3:2:0:0:
82,119,80749,1,2,0:2:0:0:
218,31,80916,1,10,0:2:0:0:
158,243,81082,2,0,P|152:196|150:177,1,49.5000015106202,2|0,0:2|0:0,0:0:0:0:
124,37,81249,1,2,0:2:0:0:
247,226,81416,1,2,3:2:0:0:
72,124,81582,1,10,0:2:0:0:
268,354,81749,6,0,B|229:327|229:327|128:352,1,148.50000453186,2|0,0:2|0:0,0:2:0:0:
42,371,82082,2,0,L|68:195,1,148.50000453186,2|0,0:2|0:0,0:2:0:0:
0,165,82416,1,2,3:2:0:0:
161,256,82582,1,2,0:2:0:0:
22,291,82749,1,2,0:2:0:0:
314,291,82916,1,10,0:2:0:0:
169,166,83082,1,2,0:2:0:0:
342,172,83249,5,2,3:2:0:0:
225,384,83416,1,2,0:2:0:0:
228,353,83499,1,2,0:2:0:0:
230,322,83582,1,0,0:0:0:0:
80,216,83749,1,2,3:2:0:0:
181,56,83916,1,2,0:2:0:0:
217,89,83999,1,2,0:2:0:0:
265,96,84082,1,2,0:2:0:0:
314,85,84166,1,2,0:2:0:0:
347,48,84249,2,0,P|341:19|326:-7,1,49.5000015106202,10|2,0:2|0:2,0:0:0:0:
435,112,84416,2,0,P|448:87|453:63,1,49.5000015106202,2|2,0:2|0:2,0:0:0:0:
512,227,84582,6,0,L|346:210,1,135.000005149842,2|0,3:2|0:0,0:2:0:0:
430,308,84916,1,8,0:2:0:0:
289,168,85082,2,0,L|177:187,1,99.0000030212403,2|0,0:2|0:0,0:2:0:0:
132,232,85332,1,0,0:2:0:0:
106,228,85416,1,0,3:2:0:0:
369,219,85582,1,8,0:2:0:0:
280,365,85749,1,2,0:2:0:0:
283,339,85832,1,2,0:2:0:0:
284,311,85916,6,0,L|288:252,1,49.5000015106202,2|0,3:2|0:2,0:2:0:0:
181,333,86082,2,0,L|190:394,1,49.5000015106202,2|0,0:2|0:2,0:2:0:0:
28,247,86249,2,0,L|138:253,2,99.0000030212403,10|2|2,0:2|0:2|0:2,0:0:0:0:
14,121,86749,2,0,L|22:171,1,49.5000015106202,2|0,3:2|0:0,0:0:0:0:
45,338,86916,1,10,0:2:0:0:
237,180,87082,6,0,P|164:169|119:109,1,148.50000453186,2|0,0:2|0:0,0:0:0:0:
103,113,87416,2,0,L|121:-25,1,99.0000030212403,0|10,0:0|0:2,0:0:0:0:
333,105,87749,1,0,0:2:0:0:
333,105,88082,2,0,P|297:85|291:59,1,49.5000015106202,2|2,3:2|0:2,0:0:0:0:
208,90,88249,2,0,P|204:62|217:28,1,49.5000015106202,10|0,0:2|0:0,0:2:0:0:
440,0,88416,1,0,0:2:0:0:
437,32,88499,1,0,0:0:0:0:
432,71,88582,6,0,L|423:179,1,99.0000030212403,0|2,3:2|0:2,0:2:0:0:
493,242,88832,1,2,0:2:0:0:
493,242,88916,2,0,P|464:245|443:268,1,49.5000015106202,10|0,0:2|0:0,0:2:0:0:
249,206,89082,2,0,P|312:213|368:279,1,148.50000453186,0|0,0:2|0:0,0:0:0:0:
366,273,89416,2,0,L|356:353,1,49.5000015106202,2|2,3:2|0:2,0:0:0:0:
341,105,89582,1,10,0:2:0:0:
289,108,89666,1,2,0:2:0:0:
239,114,89749,1,2,0:2:0:0:
190,117,89832,1,2,0:2:0:0:
139,123,89916,5,2,3:2:0:0:
70,38,90082,1,2,0:2:0:0:
171,209,90249,2,0,P|166:270|160:332,1,99.0000030212403,10|2,0:2|0:2,0:0:0:0:
155,26,90582,1,2,0:2:0:0:
89,203,90749,1,2,3:2:0:0:
273,190,90916,1,10,0:2:0:0:
0,114,91082,2,0,P|28:115|60:118,1,49.5000015106202,2|2,0:2|0:2,0:0:0:0:
139,123,91249,5,2,3:2:0:0:
13,266,91416,1,2,0:2:0:0:
10,239,91499,1,0,0:0:0:0:
6,211,91582,1,10,0:2:0:0:
74,27,91749,1,2,0:2:0:0:
180,306,91916,2,0,P|185:250|192:182,1,99.0000030212403,2|2,0:2|3:2,0:0:0:0:
388,45,92249,2,0,P|329:88|257:85,1,148.50000453186,10|0,0:2|0:2,0:2:0:0:
234,73,92582,5,0,3:2:0:0:
377,160,92749,1,0,1:2:0:0:
298,260,92916,2,0,P|290:210|284:173,1,72,8|0,1:2|1:2,0:0:0:0:
488,49,93249,2,0,P|475:110|466:168,1,108,0|0,1:2|0:0,0:0:0:0:
453,179,93582,2,0,P|462:227|467:260,1,72,8|0,1:2|1:2,0:0:0:0:
408,325,93916,5,0,3:2:0:0:
408,325,94082,1,0,1:2:0:0:
198,190,94249,2,0,B|196:236|196:236|205:250|205:250|203:308,1,108,8|0,1:2|0:0,0:2:0:0:
244,369,94582,2,0,P|265:350|275:334,1,36,0|0,1:2|0:0,0:0:0:0:
319,278,94749,2,0,P|292:265|272:263,1,36,0|0,1:2|0:0,0:0:0:0:
92,380,94916,1,8,1:2:0:0:
92,380,95249,6,0,P|76:266|59:147,1,216,6|0,3:2|0:2,0:2:0:0:
156,83,95582,2,0,P|149:124|140:171,1,72,10|0,0:2|0:2,0:2:0:0:
112,258,95749,1,2,0:2:0:0:
51,86,95916,1,0,0:0:0:0:
214,233,96082,1,2,3:2:0:0:
310,37,96249,1,10,0:2:0:0:
50,85,96416,6,0,L|45:38,3,48,2|0|0|2,0:2|0:2|0:2|3:2,0:2:0:0:
241,133,96749,1,2,0:2:0:0:
0,185,96916,2,0,P|27:213|50:222,2,48,10|0|0,0:2|0:2|0:2,0:2:0:0:
66,336,97082,2,0,P|98:331|129:316,3,48,2|2|0|2,0:2|0:2|0:2|0:2,0:2:0:0:
259,348,97416,2,0,L|239:116,1,216,2|0,3:2|0:0,0:2:0:0:
233,54,97749,1,2,0:2:0:0:
429,332,97916,6,0,P|507:323|476:211,1,216,2|0,3:2|0:2,0:2:0:0:
484,190,98249,2,0,P|406:201|334:211,1,144,10|2,0:2|0:2,0:0:0:0:
391,100,98582,1,2,0:2:0:0:
321,335,98749,1,2,3:2:0:0:
307,24,98916,1,10,0:2:0:0:
313,219,99082,1,2,0:2:0:0:
512,56,99249,5,2,3:2:0:0:
201,29,99416,1,2,0:2:0:0:
409,96,99582,2,0,L|393:173,1,72,10|0,0:2|0:2,0:2:0:0:
211,242,99749,2,0,P|215:210|219:174,3,48,2|0|0|0,0:2|0:2|0:2|0:2,0:2:0:0:
82,75,100082,2,0,P|106:109|111:142,1,72,2|0,3:2|0:2,0:2:0:0:
21,221,100249,1,10,0:2:0:0:
0,271,100332,1,2,0:2:0:0:
10,327,100416,1,2,0:2:0:0:
53,363,100499,1,2,0:2:0:0:
109,367,100582,6,0,L|291:344,1,144,2|0,3:2|0:0,0:2:0:0:
332,375,100916,1,10,0:2:0:0:
96,276,101082,1,2,0:2:0:0:
207,95,101249,2,0,L|189:262,1,144,2|2,0:2|3:2,0:0:0:0:
307,172,101582,1,10,0:2:0:0:
82,75,101749,1,0,0:2:0:0:
86,119,101832,1,0,0:2:0:0:
93,171,101916,5,2,3:2:0:0:
199,251,102082,1,2,0:2:0:0:
261,14,102249,2,0,P|291:47|296:73,2,48,10|0|0,0:2|0:2|0:2,0:2:0:0:
406,72,102416,2,0,L|401:120,3,48,2|0|0|0,0:2|0:2|0:2|0:2,0:2:0:0:
406,72,102749,1,2,3:2:0:0:
507,219,102916,2,0,L|404:202,1,72,10|0,0:2|0:0,0:0:0:0:
132,101,103082,2,0,L|235:84,1,72,2|0,0:2|0:0,0:0:0:0:
349,285,103249,6,0,L|343:237,3,48,2|0|0|2,3:2|0:2|0:2|0:2,0:2:0:0:
289,0,103582,2,0,L|301:83,1,72,10|0,0:2|0:0,0:2:0:0:
214,307,103749,2,0,P|127:338|105:238,1,216
167,193,104082,1,2,3:2:0:0:
290,366,104249,1,10,0:2:0:0:
318,156,104416,1,2,0:2:0:0:
283,173,104499,1,2,0:2:0:0:
264,211,104582,5,2,3:2:0:0:
430,251,104749,2,0,L|358:242,1,72,0|0,0:2|0:0,0:0:0:0:
169,196,104916,2,0,L|173:243,4,48,10|0|0|0|0,0:2|0:2|0:2|0:2|0:2,0:2:0:0:
208,26,105249,2,0,L|196:97,1,72,2|0,0:2|0:0,0:2:0:0:
0,230,105416,2,0,L|70:217,1,72,0|0,3:2|0:2,0:0:0:0:
410,153,105582,1,8,0:2:0:0:
249,295,105916,5,4,3:2:0:0:
512,259,111249,6,0,P|422:249|332:241,1,180,0|0,1:2|1:2,0:2:0:0:
332,241,112471,1,0,1:2:0:0:
332,241,112527,1,0,1:2:0:0:
332,240,112582,2,0,P|336:269|342:310,2,60,0|0|0,1:2|1:2|1:2,0:2:0:0:
201,333,113249,2,0,L|218:199,1,135,0|0,1:2|0:0,0:0:0:0:
139,176,113805,1,0,1:2:0:0:
139,176,113860,1,0,1:2:0:0:
139,176,113916,2,0,P|134:140|129:85,1,90,0|0,1:2|0:0,0:2:0:0:
52,139,114416,1,0,0:2:0:0:
257,68,114749,1,0,0:2:0:0:
405,0,115249,6,0,P|403:41|374:90,1,80.9999975280763,0|0,1:2|0:0,0:0:0:0:
257,68,115416,2,0,P|293:51|321:-5,1,80.9999975280763,0|0,1:2|0:0,0:0:0:0:
364,157,115582,6,0,P|331:139|287:140,1,72,0|0,1:2|0:0,0:0:0:0:
357,274,115749,2,0,P|337:241|299:219,1,72,0|0,1:2|0:0,0:0:0:0:
95,100,115916,6,0,P|114:121|126:159,1,53.9999983520508,0|0,3:2|0:0,0:0:0:0:
216,142,116082,2,0,P|214:170|197:195,1,53.9999983520508,0|0,3:2|0:0,0:0:0:0:
118,239,116249,5,8,1:2:0:0:
6,118,116416,1,2,3:3:0:0:
62,315,116582,6,0,P|132:333|194:297,1,148.50000453186,2|0,3:2|0:2,0:2:0:0:
194,297,116916,1,8,0:2:0:0:
29,205,117082,1,2,0:2:0:0:
112,46,117249,2,0,P|118:96|124:152,1,99.0000030212403,0|0,0:0|3:2,0:0:0:0:
363,160,117582,2,0,P|286:150|215:141,1,148.50000453186,10|0,0:2|0:0,0:2:0:0:
215,141,117916,5,2,3:2:0:0:
296,0,118082,1,2,0:2:0:0:
298,29,118166,1,2,0:2:0:0:
299,56,118249,1,10,0:2:0:0:
391,76,118416,1,2,0:2:0:0:
207,31,118582,1,0,0:0:0:0:
440,0,118749,1,0,3:2:0:0:
352,256,118916,2,0,P|425:234|441:203,1,99.0000030212403,10|2,0:2|0:3,0:2:0:0:
201,123,119249,6,0,P|208:178|215:244,1,99.0000030212403,2|0,3:2|0:2,0:2:0:0:
155,296,119499,1,0,0:2:0:0:
155,296,119582,1,10,0:2:0:0:
294,169,119749,1,2,0:0:0:0:
101,110,119916,2,0,P|108:58|117:-8,1,99.0000030212403,0|0,0:0|3:2,0:0:0:0:
8,259,120249,2,0,P|59:216|114:211,1,99.0000030212403,10|2,0:2|0:3,0:2:0:0:
252,295,120582,6,0,P|306:313|358:291,1,99.0000030212403,2|2,3:2|0:2,0:0:0:0:
392,228,120832,1,2,0:2:0:0:
392,228,120916,1,10,0:2:0:0:
294,169,121082,2,0,L|306:236,1,49.5000015106202,0|0,0:2|0:0,0:0:0:0:
159,365,121249,1,2,0:2:0:0:
164,326,121332,1,0,0:0:0:0:
169,290,121416,1,0,3:2:0:0:
173,255,121499,1,0,0:0:0:0:
179,217,121582,1,10,0:2:0:0:
80,300,121749,1,2,0:3:0:0:
0,71,121916,6,0,B|49:56|49:56|107:77|107:77|139:59,1,148.50000453186,2|0,3:2|0:2,0:2:0:0:
159,46,122249,1,8,0:2:0:0:
260,93,122416,2,0,P|271:144|286:214,1,99.0000030212403,2|0,0:2|0:0,0:2:0:0:
236,0,122749,1,0,3:2:0:0:
416,45,122916,2,0,P|405:91|392:167,1,99.0000030212403,10|2,0:2|0:3,0:2:0:0:
328,35,123249,5,2,3:2:0:0:
202,186,123416,1,0,0:0:0:0:
202,186,123499,1,0,0:2:0:0:
202,186,123582,1,8,0:2:0:0:
282,382,123749,1,2,0:2:0:0:
202,277,123916,1,0,0:0:0:0:
229,282,123999,1,0,0:2:0:0:
262,286,124082,1,0,3:2:0:0:
294,289,124166,1,0,0:0:0:0:
328,294,124249,1,10,0:2:0:0:
408,235,124416,1,2,0:3:0:0:
307,50,124582,6,0,L|323:214,1,148.50000453186,2|0,3:2|0:2,0:2:0:0:
322,198,124916,1,8,0:2:0:0:
470,61,125082,2,0,P|430:93|414:145,1,99.0000030212403,2|0,0:2|0:0,0:2:0:0:
385,7,125416,1,0,3:2:0:0:
160,93,125582,2,0,P|202:120|232:166,1,99.0000030212403,10|2,0:2|0:3,0:2:0:0:
216,18,125916,5,2,3:2:0:0:
135,183,126082,1,0,0:2:0:0:
135,183,126166,1,2,0:2:0:0:
226,155,126416,1,2,0:2:0:0:
0,28,126582,1,2,0:2:0:0:
3,61,126666,1,0,0:0:0:0:
7,96,126749,1,0,3:2:0:0:
10,128,126832,1,2,0:2:0:0:
13,161,126916,1,8,0:2:0:0:
95,0,127082,2,0,P|88:38|83:75,1,49.5000015106202,2|2,0:3|0:3,0:0:0:0:
0,295,127249,6,0,B|31:267|62:259|62:259|118:286|118:286|210:263,1,198.000006042481,4|8,3:2|0:2,0:2:0:0:
130,190,127749,1,2,0:2:0:0:
56,361,127916,1,0,0:0:0:0:
194,276,128082,1,0,3:2:0:0:
0,63,128249,2,0,L|15:186,1,99.0000030212403,10|2,0:2|0:3,0:2:0:0:
317,177,128582,6,0,P|259:189|205:153,1,99.0000030212403,2|0,3:2|0:0,0:2:0:0:
224,173,128832,1,0,0:2:0:0:
224,173,128916,1,8,0:2:0:0:
339,70,129082,1,2,0:2:0:0:
388,273,129249,2,0,P|438:267|507:259,1,99.0000030212403,0|0,0:0|3:2,0:0:0:0:
404,158,129582,1,10,0:2:0:0:
389,365,129749,1,2,0:3:0:0:
407,147,129916,5,2,3:2:0:0:
281,296,130082,1,2,0:2:0:0:
284,325,130165,1,2,0:2:0:0:
288,353,130249,1,10,0:2:0:0:
395,254,130416,1,2,0:2:0:0:
189,72,130582,2,0,P|146:115|149:199,1,148.50000453186,2|0,0:2|0:0,0:2:0:0:
153,218,130916,2,0,P|204:211|274:203,1,99.0000030212403,10|0,0:2|0:0,0:2:0:0:
0,8,131249,6,0,P|39:58|43:117,1,99.0000030212403,2|0,3:2|0:2,0:2:0:0:
45,91,131499,1,2,0:2:0:0:
45,91,131582,1,8,0:2:0:0:
119,17,131749,1,2,0:2:0:0:
55,298,131916,1,2,0:2:0:0:
0,211,132082,1,0,3:2:0:0:
0,211,132165,1,2,0:2:0:0:
152,146,132416,1,2,0:3:0:0:
120,384,132582,6,0,P|144:341|185:314,1,99.0000030212403,2|0,3:2|0:0,0:2:0:0:
281,296,132832,1,0,0:2:0:0:
281,296,132916,1,10,0:2:0:0:
144,235,133082,1,2,0:2:0:0:
256,101,133249,2,0,P|247:159|240:209,1,99.0000030212403,0|0,0:0|3:2,0:0:0:0:
459,384,133582,2,0,P|449:299|440:210,1,148.50000453186,10|0,0:2|0:0,0:2:0:0:
434,154,133916,5,2,3:2:0:0:
309,381,134082,1,0,0:0:0:0:
336,366,134166,1,0,0:2:0:0:
357,332,134249,1,10,0:2:0:0:
241,198,134416,1,2,0:2:0:0:
511,66,134582,2,0,P|461:59|408:50,1,99.0000030212403,0|0,0:0|3:2,0:0:0:0:
347,216,134916,1,10,0:2:0:0:
296,17,135082,1,2,0:3:0:0:
123,153,135249,6,0,P|194:106|239:100,1,99.0000030212403,2|2,3:2|0:2,0:2:0:0:
206,102,135499,1,2,0:2:0:0:
206,102,135582,1,10,0:2:0:0:
2,5,135749,2,0,P|11:95|25:214,1,198.000006042481,2|0,0:2|3:2,0:2:0:0:
219,203,136249,1,10,0:2:0:0:
114,142,136416,1,0,0:0:0:0:
122,340,136582,6,0,P|128:289|137:220,1,99.0000030212403,2|2,3:2|0:2,0:2:0:0:
215,111,136916,2,0,P|206:83|208:61,1,45,2|0,0:2|0:2,0:2:0:0:
291,52,137249,2,0,P|299:74|297:96,1,45,2|0,0:2|0:2,0:2:0:0:
476,142,137916,5,2,3:2:0:0:
445,122,137999,1,2,0:2:0:0:
409,117,138082,1,2,0:2:0:0:
375,131,138166,1,2,0:2:0:0:
362,164,138249,2,0,L|373:217,3,45,2|2|2|2,3:2|0:2|0:2|0:2,0:2:0:0:
480,266,138582,2,0,L|470:310,3,45,2|2|2|2,3:2|0:2|0:2|0:2,0:0:0:0:
372,384,138916,1,2,3:2:0:0:
336,380,138999,1,2,0:2:0:0:
300,376,139082,1,2,0:2:0:0:
263,372,139166,1,2,0:2:0:0:
227,367,139249,6,0,L|176:356,3,45,2|2|2|2,3:2|0:2|0:2|0:2,0:2:0:0:
341,296,139582,2,0,L|378:293,5,30,2|0|0|2|0|0,3:2|0:0|0:0|0:2|0:0|0:0,0:2:0:0:
284,175,139916,2,0,P|283:203|278:237,1,45,2|2,3:2|0:2,0:0:0:0:
179,156,140082,2,0,P|190:180|197:213,1,45,2|2,0:2|0:2,0:0:0:0:
104,235,140249,2,0,P|103:257|97:282,1,45,2|2,3:2|0:2,0:0:0:0:
0,200,140415,2,0,P|9:220|15:241,1,45,2|0,0:2|0:2,0:2:0:0:
101,55,140582,6,0,L|96:121,3,45,2|2|2|2,3:2|0:2|0:2|0:2,0:0:0:0:
198,20,140916,2,0,L|201:64,3,45,2|2|2|2,3:2|0:2|0:2|0:2,0:2:0:0:
308,0,141249,1,2,3:2:0:0:
302,43,141332,1,2,0:2:0:0:
297,88,141416,1,2,0:2:0:0:
291,132,141499,1,2,0:2:0:0:
286,175,141582,2,0,L|278:234,1,45,2|0,3:2|0:2,0:2:0:0:
401,129,141749,2,0,L|391:62,1,45,2|0,0:2|0:2,0:2:0:0:
505,244,141916,5,2,3:2:0:0:
467,217,141999,1,2,0:2:0:0:
422,219,142082,1,2,0:2:0:0:
386,247,142166,1,2,0:2:0:0:
378,291,142249,2,0,L|386:337,4,30,2|0|0|2|0,3:2|0:0|0:0|0:2|0:0,0:2:0:0:
195,159,142582,2,0,L|187:219,3,45,2|2|2|2,3:2|0:2|0:2|0:2,0:0:0:0:
284,354,142916,2,0,L|276:293,3,45,2|2|2|0,3:2|0:2|0:2|0:2,0:0:0:0:
2,285,143249,6,0,L|57:273,1,45,2|0,3:2|0:0,0:0:0:0:
113,326,143416,2,0,L|109:377,1,45,0|0,3:2|0:0,0:0:0:0:
0,81,143582,2,0,P|20:90|42:93,1,45,2|0,3:2|0:0,0:0:0:0:
58,179,143749,2,0,P|79:171|96:157,1,45,0|0,3:2|0:0,0:0:0:0:
264,0,143916,2,0,L|254:57,1,45,2|0,3:2|0:0,0:0:0:0:
179,72,144082,2,0,L|189:129,1,45,0|0,3:2|0:0,0:0:0:0:
286,195,144249,1,2,3:2:0:0:
330,189,144332,1,0,0:0:0:0:
375,184,144416,1,0,3:2:0:0:
419,178,144499,1,0,0:0:0:0:
468,172,144582,6,0,L|474:113,1,45,2|0,3:2|1:2,0:2:0:0:
344,45,144749,2,0,L|350:104,1,45,0|0,3:2|1:2,0:2:0:0:
374,275,144916,2,0,L|382:325,1,45,2|0,3:2|1:2,1:2:0:0:
281,379,145082,2,0,L|287:321,1,45,0|0,3:2|1:2,1:2:0:0:
285,194,145249,2,0,L|242:185,1,45,2|0,3:2|1:2,1:2:0:0:
457,254,145416,2,0,L|509:266,1,45,0|0,3:2|1:2,1:2:0:0:
173,247,145582,2,0,L|129:256,1,45,2|0,3:2|1:2,1:2:0:0:
375,184,145749,2,0,L|427:171,1,45,0|0,3:2|1:2,0:2:0:0:
31,31,145916,6,0,B|99:105|225:80|225:80|190:36|198:-17|198:-17|155:23|96:-8|96:-8|165:158|165:158|125:152|93:175,1,675,2|0,3:2|0:2,0:2:0:0:
8,160,147249,6,0,P|8:183|15:204,1,45,0|0,0:2|0:2,0:2:0:0:
0,282,147416,2,0,P|12:301|31:313,1,45,0|0,0:2|0:2,0:0:0:0:
88,369,147582,2,0,B|124:363|124:363|135:367|135:367|147:360|147:360|194:354,1,94.499997116089,2|0,0:2|0:2,0:2:0:0:
221,225,147916,2,0,P|213:244|215:284,1,49.5000015106202,2|0,0:2|0:2,0:2:0:0:
320,345,148082,2,0,P|342:285|329:232,1,112.5,2|0,0:2|0:2,0:2:0:0:
197,110,148249,1,8,0:2:0:0:
190,125,148582,6,0,B|291:141|291:141|310:134|310:134|423:148,1,216,6|0,3:2|0:2,0:2:0:0:
467,102,148916,1,8,0:2:0:0:
262,52,149082,1,2,0:2:0:0:
113,248,149249,2,0,P|103:176|94:104,1,144,0|2,0:0|3:2,0:0:0:0:
273,45,149582,1,10,0:2:0:0:
17,45,149749,1,2,0:2:0:0:
17,45,149832,1,0,0:0:0:0:
17,45,149916,5,2,3:2:0:0:
276,160,150082,1,2,0:2:0:0:
14,199,150249,2,0,L|26:287,1,72,10|0,0:2|0:2,0:2:0:0:
122,337,150416,2,0,L|116:389,4,48,2|0|0|0|0,0:2|0:2|0:2|0:2|0:0,0:2:0:0:
400,280,150749,2,0,B|258:297|324:211|177:242,1,216,2|0,3:2|0:0,0:2:0:0:
195,238,151082,1,2,0:2:0:0:
502,116,151249,6,0,P|477:24|376:51,1,216,2|0,3:2|0:2,0:2:0:0:
348,47,151582,2,0,P|355:121|363:194,1,144,10|2,0:2|0:2,0:0:0:0:
469,209,151916,1,2,0:2:0:0:
270,148,152082,1,2,3:2:0:0:
381,367,152249,1,10,0:2:0:0:
363,199,152416,1,2,0:2:0:0:
228,369,152582,5,2,3:2:0:0:
248,365,152666,1,0,0:0:0:0:
266,351,152749,2,0,P|280:328|290:273,1,72,0|0,0:0|0:2,0:0:0:0:
127,304,152916,2,0,P|157:304|191:281,2,48,10|0|0,0:2|0:2|0:2,0:2:0:0:
80,185,153082,2,0,P|99:203|121:211,3,48,2|0|0|0,0:2|0:2|0:2|0:2,0:2:0:0:
142,45,153416,2,0,P|140:84|160:124,1,72,2|2,3:2|0:2,0:0:0:0:
415,185,153582,1,10,0:2:0:0:
363,189,153665,1,2,0:2:0:0:
308,192,153748,1,2,0:2:0:0:
263,194,153832,1,2,0:2:0:0:
208,196,153916,5,2,3:2:0:0:
376,287,154082,1,0,0:0:0:0:
267,74,154249,1,10,0:2:0:0:
188,292,154416,1,2,0:2:0:0:
511,98,154582,2,0,P|447:92|351:83,1,144,2|0,0:2|3:2,0:2:0:0:
140,378,154916,2,0,P|94:325|103:251,1,144,10|2,0:2|0:2,0:0:0:0:
165,192,155166,1,0,0:0:0:0:
165,192,155249,5,2,3:2:0:0:
232,374,155416,1,2,0:2:0:0:
18,121,155582,2,0,P|42:154|79:165,1,72,10|0,0:2|0:2,0:2:0:0:
188,292,155749,2,0,P|213:287|236:273,3,48,2|0|0|0,0:2|0:2|0:2|0:2,0:2:0:0:
330,384,156082,2,0,P|338:302|445:221,1,216,2|0,3:2|0:2,0:0:0:0:
437,222,156416,1,2,0:2:0:0:
162,106,156582,6,0,P|183:169|322:167,1,216,2|0,3:2|0:2,0:2:0:0:
341,101,156916,1,10,0:2:0:0:
188,292,157082,1,0,0:0:0:0:
188,292,157416,1,2,3:2:0:0:
253,112,157582,1,10,0:2:0:0:
309,384,157749,1,2,0:2:0:0:
250,97,157916,5,2,3:2:0:0:
389,285,158082,1,2,0:2:0:0:
427,281,158166,1,0,0:0:0:0:
465,275,158249,2,0,L|522:266,4,48,10|0|0|0|0,0:2|0:2|0:2|0:2|0:2,0:2:0:0:
425,173,158582,2,0,P|433:138|440:103,1,72,0|0,0:2|0:0,0:0:0:0:
357,78,158749,2,0,P|350:113|340:147,1,72,10|2,0:2|0:2,0:0:0:0:
298,311,158916,2,0,P|302:347|308:383,1,72,2|0,3:2|0:0,0:0:0:0:
398,358,159083,2,0,P|393:322|388:286,1,72,2|2,0:2|0:2,0:0:0:0:
250,97,159249,6,0,B|113:98|174:155|33:143,1,216,2|0,3:2|0:2,0:2:0:0:
43,143,159582,1,10,0:2:0:0:
164,23,159749,1,2,0:2:0:0:
200,327,159916,2,0,P|211:245|221:171,1,144,2|2,0:2|3:2,0:0:0:0:
80,56,160249,1,10,0:2:0:0:
63,244,160416,2,0,P|103:235|129:226,2,48,2|0|0,0:2|0:2|0:2,0:2:0:0:
301,186,160582,5,2,3:2:0:0:
198,347,160749,1,2,0:2:0:0:
158,120,160916,1,10,0:2:0:0:
308,302,161082,2,0,P|332:300|372:276,3,48,2|0|0|0,0:2|0:2|0:2|0:2,0:2:0:0:
433,8,161416,2,0,P|420:158|407:250,1,216,2|0,3:2|0:0,0:0:0:0:
451,303,161749,1,0,0:0:0:0:
211,86,161916,6,0,P|191:167|307:169,1,216,2|0,3:2|0:2,0:2:0:0:
324,188,162249,2,0,P|313:103|302:1,1,144,10|2,0:2|0:2,0:0:0:0:
461,134,162582,1,2,0:2:0:0:
306,45,162749,1,2,3:2:0:0:
411,222,162916,1,10,0:2:0:0:
463,14,163082,2,0,P|433:48|390:60,1,72,2|0,0:2|0:0,0:0:0:0:
321,277,163249,6,0,P|265:193|140:171,1,216,2|0,3:2|0:0,0:0:0:0:
81,215,163582,2,0,L|100:316,1,72,10|0,0:2|0:2,0:2:0:0:
195,33,163749,2,0,P|200:65|204:97,3,48,2|0|0|0,0:2|0:2|0:2|0:2,0:2:0:0:
318,45,164082,2,0,P|312:88|304:140,1,72,2|0,3:2|0:2,0:2:0:0:
496,199,164249,1,10,0:2:0:0:
448,178,164332,1,2,0:2:0:0:
395,187,164416,1,2,0:2:0:0:
360,224,164499,1,2,0:2:0:0:
350,276,164582,5,2,3:2:0:0:
405,88,164749,1,0,0:0:0:0:
106,227,164916,2,0,P|183:219|259:210,1,144,10|2,0:2|0:2,0:2:0:0:
442,265,165249,1,2,0:2:0:0:
183,118,165416,1,2,3:2:0:0:
251,305,165582,1,10,0:2:0:0:
305,44,165749,2,0,L|288:147,1,72,2|0,0:2|0:0,0:2:0:0:
267,212,165916,5,2,3:2:0:0:
206,25,166082,1,2,0:2:0:0:
476,78,166249,2,0,L|394:89,1,72,10|0,0:2|0:2,0:2:0:0:
183,118,166416,2,0,P|151:123|114:128,3,48,2|0|0|0,0:2|0:2|0:2|0:2,0:2:0:0:
508,177,166749,2,0,P|425:175|363:295,1,216,2|0,3:2|0:2,0:0:0:0:
388,356,167082,1,2,0:2:0:0:
48,198,167249,5,2,3:2:0:0:
247,229,167471,5,2,3:2:0:0:
474,264,167694,5,2,3:2:0:0:
508,177,167916,5,2,3:2:0:0:
245,239,168138,5,2,3:2:0:0:
0,298,168360,5,2,3:2:0:0:
174,135,168582,5,2,3:2:0:0:
84,215,168916,6,0,P|81:155|78:108,1,94.499997116089,2|0,0:2|0:0,0:2:0:0:
90,0,169249,2,0,B|46:113|46:113|126:211|126:211|115:232|59:378,1,377.999988464356,2|0,0:2|0:2,0:2:0:0:
67,351,169916,6,0,P|196:280|346:311,1,256.499993150711,6|0,3:2|0:2,0:2:0:0:
337,147,170249,2,2,P|377:196|388:241,1,94.499997116089,2|0,0:2|0:0,0:2:0:0:
394,303,170582,2,0,P|385:218|374:87,1,202.500007724762,2|0,0:2|0:2,0:2:0:0:
403,23,170916,2,0,P|399:76|384:224,1,202.500007724762,2|0,0:2|0:2,0:2:0:0:
511,209,171249,6,0,P|483:227|460:262,1,67.5000025749208,2|0,0:2|0:2,0:2:0:0:
269,197,171416,2,0,P|291:221|307:251,1,67.5000025749208,2|0,0:2|0:2,0:2:0:0:
497,88,171582,2,0,P|392:110|305:64,1,202.500007724762,2|0,3:2|0:2,0:2:0:0:
310,69,171916,2,0,P|363:59|403:23,1,107.999996704102,10|0,1:1|1:2,0:2:0:0:
231,9,172249,1,4,0:3:0:0:
386,222,172416,1,0,1:2:0:0:
247,149,172582,6,0,P|216:133|178:131,1,53.9999983520508,4|0,3:2|0:2,0:2:0:0:
14,186,172749,2,0,P|20:239|23:266,1,53.9999983520508,2|0,0:2|0:2,0:2:0:0:
30,317,172916,2,0,P|36:370|39:397,1,53.9999983520508,2|0,0:2|0:2,0:2:0:0:
104,260,173082,2,0,P|117:98|127:-30,2,261.000007965088,2|10|0,0:2|0:2|0:0,0:2:0:0:
140,358,173582,2,0,P|164:340|207:339,1,53.9999983520508,2|0,3:2|0:2,0:2:0:0:
196,251,173749,2,0,P|225:255|256:285,1,53.9999983520508,2|0,0:2|0:2,0:2:0:0:
309,211,173916,6,2,P|326:235|327:278,1,53.9999983520508,0|0,0:2|0:2,0:2:0:0:
399,320,174082,2,0,P|396:340|394:362,2,26.9999991760254,2|0|0,1:2|0:2|0:2,0:2:0:0:
496,210,174249,2,0,P|456:233|414:215,1,94.499997116089,2|0,3:2|0:2,0:2:0:0:
406,78,174416,2,0,P|393:121|351:138,1,94.499997116089,2|0,0:2|0:2,0:2:0:0:
250,106,174582,2,0,P|238:58|270:3,1,94.499997116089,10|0,0:2|0:2,0:2:0:0:
265,17,174749,2,0,P|277:65|245:120,1,94.499997116089,2|0,1:2|0:2,0:2:0:0:
157,104,174916,2,0,P|116:68|156:51,1,108,2|0,0:2|0:0,0:2:0:0:
100,180,175249,6,0,B|66:175|41:124|41:124|71:349,1,283.499991348267,2|0,3:2|0:2,0:2:0:0:
148,264,175582,1,2,0:2:0:0:
162,354,175749,2,0,B|287:340|287:340|296:344|296:344|486:316,2,261.000007965088,0|10|0,0:0|0:2|0:0,0:0:0:0:
241,115,176249,2,0,B|286:73|286:73|343:136|265:204,1,175.499991966248,2|0,0:2|0:2,0:2:0:0:
259,196,176582,6,0,P|226:198|183:177,1,58.4999973220826,2|0,0:2|0:2,0:2:0:0:
128,240,176749,2,0,P|112:204|110:176,1,58.4999973220826,2|0,0:2|0:2,0:2:0:0:
160,115,176916,1,2,3:2:0:0:
200,301,177082,2,0,L|212:40,2,261.000007965088,0|8|2,0:0|0:2|0:2,0:0:0:0:
281,310,177582,1,2,0:2:0:0:
281,310,177749,1,2,0:2:0:0:
509,223,177916,6,0,P|376:218|355:136,1,216,2|0,3:2|0:2,0:2:0:0:
370,55,178249,1,2,0:2:0:0:
124,347,178416,2,0,P|224:385|280:285,1,216,2|0,0:2|0:0,0:2:0:0:
272,212,178749,1,2,0:2:0:0:
29,150,178916,1,0,0:0:0:0:
125,54,179082,1,0,3:2:0:0:
125,54,179166,1,0,0:0:0:0:
125,54,179249,6,0,B|133:114|133:114|131:126|131:126|145:218,1,144,2|0,0:2|0:0,0:2:0:0:
39,251,179582,1,2,3:2:0:0:
234,71,179749,2,0,P|254:167|351:155,1,216,2|0,0:2|0:0,0:2:0:0:
448,177,180082,2,0,L|426:61,1,72,2|0,0:2|0:0,0:2:0:0:
512,288,180249,1,0,0:2:0:0:
494,283,180332,1,0,0:0:0:0:
478,278,180416,1,2,0:2:0:0:
464,273,180499,1,2,0:2:0:0:
448,266,180582,6,0,B|332:282|332:282|329:289|329:289|163:314,1,256.499993150711,2|0,3:2|0:2,0:2:0:0:
69,290,180916,1,0,0:2:0:0:
116,384,181082,2,0,L|91:119,2,261.000007965088,0|10|0,0:0|0:2|0:0,0:0:0:0:
232,215,181582,2,0,B|239:273|239:273|204:307|204:307|215:385,1,148.50000453186,2|0,3:2|0:2,0:2:0:0:
232,384,181916,6,0,L|200:108,2,261.000007965088,2|10|2,0:2|0:2|0:2,0:2:0:0:
361,291,182416,1,0,3:2:0:0:
361,291,182582,2,0,P|336:235|402:217,1,121.499996292114,2|0,3:2|0:2,0:2:0:0:
397,214,182916,1,0,0:1:0:0:
369,111,183082,6,0,L|357:377,2,261.000007965088,0|8|2,0:0|0:2|0:2,0:0:0:0:
437,46,183582,1,2,3:2:0:0:
251,49,183749,2,0,L|510:84,2,261.000007965088,2|10|0,0:2|0:2|3:2,0:2:0:0:
179,152,184249,2,0,P|180:115|182:89,1,54,2|0,3:2|0:2,0:2:0:0:
149,23,184582,6,0,B|149:159|218:78|221:230,2,215.999993408203,2|2|2,3:2|3:2|3:2,0:2:0:0:
0,168,185249,2,0,B|68:285|87:181|158:301,2,215.999993408203,2|2|2,3:2|3:2|3:2,0:2:0:0:
0,72,185916,6,0,P|37:80|76:85,1,77.9999964294435,2|0,3:2|0:2,0:2:0:0:
270,0,186138,6,0,P|243:28|220:59,1,77.9999964294435,2|2,0:2|0:2,0:0:0:0:
215,293,186360,6,0,P|203:255|188:219,1,77.9999964294435,2|2,0:2|0:2,0:0:0:0:
168,132,186582,5,10,0:2:0:0:
168,132,186916,6,0,B|146:167|146:167|155:203|155:203|131:230|131:230|143:268|143:268|126:305|126:305|138:345,1,229.500004377365,10|0,0:1|0:0,0:2:0:0:
156,341,187249,6,0,P|23:336|2:254,1,216,2|0,3:2|0:2,0:2:0:0:
17,172,187582,1,2,0:2:0:0:
182,25,187749,2,0,B|337:0|251:98|426:55,1,216,2|0,0:2|0:0,0:2:0:0:
449,11,188082,1,2,0:2:0:0:
232,103,188249,1,0,0:0:0:0:
421,203,188415,1,2,3:2:0:0:
421,203,188499,1,2,0:2:0:0:
421,203,188582,6,0,P|410:272|431:299,1,72,2|0,0:2|0:0,0:2:0:0:
335,310,188749,2,0,P|384:354|412:356,1,72,0|0,0:2|0:0,0:0:0:0:
287,203,188916,6,0,P|313:196|334:180,1,53.9999983520508,0|0,1:2|0:0,0:0:0:0:
208,257,189082,2,0,P|225:277|248:290,1,53.9999983520508,0|0,1:2|0:0,0:0:0:0:
233,98,189249,6,0,P|252:113|298:120,1,45,0|0,1:2|0:0,0:0:0:0:
379,107,189416,2,0,P|394:88|407:51,1,45,0|0,1:2|0:0,0:0:0:0:
183,172,189582,6,0,P|158:182|138:207,1,31.4999990386963,0|0,1:2|0:0,0:0:0:0:
137,62,189749,2,0,P|152:90|159:113,1,31.4999990386963,0|0,1:2|0:0,0:0:0:0:
