osu file format v14

[General]
AudioFilename: audio.mp3
AudioLeadIn: 0
PreviewTime: 32499
Countdown: 0
SampleSet: Soft
StackLeniency: 0.5
Mode: 0
LetterboxInBreaks: 0
WidescreenStoryboard: 1

[Editor]
Bookmarks: 11264,32597,53931,73931,95264,105931,116597,137931,148597,169931,189931
DistanceSpacing: 0.6
BeatDivisor: 4
GridSize: 32
TimelineZoom: 3.203999

[Metadata]
Title:Q?
TitleUnicode:Q?
Artist:Reol
ArtistUnicode:Reol
Creator:greenhue
Version:Agatsu's Insane
Source:デジモンアドベンチャー:
Tags:japanese jpop dnb drum and bass agatsu mir bells jennifer jennglebells gigap pop ギガ れをる digimon adventure
BeatmapID:2718271
BeatmapSetID:1299595

[Difficulty]
HPDrainRate:5
CircleSize:4
OverallDifficulty:7.8
ApproachRate:8.8
SliderMultiplier:1.7
SliderTickRate:1

[Events]
//Background and Video events
0,0,"q.jpg",0,0
//Break Periods
2,106115,110620
//Storyboard Layer 0 (Background)
//Storyboard Layer 1 (Fail)
//Storyboard Layer 2 (Pass)
//Storyboard Layer 3 (Foreground)
//Storyboard Layer 4 (Overlay)
//Storyboard Sound Samples

[TimingPoints]
583,333.333333333333,4,2,1,80,1,0
11249,-111.111111111111,4,2,1,80,0,0
32249,-111.111111111111,4,2,2,80,0,0
32582,-100,4,2,1,92,0,0
53249,-100,4,2,1,80,0,0
53832,-100,4,2,1,5,0,0
53916,-111.111111111111,4,2,1,80,0,0
54249,-111.111111111111,4,2,2,69,0,0
55374,-111.111111111111,4,2,2,5,0,0
55416,-111.111111111111,4,2,2,69,0,0
59041,-111.111111111111,4,2,2,5,0,0
59082,-111.111111111111,4,2,2,69,0,0
59207,-111.111111111111,4,2,2,5,0,0
59249,-111.111111111111,4,2,2,69,0,0
62916,-111.111111111111,4,2,2,5,0,0
63000,-111.111111111111,4,2,2,69,0,0
63207,-111.111111111111,4,2,2,5,0,0
63249,-111.111111111111,4,2,2,69,0,0
63499,-111.111111111111,4,2,2,5,0,0
63582,-111.111111111111,4,2,2,69,0,0
64874,-111.111111111111,4,2,2,5,0,0
64916,-111.111111111111,4,2,2,69,0,0
68499,-111.111111111111,4,2,2,5,0,0
68582,-111.111111111111,4,2,2,69,0,0
69916,-142.857142857143,4,2,2,69,0,0
70916,-111.111111111111,4,2,2,69,0,0
71166,-111.111111111111,4,2,2,5,0,0
71249,-111.111111111111,4,2,2,69,0,0
72749,-111.111111111111,4,2,0,69,0,0
72916,-111.111111111111,4,2,2,69,0,0
73916,-111.111111111111,4,2,1,80,0,0
92582,-125,4,2,1,80,0,0
95249,-100,4,2,1,92,0,0
105582,-100,4,2,2,92,0,0
105749,-100,4,2,1,92,0,0
105916,-100,4,2,1,100,0,0
111082,-100,4,2,1,69,0,0
111249,-111.111111111111,4,2,1,69,0,0
116582,-111.111111111111,4,2,1,80,0,0
126082,-111.111111111111,4,2,1,5,0,0
126166,-111.111111111111,4,2,1,80,0,0
126499,-111.111111111111,4,2,1,5,0,0
126583,-111.111111111111,4,2,1,80,0,0
131416,-111.111111111111,4,2,1,5,0,0
131500,-111.111111111111,4,2,1,80,0,0
131832,-111.111111111111,4,2,1,5,0,0
131916,-111.111111111111,4,2,1,80,0,0
132499,-111.111111111111,4,2,1,5,0,0
132583,-111.111111111111,4,2,1,80,0,0
145916,-142.857142857143,4,2,1,80,0,0
148249,-142.857142857143,4,2,2,80,0,0
148582,-100,4,2,1,80,0,0
169916,-111.111111111111,4,2,2,69,0,0
170332,-111.111111111111,4,2,2,5,0,0
170416,-111.111111111111,4,2,2,69,0,0
172582,-111.111111111111,4,2,2,69,0,0
173249,-100,4,2,2,69,0,0
175041,-100,4,2,2,5,0,0
175082,-100,4,2,2,69,0,0
175207,-100,4,2,2,5,0,0
175249,-111.111111111111,4,2,2,69,0,0
175666,-111.111111111111,4,2,2,5,0,0
175750,-111.111111111111,4,2,2,69,0,0
177916,-100,4,2,2,69,0,0
180582,-111.111111111111,4,2,2,69,0,0
180999,-111.111111111111,4,2,2,5,0,0
181083,-111.111111111111,4,2,2,69,0,0
186957,-111.111111111111,4,2,2,5,0,0
186999,-111.111111111111,4,2,2,69,0,0
187249,-100,4,2,2,69,0,0

[Colours]
Combo1 : 99,163,182
Combo2 : 192,192,192
Combo3 : 128,128,128
Combo4 : 64,128,128

[HitObjects]
405,152,11249,6,0,P|446:160|489:172,1,76.4999976654053,2|0,3:2|0:0,0:2:0:0:
455,73,11582,1,8,0:2:0:0:
299,187,11749,2,0,P|291:112|321:35,1,152.999995330811,2|0,0:2|3:2,0:2:0:0:
186,127,12249,2,0,P|145:135|102:147,1,76.4999976654053,8|0,0:2|0:2,0:0:0:0:
137,318,12582,5,2,3:2:0:0:
60,346,12749,1,2,0:2:0:0:
60,346,12832,1,2,0:2:0:0:
60,346,12916,1,10,0:2:0:0:
3,279,13082,1,2,0:2:0:0:
83,255,13249,2,0,P|91:206|77:159,2,76.4999976654053,2|2|10,0:2|3:2|0:2,0:0:0:0:
238,353,13749,6,0,B|330:337|299:378|394:364,1,152.999995330811,2|2,0:2|0:2,0:2:0:0:
423,291,14249,1,10,0:2:0:0:
233,243,14416,2,0,B|141:227|172:268|77:254,1,152.999995330811,2|0,0:2|3:2,0:2:0:0:
238,133,14916,2,0,P|281:147|327:158,1,76.4999976654053,8|0,0:2|0:2,0:2:0:0:
477,252,15249,5,2,3:2:0:0:
406,288,15416,1,2,0:2:0:0:
328,246,15582,2,0,P|312:291|320:332,1,76.4999976654053,10|2,0:2|0:2,0:0:0:0:
465,169,15916,2,0,P|480:104|454:18,1,152.999995330811,2|10,0:2|0:2,0:0:0:0:
299,131,16416,6,0,L|132:160,1,152.999995330811,2|0,0:2|0:0,0:0:0:0:
231,267,16916,1,8,0:2:0:0:
158,302,17082,2,0,P|122:292|71:282,1,76.4999976654053,2|0,0:2|0:0,0:2:0:0:
189,376,17416,1,0,3:2:0:0:
316,276,17582,2,0,P|325:322|312:366,1,76.4999976654053,8|2,0:2|0:2,0:0:0:0:
149,215,17916,5,2,3:2:0:0:
185,146,18082,1,2,0:2:0:0:
130,88,18249,1,10,0:2:0:0:
90,156,18416,1,2,0:2:0:0:
209,160,18582,2,0,P|243:150|295:139,1,76.4999976654053,2|2,0:2|3:2,0:0:0:0:
248,66,18916,1,10,0:2:0:0:
412,204,19082,6,0,P|428:141|374:49,1,152.999995330811,2|0,0:2|0:0,0:0:0:0:
284,196,19582,1,10,0:2:0:0:
336,253,19749,1,2,0:2:0:0:
218,322,19916,2,0,P|208:281|220:239,1,76.4999976654053,2|2,0:2|3:2,0:0:0:0:
370,329,20249,2,0,P|410:340|457:355,1,76.4999976654053,10|0,0:2|0:2,0:2:0:0:
305,375,20582,5,2,3:2:0:0:
192,294,20749,1,0,0:2:0:0:
192,294,20832,1,2,0:2:0:0:
192,294,20916,2,0,P|152:305|105:320,1,76.4999976654053,8|2,0:2|0:2,0:0:0:0:
248,173,21249,2,0,P|259:133|246:86,1,76.4999976654053,0|0,0:2|3:2,0:0:0:0:
246,91,21499,1,0,0:2:0:0:
240,84,21582,2,0,B|334:104|308:59|404:79,1,152.999995330811,10|2,0:2|3:2,0:2:0:0:
512,165,22082,6,0,P|474:173|422:187,1,76.4999976654053,0|8,0:0|0:2,0:0:0:0:
325,355,22416,2,0,B|352:258|306:295|335:196,1,152.999995330811,2|2,0:2|3:2,0:0:0:0:
138,283,22916,2,0,P|176:291|228:305,1,76.4999976654053,10|0,0:2|0:0,0:2:0:0:
184,375,23249,5,2,3:2:0:0:
39,309,23416,1,2,0:2:0:0:
39,309,23499,1,2,0:2:0:0:
39,309,23582,2,0,B|47:346|47:346|41:392,1,76.4999976654053,10|2,0:2|0:2,0:0:0:0:
173,203,23916,1,2,0:3:0:0:
92,195,24082,1,2,3:3:0:0:
177,282,24249,1,10,0:2:0:0:
284,200,24416,6,0,P|323:211|368:220,1,76.4999976654053,2|2,0:3|3:2,0:0:0:0:
497,330,24749,2,0,B|517:258|517:258|480:170,1,152.999995330811,0|2,0:0|0:2,0:0:0:0:
388,46,25249,2,0,P|430:57|475:68,1,76.4999976654053,2|2,0:2|3:2,0:2:0:0:
346,115,25582,1,10,0:2:0:0:
265,41,25749,1,0,0:0:0:0:
147,99,25916,6,0,P|146:61|168:14,2,76.4999976654053,2|2|10,3:2|0:2|0:2,0:0:0:0:
219,215,26416,1,2,0:2:0:0:
130,277,26582,2,0,P|92:287|45:305,1,76.4999976654053,2|2,0:3|3:3,0:0:0:0:
50,308,26832,1,0,0:2:0:0:
44,320,26916,1,10,0:2:0:0:
110,147,27082,5,2,0:3:0:0:
110,147,27166,1,2,0:2:0:0:
110,147,27249,2,0,B|112:57|153:94|141:-21,1,152.999995330811,0|8,3:2|0:2,0:2:0:0:
277,128,27749,2,0,L|439:157,1,152.999995330811,0|2,0:2|3:2,0:0:0:0:
362,309,28249,2,0,P|394:302|467:291,1,76.4999976654053,10|0,0:2|0:0,0:2:0:0:
299,239,28582,5,2,3:2:0:0:
237,297,28749,1,2,0:2:0:0:
289,360,28916,1,10,0:2:0:0:
350,304,29082,1,2,0:2:0:0:
289,161,29249,2,0,P|249:172|199:185,1,76.4999976654053,2|2,0:3|3:3,0:0:0:0:
78,315,29582,1,10,0:2:0:0:
143,376,29749,6,0,P|156:295|120:211,1,152.999995330811,2|0,0:3|0:0,0:0:0:0:
3,91,30249,2,0,P|40:104|90:119,1,76.4999976654053,10|2,0:2|0:2,0:2:0:0:
229,212,30582,1,0,0:0:0:0:
318,148,30749,1,0,3:2:0:0:
223,131,30916,1,8,0:2:0:0:
333,230,31082,1,0,3:2:0:0:
222,130,31416,6,0,L|230:93,2,38.2499988327027,0|0|2,1:2|0:2|1:2,0:0:0:0:
149,168,31749,1,2,1:2:0:0:
71,183,31916,1,2,1:2:0:0:
15,239,32082,1,2,1:2:0:0:
149,373,32249,1,10,0:2:0:0:
15,239,32582,6,0,P|2:280|9:328,1,85,6|0,3:2|0:0,0:2:0:0:
210,279,32916,2,0,B|315:304|277:257|385:278,1,170,10|0,0:2|0:0,0:2:0:0:
437,328,33416,1,2,3:2:0:0:
309,366,33582,1,10,0:2:0:0:
210,279,33749,5,2,0:2:0:0:
210,279,33832,1,0,0:0:0:0:
210,279,33916,2,0,P|166:292|108:308,1,85,2|2,3:2|0:2,0:0:0:0:
188,369,34249,1,10,0:2:0:0:
317,216,34416,2,0,P|331:142|304:38,1,170,2|2,0:2|3:2,0:2:0:0:
244,93,34916,1,10,0:2:0:0:
407,177,35082,1,2,0:2:0:0:
186,150,35249,6,0,L|4:175,1,170,2|10,3:2|0:2,0:2:0:0:
180,306,35749,1,2,0:2:0:0:
108,346,35916,2,0,P|69:337|3:326,1,85,2|2,0:2|3:2,0:0:0:0:
110,252,36249,1,10,0:2:0:0:
228,373,36416,1,2,0:2:0:0:
381,290,36582,6,0,P|420:299|486:310,1,85,2|0,3:2|0:0,0:2:0:0:
356,366,36916,1,10,0:2:0:0:
264,178,37082,2,0,P|250:209|256:278,1,85,2|0,0:2|0:2,0:2:0:0:
474,149,37416,2,0,L|465:87,1,42.5,2|0,3:2|0:2,0:2:0:0:
484,26,37582,1,10,0:2:0:0:
446,3,37666,1,2,0:2:0:0:
398,3,37749,1,2,0:2:0:0:
358,32,37832,1,2,0:2:0:0:
350,49,37916,6,0,B|336:90|336:90|348:152,1,85,2|0,3:2|0:0,0:2:0:0:
163,224,38249,1,10,0:2:0:0:
221,166,38416,1,2,0:2:0:0:
133,148,38582,1,2,0:2:0:0:
257,243,38749,1,2,3:2:0:0:
128,318,38916,2,0,P|82:330|33:345,1,85,10|0,0:2|0:0,0:2:0:0:
173,384,39249,5,2,3:2:0:0:
86,237,39416,1,2,0:2:0:0:
221,166,39582,1,10,0:2:0:0:
317,301,39749,2,0,B|421:316|380:349|481:357,1,170,2|2,0:2|3:2,0:2:0:0:
439,157,40249,2,0,P|395:170|345:182,1,85,10|2,0:2|0:2,0:0:0:0:
202,263,40582,5,2,3:2:0:0:
294,120,40749,1,2,0:2:0:0:
146,41,40916,2,0,P|121:147|148:233,1,170,10|0,0:2|0:2,0:2:0:0:
254,353,41416,1,2,3:2:0:0:
288,282,41582,1,10,0:2:0:0:
174,344,41749,1,2,0:2:0:0:
30,259,41916,6,0,P|16:316|31:366,1,85,2|2,3:2|0:2,0:0:0:0:
251,207,42249,2,0,B|229:107|282:136|252:27,1,170,10|2,0:2|0:2,0:2:0:0:
166,138,42749,1,2,3:2:0:0:
345,224,42916,1,10,0:2:0:0:
385,212,42999,1,2,0:2:0:0:
424,202,43082,1,2,0:2:0:0:
463,189,43166,1,2,0:2:0:0:
481,184,43249,6,0,B|494:228|494:228|483:281,1,85,6|0,3:2|0:0,0:2:0:0:
317,375,43582,1,10,0:2:0:0:
253,321,43749,1,2,0:2:0:0:
328,259,43916,2,0,P|372:272|419:285,1,85,2|2,0:2|3:2,0:0:0:0:
235,93,44249,2,0,P|220:146|233:196,1,85,10|0,0:2|0:0,0:2:0:0:
481,64,44582,5,2,3:2:0:0:
407,98,44749,1,2,0:2:0:0:
499,140,44916,1,10,0:2:0:0:
371,27,45082,2,0,B|275:45|306:-3|198:18,1,170,2|2,0:2|3:2,0:2:0:0:
15,137,45582,2,0,P|51:130|135:122,1,85,10|2,0:2|0:2,0:0:0:0:
68,51,45916,5,2,3:2:0:0:
184,136,46082,1,2,0:2:0:0:
61,222,46249,2,0,P|49:271|66:320,1,85,10|0,0:2|0:0,0:2:0:0:
241,194,46582,2,0,P|313:160|337:70,1,170,2|10,0:2|0:2,0:2:0:0:
272,37,47082,1,2,0:2:0:0:
431,170,47249,6,0,P|466:159|533:144,2,85,2|2|10,3:2|0:2|0:2,0:2:0:0:
297,329,47749,2,0,B|292:288|292:288|311:237,1,85,2|0,0:2|0:2,0:2:0:0:
379,333,48082,1,2,3:2:0:0:
333,150,48249,1,10,0:2:0:0:
300,116,48332,1,2,0:2:0:0:
257,109,48416,1,2,0:2:0:0:
214,130,48499,1,2,0:2:0:0:
201,148,48582,6,0,P|160:157|102:172,1,85,2|0,3:2|0:0,0:2:0:0:
121,353,48916,1,10,0:2:0:0:
15,265,49082,1,2,0:2:0:0:
118,167,49249,2,0,B|216:186|189:135|285:154,1,170,2|10,0:2|0:2,0:0:0:0:
186,246,49749,1,2,0:2:0:0:
300,345,49916,6,0,P|259:334|198:321,1,85,2|2,3:2|0:2,0:0:0:0:
351,243,50249,1,10,0:2:0:0:
473,384,50416,2,0,P|488:298|456:215,1,170,2|2,0:2|3:2,0:2:0:0:
421,40,50916,2,0,P|471:55|525:67,1,85,10|2,0:2|0:2,0:0:0:0:
378,106,51249,5,2,3:2:0:0:
284,8,51416,1,2,0:2:0:0:
165,93,51582,2,0,P|146:157|165:262,1,170,2|0,3:2|3:2,0:2:0:0:
236,133,52082,1,2,3:2:0:0:
142,342,52249,1,2,3:2:0:0:
183,365,52332,1,0,3:2:0:0:
231,358,52416,1,2,3:2:0:0:
264,330,52499,1,0,3:2:0:0:
271,315,52582,1,2,3:2:0:0:
3,37,53916,6,0,B|88:19|88:19|34:86,1,152.999995330811,4|2,3:2|0:2,0:2:0:0:
246,166,54582,2,0,L|347:195,1,76.4999976654053,10|0,0:2|0:0,0:2:0:0:
403,301,54916,1,2,0:2:0:0:
320,188,55082,1,2,0:2:0:0:
458,235,55249,6,0,B|409:243|409:243|371:275|371:275|308:289,1,152.999995330811,2|2,0:2|3:2,0:2:0:0:
150,380,55749,1,2,0:2:0:0:
212,329,55916,1,10,0:2:0:0:
135,289,56082,1,2,0:2:0:0:
0,330,56249,2,0,P|37:339|96:359,1,76.4999976654053,2|0,0:2|0:0,0:2:0:0:
243,248,56582,6,0,B|239:196|239:196|246:173|246:173|241:149|241:149|258:84,1,152.999995330811,2|2,3:2|0:2,0:2:0:0:
159,187,57082,1,0,0:2:0:0:
2,125,57249,1,10,0:2:0:0:
2,125,57332,2,0,P|51:139|71:63,1,114.749996498108,0|2,0:2|3:2,0:0:0:0:
18,44,57749,1,0,1:2:0:0:
165,2,57916,6,0,L|250:24,1,76.4999976654053,2|2,0:2|1:2,0:0:0:0:
312,105,58249,2,0,L|397:127,1,76.4999976654053,2|2,3:2|0:2,0:0:0:0:
475,27,58582,6,0,L|522:18,1,38.2499988327027,10|0,0:2|0:2,0:2:0:0:
386,124,58749,2,0,L|433:115,1,38.2499988327027,2|0,1:2|0:2,0:2:0:0:
292,316,58916,6,0,B|265:258|308:203|308:203|321:243,1,152.999995330811,2|6,0:2|3:2,0:2:0:0:
420,369,59582,6,0,L|505:386,1,76.4999976654053,2|0,0:2|0:2,0:2:0:0:
317,233,59916,2,0,B|225:262|225:262|268:300,1,152.999995330811,10|0,0:2|0:2,0:2:0:0:
185,340,60416,1,2,0:2:0:0:
45,384,60582,6,0,P|53:313|-11:255,1,152.999995330811,0|0,0:2|3:2,0:0:0:0:
205,119,61082,1,0,0:2:0:0:
111,174,61249,2,0,P|152:185|203:203,1,76.4999976654053,2|0,1:2|0:0,0:0:0:0:
272,164,61499,2,0,P|261:122|251:69,1,76.4999976654053,2|0,1:2|0:0,0:0:0:0:
182,30,61749,2,0,P|151:60|110:95,1,76.4999976654053,2|2,1:2|3:2,0:0:0:0:
363,135,62166,5,2,0:2:0:0:
363,135,62249,2,0,P|392:127|463:114,1,76.4999976654053,0|2,0:0|0:2,0:0:0:0:
289,249,62582,2,0,P|344:278|370:377,1,152.999995330811,8|0,0:1|0:2,0:2:0:0:
212,288,63082,1,0,0:0:0:0:
96,340,63249,6,0,P|141:351|196:369,1,76.4999976654053
250,382,63582,1,2,3:2:0:0:
374,271,63749,2,0,P|363:190|395:109,1,152.999995330811,2|0,0:2|0:0,0:0:0:0:
286,0,64249,2,0,P|336:18|387:32,1,76.4999976654053,0|0,0:2|0:0,0:0:0:0:
118,100,64582,6,0,B|197:95|173:125|278:109,1,152.999995330811,6|2,3:2|0:2,0:2:0:0:
152,189,65082,1,0,0:0:0:0:
364,223,65249,2,0,P|326:231|290:243,1,76.4999976654053,10|2,0:2|0:2,0:0:0:0:
305,314,65582,1,2,3:2:0:0:
134,384,65749,1,0,0:2:0:0:
159,344,65849,6,0,P|144:303|125:261,2,61.1999981323243
0,158,66249,2,0,P|38:206|103:178,1,101.999996887207,2|2,0:2|0:2,0:2:0:0:
130,148,66582,2,0,P|122:123|104:106,2,50.9999984436036,2|2|0,3:2|0:2|0:2,0:0:0:0:
111,0,66916,2,0,P|54:-14|18:71,1,152.999995330811,2|8,0:2|0:2,0:0:0:0:
288,170,67582,5,2,3:2:0:0:
295,166,67694,2,0,P|324:173|360:191,1,50.9999984436036,2|2,0:2|0:2,0:0:0:0:
414,292,67916,1,8,0:2:0:0:
343,181,68082,1,0,3:2:0:0:
477,42,68249,2,2,B|424:133|489:101|432:202,1,152.999995330811,2|2,3:2|3:2,0:1:0:0:
325,349,68805,5,2,3:2:0:0:
250,372,69027,5,2,3:2:0:0:
170,361,69249,5,6,3:2:0:0:
106,310,69471,5,2,3:2:0:0:
85,232,69694,5,2,3:2:0:0:
107,156,69916,6,0,P|103:130|94:97,6,39.6666654561361,2|2|2|2|2|2|10,1:2|0:2|0:2|0:2|0:2|0:2|0:2,0:0:0:0:
448,355,70916,6,0,B|473:391|490:347|448:284|362:329,1,152.999995330811,12|6,3:3|3:2,0:2:0:0:
133,343,71499,5,0,0:0:0:0:
133,343,71582,2,0,P|170:353|224:373,1,76.4999976654053,0|2,0:0|0:2,0:0:0:0:
8,226,71916,2,0,B|101:252|68:199|190:242,1,152.999995330811,8|2,0:1|0:2,0:2:0:0:
324,84,72416,2,0,B|338:121|338:121|332:169,1,76.4999976654053,2|0,3:2|0:0,0:2:0:0:
328,168,72666,1,0,0:0:0:0:
322,178,72749,1,0,1:2:0:0:
508,363,72916,5,0,1:2:0:0:
413,308,73082,1,0,1:2:0:0:
485,284,73249,1,0,1:2:0:0:
426,384,73416,1,0,1:2:0:0:
398,292,73582,1,0,1:2:0:0:
509,384,73749,1,0,1:2:0:0:
505,185,73916,6,0,P|435:183|337:221,1,152.999995330811,2|8,3:2|0:2,0:2:0:0:
236,305,74416,1,2,0:2:0:0:
236,305,74749,1,0,3:2:0:0:
92,250,74916,2,0,P|50:262|5:273,1,76.4999976654053,8|0,0:2|0:2,0:0:0:0:
117,333,75249,5,2,3:2:0:0:
216,225,75416,1,2,0:2:0:0:
216,225,75499,1,2,0:2:0:0:
216,225,75582,2,0,P|220:179|202:137,1,76.4999976654053,10|2,0:2|0:2,0:0:0:0:
123,11,75916,2,0,P|119:57|137:99,2,76.4999976654053,2|2|10,0:2|3:2|0:2,0:0:0:0:
286,53,76416,6,0,B|382:77|343:29|453:54,1,152.999995330811,2|2,0:2|0:2,0:2:0:0:
493,108,76916,1,10,0:2:0:0:
381,179,77082,1,2,0:2:0:0:
381,179,77416,1,0,3:2:0:0:
438,246,77582,2,0,P|470:238|546:229,2,76.4999976654053,8|2|2,0:2|0:2|3:2,0:2:0:0:
288,373,78082,5,2,0:2:0:0:
351,320,78249,1,10,0:2:0:0:
283,270,78416,1,2,0:2:0:0:
202,329,78582,2,0,P|163:338|103:359,1,76.4999976654053,2|0,0:2|3:2,0:0:0:0:
120,356,78832,1,2,0:2:0:0:
113,364,78916,1,10,0:2:0:0:
229,201,79082,5,2,0:2:0:0:
229,201,79166,1,2,0:2:0:0:
229,201,79249,2,0,B|242:123|242:123|211:30,1,152.999995330811,2|8,3:2|0:2,0:2:0:0:
0,128,79749,2,0,B|92:110|64:156|160:134,1,152.999995330811,2|0,0:2|3:2,0:2:0:0:
73,209,80249,1,8,0:2:0:0:
181,267,80416,1,0,0:2:0:0:
293,193,80582,6,0,P|334:204|377:218,1,76.4999976654053,2|2,3:2|0:2,0:0:0:0:
416,270,80916,1,10,0:2:0:0:
511,164,81082,1,2,0:2:0:0:
422,50,81249,2,0,B|409:87|409:87|415:131,1,76.4999976654053,2|2,0:2|3:2,0:0:0:0:
262,118,81582,2,0,P|221:129|178:143,1,76.4999976654053,10|2,0:2|0:2,0:0:0:0:
29,284,81916,5,0,3:2:0:0:
3,206,82082,2,0,B|54:204|54:204|87:224|87:224|120:218|177:231,1,152.999995330811,2|2,0:2|3:2,0:2:0:0:
236,272,82582,1,2,0:2:0:0:
297,324,82749,1,2,0:2:0:0:
366,360,82916,1,10,0:2:0:0:
441,378,83082,1,2,0:2:0:0:
506,257,83249,6,0,P|466:270|416:283,1,76.4999976654053,2|2,3:2|0:2,0:0:0:0:
297,324,83582,1,0,0:0:0:0:
361,239,83749,1,2,3:2:0:0:
283,158,83916,2,0,P|285:139|290:120,3,38.2499988327027,2|2|2|2,0:2|0:2|0:2|0:2,0:0:0:0:
377,148,84249,2,0,P|405:157|439:177,1,38.2499988327027,10|2,0:2|0:2,0:0:0:0:
190,174,84416,2,0,P|165:189|137:218,1,38.2499988327027,2|2,0:2|0:2,0:0:0:0:
103,278,84582,6,0,P|115:198|90:110,1,152.999995330811,2|8,3:2|0:2,0:2:0:0:
10,7,85082,2,0,P|52:20|111:35,1,76.4999976654053,2|0,0:2|0:0,0:2:0:0:
168,118,85416,1,0,3:2:0:0:
34,193,85582,1,8,0:2:0:0:
239,206,85749,6,0,B|256:129|256:129|221:55,1,152.999995330811,2|2,0:2|0:2,0:0:0:0:
156,243,86249,2,0,P|116:255|71:272,1,76.4999976654053,10|2,0:2|0:2,0:0:0:0:
229,377,86582,1,2,0:2:0:0:
178,320,86749,1,2,3:2:0:0:
248,279,86916,1,10,0:2:0:0:
320,337,87082,6,0,P|349:347|399:367,1,76.4999976654053,2|2,0:2|3:2,0:0:0:0:
512,225,87416,2,0,B|425:245|449:193|338:219,1,152.999995330811,0|0,0:0|0:2,0:0:0:0:
283,200,87916,1,0,0:2:0:0:
394,291,88082,1,2,3:2:0:0:
479,148,88249,2,0,P|495:75|470:-9,1,152.999995330811,10|0,0:2|3:2,0:2:0:0:
347,83,88749,5,2,0:2:0:0:
272,117,88916,2,0,P|264:74|283:18,1,76.4999976654053,10|0,0:2|0:2,0:2:0:0:
87,140,89249,2,0,P|169:180|180:258,1,152.999995330811,2|10,0:2|0:2,0:0:0:0:
92,368,89749,5,2,0:2:0:0:
92,368,89832,1,2,0:2:0:0:
92,368,89916,2,0,P|85:325|100:281,1,76.4999976654053,2|2,3:2|0:2,0:0:0:0:
252,276,90249,1,10,0:2:0:0:
195,326,90416,1,2,0:2:0:0:
76,189,90582,2,0,B|169:214|147:171|243:190,1,152.999995330811,2|10,0:2|0:2,0:0:0:0:
299,214,91082,1,2,0:2:0:0:
414,155,91249,6,0,B|421:118|421:118|403:67,1,76.4999976654053,2|2,3:2|0:2,0:0:0:0:
408,81,91499,1,0,0:0:0:0:
408,81,91582,1,10,0:2:0:0:
343,42,91749,1,2,0:2:0:0:
220,100,91916,2,0,P|265:107|325:121,2,76.4999976654053,2|2|10,0:2|3:2|0:2,0:0:0:0:
146,115,92416,1,0,0:0:0:0:
32,63,92582,6,0,P|23:115|27:150,1,68,0|0,3:2|1:2,0:0:0:0:
68,191,92916,1,8,1:2:0:0:
37,260,93082,1,0,1:2:0:0:
89,354,93249,2,0,P|125:349|176:345,1,68,0|0,1:2|3:2,0:0:0:0:
306,299,93582,2,0,P|270:294|219:290,1,68,8|0,1:2|1:2,0:0:0:0:
194,228,93916,5,0,3:2:0:0:
194,228,94082,1,0,1:2:0:0:
194,228,94249,1,8,1:2:0:0:
194,228,94416,1,0,1:2:0:0:
250,175,94582,1,0,1:2:0:0:
283,106,94749,1,0,1:2:0:0:
383,238,94916,1,8,1:2:0:0:
512,98,95249,6,0,P|474:109|412:123,1,85,6|0,3:2|0:0,0:2:0:0:
423,323,95582,2,0,B|335:347|364:291|218:324,1,170,10|0,0:2|0:0,0:2:0:0:
192,362,96082,1,2,3:2:0:0:
70,227,96249,1,10,0:2:0:0:
154,288,96416,1,2,0:2:0:0:
2,374,96582,6,0,P|-6:329|31:282,1,85,2|2,3:2|0:2,0:0:0:0:
160,193,96916,1,10,0:2:0:0:
315,338,97082,2,0,B|227:362|256:306|110:339,1,170,2|2,0:2|3:2,0:2:0:0:
266,210,97582,1,8,0:2:0:0:
382,272,97749,1,2,0:2:0:0:
485,190,97916,6,0,P|499:92|470:21,1,170,2|10,3:2|0:2,0:2:0:0:
271,99,98416,1,2,0:2:0:0:
327,160,98582,2,0,P|365:168|440:194,1,85,2|2,0:2|3:2,0:0:0:0:
355,74,98916,1,10,0:2:0:0:
221,160,99082,1,2,0:2:0:0:
111,33,99249,6,0,P|13:70|5:150,1,170,2|10,3:2|0:2,0:0:0:0:
146,287,99749,2,0,P|176:275|235:259,1,85,2|0,0:2|0:2,0:2:0:0:
131,207,100082,1,2,3:2:0:0:
269,93,100249,1,10,0:2:0:0:
309,78,100332,1,2,0:2:0:0:
355,87,100416,1,2,0:2:0:0:
383,122,100499,1,2,0:2:0:0:
390,144,100582,6,0,P|356:153|288:180,1,85,2|0,3:2|0:0,0:2:0:0:
214,334,100916,1,10,0:2:0:0:
310,275,101082,1,2,0:2:0:0:
306,359,101249,1,2,0:2:0:0:
209,252,101416,1,2,3:2:0:0:
385,152,101582,2,0,B|400:197|400:197|390:248,1,85,10|0,0:2|0:2,0:2:0:0:
266,99,101916,5,2,3:2:0:0:
377,38,102082,2,0,P|423:52|499:69,1,85,2|10,0:2|0:2,0:0:0:0:
239,203,102416,2,0,B|143:205|174:246|69:235,1,170,2|2,0:2|3:2,0:2:0:0:
213,334,102916,2,0,P|257:346|308:366,1,85,10|2,0:2|0:2,0:0:0:0:
100,373,103249,5,2,3:2:0:0:
200,250,103416,1,2,0:2:0:0:
42,150,103582,2,0,B|13:231|13:231|39:322,1,170,10|0,0:2|0:2,0:2:0:0:
119,210,104082,1,2,3:2:0:0:
103,34,104249,2,0,P|60:47|8:60,1,85,10|2,0:2|0:2,0:0:0:0:
221,155,104582,6,0,B|227:113|227:113|203:51,1,85,2|0,3:2|0:2,0:2:0:0:
417,6,104916,2,0,L|388:140,1,127.5,10|0,0:2|0:0,0:2:0:0:
396,146,105249,1,2,0:2:0:0:
270,282,105416,1,0,3:2:0:0:
270,282,105499,1,0,0:2:0:0:
270,282,105582,2,0,B|316:294|316:294|341:316|341:316|397:316|441:336,1,170,8|4,0:2|3:2,0:2:0:0:
505,328,111249,6,0,B|452:342|452:342|421:372|421:372|351:389,1,152.999995330811,0|0,1:2|0:2,0:2:0:0:
195,241,111916,2,0,L|360:276,1,152.999995330811,0|0,1:2|0:2,0:2:0:0:
496,186,112582,2,0,P|505:132|492:81,2,101.999996887207,0|0|0,1:2|1:2|1:2,0:2:0:0:
344,272,113249,2,0,B|349:176|309:211|333:112,1,152.999995330811,0|0,1:2|0:0,0:0:0:0:
209,259,113916,2,0,L|50:297,1,152.999995330811,0|0,1:2|0:0,0:2:0:0:
0,40,114582,2,0,P|49:51|76:122,1,114.749996498108
24,186,114916,2,0,P|87:159|106:63,1,152.999995330811,0|0,0:0|1:2,0:0:0:0:
97,7,115416,5,0,1:2:0:0:
97,7,115582,1,0,1:2:0:0:
97,7,115749,1,0,1:2:0:0:
232,68,115916,5,0,3:2:0:0:
141,140,116082,1,0,3:2:0:0:
235,142,116249,5,8,1:2:0:0:
323,193,116416,1,2,3:3:0:0:
210,217,116582,6,0,B|118:228|146:270|56:286,1,152.999995330811,2|8,3:2|0:2,0:2:0:0:
167,329,117082,1,2,0:2:0:0:
53,384,117249,2,0,P|121:370|211:358,1,152.999995330811,0|10,0:0|0:2,0:0:0:0:
476,262,117916,6,0,B|494:302|494:302|486:348,1,76.4999976654053,2|2,3:2|0:2,0:0:0:0:
365,254,118249,2,0,B|390:163|347:198|374:85,1,152.999995330811,10|0,0:2|0:0,0:0:0:0:
443,162,118749,1,0,3:2:0:0:
489,23,118916,2,0,P|495:68|507:129,1,76.4999976654053,10|2,0:2|0:3,0:2:0:0:
346,82,119249,6,0,B|312:88|312:88|254:97,1,76.4999976654053,2|0,3:2|0:2,0:2:0:0:
155,63,119582,2,0,P|224:100|241:173,1,152.999995330811,10|0,0:2|0:0,0:0:0:0:
180,223,120082,1,0,3:2:0:0:
251,337,120249,2,0,P|211:324|161:311,1,76.4999976654053,10|2,0:2|0:3,0:2:0:0:
78,382,120582,6,0,P|62:310|81:226,1,152.999995330811,2|10,3:2|0:2,0:0:0:0:
179,74,121082,2,0,P|195:146|176:230,1,152.999995330811,0|0,0:2|3:2,0:0:0:0:
80,92,121582,2,0,P|80:44|101:3,1,76.4999976654053,10|2,0:2|0:3,0:0:0:0:
179,222,121916,6,0,B|100:233|127:196|25:212,1,152.999995330811,2|8,3:2|0:2,0:2:0:0:
131,325,122416,2,0,B|210:336|183:299|285:315,1,152.999995330811,2|0,0:2|3:2,0:2:0:0:
469,255,122916,2,0,P|479:294|472:342,1,76.4999976654053,10|2,0:2|0:3,0:2:0:0:
389,236,123249,5,2,3:2:0:0:
419,163,123416,1,0,0:0:0:0:
419,163,123499,1,0,0:2:0:0:
419,163,123582,1,8,0:2:0:0:
329,78,123749,2,0,P|302:141|312:244,1,152.999995330811,2|0,0:2|3:2,0:2:0:0:
132,165,124249,2,0,P|97:175|48:192,1,76.4999976654053,10|2,0:2|0:3,0:0:0:0:
132,275,124582,6,0,P|192:244|206:141,1,152.999995330811,2|8,3:2|0:2,0:2:0:0:
115,53,125082,2,0,P|55:84|41:187,1,152.999995330811,2|0,0:2|3:2,0:2:0:0:
94,288,125582,2,0,P|130:298|176:317,1,76.4999976654053,10|2,0:2|0:3,0:2:0:0:
342,380,125916,6,0,P|414:364|440:360,1,76.4999976654053,2|0,3:2|0:2,0:2:0:0:
427,366,126166,1,2,0:2:0:0:
441,369,126249,1,8,0:2:0:0:
467,290,126416,1,2,0:2:0:0:
308,224,126582,2,0,P|285:294|276:318,1,76.4999976654053,2|0,0:2|3:2,0:2:0:0:
277,304,126832,1,2,0:2:0:0:
268,315,126915,1,8,0:2:0:0:
409,216,127082,5,2,0:3:0:0:
409,216,127166,1,2,0:3:0:0:
409,216,127249,2,0,P|414:117|384:47,2,152.999995330811,4|8|0,3:2|0:2|0:0,0:2:0:0:
373,288,128082,1,0,3:2:0:0:
266,201,128249,2,0,P|217:212|165:221,1,76.4999976654053,10|2,0:2|0:3,0:2:0:0:
48,276,128582,6,0,B|35:200|35:200|80:106,1,152.999995330811,2|8,3:2|0:2,0:2:0:0:
284,22,129249,1,0,0:0:0:0:
228,78,129416,1,0,3:2:0:0:
349,120,129582,2,0,P|363:82|356:28,1,76.4999976654053,10|2,0:2|0:3,0:0:0:0:
127,141,129916,6,0,B|224:150|182:177|274:179,2,152.999995330811,2|10|2,3:2|0:2|0:2,0:0:0:0:
219,255,130749,1,0,3:2:0:0:
147,292,130916,2,0,P|108:279|55:266,1,76.4999976654053,10|0,0:2|0:0,0:2:0:0:
316,383,131249,6,0,P|313:303|308:290,1,76.4999976654053,2|0,3:2|0:2,0:2:0:0:
307,297,131499,1,2,0:2:0:0:
300,290,131582,1,8,0:2:0:0:
215,335,131749,1,2,0:2:0:0:
113,291,131916,2,0,P|116:371|121:384,1,76.4999976654053,2|0,0:2|3:2,0:2:0:0:
122,377,132166,1,2,0:2:0:0:
129,384,132249,1,8,0:2:0:0:
205,245,132416,1,2,0:3:0:0:
0,232,132582,6,0,P|51:206|79:114,1,152.999995330811,2|10,3:2|0:2,0:2:0:0:
0,0,133082,2,0,L|159:29,1,152.999995330811,2|0,0:2|3:2,0:2:0:0:
242,99,133582,2,0,P|283:85|342:73,1,76.4999976654053,10|2,0:2|0:3,0:2:0:0:
438,0,133916,6,0,B|411:99|456:57|427:163,1,152.999995330811,2|10,3:2|0:2,0:2:0:0:
278,379,134582,1,0,0:0:0:0:
217,331,134749,1,0,3:2:0:0:
302,281,134916,2,0,P|337:297|391:315,1,76.4999976654053,10|2,0:2|0:3,0:2:0:0:
153,380,135249,6,0,P|135:294|182:240,1,152.999995330811,2|10,3:2|0:2,0:2:0:0:
343,184,135749,2,0,B|431:206|416:161|503:186,1,152.999995330811,2|0,0:2|3:2,0:2:0:0:
372,309,136249,2,0,P|419:297|476:289,1,76.4999976654053,10|0,0:2|0:0,0:2:0:0:
264,118,136582,6,0,B|255:155|255:155|264:182|264:182|246:254|260:288,1,152.999995330811,2|2,3:2|0:2,0:2:0:0:
260,384,137249,6,0,B|260:367|254:353|261:322,1,38.2499988327027,2|0,0:2|0:0,0:2:0:0:
9,186,137916,6,0,B|55:171|55:171|120:137,1,114.749996498108,2|2,3:2|0:2,0:0:0:0:
170,79,138249,2,0,B|198:95|198:95|259:113,1,76.4999976654053,2|2,3:2|0:2,0:2:0:0:
505,9,138582,2,0,B|439:34|439:34|416:95,1,114.749996498108,2|2,3:2|0:2,0:0:0:0:
399,90,138916,2,0,L|428:12,1,76.4999976654053,2|2,3:2|0:2,0:2:0:0:
241,133,139249,6,0,B|248:175|248:175|229:262,1,114.749996498108,2|2,3:2|0:2,0:2:0:0:
254,330,139582,2,0,B|223:346|223:346|156:355,1,76.4999976654053,2|2,3:2|0:2,0:2:0:0:
6,203,139916,2,0,B|59:215|59:215|83:234|83:234|143:251,1,114.749996498108,2|2,3:2|0:2,0:0:0:0:
125,255,140249,1,2,3:2:0:0:
297,178,140416,5,2,0:2:0:0:
297,178,140499,1,0,0:2:0:0:
297,178,140582,2,0,B|319:128|319:128|270:69,1,114.749996498108,2|2,3:2|0:2,0:0:0:0:
243,0,140916,2,0,B|189:15|189:15|233:24,1,76.4999976654053,2|2,3:2|0:2,0:2:0:0:
421,112,141249,2,0,B|495:136|495:136|435:149,1,114.749996498108,2|2,3:2|0:2,0:0:0:0:
435,149,141582,1,2,3:2:0:0:
329,249,141749,1,2,0:2:0:0:
417,372,141916,6,0,B|427:325|427:325|423:293|423:293|441:231,1,114.749996498108,2|2,3:2|0:2,0:0:0:0:
423,242,142249,2,0,L|393:342,1,76.4999976654053,2|2,3:2|0:2,0:2:0:0:
197,354,142582,2,0,B|143:341|143:341|58:337,1,114.749996498108,2|2,3:2|0:2,0:0:0:0:
70,344,142916,1,2,3:2:0:0:
212,234,143082,1,2,0:2:0:0:
212,234,143166,1,0,0:2:0:0:
212,234,143249,5,2,3:2:0:0:
299,303,143416,1,0,3:2:0:0:
323,221,143582,1,2,3:2:0:0:
188,310,143749,1,0,3:2:0:0:
12,180,143916,5,2,3:2:0:0:
88,152,144082,1,0,3:2:0:0:
177,87,144249,1,2,3:2:0:0:
293,123,144416,1,0,3:2:0:0:
475,15,144582,6,0,P|499:35|512:67,1,38.2499988327027,2|0,3:2|1:2,0:2:0:0:
461,114,144749,2,0,P|455:144|434:172,1,38.2499988327027,0|0,3:2|1:2,0:2:0:0:
315,258,144916,6,0,P|339:238|352:206,1,38.2499988327027,2|0,3:2|1:2,1:2:0:0:
301,159,145083,2,0,P|295:128|274:100,1,38.2499988327027,0|0,3:2|1:2,1:2:0:0:
68,108,145249,5,2,3:2:0:0:
114,85,145332,1,0,1:2:0:0:
165,90,145416,1,0,3:2:0:0:
197,129,145499,1,0,1:2:0:0:
194,183,145582,1,2,3:2:0:0:
191,237,145666,1,0,1:2:0:0:
223,276,145749,1,0,3:2:0:0:
274,281,145833,1,0,1:2:0:0:
315,258,145916,6,0,B|397:214|362:83|219:68|150:217|232:321|342:287|342:287|361:317|383:327,1,475.999985473633,2|0,3:2|0:2,0:2:0:0:
433,370,147416,1,0,0:2:0:0:
433,370,147582,1,2,0:2:0:0:
433,370,147749,1,2,0:2:0:0:
488,311,147916,1,2,0:2:0:0:
512,233,148082,1,2,0:2:0:0:
365,315,148249,1,8,0:2:0:0:
100,189,148582,6,0,P|51:204|-17:219,1,85,6|0,3:2|0:0,0:2:0:0:
230,1,148916,2,2,P|161:19|123:112,1,170,8|0,0:2|0:0,0:2:0:0:
234,222,149416,1,2,3:2:0:0:
283,157,149582,1,10,0:2:0:0:
146,226,149749,1,2,0:2:0:0:
277,309,149916,6,0,P|320:322|375:345,1,85,2|2,3:2|0:2,0:0:0:0:
328,243,150249,1,10,0:2:0:0:
162,330,150416,2,0,B|63:343|102:372|-16:375,1,170,2|2,0:2|3:2,0:2:0:0:
114,259,150916,1,10,0:2:0:0:
12,118,151082,1,2,0:2:0:0:
11,209,151249,2,0,P|63:193|123:182,1,85,2|2,3:2|0:2,0:2:0:0:
249,33,151582,5,10,0:2:0:0:
183,104,151749,1,2,0:2:0:0:
270,146,151916,1,2,0:2:0:0:
337,77,152082,1,2,3:2:0:0:
486,193,152249,2,0,P|440:178|384:166,1,85,10|2,0:2|0:2,0:0:0:0:
264,313,152582,6,0,B|244:214|293:240|266:131,1,170,2|10,3:2|0:2,0:2:0:0:
27,228,153082,2,0,B|47:129|-2:155|25:46,1,170,2|2,0:2|3:2,0:2:0:0:
177,10,153582,1,10,0:2:0:0:
169,51,153666,1,2,0:2:0:0:
175,93,153749,1,2,0:2:0:0:
170,138,153832,1,2,0:2:0:0:
172,154,153916,5,2,3:2:0:0:
91,221,154082,1,0,0:0:0:0:
201,289,154249,2,0,P|236:277|301:264,1,85,10|2,0:2|0:2,0:2:0:0:
410,109,154582,2,0,P|402:145|381:208,1,85,2|0,0:2|3:2,0:2:0:0:
461,379,154916,2,0,P|433:354|389:304,1,85,10|2,0:2|0:2,0:0:0:0:
291,154,155249,5,2,3:2:0:0:
357,194,155416,1,2,0:2:0:0:
251,228,155582,1,10,0:2:0:0:
129,147,155749,2,0,P|78:165|42:272,1,170,2|2,0:2|3:2,0:2:0:0:
234,364,156249,2,0,P|271:351|333:335,1,85,10|2,0:2|0:2,0:2:0:0:
390,369,156582,5,2,3:2:0:0:
270,248,156749,1,2,0:2:0:0:
412,184,156916,1,10,0:2:0:0:
512,303,157082,2,0,P|439:284|317:259,1,170,0|2,0:0|3:2,0:0:0:0:
134,318,157582,2,0,B|131:275|131:275|157:225,1,85,10|2,0:2|0:2,0:0:0:0:
215,288,157916,5,2,3:2:0:0:
45,218,158082,2,0,P|10:227|-25:240,1,42.5,2|0,0:2|0:0,0:0:0:0:
154,92,158249,2,0,B|210:104|210:104|240:131|240:131|303:144,1,127.5,10|0,0:2|0:0,0:2:0:0:
281,147,158582,1,0,0:2:0:0:
99,316,158749,1,2,3:2:0:0:
99,316,158832,1,2,0:2:0:0:
99,316,158916,2,0,P|119:302|164:292,1,42.5,10|2,0:2|0:2,0:0:0:0:
191,222,159082,2,0,P|213:232|244:266,1,42.5,2|2,0:2|0:2,0:0:0:0:
350,376,159249,5,2,3:2:0:0:
299,318,159416,1,0,0:0:0:0:
310,239,159583,1,10,0:2:0:0:
372,189,159750,1,2,0:2:0:0:
512,315,159916,5,2,0:2:0:0:
451,190,160082,1,2,3:2:0:0:
310,239,160249,2,0,P|262:251|195:277,1,85,10|2,0:2|0:2,0:0:0:0:
63,373,160582,1,2,3:2:0:0:
157,296,160749,1,2,0:2:0:0:
186,378,160916,1,10,0:2:0:0:
20,201,161082,2,0,B|110:214|85:173|199:187,1,170,2|2,0:2|3:2,0:2:0:0:
366,24,161582,2,0,P|383:68|374:131,1,85,10|0,0:2|0:0,0:2:0:0:
332,171,161916,5,2,3:2:0:0:
235,113,162082,1,2,0:2:0:0:
253,195,162249,1,10,0:2:0:0:
172,258,162416,1,2,0:2:0:0:
274,271,162582,1,2,0:2:0:0:
311,342,162749,1,2,3:2:0:0:
443,267,162916,2,0,P|483:283|534:299,1,85,10|2,0:2|0:2,0:0:0:0:
443,69,163249,6,0,P|367:93|333:189,1,170,2|10,3:2|0:2,0:0:0:0:
134,109,163749,2,0,P|81:124|26:138,1,85,2|0,0:2|0:2,0:2:0:0:
110,198,164082,1,2,3:2:0:0:
270,81,164249,1,10,0:2:0:0:
316,62,164332,1,2,0:2:0:0:
365,75,164416,1,2,0:2:0:0:
388,119,164499,1,2,0:2:0:0:
389,137,164582,6,0,P|378:185|365:259,1,85,2|0,3:2|0:0,0:2:0:0:
179,374,164916,1,10,0:2:0:0:
251,337,165082,1,2,0:2:0:0:
306,275,165249,1,2,0:2:0:0:
397,338,165416,1,2,3:2:0:0:
503,236,165582,2,0,P|460:248|403:263,1,85,10|2,0:2|0:2,0:0:0:0:
257,134,165916,6,0,P|244:174|245:217,1,85,2|2,3:2|0:2,0:0:0:0:
306,275,166249,1,10,0:2:0:0:
132,212,166416,2,0,P|136:127|175:53,1,170,2|2,0:2|3:2,0:2:0:0:
347,155,166916,2,0,P|348:197|328:248,1,85,10|2,0:2|0:2,0:2:0:0:
168,343,167249,5,2,3:2:0:0:
239,377,167471,5,2,3:2:0:0:
318,374,167694,5,2,3:2:0:0:
385,334,167916,5,2,3:2:0:0:
423,266,168138,5,2,3:2:0:0:
427,189,168360,6,0,B|432:115|463:149|459:61,1,113.333333333333,2|2,3:2|3:2,0:2:0:0:
41,384,169916,6,0,B|35:328|-2:295|-2:295|30:235,1,152.999995330811,6|2,3:2|0:2,0:2:0:0:
0,79,170582,2,0,B|18:81|18:81|55:77|55:77|93:91|93:91|139:93,1,114.749996498108,2|0,0:2|0:2,0:2:0:0:
191,36,170916,2,0,B|266:17|266:17|234:57,1,114.749996498108,2|0,0:2|0:2,0:2:0:0:
235,59,171249,5,2,0:2:0:0:
329,127,171416,1,2,0:2:0:0:
451,29,171582,2,0,B|415:32|388:71|388:71|413:99|408:129,1,114.749996498108,2|0,3:2|0:2,0:2:0:0:
416,115,171916,5,10,1:1:0:0:
282,210,172082,2,0,P|310:217|344:235,1,38.2499988327027,0|0,1:2|0:0,0:0:0:0:
441,354,172249,5,4,0:3:0:0:
443,273,172416,2,0,P|415:280|381:298,1,38.2499988327027,0|0,1:2|0:0,0:0:0:0:
301,358,172582,5,4,3:2:0:0:
224,321,172749,2,0,L|170:333,1,38.2499988327027,2|0,0:2|0:2,0:2:0:0:
207,243,172916,2,0,L|153:255,1,38.2499988327027,2|0,0:2|0:2,0:2:0:0:
226,328,173082,2,0,L|172:340,1,38.2499988327027,2|0,0:2|0:2,0:2:0:0:
0,354,173249,6,0,B|79:383|79:383|46:328,1,127.5,10|0,0:2|0:2,0:2:0:0:
1,253,173582,2,0,P|23:230|56:222,1,42.5,2|0,3:2|0:2,0:2:0:0:
69,141,173749,2,0,P|99:148|123:173,1,42.5,2|0,0:2|0:2,0:2:0:0:
207,243,173916,5,0,0:2:0:0:
334,183,174082,1,2,1:2:0:0:
334,183,174166,1,0,0:2:0:0:
334,183,174249,2,0,B|325:157|334:120|334:120|306:153,1,85,2|2,3:2|0:2,0:2:0:0:
247,384,174582,6,0,B|240:357|240:357|248:321,1,42.5,10|0,0:2|0:2,0:2:0:0:
329,333,174749,2,0,B|336:360|336:360|328:396,1,42.5,2|0,1:2|0:2,0:2:0:0:
103,278,174916,2,0,P|149:290|207:240,1,127.5,2|0,0:2|0:0,0:2:0:0:
173,152,175249,6,0,B|132:134|93:165|93:165|72:208|29:217,1,152.999995330811,2|2,3:2|0:2,0:2:0:0:
181,0,175916,2,0,B|238:-20|291:48|254:55|243:49,1,114.749996498108,10|0,0:2|0:2,0:2:0:0:
160,85,176249,2,0,B|118:91|118:91|88:114|88:114|22:125,1,114.749996498108,2|0,0:2|0:2,0:2:0:0:
42,129,176582,5,2,0:2:0:0:
142,245,176749,1,2,0:2:0:0:
31,351,176916,2,0,B|17:295|62:238|62:238|54:285,1,152.999995330811,2|8,3:2|0:2,0:2:0:0:
31,351,177416,1,2,0:2:0:0:
31,351,177582,1,2,0:2:0:0:
31,351,177749,1,2,0:2:0:0:
187,314,177916,6,0,P|226:328|285:345,1,85,2|0,3:2|0:0,0:2:0:0:
334,383,178249,1,2,0:2:0:0:
486,286,178416,2,0,P|493:252|474:197,1,85,2|8,0:2|0:1,0:2:0:0:
385,94,178749,2,0,B|349:199|395:169|355:294,1,170,2|0,0:2|3:2,0:2:0:0:
192,182,179249,6,0,P|142:197|99:209,1,85,2|0,0:2|0:0,0:2:0:0:
210,260,179582,1,2,3:2:0:0:
83,384,179749,2,0,P|77:351|88:297,1,85,2|8,0:2|0:1,0:2:0:0:
282,297,180082,2,0,P|288:330|277:384,1,85,2|0,0:2|0:2,0:2:0:0:
190,333,180416,1,2,0:2:0:0:
315,193,180582,6,0,B|358:201|358:201|372:212|372:212|423:216|466:255,1,152.999995330811,2|0,3:2|0:2,0:2:0:0:
382,22,181249,2,0,P|310:13|278:66,1,114.749996498108,10|0,0:2|0:2,0:2:0:0:
303,136,181582,2,0,P|375:145|407:92,1,114.749996498108,2|0,3:2|0:2,0:2:0:0:
405,106,181916,5,2,0:2:0:0:
495,203,182082,1,10,0:2:0:0:
430,255,182249,5,2,0:2:0:0:
369,325,182416,1,0,3:2:0:0:
217,288,182582,6,0,B|138:304|138:304|198:319,1,114.749996498108,2|0,3:2|0:2,0:2:0:0:
184,327,182916,6,0,B|176:349|183:370|174:388,1,38.2499988327027,0|0,0:1|0:0,0:2:0:0:
8,222,183249,6,0,B|16:244|9:265|18:283,1,38.2499988327027,8|0,0:2|0:0,0:0:0:0:
31,257,183416,2,0,B|27:262|34:241|26:219,1,38.2499988327027,2|0,0:2|0:2,0:2:0:0:
137,99,183582,6,0,B|129:121|136:142|127:160,1,38.2499988327027,2|0,3:2|0:2,0:2:0:0:
114,134,183749,2,0,B|117:139|110:118|118:96,1,38.2499988327027,2|0,0:2|0:2,0:2:0:0:
245,191,183916,5,10,0:2:0:0:
318,217,184082,1,0,3:2:0:0:
458,84,184249,2,0,B|404:94|404:94|370:120|370:120|307:132,1,152.999995330811,2|2,3:2|3:2,0:2:0:0:
390,242,184805,5,2,3:2:0:0:
318,217,185027,5,2,3:2:0:0:
240,228,185249,6,0,B|234:215|222:212|217:207|214:197|194:196,1,50.9999984436036,2|0,3:2|0:2,0:2:0:0:
175,273,185471,6,0,B|162:266|150:272|143:271|135:265|119:278,1,50.9999984436036,2|0,3:2|0:2,0:2:0:0:
149,346,185694,6,0,B|135:349|130:360|124:365|113:366|109:385,1,50.9999984436036,2|0,3:2|0:2,0:2:0:0:
318,74,185916,6,0,B|336:57|336:57|320:85,1,50.9999984436036,2|0,3:2|0:0,0:0:0:0:
300,215,186138,6,0,B|305:239|305:239|289:211,1,50.9999984436036
186,128,186360,6,0,B|162:120|162:120|194:120,1,50.9999984436036
266,138,186582,5,0,0:0:0:0:
266,138,186916,6,0,B|277:141|277:141|266:40|153:63,1,152.999995330811,10|2,0:1|3:2,0:2:0:0:
24,308,187582,5,2,0:2:0:0:
4,219,187749,2,0,P|42:228|100:249,1,85,2|8,0:2|0:1,0:2:0:0:
239,344,188082,2,0,B|350:328|307:362|419:337,1,170,2|2,0:2|3:2,0:2:0:0:
473,169,188582,5,2,0:2:0:0:
389,222,188749,1,0,0:2:0:0:
497,244,188916,1,0,1:2:0:0:
366,145,189082,1,0,1:2:0:0:
235,191,189249,5,0,1:2:0:0:
161,218,189416,1,0,1:2:0:0:
109,277,189582,2,0,B|90:285|88:291|54:307,1,42.5,0|0,1:2|0:0,0:0:0:0:
162,113,189749,6,0,B|169:82|160:71|174:26,1,85,0|0,1:2|0:0,0:0:0:0:
