osu file format v14

[General]
AudioFilename: audio.mp3
AudioLeadIn: 0
PreviewTime: 32096
Countdown: 0
SampleSet: Normal
StackLeniency: 0.7
Mode: 1
LetterboxInBreaks: 0
WidescreenStoryboard: 1

[Editor]
DistanceSpacing: 0.7
BeatDivisor: 8
GridSize: 32
TimelineZoom: 1.8

[Metadata]
Title:Q?
TitleUnicode:Q?
Artist:Reol
ArtistUnicode:Reol
Creator:Fynbi
Version:K?
Source:デジモンアドベンチャー:
Tags:japanese pop jpop drum n bass dnb electronic anime digimon adventure: ending reoru giga gigap ギガ れをる question and quiet Capu Capu's Inner Oni Muzukashii Futsuu Kantan
BeatmapID:3303759
BeatmapSetID:1501565

[Difficulty]
HPDrainRate:8
CircleSize:3
OverallDifficulty:3
ApproachRate:2
SliderMultiplier:1.4
SliderTickRate:1

[Events]
//Background and Video events
0,0,"bg.jpg",0,-70
//Break Periods
//Storyboard Layer 0 (Background)
//Storyboard Layer 1 (Fail)
//Storyboard Layer 2 (Pass)
//Storyboard Layer 3 (Foreground)
//Storyboard Layer 4 (Overlay)
//Storyboard Sound Samples

[TimingPoints]
-737,333.333333333333,4,1,0,10,1,8
96,-100,4,1,0,15,0,0
137,-100,4,1,0,20,0,0
179,-100,4,1,0,25,0,0
221,-100,4,1,0,30,0,0
262,-100,4,1,0,35,0,0
304,-100,4,1,0,40,0,0
346,-100,4,1,0,45,0,0
387,-100,4,1,0,50,0,0
429,-100,4,1,0,55,0,0
470,-100,4,1,0,60,0,0
9804,-100,4,1,0,80,0,0
11137,-100,4,1,0,90,0,0
31137,-100,4,1,0,80,0,0
32596,-100,4,1,0,100,0,1
52596,-100,4,1,0,100,0,0
52721,-100,4,1,0,40,0,0
53804,-100,4,1,0,90,0,0
92471,-100,4,1,0,80,0,0
95262,-100,4,1,0,100,0,1
105929,-100,4,1,0,100,0,0
106054,-100,4,1,0,70,0,0
111137,-100,4,1,0,90,0,0
114929,-100,4,1,0,80,0,0
136804,-100,4,1,0,40,0,0
137804,-100,4,1,0,90,0,0
147137,-100,4,1,0,80,0,0
148596,-100,4,1,0,100,0,1
168596,-100,4,1,0,100,0,0
168762,-100,4,1,0,40,0,0
169804,-100,4,1,0,90,0,0
189887,-100,4,1,0,10,0,0

[HitObjects]
299,200,596,5,0,0:0:0:0:
289,200,1096,1,0,0:0:0:0:
281,210,1929,1,8,0:0:0:0:
281,210,2429,1,8,0:0:0:0:
237,231,3262,1,0,0:0:0:0:
259,197,3762,1,8,0:0:0:0:
257,197,4596,1,8,0:0:0:0:
257,197,5096,1,0,0:0:0:0:
257,197,5929,1,0,0:0:0:0:
252,215,6429,1,0,0:0:0:0:
240,219,7262,1,8,0:0:0:0:
238,215,7762,1,8,0:0:0:0:
238,215,8596,1,0,0:0:0:0:
195,206,9096,1,8,0:0:0:0:
190,204,9929,1,8,0:0:0:0:
190,204,10262,1,8,0:0:0:0:
190,204,10596,1,8,0:0:0:0:
197,208,10929,1,8,0:0:0:0:
185,201,11262,1,0,0:0:0:0:
192,192,11596,1,8,0:0:0:0:
203,197,12596,1,0,0:0:0:0:
203,197,12929,1,0,0:0:0:0:
203,197,13262,1,8,0:0:0:0:
203,197,13929,1,0,0:0:0:0:
199,197,14262,1,8,0:0:0:0:
199,197,15262,1,0,0:0:0:0:
208,212,15929,1,8,0:0:0:0:
208,212,16262,1,8,0:0:0:0:
208,212,16596,1,0,0:0:0:0:
186,204,16929,1,0,0:0:0:0:
208,210,17929,1,0,0:0:0:0:
211,215,18262,1,8,0:0:0:0:
211,215,18596,1,0,0:0:0:0:
215,239,19262,1,0,0:0:0:0:
212,235,19929,1,8,0:0:0:0:
212,235,20262,1,0,0:0:0:0:
201,231,21262,1,0,0:0:0:0:
151,218,21596,1,8,0:0:0:0:
190,228,21929,1,0,0:0:0:0:
160,192,22262,1,8,0:0:0:0:
189,215,23262,1,8,0:0:0:0:
189,215,23596,1,8,0:0:0:0:
196,233,23929,1,0,0:0:0:0:
170,227,24596,1,0,0:0:0:0:
190,232,24929,1,8,0:0:0:0:
189,231,25929,1,0,0:0:0:0:
168,225,26596,1,8,0:0:0:0:
189,231,26929,1,8,0:0:0:0:
179,223,27262,1,0,0:0:0:0:
180,217,27596,1,8,0:0:0:0:
180,228,28596,1,8,0:0:0:0:
180,228,28929,1,8,0:0:0:0:
180,228,29262,1,0,0:0:0:0:
180,228,29929,1,8,0:0:0:0:
180,220,30596,1,0,0:0:0:0:
180,220,30929,1,0,0:0:0:0:
180,220,31262,1,8,0:0:0:0:
232,211,32262,1,8,0:0:0:0:
234,219,32596,1,4,0:0:0:0:
254,227,33262,1,8,0:0:0:0:
254,227,33596,1,8,0:0:0:0:
192,256,33929,1,0,0:0:0:0:
248,229,34429,1,8,0:0:0:0:
221,218,35262,1,0,0:0:0:0:
221,217,35596,1,8,0:0:0:0:
233,224,35929,1,0,0:0:0:0:
161,215,36596,1,0,0:0:0:0:
161,215,37096,1,8,0:0:0:0:
201,214,37596,1,0,0:0:0:0:
158,211,37929,1,8,0:0:0:0:
165,209,38262,1,0,0:0:0:0:
163,209,38596,1,8,0:0:0:0:
199,215,39262,1,8,0:0:0:0:
161,220,39762,1,0,0:0:0:0:
206,211,40596,1,8,0:0:0:0:
206,211,40929,1,8,0:0:0:0:
195,198,41929,1,0,0:0:0:0:
195,196,42262,1,8,0:0:0:0:
195,196,42596,1,8,0:0:0:0:
170,194,43262,1,4,0:0:0:0:
203,238,43929,1,8,0:0:0:0:
203,238,44262,1,0,0:0:0:0:
203,238,44596,1,8,0:0:0:0:
203,238,45096,1,8,0:0:0:0:
186,244,45929,1,0,0:0:0:0:
186,244,46262,1,8,0:0:0:0:
186,244,46596,1,8,0:0:0:0:
186,244,47262,1,0,0:0:0:0:
186,244,47762,1,8,0:0:0:0:
194,237,48262,1,0,0:0:0:0:
194,237,48596,1,8,0:0:0:0:
194,237,48929,1,8,0:0:0:0:
193,237,49262,1,0,0:0:0:0:
191,271,49929,1,8,0:0:0:0:
191,271,50429,1,0,0:0:0:0:
191,230,51262,1,0,0:0:0:0:
192,222,51596,1,0,0:0:0:0:
191,229,51929,1,0,0:0:0:0:
191,229,52262,1,0,0:0:0:0:
199,238,52596,1,0,0:0:0:0:
205,227,53929,1,12,0:0:0:0:
199,226,54596,1,8,0:0:0:0:
202,194,55596,1,0,0:0:0:0:
220,200,55929,1,8,0:0:0:0:
188,202,56596,1,0,0:0:0:0:
190,218,57262,1,8,0:0:0:0:
195,226,57596,1,0,0:0:0:0:
195,226,58262,1,0,0:0:0:0:
195,226,58596,1,8,0:0:0:0:
210,229,58929,1,0,0:0:0:0:
203,229,59262,1,12,0:0:0:0:
230,233,59929,1,8,0:0:0:0:
210,229,60929,1,0,0:0:0:0:
204,227,61262,1,8,0:0:0:0:
201,245,61929,1,4,0:0:0:0:
212,246,62596,1,8,0:0:0:0:
210,242,63096,1,0,0:0:0:0:
204,243,63596,1,0,0:0:0:0:
223,252,63929,1,8,0:0:0:0:
217,246,64596,1,12,0:0:0:0:
223,229,65262,1,8,0:0:0:0:
223,229,65596,1,0,0:0:0:0:
200,257,66096,1,8,0:0:0:0:
205,261,66596,1,0,0:0:0:0:
194,235,67262,1,8,0:0:0:0:
202,234,67596,1,0,0:0:0:0:
232,223,67929,1,8,0:0:0:0:
214,225,68262,1,12,0:0:0:0:
111,192,69929,1,8,0:0:0:0:
111,192,70929,1,4,0:0:0:0:
208,226,71262,1,12,0:0:0:0:
232,242,71929,1,8,0:0:0:0:
232,242,72429,1,0,0:0:0:0:
239,249,72929,1,8,0:0:0:0:
239,249,73262,1,8,0:0:0:0:
173,199,73596,1,8,0:0:0:0:
226,246,73929,1,0,0:0:0:0:
256,192,74262,1,8,0:0:0:0:
222,249,75262,1,0,0:0:0:0:
211,244,75596,1,0,0:0:0:0:
211,244,75929,1,8,0:0:0:0:
211,244,76596,1,0,0:0:0:0:
216,242,76929,1,8,0:0:0:0:
190,249,78262,1,8,0:0:0:0:
214,240,78596,1,0,0:0:0:0:
214,240,79262,1,0,0:0:0:0:
214,240,79596,1,8,0:0:0:0:
212,241,80596,1,8,0:0:0:0:
212,241,80929,1,8,0:0:0:0:
212,241,81262,1,8,0:0:0:0:
196,231,81929,1,0,0:0:0:0:
185,250,82429,1,0,0:0:0:0:
212,240,82929,1,8,0:0:0:0:
212,240,83262,1,0,0:0:0:0:
212,240,83762,1,0,0:0:0:0:
212,240,84262,1,8,0:0:0:0:
202,263,84596,1,0,0:0:0:0:
224,224,84929,1,8,0:0:0:0:
224,224,85929,1,8,0:0:0:0:
224,224,86262,1,8,0:0:0:0:
226,239,86596,1,8,0:0:0:0:
226,239,87262,1,0,0:0:0:0:
226,239,87596,1,8,0:0:0:0:
222,236,88262,1,8,0:0:0:0:
210,235,88929,1,0,0:0:0:0:
210,235,89262,1,8,0:0:0:0:
160,222,89596,1,8,0:0:0:0:
210,235,89929,1,0,0:0:0:0:
194,226,90596,1,8,0:0:0:0:
213,243,91262,1,0,0:0:0:0:
191,230,91596,1,0,0:0:0:0:
217,245,91929,1,8,0:0:0:0:
226,204,92596,1,0,0:0:0:0:
226,204,93929,1,0,0:0:0:0:
207,185,94262,1,8,0:0:0:0:
232,217,94929,1,8,0:0:0:0:
228,205,95262,1,4,0:0:0:0:
254,227,95929,1,8,0:0:0:0:
254,227,96262,1,8,0:0:0:0:
248,229,96596,1,0,0:0:0:0:
248,229,97096,1,8,0:0:0:0:
221,218,97929,1,0,0:0:0:0:
221,217,98262,1,8,0:0:0:0:
233,224,98596,1,0,0:0:0:0:
161,215,99262,1,8,0:0:0:0:
161,215,99762,1,8,0:0:0:0:
195,202,100262,1,0,0:0:0:0:
158,211,100596,1,8,0:0:0:0:
165,209,100929,1,0,0:0:0:0:
198,212,101262,1,8,0:0:0:0:
199,215,101929,1,8,0:0:0:0:
161,220,102429,1,0,0:0:0:0:
206,211,103262,1,0,0:0:0:0:
206,211,103596,1,8,0:0:0:0:
195,198,104596,1,0,0:0:0:0:
195,196,104929,1,8,0:0:0:0:
195,196,105262,1,8,0:0:0:0:
210,209,105929,1,4,0:0:0:0:
230,217,107262,1,0,0:0:0:0:
225,218,108596,1,8,0:0:0:0:
246,230,109929,1,0,0:0:0:0:
254,195,111262,1,8,0:0:0:0:
252,197,111929,1,8,0:0:0:0:
205,244,112596,1,8,0:0:0:0:
176,273,113262,1,8,0:0:0:0:
192,240,113929,1,8,0:0:0:0:
220,238,115262,1,8,0:0:0:0:
220,238,115596,1,8,0:0:0:0:
220,238,115929,1,0,0:0:0:0:
211,236,116262,1,8,0:0:0:0:
220,238,116596,1,4,0:0:0:0:
219,255,117262,1,0,0:0:0:0:
201,268,117596,1,8,0:0:0:0:
223,260,117929,1,0,0:0:0:0:
185,199,118929,1,8,0:0:0:0:
213,253,119262,1,0,0:0:0:0:
185,233,119929,1,8,0:0:0:0:
160,256,120262,1,0,0:0:0:0:
178,238,120596,1,0,0:0:0:0:
228,244,121096,1,8,0:0:0:0:
171,231,121929,1,8,0:0:0:0:
168,231,122429,1,0,0:0:0:0:
166,229,123262,1,8,0:0:0:0:
166,228,123762,1,8,0:0:0:0:
179,217,124596,1,0,0:0:0:0:
212,227,125096,1,0,0:0:0:0:
189,218,125929,1,8,0:0:0:0:
160,224,126262,1,0,0:0:0:0:
190,216,126596,1,8,0:0:0:0:
208,211,127262,1,4,0:0:0:0:
232,217,127929,1,0,0:0:0:0:
232,217,128262,1,8,0:0:0:0:
232,217,128596,1,0,0:0:0:0:
227,236,129596,1,8,0:0:0:0:
227,232,129929,1,0,0:0:0:0:
227,236,130596,1,8,0:0:0:0:
204,216,130929,1,8,0:0:0:0:
216,239,131262,1,0,0:0:0:0:
216,239,131929,1,8,0:0:0:0:
216,239,132596,1,8,0:0:0:0:
218,230,132929,1,0,0:0:0:0:
213,227,133929,1,0,0:0:0:0:
213,227,134262,1,8,0:0:0:0:
216,213,135262,1,0,0:0:0:0:
216,213,135762,1,0,0:0:0:0:
231,214,137929,1,12,0:0:0:0:
212,215,138596,1,0,0:0:0:0:
197,207,139262,1,0,0:0:0:0:
210,217,139596,1,0,0:0:0:0:
209,202,139929,1,8,0:0:0:0:
208,204,140596,1,12,0:0:0:0:
201,211,141262,1,0,0:0:0:0:
203,209,141929,1,8,0:0:0:0:
176,193,142262,1,0,0:0:0:0:
176,193,142596,1,8,0:0:0:0:
214,236,143262,1,12,0:0:0:0:
220,234,143929,1,0,0:0:0:0:
192,192,144596,1,8,0:0:0:0:
234,231,144929,1,0,0:0:0:0:
224,256,145262,1,8,0:0:0:0:
224,192,145596,1,8,0:0:0:0:
224,224,145929,1,0,0:0:0:0:
223,203,147262,1,8,0:0:0:0:
226,204,148262,1,8,0:0:0:0:
198,206,148596,1,4,0:0:0:0:
254,227,149262,1,8,0:0:0:0:
254,227,149596,1,8,0:0:0:0:
248,229,149929,1,0,0:0:0:0:
248,229,150429,1,8,0:0:0:0:
221,218,151262,1,0,0:0:0:0:
221,217,151596,1,8,0:0:0:0:
233,224,151929,1,0,0:0:0:0:
161,215,152596,1,0,0:0:0:0:
161,215,153096,1,8,0:0:0:0:
200,229,153596,1,0,0:0:0:0:
200,229,153929,1,8,0:0:0:0:
165,209,154262,1,0,0:0:0:0:
163,209,154596,1,8,0:0:0:0:
199,215,155262,1,8,0:0:0:0:
161,220,155762,1,0,0:0:0:0:
192,224,156596,1,8,0:0:0:0:
206,211,156929,1,8,0:0:0:0:
195,198,157929,1,0,0:0:0:0:
195,196,158262,1,8,0:0:0:0:
195,196,158596,1,8,0:0:0:0:
170,194,159262,1,4,0:0:0:0:
203,238,159929,1,8,0:0:0:0:
203,238,160262,1,8,0:0:0:0:
203,238,160596,1,0,0:0:0:0:
203,238,161096,1,8,0:0:0:0:
186,244,161929,1,0,0:0:0:0:
186,244,162262,1,8,0:0:0:0:
186,244,162596,1,0,0:0:0:0:
186,244,163262,1,8,0:0:0:0:
186,244,163762,1,8,0:0:0:0:
182,231,164262,1,0,0:0:0:0:
191,271,164596,1,8,0:0:0:0:
191,271,164929,1,8,0:0:0:0:
191,271,165262,1,0,0:0:0:0:
191,271,165929,1,0,0:0:0:0:
191,271,166429,1,8,0:0:0:0:
297,204,167262,1,0,0:0:0:0:
192,192,168596,1,8,0:0:0:0:
200,191,169929,1,12,0:0:0:0:
206,168,171596,1,0,0:0:0:0:
222,182,171929,1,8,0:0:0:0:
222,204,172596,1,12,0:0:0:0:
221,219,173262,1,8,0:0:0:0:
235,219,173596,1,0,0:0:0:0:
228,203,174262,1,0,0:0:0:0:
227,208,174596,1,8,0:0:0:0:
205,206,174929,1,0,0:0:0:0:
232,217,175262,1,12,0:0:0:0:
218,233,175929,1,8,0:0:0:0:
213,228,176929,1,0,0:0:0:0:
201,236,177262,1,8,0:0:0:0:
215,242,177929,1,4,0:0:0:0:
196,222,178596,1,8,0:0:0:0:
192,222,179096,1,0,0:0:0:0:
188,217,179596,1,0,0:0:0:0:
194,218,179929,1,8,0:0:0:0:
203,209,180596,1,12,0:0:0:0:
221,215,181262,1,8,0:0:0:0:
221,214,181596,1,0,0:0:0:0:
219,213,182096,1,8,0:0:0:0:
221,263,182596,1,0,0:0:0:0:
193,227,183262,1,8,0:0:0:0:
217,213,183596,1,0,0:0:0:0:
215,248,183929,1,8,0:0:0:0:
128,192,184262,1,12,0:0:0:0:
220,214,184596,1,4,0:0:0:0:
133,189,185929,1,8,0:0:0:0:
130,209,186929,1,12,0:0:0:0:
220,225,187262,1,4,0:0:0:0:
222,232,187929,1,8,0:0:0:0:
222,232,188429,1,0,0:0:0:0:
214,242,188929,1,8,0:0:0:0:
214,242,189262,1,8,0:0:0:0:
214,242,189596,1,8,0:0:0:0:
