osu file format v14

[General]
AudioFilename: audio.mp3
AudioLeadIn: 0
PreviewTime: 32095
Countdown: 0
SampleSet: Soft
StackLeniency: 0.4
Mode: 0
LetterboxInBreaks: 0
WidescreenStoryboard: 1

[Editor]
DistanceSpacing: 1
BeatDivisor: 4
GridSize: 32
TimelineZoom: 2

[Metadata]
Title:Q?
TitleUnicode:Q?
Artist:Reol
ArtistUnicode:れをる
Creator:DeRandom Otaku
Version:Normal
Source:デジモンアドベンチャー:
Tags:Japanese drum n bass dnb chiga fuju ren anime digimon adventure: ending giga question and quiet electronic pop jpop
BeatmapID:2729967
BeatmapSetID:1317625

[Difficulty]
HPDrainRate:4
CircleSize:3
OverallDifficulty:4.5
ApproachRate:5.6
SliderMultiplier:0.999999999999999
SliderTickRate:1

[Events]
//Background and Video events
0,0,"bg.jpg",0,0
//Break Periods
2,106128,110152
//Storyboard Layer 0 (Background)
//Storyboard Layer 1 (Fail)
//Storyboard Layer 2 (Pass)
//Storyboard Layer 3 (Foreground)
//Storyboard Layer 4 (Overlay)
//Storyboard Sound Samples

[TimingPoints]
596,333.333333333333,4,2,1,50,1,0
11262,-100,4,2,1,60,0,0
21929,-100,4,2,1,68,0,0
29762,-100,4,2,1,75,0,0
32595,-100,4,2,1,90,0,1
53929,-100,4,2,1,78,0,0
61929,-100,4,2,1,85,0,0
64595,-100,4,2,1,75,0,0
73929,-100,4,2,1,60,0,0
84595,-100,4,2,1,68,0,0
92595,-100,4,2,1,58,0,0
94929,-100,4,2,1,80,0,0
95262,-100,4,2,1,90,0,1
105929,-100,4,2,1,90,0,0
111262,-100,4,2,1,60,0,0
116595,-100,4,2,1,65,0,0
127262,-100,4,2,1,70,0,0
137929,-100,4,2,1,80,0,0
147262,-100,4,2,1,55,0,0
148262,-100,4,2,1,80,0,0
148595,-100,4,2,1,90,0,1
169929,-100,4,2,1,75,0,0
172595,-100,4,2,1,85,0,0
177929,-100,4,2,1,90,0,0
180595,-100,4,2,1,85,0,0
187262,-100,4,2,1,90,0,0
188595,-100,4,2,1,80,0,0
188929,-100,4,2,1,70,0,0
189095,-100,4,2,1,62,0,0
189262,-100,4,2,1,58,0,0
189429,-100,4,2,1,52,0,0
189595,-100,4,2,1,48,0,0
189762,-100,4,2,1,45,0,0

[Colours]
Combo1 : 255,165,121
Combo2 : 255,168,168
Combo3 : 157,255,157
Combo4 : 179,179,217

[HitObjects]
365,32,11262,6,0,P|386:81|368:123,1,99.9999999999999,6|8,1:2|0:0,0:0:0:0:
319,128,11762,2,0,L|334:233,1,99.9999999999999,2|0,0:2|1:0,0:0:0:0:
396,304,12429,1,2,0:2:0:0:
396,304,12595,2,0,P|358:343|312:341,1,99.9999999999999,0|10,1:0|0:0,0:0:0:0:
218,316,13262,2,0,L|222:370,2,50,2|2|10,0:2|1:2|0:2,0:0:0:0:
211,266,13762,1,2,0:2:0:0:
211,266,13929,6,0,P|160:238|110:257,1,99.9999999999999,0|8,1:0|0:2,0:0:0:0:
79,274,14429,2,0,P|46:238|51:189,1,99.9999999999999,2|0,0:2|1:0,0:0:0:0:
104,106,15095,1,2,0:2:0:0:
104,106,15262,2,0,L|98:54,1,50,2|2,1:2|0:2,0:0:0:0:
90,6,15595,1,10,0:2:0:0:
190,1,15929,2,0,L|196:53,1,50,2|2,0:2|1:2,0:0:0:0:
223,92,16262,2,0,L|217:144,1,50,10|2,0:2|0:2,0:0:0:0:
210,191,16595,6,0,P|253:224|315:211,1,99.9999999999999,0|10,1:0|0:2,0:0:0:0:
334,188,17095,2,0,P|377:155|439:168,1,99.9999999999999,2|0,0:2|1:0,0:0:0:0:
498,220,17762,1,2,0:2:0:0:
498,220,17929,2,0,L|493:278,1,50,2|2,1:2|0:2,0:0:0:0:
491,319,18262,1,10,0:2:0:0:
403,366,18595,2,0,L|298:361,1,99.9999999999999,2|10,0:2|0:2,0:0:0:0:
253,360,19095,1,2,0:2:0:0:
253,360,19262,6,0,P|236:309|260:263,1,99.9999999999999,0|10,1:0|0:2,0:0:0:0:
294,177,19929,2,0,L|284:112,1,50,2|2,0:2|1:2,0:0:0:0:
274,78,20262,1,10,0:2:0:0:
191,21,20595,2,0,P|144:52|91:46,1,99.9999999999999,2|10,1:2|0:2,0:0:0:0:
59,36,21095,1,2,0:2:0:0:
59,36,21262,2,0,L|67:101,1,50,2|2,0:2|1:2,0:0:0:0:
73,134,21595,1,10,0:2:0:0:
24,221,21929,6,0,P|66:253|119:243,1,99.9999999999999,6|10,1:2|0:2,0:0:0:0:
151,219,22429,1,2,0:2:0:0:
151,219,22595,2,0,L|216:225,1,50,2|2,0:3|1:3,0:0:0:0:
250,230,22929,1,10,0:2:0:0:
321,160,23262,2,0,P|341:120|335:61,1,99.9999999999999,2|8,1:2|0:0,0:0:0:0:
319,25,23762,1,2,0:2:0:0:
319,25,23929,2,0,L|381:30,1,50,2|2,0:2|1:2,0:0:0:0:
418,38,24262,1,8,0:0:0:0:
501,92,24595,6,0,P|490:147|486:204,1,99.9999999999999,0|10,1:0|0:0,0:0:0:0:
490,240,25095,1,2,0:2:0:0:
490,240,25262,2,0,L|484:308,1,50,2|2,0:3|1:3,0:0:0:0:
481,339,25595,1,10,0:2:0:0:
392,291,25929,2,0,P|343:266|297:278,1,99.9999999999999,0|8,1:0|0:2,0:0:0:0:
259,303,26429,1,2,0:2:0:0:
259,303,26595,2,0,L|193:295,1,50,2|2,0:2|1:2,0:0:0:0:
159,289,26929,1,8,0:2:0:0:
70,335,27262,6,0,P|46:296|57:245,1,99.9999999999999,2|10,1:2|0:2,0:0:0:0:
87,205,27762,1,2,0:2:0:0:
87,205,27929,2,0,L|80:147,1,50,2|2,0:3|1:3,0:0:0:0:
68,106,28262,1,10,0:2:0:0:
128,26,28595,2,0,P|166:20|212:57,1,99.9999999999999,0|10,1:0|0:2,0:0:0:0:
222,105,29095,1,2,0:2:0:0:
222,105,29262,1,2,0:2:0:0:
185,200,29595,5,8,0:2:0:0:
185,200,29762,2,0,B|235:192|235:192|243:194|243:194|294:185,1,99.9999999999999,2|2,0:2|0:2,0:0:0:0:
332,177,30262,1,10,0:2:0:0:
412,117,30595,2,0,P|417:83|409:55,1,50,2|2,0:2|1:2,0:0:0:0:
394,27,30929,1,10,0:2:0:0:
394,27,31095,1,10,0:2:0:0:
394,27,32595,6,0,P|354:57|291:51,1,99.9999999999999,6|10,1:2|0:2,0:0:0:0:
214,15,33262,2,0,L|161:26,1,50,2|2,0:2|1:2,0:0:0:0:
126,57,33595,2,0,L|73:46,1,50,10|2,0:2|0:2,0:0:0:0:
27,35,33929,2,0,L|35:140,1,99.9999999999999,2|10,1:2|0:2,0:0:0:0:
40,184,34429,1,2,0:2:0:0:
114,250,34762,2,0,L|110:299,2,50,2|10|2,1:2|0:2|0:2,0:0:0:0:
142,209,35262,6,0,P|189:182|236:190,1,99.9999999999999,2|10,1:2|0:2,0:0:0:0:
270,221,35762,1,2,0:2:0:0:
270,221,35929,2,0,L|334:216,1,50,2|2,0:2|1:2,0:0:0:0:
369,215,36262,1,10,0:2:0:0:
466,237,36595,2,0,P|483:282|468:329,1,99.9999999999999,2|10,1:2|0:2,0:0:0:0:
432,368,37095,2,0,L|332:375,1,99.9999999999999,2|2,0:2|1:2,0:0:0:0:
282,380,37595,1,10,0:2:0:0:
200,321,37929,6,0,L|204:260,1,50,2|2,1:2|0:2,0:0:0:0:
230,228,38262,2,0,L|226:167,1,50,10|2,0:2|0:2,0:0:0:0:
217,128,38595,2,0,P|172:111|125:132,1,99.9999999999999,2|10,0:2|0:2,0:0:0:0:
33,167,39262,2,0,L|40:228,2,50,2|2|10,1:2|0:2|0:2,0:0:0:0:
23,117,39762,1,2,0:2:0:0:
62,27,40095,1,2,1:2:0:0:
62,27,40262,2,0,L|128:33,1,50,10|2,0:2|0:2,0:0:0:0:
152,60,40595,2,0,L|201:55,1,50,2|2,1:2|0:2,0:0:0:0:
252,54,40929,5,10,0:2:0:0:
399,14,41429,1,2,1:2:0:0:
399,14,41595,2,0,L|448:18,1,50,10|2,0:2|0:2,0:0:0:0:
495,37,41929,2,0,P|500:67|490:102,1,50,2|2,1:2|0:2,0:0:0:0:
482,134,42262,1,10,0:2:0:0:
393,181,42595,2,0,L|403:237,1,50,2|2,0:2|1:2,0:0:0:0:
423,275,42929,2,0,L|413:331,1,50,10|2,0:2|0:2,0:0:0:0:
434,370,43262,6,0,P|387:352|336:358,1,99.9999999999999,6|10,1:2|0:2,0:0:0:0:
241,382,43929,1,2,0:2:0:0:
163,318,44262,2,0,L|169:260,1,50,10|2,0:2|0:2,0:0:0:0:
177,219,44595,2,0,P|139:209|115:217,1,50,2|2,1:2|0:2,0:0:0:0:
81,226,44929,1,10,0:2:0:0:
81,226,45095,1,2,0:2:0:0:
15,157,45429,1,2,1:2:0:0:
15,157,45595,2,0,L|20:101,1,50,10|2,0:2|0:2,0:0:0:0:
20,56,45929,6,0,P|54:48|86:56,1,50,2|2,1:2|0:2,0:0:0:0:
114,69,46262,1,10,0:2:0:0:
194,10,46595,2,0,L|301:16,1,99.9999999999999,2|10,0:2|0:2,0:0:0:0:
343,21,47095,1,2,0:2:0:0:
343,21,47262,2,0,P|363:68|344:113,1,99.9999999999999,2|10,1:2|0:2,0:0:0:0:
313,149,47762,1,2,0:2:0:0:
229,201,48095,1,2,1:2:0:0:
229,201,48262,1,10,0:2:0:0:
294,276,48595,6,0,L|413:266,1,99.9999999999999,2|10,1:2|0:2,0:0:0:0:
443,265,49095,1,2,0:2:0:0:
443,265,49262,2,0,P|472:223|465:175,1,99.9999999999999,2|10,0:2|0:2,0:0:0:0:
387,114,49929,2,0,L|392:54,1,50,2|2,1:2|0:2,0:0:0:0:
399,18,50262,1,10,0:2:0:0:
399,18,50429,2,0,P|349:33|298:24,1,99.9999999999999,2|2,0:2|1:2,0:0:0:0:
255,9,50929,1,10,0:2:0:0:
177,71,51262,6,0,L|184:132,1,50,2|2,1:2|0:2,0:0:0:0:
191,169,51595,2,0,P|146:193|90:183,1,99.9999999999999,2|0,1:2|1:0,0:0:0:0:
54,180,52095,1,2,1:2:0:0:
54,180,52262,2,0,L|61:241,1,50,2|2,1:2|1:2,0:0:0:0:
67,279,52595,1,2,1:2:0:0:
67,279,53929,5,6,1:2:0:0:
21,367,54262,1,2,0:2:0:0:
120,377,54595,2,0,P|176:372|233:370,1,99.9999999999999,10|2,0:2|0:2,0:0:0:0:
269,377,55095,2,0,P|283:334|262:279,1,99.9999999999999,2|2,0:2|0:2,0:0:0:0:
230,248,55595,1,2,1:2:0:0:
286,165,55929,2,0,L|339:171,1,50,10|2,0:2|0:2,0:0:0:0:
384,179,56262,1,2,0:2:0:0:
478,145,56595,6,0,P|495:97|469:50,1,99.9999999999999,2|2,1:2|0:2,0:0:0:0:
384,11,57262,2,0,P|346:17|319:16,1,50,10|2,0:2|0:2,0:0:0:0:
295,48,57595,1,2,1:2:0:0:
295,48,57762,2,0,P|233:38|189:39,1,99.9999999999999,2|10,0:2|0:2,0:0:0:0:
148,55,58262,1,2,1:2:0:0:
68,110,58595,1,2,0:2:0:0:
68,110,58762,1,2,0:2:0:0:
68,110,58929,2,0,L|77:176,1,50,2|2,0:2|0:2,0:0:0:0:
81,209,59262,5,6,1:2:0:0:
172,169,59595,1,2,0:2:0:0:
256,222,59929,2,0,L|242:320,1,99.9999999999999,10|2,0:2|0:2,0:0:0:0:
234,370,60429,2,0,P|284:348|334:356,1,99.9999999999999,2|0,0:2|0:0,0:0:0:0:
373,373,60929,1,0,1:0:0:0:
444,302,61262,2,0,P|475:322|512:327,2,74.9999999999999,10|10|10,0:2|0:2|0:2,0:0:0:0:
406,268,61929,6,0,P|416:226|410:164,1,99.9999999999999,6|2,1:2|0:2,0:0:0:0:
390,130,62429,1,2,0:2:0:0:
390,130,62595,1,8,0:1:0:0:
448,48,62929,1,2,0:2:0:0:
354,13,63262,2,0,L|250:22,1,99.9999999999999,2|2,0:2|1:2,0:0:0:0:
204,16,63762,2,0,P|188:59|206:113,1,99.9999999999999,2|2,0:2|0:2,0:0:0:0:
232,149,64262,1,0,0:0:0:0:
172,229,64595,6,0,L|71:225,1,99.9999999999999,6|2,1:2|0:2,0:0:0:0:
35,318,65262,2,0,L|84:319,1,50,10|2,0:2|0:2,0:0:0:0:
134,325,65595,1,6,1:2:0:0:
276,372,66095,2,0,P|292:326|279:279,1,99.9999999999999,10|2,0:2|1:2,0:0:0:0:
247,240,66595,1,6,1:2:0:0:
168,177,66929,1,2,0:2:0:0:
227,96,67262,6,0,L|282:99,1,50,10|2,0:2|0:2,0:0:0:0:
317,128,67595,2,0,L|416:122,1,99.9999999999999,6|8,1:2|0:0,0:0:0:0:
471,125,68095,1,2,1:2:0:0:
471,125,68262,1,2,1:2:0:0:
433,217,68595,6,0,B|364:220|364:220|320:269|320:269|255:273,2,200,2|2|10,1:2|1:2|1:2,0:0:0:0:
471,125,70262,1,2,1:2:0:0:
378,86,70595,1,8,0:0:0:0:
301,151,70929,1,4,1:0:0:0:
227,92,71262,5,6,1:2:0:0:
227,92,71429,2,0,P|174:77|129:92,1,99.9999999999999,2|2,0:2|0:2,0:0:0:0:
94,122,71929,2,0,L|109:228,1,99.9999999999999,8|2,0:1|0:0,0:0:0:0:
117,270,72429,1,2,1:2:0:0:
179,355,72762,1,10,0:2:0:0:
179,355,72929,2,0,P|211:363|242:359,1,50,2|2,0:2|0:2,0:0:0:0:
277,356,73262,1,2,0:2:0:0:
420,303,73762,1,2,0:2:0:0:
420,303,73929,6,0,L|408:191,1,99.9999999999999,6|8,1:2|0:0,0:0:0:0:
413,153,74429,2,0,P|362:124|313:146,1,99.9999999999999,2|0,0:2|1:0,0:0:0:0:
251,201,75095,1,2,0:2:0:0:
251,201,75262,2,0,P|200:230|151:208,1,99.9999999999999,0|10,1:0|0:0,0:0:0:0:
73,174,75929,2,0,L|69:124,2,50,2|2|10,0:2|1:2|0:2,0:0:0:0:
52,221,76429,1,2,0:2:0:0:
52,221,76595,6,0,L|43:331,1,99.9999999999999,0|8,1:0|0:2,0:0:0:0:
38,370,77095,2,0,L|146:361,1,99.9999999999999,2|0,0:2|1:0,0:0:0:0:
187,358,77595,1,8,0:0:0:0:
307,287,78095,1,2,0:2:0:0:
307,287,78262,2,0,P|308:254|305:229,1,50,10|2,0:2|0:2,0:0:0:0:
287,190,78595,1,2,0:2:0:0:
203,144,78929,1,10,0:2:0:0:
203,144,79095,2,0,P|202:111|205:86,1,50,2|0,0:2|1:0,0:0:0:0:
217,45,79429,6,0,P|261:21|322:36,1,99.9999999999999,2|2,0:2|0:2,0:0:0:0:
395,88,80095,1,0,1:0:0:0:
395,88,80262,1,8,0:2:0:0:
391,187,80595,2,0,L|403:292,1,99.9999999999999,2|10,1:2|0:2,0:0:0:0:
413,340,81095,1,2,0:2:0:0:
413,340,81262,2,0,P|371:372|321:365,1,99.9999999999999,2|10,0:2|0:2,0:0:0:0:
286,337,81762,1,2,0:2:0:0:
193,375,82095,6,0,P|178:324|197:279,1,99.9999999999999,2|2,0:2|1:2,0:0:0:0:
226,243,82595,2,0,L|219:193,1,50,2|2,0:2|1:2,0:0:0:0:
210,143,82929,1,10,0:2:0:0:
250,51,83262,2,0,P|293:26|348:32,1,99.9999999999999,2|10,1:2|0:2,0:0:0:0:
438,56,83929,2,0,L|425:155,1,99.9999999999999,2|10,0:2|0:2,0:0:0:0:
419,204,84429,5,2,0:2:0:0:
469,290,84762,2,0,L|475:339,1,50,2|8,0:2|0:2,0:0:0:0:
440,375,85095,2,0,P|391:384|345:367,1,99.9999999999999,2|0,0:2|1:2,0:0:0:0:
285,265,85762,1,2,0:2:0:0:
285,265,85929,2,0,P|264:219|281:168,1,99.9999999999999,2|8,1:2|0:2,0:0:0:0:
306,134,86429,1,2,0:2:0:0:
306,134,86596,2,0,L|368:139,1,50,2|0,0:2|1:2,0:0:0:0:
399,113,86929,1,10,0:2:0:0:
501,92,87262,6,0,P|490:147|486:204,1,99.9999999999999,0|10,1:2|0:2,0:0:0:0:
490,240,87762,1,2,0:2:0:0:
490,240,87929,2,0,L|484:308,1,50,2|2,0:2|1:2,0:0:0:0:
481,339,88262,1,10,0:2:0:0:
392,291,88596,2,0,P|343:266|297:278,1,99.9999999999999,0|8,1:2|0:2,0:0:0:0:
259,303,89096,1,2,0:2:0:0:
259,303,89262,2,0,L|193:295,1,50,2|2,0:2|1:2,0:0:0:0:
159,289,89596,1,8,0:2:0:0:
70,335,89929,6,0,P|46:296|57:245,1,99.9999999999999,2|10,1:2|0:2,0:0:0:0:
87,205,90429,1,2,0:2:0:0:
87,205,90596,2,0,L|80:147,1,50,2|2,0:2|1:2,0:0:0:0:
68,106,90929,1,10,0:2:0:0:
128,26,91262,2,0,P|166:20|212:57,1,99.9999999999999,2|10,1:2|0:2,0:0:0:0:
222,105,91762,1,2,0:2:0:0:
222,105,91929,1,2,0:2:0:0:
185,200,92262,2,0,L|190:249,1,50,8|0,0:2|0:0,0:0:0:0:
180,298,92595,6,0,P|228:316|277:298,1,99.9999999999999,2|10,1:2|0:2,0:0:0:0:
301,261,93095,1,2,0:2:0:0:
301,261,93262,2,0,P|349:243|398:261,1,99.9999999999999,2|10,0:2|0:2,0:0:0:0:
475,315,93929,6,0,P|432:229|477:137,1,200,2|2,0:2|0:2,0:0:0:0:
512,112,94762,1,2,0:2:0:0:
512,112,94929,1,10,0:2:0:0:
450,32,95262,6,0,P|397:41|345:46,1,99.9999999999999,6|10,1:2|0:2,0:0:0:0:
276,112,95929,2,0,P|223:103|171:98,1,99.9999999999999,2|10,0:2|0:2,0:0:0:0:
128,111,96429,1,2,0:2:0:0:
128,111,96595,2,0,L|121:53,2,50,2|2|10,1:2|0:2|0:2,0:0:0:0:
111,158,97096,1,2,0:2:0:0:
75,251,97429,2,0,P|118:276|169:271,1,99.9999999999999,2|2,1:2|0:2,0:0:0:0:
200,234,97929,6,0,P|243:209|294:214,1,99.9999999999999,2|10,1:2|0:2,0:0:0:0:
326,249,98429,1,2,0:2:0:0:
326,249,98595,2,0,L|319:348,1,99.9999999999999,2|10,0:2|0:2,0:0:0:0:
414,380,99262,2,0,L|417:316,1,50,2|2,1:2|0:2,0:0:0:0:
448,291,99595,1,10,0:2:0:0:
448,291,99762,2,0,L|441:191,1,99.9999999999999,2|2,0:2|1:2,0:0:0:0:
435,141,100262,1,10,0:2:0:0:
405,45,100595,6,0,P|366:48|350:50,1,50,2|2,1:2|0:2,0:0:0:0:
309,70,100929,2,0,P|270:67|254:65,1,50,10|2,0:2|0:2,0:0:0:0:
216,39,101262,2,0,P|167:25|118:40,1,99.9999999999999,2|10,0:2|0:2,0:0:0:0:
49,107,101929,2,0,L|-6:102,2,50,2|2|10,1:2|0:2|0:2,0:0:0:0:
89,136,102429,2,0,P|99:187|87:232,1,99.9999999999999,2|2,0:2|1:2,0:0:0:0:
58,273,102929,1,10,0:2:0:0:
32,369,103262,6,0,L|94:363,1,50,2|2,1:2|0:2,0:0:0:0:
125,339,103595,2,0,L|224:348,1,99.9999999999999,10|0,0:2|0:0,0:0:0:0:
274,355,104096,1,2,1:2:0:0:
274,355,104262,2,0,P|283:319|281:295,1,50,10|2,0:2|0:2,0:0:0:0:
275,256,104595,1,2,1:2:0:0:
215,175,104929,1,10,0:2:0:0:
278,97,105262,2,0,P|310:94|341:98,1,50,2|2,0:2|1:2,0:0:0:0:
375,108,105595,2,0,P|390:60|374:14,1,99.9999999999999,10|6,0:2|1:2,0:0:0:0:
374,14,111262,6,0,B|299:22|299:22|262:59|262:59|177:69,1,200,2|2,3:2|3:2,0:0:0:0:
32,190,112595,2,0,L|24:272,2,66.6666666666666,2|0|0,3:2|3:0|3:0,0:0:0:0:
6,128,113262,2,0,B|81:136|81:136|118:173|118:173|203:183,1,200,2|2,3:2|3:2,0:0:0:0:
189,181,115929,6,0,L|187:238,1,50,2|2,1:2|1:2,0:0:0:0:
160,273,116262,2,0,L|162:330,1,50,10|2,0:2|1:2,0:0:0:0:
155,372,116595,2,0,P|204:348|256:354,1,99.9999999999999,6|10,1:2|0:2,0:0:0:0:
344,379,117262,2,0,P|393:381|437:358,1,99.9999999999999,2|10,0:2|0:2,0:0:0:0:
494,275,117929,2,0,L|488:167,1,99.9999999999999,2|10,1:2|0:2,0:0:0:0:
405,119,118595,2,0,L|407:69,1,50,0|0,0:0|1:0,0:0:0:0:
410,18,118929,1,10,0:2:0:0:
310,12,119262,6,0,L|304:111,1,99.9999999999999,2|10,1:2|0:2,0:0:0:0:
222,169,119929,2,0,L|227:268,1,99.9999999999999,2|10,0:2|0:2,0:0:0:0:
169,350,120595,1,2,1:2:0:0:
169,350,120762,1,2,0:2:0:0:
90,287,121095,2,0,L|84:187,1,99.9999999999999,2|0,0:2|1:2,0:0:0:0:
79,137,121595,1,8,0:2:0:0:
116,44,121929,6,0,P|163:23|212:35,1,99.9999999999999,2|8,1:2|0:0,0:0:0:0:
243,68,122429,2,0,P|290:89|339:77,1,99.9999999999999,2|0,0:2|1:0,0:0:0:0:
377,51,122929,1,10,0:2:0:0:
467,9,123262,2,0,L|461:118,1,99.9999999999999,2|10,1:2|0:2,0:0:0:0:
436,152,123762,2,0,L|442:261,1,99.9999999999999,2|2,0:2|1:2,0:0:0:0:
442,301,124262,1,10,0:2:0:0:
366,366,124595,6,0,P|315:363|279:311,1,99.9999999999999,2|10,1:2|0:2,0:0:0:0:
257,285,125095,2,0,P|269:228|270:175,1,99.9999999999999,2|0,0:2|1:0,0:0:0:0:
259,137,125595,1,10,0:2:0:0:
248,37,125929,2,0,P|289:23|326:24,2,74.9999999999999,2|2|2,1:2|0:2|0:2,0:0:0:0:
217,76,126595,2,0,P|176:62|139:63,2,74.9999999999999,2|2|2,0:2|0:2|0:2,0:0:0:0:
244,118,127262,5,6,1:2:0:0:
163,177,127595,1,10,0:2:0:0:
244,235,127929,2,0,L|349:218,1,99.9999999999999,2|10,0:2|0:2,0:0:0:0:
364,316,128595,2,0,L|259:333,1,99.9999999999999,2|10,1:2|0:2,0:0:0:0:
171,367,129262,2,0,L|121:359,1,50,0|0,0:0|1:0,0:0:0:0:
72,348,129595,1,10,0:2:0:0:
11,268,129929,6,0,P|22:213|22:160,1,99.9999999999999,2|10,1:2|0:2,0:0:0:0:
0,71,130595,2,0,P|44:47|100:59,1,99.9999999999999,2|10,0:2|0:2,0:0:0:0:
171,114,131262,2,0,L|161:199,2,74.9999999999999,2|2|2,1:2|0:2|0:2,0:0:0:0:
210,83,131929,2,0,L|201:8,2,74.9999999999999,2|2|2,0:2|0:2|0:2,0:0:0:0:
251,110,132595,1,2,1:2:0:0:
333,52,132929,2,0,P|383:37|428:53,1,99.9999999999999,8|0,0:0|0:0,0:0:0:0:
494,125,133595,1,10,0:2:0:0:
411,181,133929,5,2,1:2:0:0:
494,235,134262,2,0,L|491:341,1,99.9999999999999,10|2,0:2|0:2,0:0:0:0:
403,383,134929,1,10,0:2:0:0:
340,304,135262,2,0,P|291:282|247:295,1,99.9999999999999,2|10,1:2|0:2,0:0:0:0:
214,331,135762,2,0,L|109:325,1,99.9999999999999,2|0,0:2|1:0,0:0:0:0:
64,320,136262,1,10,0:2:0:0:
7,237,136595,6,0,P|-10:191|10:143,1,99.9999999999999,2|2,1:2|0:2,0:0:0:0:
80,76,137262,1,2,0:2:0:0:
171,115,137595,1,2,0:2:0:0:
229,33,137929,6,0,B|277:16|277:16|328:39,1,99.9999999999999,6|2,1:2|1:2,0:0:0:0:
410,81,138595,2,0,P|402:143|395:200,1,99.9999999999999,2|2,1:2|1:2,0:0:0:0:
457,260,139262,1,2,1:2:0:0:
394,338,139595,1,2,1:2:0:0:
322,268,139929,2,0,P|273:246|226:264,1,99.9999999999999,2|2,1:2|1:2,0:0:0:0:
176,343,140595,5,2,1:2:0:0:
83,382,140929,1,2,1:2:0:0:
28,298,141262,2,0,P|33:256|33:234,1,50,2|2,1:2|0:2,0:0:0:0:
58,205,141595,2,0,P|53:163|53:141,1,50,2|2,1:2|0:2,0:0:0:0:
49,105,141929,1,2,1:2:0:0:
113,28,142262,1,2,1:2:0:0:
204,79,142595,2,0,P|257:68|309:67,1,99.9999999999999,2|2,1:2|1:2,0:0:0:0:
372,138,143262,5,2,1:2:0:0:
455,83,143595,1,2,1:2:0:0:
496,174,143929,2,0,L|488:275,1,99.9999999999999,2|2,1:2|1:2,0:0:0:0:
438,360,144595,2,0,P|393:376|341:354,1,99.9999999999999,2|2,1:2|1:2,0:0:0:0:
271,290,145262,2,0,L|213:300,1,50,2|2,1:2|1:2,0:0:0:0:
180,327,145595,2,0,L|130:318,1,50,2|2,1:2|1:2,0:0:0:0:
81,308,145929,1,4,0:0:0:0:
256,192,146095,12,10,147262,0:0:0:0:
196,21,148262,5,0,0:0:0:0:
95,21,148595,2,0,L|110:119,1,99.9999999999999,6|10,1:2|0:2,0:0:0:0:
203,156,149262,2,0,L|187:254,1,99.9999999999999,2|10,0:2|0:2,0:0:0:0:
183,308,149762,1,2,0:2:0:0:
183,308,149929,2,0,P|240:290|280:300,1,99.9999999999999,2|10,1:2|0:2,0:0:0:0:
318,328,150429,1,2,0:2:0:0:
402,380,150762,1,2,1:2:0:0:
402,380,150929,2,0,L|464:377,1,50,10|2,0:2|0:2,0:0:0:0:
502,377,151262,6,0,P|492:317|491:269,1,99.9999999999999,2|10,1:2|0:2,0:0:0:0:
508,179,151929,2,0,L|501:122,1,50,2|2,0:2|1:2,0:0:0:0:
494,79,152262,1,10,0:2:0:0:
394,75,152595,2,0,L|406:175,1,99.9999999999999,2|10,1:2|0:2,0:0:0:0:
416,223,153095,2,0,P|370:252|316:241,1,99.9999999999999,2|2,0:2|1:2,0:0:0:0:
282,224,153595,1,10,0:2:0:0:
187,191,153929,6,0,L|191:131,1,50,2|2,1:2|0:2,0:0:0:0:
222,102,154262,2,0,L|218:42,1,50,10|2,0:2|0:2,0:0:0:0:
213,2,154595,2,0,P|164:22|111:15,1,99.9999999999999,2|10,0:2|0:2,0:0:0:0:
19,0,155262,2,0,L|25:62,1,50,2|2,1:2|0:2,0:0:0:0:
54,96,155595,1,10,0:2:0:0:
54,96,155762,2,0,L|43:207,1,99.9999999999999,2|2,0:2|1:2,0:0:0:0:
38,245,156262,1,10,0:2:0:0:
26,344,156595,6,0,L|77:336,1,50,2|2,1:2|0:2,0:0:0:0:
119,312,156929,2,0,L|217:327,1,99.9999999999999,10|0,0:2|0:0,0:0:0:0:
270,320,157429,1,2,1:2:0:0:
270,320,157595,1,10,0:2:0:0:
225,229,157929,2,0,P|221:197|228:169,1,50,2|2,1:2|0:2,0:0:0:0:
241,132,158262,1,10,0:2:0:0:
280,40,158595,2,0,P|312:44|333:45,1,50,2|2,0:2|1:2,0:0:0:0:
373,70,158929,2,0,P|405:66|426:65,1,50,10|2,0:2|0:2,0:0:0:0:
472,60,159262,6,0,P|487:112|475:160,1,99.9999999999999,6|10,1:2|0:2,0:0:0:0:
455,202,159762,1,2,0:2:0:0:
455,202,159929,1,2,0:2:0:0:
374,261,160262,2,0,L|388:317,1,50,10|2,0:2|0:2,0:0:0:0:
399,357,160595,2,0,P|340:341|300:349,1,99.9999999999999,2|10,1:2|0:2,0:0:0:0:
259,373,161095,2,0,P|209:379|162:363,1,99.9999999999999,2|2,0:2|1:2,0:0:0:0:
122,334,161595,1,10,0:2:0:0:
174,248,161929,6,0,L|168:192,1,50,2|2,1:2|0:2,0:0:0:0:
138,157,162262,2,0,L|144:101,1,50,10|2,0:2|0:2,0:0:0:0:
156,58,162595,2,0,P|112:32|55:43,1,99.9999999999999,2|10,0:2|0:2,0:0:0:0:
5,118,163262,2,0,L|10:167,1,50,2|2,1:2|0:2,0:0:0:0:
44,205,163595,1,10,0:2:0:0:
44,205,163762,2,0,L|33:304,1,99.9999999999999,2|2,0:2|1:2,0:0:0:0:
29,354,164262,1,10,0:2:0:0:
123,320,164595,6,0,P|159:313|179:316,1,50,2|2,1:2|0:2,0:0:0:0:
215,340,164929,2,0,P|251:347|271:344,1,50,10|2,0:2|0:2,0:0:0:0:
311,330,165262,2,0,P|296:264|297:216,1,99.9999999999999,2|10,0:2|0:2,0:0:0:0:
330,138,165929,2,0,L|325:84,1,50,2|2,1:2|0:2,0:0:0:0:
315,44,166262,1,10,0:2:0:0:
315,44,166429,2,0,P|360:23|409:32,1,99.9999999999999,2|2,0:2|1:2,0:0:0:0:
447,62,166929,1,10,0:2:0:0:
503,144,167262,6,0,L|498:193,1,50,2|2,1:2|0:2,0:0:0:0:
508,242,167595,2,0,P|463:263|414:254,1,99.9999999999999,2|0,0:2|1:0,0:0:0:0:
375,233,168095,1,2,0:2:0:0:
375,233,168262,2,0,L|316:237,1,50,2|2,0:2|0:0,0:0:0:0:
275,241,168595,1,2,1:2:0:0:
275,241,169929,5,6,1:2:0:0:
222,155,170262,1,2,0:0:0:0:
277,71,170595,2,0,P|232:44|185:55,1,99.9999999999999,2|2,0:0|0:0,0:0:0:0:
125,131,171262,2,0,L|70:125,1,50,2|2,0:0|0:0,0:0:0:0:
26,112,171595,2,0,L|36:228,1,99.9999999999999,2|10,1:2|0:0,0:0:0:0:
43,265,172095,1,2,3:2:0:0:
43,265,172262,1,0,3:2:0:0:
120,327,172595,5,4,1:2:0:0:
120,327,172762,2,0,L|116:377,2,50,2|2|2,0:2|0:2|0:2,0:0:0:0:
153,290,173262,2,0,P|206:275|246:292,1,99.9999999999999,10|2,0:0|1:2,0:0:0:0:
309,368,173929,2,0,L|368:362,1,50,2|2,0:0|0:0,0:0:0:0:
408,372,174262,2,0,P|421:324|402:277,1,99.9999999999999,2|10,1:2|0:2,0:0:0:0:
371,247,174762,1,2,0:2:0:0:
371,247,174929,1,2,0:2:0:0:
420,160,175262,5,6,1:2:0:0:
348,89,175595,1,2,0:2:0:0:
406,7,175929,2,0,L|515:12,1,99.9999999999999,10|2,0:2|0:2,0:0:0:0:
497,111,176595,2,0,L|447:109,1,50,2|2,0:2|0:2,0:0:0:0:
414,147,176929,2,0,L|425:251,1,99.9999999999999,2|8,1:2|0:0,0:0:0:0:
435,300,177429,1,2,3:2:0:0:
435,300,177595,1,0,3:0:0:0:
356,362,177929,6,0,P|312:338|261:340,1,99.9999999999999,6|2,1:2|0:0,0:0:0:0:
220,365,178429,2,0,L|119:359,1,99.9999999999999,2|2,0:0|0:0,0:0:0:0:
70,356,178929,1,0,0:0:0:0:
13,273,179262,2,0,P|23:218|19:166,1,99.9999999999999,2|2,0:0|1:2,0:0:0:0:
2,127,179762,2,0,P|43:92|92:98,1,99.9999999999999,2|2,0:2|0:2,0:0:0:0:
124,127,180262,1,2,0:2:0:0:
191,200,180595,5,6,1:2:0:0:
267,134,180929,1,2,0:0:0:0:
343,198,181262,2,0,P|405:188|448:187,1,99.9999999999999,10|6,0:0|1:2,0:0:0:0:
506,110,181929,2,0,L|500:55,1,50,2|10,0:0|0:0,0:0:0:0:
497,10,182262,2,0,P|464:21|437:23,1,50,2|0,1:2|1:0,0:0:0:0:
399,18,182595,1,6,1:2:0:0:
316,74,182929,1,2,3:2:0:0:
238,10,183262,6,0,L|182:17,1,50,8|2,0:2|0:2,0:0:0:0:
154,53,183595,2,0,L|98:46,1,50,6|2,1:2|0:2,0:0:0:0:
56,32,183929,2,0,L|66:135,1,99.9999999999999,10|2,0:0|1:2,0:0:0:0:
39,228,184595,6,0,B|104:217|104:217|159:255|159:255|231:243,2,200,6|2|2,1:2|1:2|1:2,0:0:0:0:
0,320,186262,1,2,0:2:0:0:
84,372,186595,1,10,0:2:0:0:
177,337,186929,1,6,0:2:0:0:
266,381,187262,6,0,P|285:336|263:276,1,99.9999999999999,6|2,1:2|0:2,0:0:0:0:
236,253,187762,2,0,P|217:208|239:148,1,99.9999999999999,2|2,0:2|0:2,0:0:0:0:
258,119,188262,1,0,0:0:0:0:
313,35,188595,2,0,P|358:52|409:41,1,99.9999999999999,2|2,0:2|0:2,0:0:0:0:
451,18,189095,2,0,L|443:121,1,99.9999999999999,2|2,0:2|0:2,0:0:0:0:
442,171,189595,1,2,0:2:0:0:
442,171,189762,1,2,0:2:0:0:
