osu file format v14

[General]
AudioFilename: No title.mp3
AudioLeadIn: 0
PreviewTime: 2397
Countdown: 0
SampleSet: Soft
StackLeniency: 0.7
Mode: 0
LetterboxInBreaks: 1
WidescreenStoryboard: 1

[Editor]
Bookmarks: 13122,91572
DistanceSpacing: 1.5
BeatDivisor: 4
GridSize: 4
TimelineZoom: 2.999999

[Metadata]
Title:No title
TitleUnicode:No title
Artist:Reol
ArtistUnicode:れをる
Creator:kulnNO
Version:Insane
Source:
Tags:reol title−
BeatmapID:807570
BeatmapSetID:350030

[Difficulty]
HPDrainRate:6
CircleSize:4
OverallDifficulty:7
ApproachRate:9
SliderMultiplier:2
SliderTickRate:1

[Events]
//Background and Video events
0,0,"53727427_p0.jpg",0,0
//Break Periods
//Storyboard Layer 0 (Background)
//Storyboard Layer 1 (Fail)
//Storyboard Layer 2 (Pass)
//Storyboard Layer 3 (Foreground)
//Storyboard Sound Samples

[TimingPoints]
2397,300,4,2,0,40,1,0
2397,-181.818181818181,4,2,0,40,0,0
6897,-153.846153846153,4,2,0,40,0,0
7197,-142.857142857143,4,2,0,50,0,0
10797,-125,4,2,0,60,0,0
11997,-125,4,2,0,50,0,0
23997,-125,4,2,0,50,0,0
26397,-125,4,2,0,50,0,0
50397,-105.263157894737,4,1,0,70,0,1
69597,-125,4,2,0,50,0,0
76797,-100,4,2,0,50,0,0

[Colours]
Combo1 : 255,255,128
Combo2 : 255,255,0
Combo3 : 254,220,118
Combo4 : 0,255,255
Combo5 : 255,255,235

[HitObjects]
340,135,2397,6,0,P|302:102|240:104,1,110.000003356934,2|0,0:0|0:0,0:0:0:0:
188,165,2847,2,0,L|200:296,1,110.000003356934,2|0,0:0|0:0,0:0:0:0:
120,369,3297,1,2,0:0:0:0:
108,270,3447,1,0,0:0:0:0:
231,343,3597,6,0,P|293:362|352:352,1,110.000003356934,2|0,0:0|0:0,0:0:0:0:
370,198,4047,1,2,0:0:0:0:
370,198,4347,2,0,L|400:312,1,110.000003356934
276,268,4797,6,0,P|252:228|272:160,1,110.000003356934,2|0,0:0|0:0,0:0:0:0:
335,64,5247,1,2,0:0:0:0:
335,64,5547,2,0,L|208:60,1,110.000003356934
156,148,5997,5,2,0:0:0:0:
42,51,6147,1,0,0:0:0:0:
42,51,6447,2,0,L|48:168,1,110.000003356934,2|0,0:0|0:0,0:0:0:0:
52,260,6897,2,0,P|96:236|112:196,1,64.9999970245363
80,328,7197,5,0,0:0:0:0:
288,328,7497,1,2,0:0:0:0:
244,232,7647,2,0,B|212:152|212:152|268:96,1,139.999995727539
348,96,8097,1,8,0:0:0:0:
304,192,8247,1,8,0:0:0:0:
244,99,8397,6,0,L|104:96,1,139.999995727539,2|0,0:0|0:0,0:0:0:0:
104,96,8847,1,0,0:0:0:0:
60,300,9147,1,0,0:0:0:0:
128,212,9297,1,0,0:0:0:0:
156,312,9447,1,0,0:0:0:0:
128,212,9597,5,2,0:3:0:0:
252,44,9897,1,2,0:3:0:0:
320,124,10047,1,2,0:3:0:0:
128,212,10347,1,2,0:3:0:0:
224,252,10497,1,2,0:3:0:0:
324,220,10647,1,2,0:3:0:0:
384,324,10797,5,2,0:0:0:0:
384,324,10872,1,2,0:0:0:0:
384,324,10947,1,2,0:0:0:0:
504,304,11097,2,0,L|496:224,1,80,2|6,0:0|0:3,0:0:0:0:
456,112,11397,2,0,L|416:192,1,80,2|6,0:0|0:3,0:0:0:0:
300,188,11697,1,10,0:0:0:0:
300,188,11847,1,2,0:0:0:0:
232,68,11997,6,0,L|185:159,1,80,4|0,0:0|0:0,0:0:0:0:
240,252,12297,1,0,0:0:0:0:
136,192,12447,1,2,0:0:0:0:
56,284,12597,2,0,P|56:320|96:368,1,80
188,332,12897,1,10,0:0:0:0:
284,260,13047,1,10,0:0:0:0:
200,176,13197,6,0,L|104:172,1,80,2|0,0:0|0:0,0:0:0:0:
16,232,13497,1,0,0:0:0:0:
64,340,13647,2,0,P|106:303|124:256,1,80,2|0,0:3|0:0,0:0:0:0:
124,160,13947,1,4,0:3:0:0:
40,72,14097,1,8,0:0:0:0:
160,52,14247,1,4,0:3:0:0:
248,132,14397,6,0,L|336:140,1,80,4|0,0:3|0:0,0:0:0:0:
420,64,14697,2,0,L|332:64,1,80,0|2,0:0|0:0,0:0:0:0:
284,168,14997,2,0,L|360:140,1,80,0|2,0:0|0:0,0:0:0:0:
392,36,15297,2,0,L|316:72,1,80,8|10,0:0|0:0,0:0:0:0:
376,188,15597,5,2,0:3:0:0:
472,260,15747,1,0,0:0:0:0:
324,276,15897,1,0,0:0:0:0:
416,352,16047,1,6,0:3:0:0:
296,368,16197,2,0,B|232:384|232:384|108:344,1,160,0|10,0:0|0:2,0:0:0:0:
104,236,16647,1,0,0:0:0:0:
104,236,16797,6,0,L|204:252,1,80,2|0,0:0|0:0,0:0:0:0:
116,131,17097,2,0,L|4:120,1,80,0|2,0:0|0:0,0:0:0:0:
128,44,17397,1,0,0:0:0:0:
224,116,17547,1,2,0:0:0:0:
340,80,17697,2,0,L|344:0,1,80,8|10,0:0|0:0,0:0:0:0:
456,40,17997,6,0,L|441:145,1,80
412,236,18297,1,0,0:0:0:0:
304,180,18447,1,2,0:3:0:0:
260,68,18597,2,0,P|215:82|160:68,1,80,0|4,0:0|0:3,0:0:0:0:
124,188,18897,2,0,P|169:174|224:192,1,80,8|4,0:0|0:3,0:0:0:0:
284,268,19197,5,4,0:3:0:0:
167,330,19347,2,0,L|168:224,2,80,0|0|2,0:0|0:0|0:0,0:0:0:0:
41,291,19797,2,0,P|32:256|48:200,1,80,0|2,0:0|0:0,0:0:0:0:
146,101,20097,2,0,P|160:143|136:188,1,80,8|8,0:0|0:0,0:0:0:0:
56,96,20397,5,0,0:0:0:0:
140,12,20547,1,2,0:0:0:0:
140,12,20622,1,0,0:0:0:0:
140,12,20697,1,2,0:0:0:0:
232,88,20847,2,0,P|274:106|380:56,1,160,4|4,0:3|0:3,0:0:0:0:
492,40,21297,2,0,L|488:228,1,160,8|0,0:0|0:0,0:0:0:0:
372,232,21747,5,0,0:0:0:0:
372,232,21897,1,0,0:0:0:0:
372,232,22047,2,0,P|340:204|356:88,1,160,2|2,0:0|0:0,0:0:0:0:
256,176,22497,2,0,P|219:197|166:195,1,80,8|10,0:0|0:0,0:0:0:0:
112,64,22797,6,0,P|144:52|192:56,1,80,2|0,0:0|0:0,0:0:0:0:
116,152,23097,1,0,0:0:0:0:
60,260,23247,1,2,0:3:0:0:
168,312,23397,2,0,P|227:331|272:316,1,80,0|4,0:0|0:3,0:0:0:0:
356,368,23697,2,0,L|392:200,1,160,8|4,0:0|0:3,0:0:0:0:
288,152,24147,5,0,0:0:0:0:
288,152,24222,1,0,0:0:0:0:
288,152,24297,1,0,0:0:0:0:
408,136,24447,2,0,P|456:180|419:289,1,160,2|2,0:0|0:0,0:0:0:0:
336,316,24897,1,0,0:0:0:0:
140,176,25197,5,0,0:0:0:0:
184,308,25347,1,0,0:0:0:0:
184,308,25422,1,0,0:0:0:0:
184,308,25497,1,0,0:0:0:0:
52,292,25647,1,2,0:3:0:0:
52,292,25797,2,0,P|74:250|72:181,1,80,0|4,0:0|0:3,0:0:0:0:
102,102,26097,2,0,P|131:139|249:121,1,160,8|4,0:0|0:3,0:0:0:0:
256,56,26547,6,0,L|176:28,1,80
236,136,26847,2,0,L|336:128,1,80,2|0,0:0|0:0,0:0:0:0:
428,88,27147,1,2,0:0:0:0:
388,200,27297,2,0,P|397:248|372:288,1,80,8|10,0:0|0:0,0:0:0:0:
264,276,27597,5,2,0:3:0:0:
264,276,27747,1,0,0:0:0:0:
180,188,27897,1,0,0:0:0:0:
180,188,28047,1,2,0:3:0:0:
300,188,28197,1,0,0:0:0:0:
368,92,28347,1,4,0:3:0:0:
484,56,28497,2,0,P|493:126|460:220,1,160,10|2,0:0|0:3,0:0:0:0:
388,120,28947,5,0,0:0:0:0:
388,120,29097,2,0,L|280:96,1,80,2|2,0:3|0:3,0:0:0:0:
288,220,29397,2,0,L|388:248,1,80,0|2,0:0|0:3,0:0:0:0:
365,241,29697,1,6,0:3:0:0:
288,332,29847,1,6,0:3:0:0:
288,220,29997,5,2,0:0:0:0:
288,220,30072,1,2,0:0:0:0:
288,220,30147,1,2,0:0:0:0:
316,112,30297,2,0,P|248:92|212:104,1,80,2|2,0:0|0:0,0:0:0:0:
132,144,30597,1,2,0:0:0:0:
192,248,30747,1,6,0:3:0:0:
132,144,30897,1,4,0:3:0:0:
252,160,31047,6,10,B|296:120|288:84|324:40|372:32,1,160,10|0,0:0|0:0,0:0:0:0:
404,144,31497,2,0,P|454:135|488:96,1,80,0|2,0:0|0:0,0:0:0:0:
456,268,31797,1,0,0:0:0:0:
456,268,31947,2,0,L|460:380,1,80,2|8,0:0|0:0,0:0:0:0:
372,268,32247,6,0,P|300:236|224:288,1,160,10|0,0:0|0:0,0:0:0:0:
320,356,32697,1,0,0:0:0:0:
200,364,32847,2,0,L|124:320,1,80,2|0,0:0|0:0,0:0:0:0:
44,240,33147,2,0,L|48:136,1,80,4|10,0:3|0:0,0:0:0:0:
172,208,33447,6,0,B|216:148|196:112|220:48,1,160,10|0,0:0|0:0,0:0:0:0:
336,52,33897,2,0,P|388:40|424:60,1,80,0|2,0:0|0:0,0:0:0:0:
504,132,34197,1,0,0:0:0:0:
400,196,34347,1,2,0:0:0:0:
400,196,34497,1,8,0:0:0:0:
432,312,34647,6,0,L|340:324,1,80,10|4,0:0|0:3,0:0:0:0:
240,276,34947,2,0,P|188:264|148:288,2,80,0|0|4,0:0|0:0|0:3,0:0:0:0:
288,164,35397,2,0,B|324:244|456:224,1,160,0|10,0:0|0:0,0:0:0:0:
444,112,35847,6,0,P|432:68|388:32,1,80,2|0,0:0|0:3,0:0:0:0:
288,56,36147,1,0,0:0:0:0:
288,56,36297,2,0,L|184:32,1,80,0|2,0:0|0:0,0:0:0:0:
123,90,36597,2,0,P|139:138|128:188,2,80,0|2|8,0:0|0:0|0:0,0:0:0:0:
44,180,37047,6,0,P|56:228|104:256,1,80,10|2,0:0|0:0,0:0:0:0:
172,320,37347,1,0,0:0:0:0:
172,320,37497,2,0,L|272:296,1,80,0|2,0:0|0:3,0:0:0:0:
368,312,37797,2,0,B|400:356|400:356|464:352|468:260,1,160,0|8,0:0|0:0,0:0:0:0:
388,228,38247,6,0,P|372:184|388:132,1,80,2|0,0:3|0:0,0:0:0:0:
480,92,38547,1,0,0:0:0:0:
392,32,38697,2,0,L|296:56,1,80,0|2,0:0|0:0,0:0:0:0:
276,164,38997,2,0,L|273:256,2,80
208,104,39447,6,0,L|128:120,1,80,0|8,0:0|0:0,0:0:0:0:
104,152,39747,2,0,L|200:192,1,80,0|10,0:0|0:0,0:0:0:0:
140,256,40047,2,0,L|104:172,1,80,0|8,0:0|0:0,0:0:0:0:
108,344,40497,1,8,0:0:0:0:
228,344,40647,6,0,P|284:360|348:308,1,120,2|0,0:0|0:0,0:0:0:0:
272,164,41097,2,0,P|297:139|372:144,1,80,0|2,0:0|0:3,0:0:0:0:
400,224,41397,1,0,0:0:0:0:
480,136,41547,2,8,P|436:84|400:76,1,80,0|8,0:0|0:0,0:0:0:0:
308,56,41847,6,0,B|264:104|264:104|160:84,1,160,10|0,0:0|0:0,0:0:0:0:
164,192,42297,2,0,P|155:226|116:256,1,80
52,160,42597,1,0,0:0:0:0:
36,280,42747,2,0,L|104:344,1,80,0|8,0:0|0:0,0:0:0:0:
204,288,43047,6,0,L|212:200,1,80,6|4,0:3|0:3,0:0:0:0:
332,212,43347,2,0,L|328:324,1,80
216,252,43647,2,0,L|228:156,1,80,2|0,0:3|0:0,0:0:0:0:
276,64,43947,1,2,0:0:0:0:
392,48,44097,2,0,P|412:112|412:132,1,80,8|8,0:0|0:0,0:0:0:0:
444,240,44397,6,0,L|328:232,1,80,2|0,0:3|0:0,0:0:0:0:
260,296,44697,1,8,0:0:0:0:
140,308,44847,1,6,0:3:0:0:
140,308,44997,2,0,P|98:251|116:168,1,160,0|10,0:0|0:0,0:0:0:0:
124,48,45447,6,0,P|157:37|212:64,1,80,0|2,0:0|0:3,0:0:0:0:
236,164,45747,2,0,P|284:172|322:142,1,80
348,40,46047,1,0,0:0:0:0:
424,132,46197,2,0,P|400:180|360:196,1,80
304,252,46497,1,8,0:0:0:0:
304,252,46647,1,8,0:0:0:0:
416,204,46797,6,0,P|440:164|432:100,1,80
384,24,47097,2,0,P|352:60|348:120,1,80,0|2,0:0|0:3,0:0:0:0:
228,136,47397,2,0,L|228:288,1,120
228,256,47697,2,0,P|188:280|120:268,1,80,10|0,0:0|0:3,0:0:0:0:
52,216,47997,5,2,0:3:0:0:
52,216,48297,1,2,0:3:0:0:
188,116,48447,1,2,0:3:0:0:
188,116,48747,1,6,0:3:0:0:
116,184,48897,1,2,0:3:0:0:
76,88,49047,1,6,0:3:0:0:
168,28,49197,5,2,0:0:0:0:
168,28,49272,1,2,0:0:0:0:
168,28,49347,1,2,0:0:0:0:
288,64,49497,2,0,L|376:68,1,80,2|2,0:0|0:0,0:0:0:0:
204,172,49797,2,0,L|144:144,2,40,2|2|0,0:0|0:0|0:0,0:0:0:0:
64,204,50097,1,2,0:0:0:0:
64,304,50247,1,2,0:0:0:0:
152,372,50397,6,0,P|196:380|316:304,1,189.999994926453,6|0,0:1|0:0,0:0:0:0:
300,220,50847,2,0,P|268:180|292:48,1,189.999994926453,2|0,0:1|0:0,0:0:0:0:
440,44,51297,1,4,0:3:0:0:
376,152,51447,1,4,0:3:0:0:
276,52,51597,6,0,B|180:88|180:88|88:44,1,189.999994926453,2|0,0:1|0:0,0:0:0:0:
12,24,52047,1,2,0:1:0:0:
40,164,52197,2,0,L|56:288,1,94.9999974632264,2|4,0:0|0:3,0:0:0:0:
196,260,52497,2,0,L|239:168,1,94.9999974632264,8|4,0:0|0:3,0:0:0:0:
316,56,52797,6,0,B|392:36|392:36|488:108,1,189.999994926453,2|0,0:1|0:1,0:1:0:0:
500,244,53247,6,0,B|424:264|424:264|304:216,1,189.999994926453,2|0,0:1|0:1,0:1:0:0:
184,260,53697,1,4,0:3:0:0:
296,152,53847,5,6,0:3:0:0:
296,152,53922,1,0,0:0:0:0:
296,152,53997,2,0,L|264:52,1,94.9999974632264,2|0,0:1|0:0,0:0:0:0:
152,152,54297,2,0,B|136:104|136:104|160:48,1,94.9999974632264,2|4,0:0|0:1,0:0:0:0:
236,180,54597,2,0,B|252:228|252:228|216:284,1,94.9999974632264,2|6,0:0|0:3,0:0:0:0:
227,265,54897,1,8,0:0:0:0:
227,265,55047,1,0,0:0:0:0:
88,244,55197,6,0,P|60:164|68:136,1,94.9999974632264,2|0,0:1|0:1,0:1:0:0:
172,64,55497,1,0,0:1:0:0:
308,108,55647,1,2,0:1:0:0:
440,56,55797,1,0,0:0:0:0:
488,192,55947,2,0,P|436:228|300:216,1,189.999994926453,0|4,0:0|0:3,0:0:0:0:
192,112,56397,6,0,P|180:73|200:16,1,94.9999974632264,2|0,0:1|0:0,0:0:0:0:
328,36,56697,1,0,0:0:0:0:
325,34,56847,2,0,P|331:74|328:132,1,94.9999974632264,2|0,0:1|0:0,0:0:0:0:
268,260,57147,1,6,0:3:0:0:
224,124,57297,1,8,0:0:0:0:
124,224,57447,1,4,0:3:0:0:
32,112,57597,6,0,P|20:48|32:16,1,80,2|0,0:1|0:0,0:0:0:0:
188,44,57897,2,0,L|304:56,1,94.9999974632264,0|2,0:0|0:1,0:0:0:0:
388,156,58197,2,0,L|292:144,1,94.9999974632264,0|8,0:0|0:3,0:0:0:0:
188,44,58497,1,6,0:3:0:0:
293,144,58647,1,4,0:3:0:0:
196,248,58797,6,0,P|152:252|92:228,1,94.9999974632264,2|0,0:1|0:0,0:0:0:0:
104,236,59022,1,0,0:0:0:0:
104,236,59097,1,2,0:0:0:0:
220,320,59247,2,0,B|212:332|408:284,1,189.999994926453,2|4,0:1|0:3,0:0:0:0:
420,144,59697,1,10,0:0:0:0:
512,252,59847,1,0,0:0:0:0:
420,144,59997,6,0,B|364:148|364:148|320:204|320:204|248:216,1,189.999994926453,6|0,0:0|0:0,0:0:0:0:
152,212,60447,2,0,L|184:12,1,189.999994926453,2|0,0:1|0:0,0:0:0:0:
276,132,60897,1,4,0:3:0:0:
284,36,61047,1,4,0:3:0:0:
140,40,61197,2,0,B|84:68|84:68|72:196,1,189.999994926453,2|0,0:1|0:1,0:1:0:0:
76,187,61647,1,2,0:1:0:0:
80,328,61797,2,0,L|208:312,1,94.9999974632264,0|4,0:0|0:3,0:0:0:0:
320,352,62097,2,0,L|448:336,1,94.9999974632264,8|4,0:0|0:3,0:0:0:0:
424,196,62397,6,0,L|464:84,2,94.9999974632264,2|0|0,0:0|0:0|0:0,0:0:0:0:
424,196,62847,1,2,0:0:0:0:
424,196,62997,2,0,P|360:184|320:160,1,94.9999974632264
356,28,63297,2,0,L|264:48,1,94.9999974632264,4|4,0:3|0:3,0:0:0:0:
160,144,63597,5,2,0:1:0:0:
228,268,63747,1,0,0:0:0:0:
228,268,63822,1,0,0:0:0:0:
228,268,63897,1,2,0:0:0:0:
160,320,64047,2,0,P|104:320|144:216,1,189.999994926453,2|0,0:1|0:0,0:0:0:0:
256,192,64497,1,8,0:0:0:0:
384,252,64647,1,0,0:0:0:0:
428,136,64797,5,2,0:1:0:0:
292,344,65097,2,0,L|180:364,1,94.9999974632264,0|2,0:0|0:1,0:0:0:0:
172,240,65397,2,0,L|286:211,1,94.9999974632264,0|0,0:0|0:3,0:0:0:0:
160,120,65697,1,6,0:3:0:0:
96,244,65847,1,4,0:3:0:0:
108,360,65997,6,0,P|28:296|32:276,1,94.9999974632264,2|0,0:1|0:0,0:0:0:0:
36,196,66297,2,0,P|40:148|44:100,1,94.9999974632264,0|2,0:0|0:1,0:0:0:0:
43,101,66597,1,0,0:0:0:0:
43,101,66747,1,4,0:3:0:0:
156,48,66897,1,8,0:0:0:0:
156,48,67047,1,4,0:3:0:0:
272,84,67197,6,0,P|304:100|380:84,2,94.9999974632264,2|0|2,0:3|0:0|0:3,0:0:0:0:
188,172,67647,2,0,P|156:156|80:168,2,94.9999974632264,2|0|6,0:3|0:0|0:3,0:0:0:0:
268,264,68097,2,0,L|268:380,1,94.9999974632264,2|4,0:3|0:3,0:0:0:0:
388,328,68397,2,0,L|360:276,2,47.4999987316132,2|2|2,0:0|0:0|0:0,0:0:0:0:
476,240,68697,1,6,0:0:0:0:
420,128,68847,1,2,0:0:0:0:
304,88,68997,2,0,P|360:64|400:72,1,80,6|6,0:0|0:0,0:0:0:0:
288,176,69297,2,0,P|232:200|192:192,1,80,8|6,0:0|0:0,0:0:0:0:
116,268,69597,6,0,P|168:320|252:304,1,160,4|0,0:0|0:0,0:0:0:0:
352,320,70047,1,0,0:0:0:0:
352,320,70347,1,0,0:0:0:0:
408,180,70497,1,2,0:3:0:0:
464,276,70647,1,0,0:0:0:0:
360,276,70797,6,0,L|252:128,1,160,2|0,0:0|0:0,0:0:0:0:
164,128,71247,1,0,0:0:0:0:
164,128,71547,1,0,0:0:0:0:
204,240,71697,1,8,0:0:0:0:
88,272,71847,1,0,0:0:0:0:
36,164,71997,6,0,P|36:116|144:36,1,160,2|0,0:0|0:0,0:0:0:0:
228,28,72447,1,0,0:0:0:0:
228,28,72747,1,0,0:0:0:0:
296,128,72897,1,2,0:3:0:0:
228,28,73047,1,2,0:0:0:0:
200,144,73197,6,0,L|196:256,1,80,2|0,0:3|0:0,0:0:0:0:
316,204,73497,1,0,0:0:0:0:
268,312,73647,2,0,P|315:364|400:380,1,160,2|0,0:3|0:0,0:0:0:0:
352,268,74097,2,0,P|383:260|432:284,1,80,8|0,0:0|0:0,0:0:0:0:
504,372,74397,6,0,L|512:188,1,160,4|0,0:3|0:0,0:0:0:0:
456,104,74847,1,4,0:3:0:0:
456,104,75147,1,0,0:3:0:0:
352,164,75297,1,6,0:3:0:0:
232,164,75447,1,4,0:3:0:0:
280,56,75597,6,0,P|208:44|120:72,1,160,6|0,0:3|0:0,0:0:0:0:
56,164,76047,1,4,0:3:0:0:
56,164,76347,1,0,0:3:0:0:
144,244,76497,1,8,0:0:0:0:
48,316,76647,1,0,0:0:0:0:
192,356,76797,5,2,0:3:0:0:
480,264,77097,1,2,0:3:0:0:
388,168,77247,2,0,P|292:180|248:288,1,200
245,264,77697,1,2,0:3:0:0:
388,312,77847,1,2,0:3:0:0:
460,180,77997,5,2,0:0:0:0:
460,180,78072,1,2,0:0:0:0:
460,180,78147,1,2,0:0:0:0:
332,256,78297,1,2,0:0:0:0:
272,120,78447,1,6,0:3:0:0:
132,64,78597,2,0,P|85:71|36:104,2,100,2|6|0,0:0|0:3|0:0,0:0:0:0:
152,216,79047,1,0,0:0:0:0:
256,336,79197,1,2,0:0:0:0:
