osu file format v14

[General]
AudioFilename: No title.mp3
AudioLeadIn: 0
PreviewTime: 50469
Countdown: 0
SampleSet: Soft
StackLeniency: 0.3
Mode: 0
LetterboxInBreaks: 1
WidescreenStoryboard: 1

[Editor]
Bookmarks: 11582,31082,69632,79232,98432,117632,136832,156032,176432,195632,214832,234032
DistanceSpacing: 1
BeatDivisor: 4
GridSize: 4
TimelineZoom: 2.099999

[Metadata]
Title:No title
TitleUnicode:No title
Artist:Reol
ArtistUnicode:れをる
Creator:iza-
Version:[ ]
Source:No title-
Tags:reol giga gigap okiku
BeatmapID:965071
BeatmapSetID:449793

[Difficulty]
HPDrainRate:6.4
CircleSize:4.3
OverallDifficulty:7
ApproachRate:9.4
SliderMultiplier:2.24
SliderTickRate:1

[Events]
//Background and Video events
0,0,"no title.jpg",0,0
//Break Periods
2,69832,76292
//Storyboard Layer 0 (Background)
//Storyboard Layer 1 (Fail)
//Storyboard Layer 2 (Pass)
//Storyboard Layer 3 (Foreground)
//Storyboard Sound Samples

[TimingPoints]
2432,300,4,2,0,74,1,0
6932,-133.333333333333,4,2,0,74,0,0
7157,-133.333333333333,4,2,0,25,0,0
7232,-133.333333333333,4,2,0,74,0,0
12032,-100,4,2,0,74,0,0
12857,-100,4,2,0,25,0,0
12932,-100,4,2,0,74,0,0
13157,-100,4,2,0,25,0,0
13232,-100,4,2,0,74,0,0
14432,-133.333333333333,4,2,0,74,0,0
16832,-100,4,2,0,74,0,0
21932,-133.333333333333,4,2,0,74,0,0
23657,-133.333333333333,4,2,0,25,0,0
23732,-133.333333333333,4,2,0,74,0,0
29807,-133.333333333333,4,2,0,25,0,0
29882,-133.333333333333,4,2,0,74,0,0
29957,-133.333333333333,4,2,0,25,0,0
30032,-133.333333333333,4,2,0,74,0,0
30632,-100,4,2,0,74,0,0
31082,-200,4,2,0,74,0,0
31382,-100,4,2,0,74,0,0
32207,-100,4,2,0,25,0,0
32282,-200,4,2,0,74,0,0
32582,-100,4,2,0,74,0,0
33482,-200,4,2,0,74,0,0
33782,-100,4,2,0,74,0,0
34682,-200,4,2,0,74,0,0
34982,-100,4,2,0,74,0,0
35882,-200,4,2,0,74,0,0
36182,-100,4,2,0,74,0,0
37082,-200,4,2,0,74,0,0
37382,-100,4,2,0,74,0,0
38282,-200,4,2,0,74,0,0
38582,-100,4,2,0,74,0,0
40682,-200,4,2,0,74,0,0
40982,-100,4,2,0,74,0,0
41882,-200,4,2,0,74,0,0
42107,-200,4,2,0,25,0,0
42182,-200,4,2,0,74,0,0
42407,-200,4,2,0,25,0,0
42482,-100,4,2,0,74,0,0
42557,-100,4,2,0,25,0,0
42632,-100,4,2,0,74,0,0
42707,-100,4,2,0,25,0,0
42782,-100,4,2,0,74,0,0
42857,-100,4,2,0,25,0,0
42932,-100,4,2,0,74,0,0
43082,-200,4,2,0,74,0,0
43382,-100,4,2,0,74,0,0
43907,-100,4,2,0,25,0,0
43982,-100,4,2,0,74,0,0
44057,-100,4,2,0,25,0,0
44132,-100,4,2,0,74,0,0
44207,-100,4,2,0,25,0,0
44282,-100,4,2,0,74,0,0
44357,-100,4,2,0,25,0,0
44432,-100,4,2,0,74,0,0
45257,-100,4,2,0,25,0,0
45332,-100,4,2,0,74,0,0
45407,-100,4,2,0,25,0,0
45482,-200,4,2,0,74,0,0
45782,-100,4,2,0,74,0,0
47882,-200,4,2,0,74,0,0
48182,-200,4,2,0,74,0,0
50432,-100,4,2,0,74,0,1
51632,-133.333333333333,4,2,0,74,0,1
51932,-100,4,2,0,74,0,1
52157,-100,4,2,0,25,0,1
52232,-100,4,2,0,74,0,1
52832,-133.333333333333,4,2,0,74,0,1
55382,-166.666666666667,4,2,0,74,0,1
59732,-100,4,2,0,74,0,1
62657,-100,4,2,0,25,0,1
62732,-100,4,2,0,74,0,1
62807,-100,4,2,0,25,0,1
62882,-100,4,2,0,74,0,1
63857,-100,4,2,0,25,0,1
63932,-100,4,2,0,74,0,1
64007,-100,4,2,0,25,0,1
64082,-100,4,2,0,74,0,1
69632,-100,4,2,0,74,0,0
78032,-133.333333333333,4,2,0,74,0,0
83057,-133.333333333333,4,2,0,25,0,0
83132,-133.333333333333,4,2,0,74,0,0
84332,-133.333333333333,4,2,0,74,0,0
84557,-133.333333333333,4,2,0,25,0,0
84632,-133.333333333333,4,2,0,74,0,0
85457,-133.333333333333,4,2,0,25,0,0
85532,-133.333333333333,4,2,0,74,0,0
86432,-100,4,2,0,74,0,0
88832,-133.333333333333,4,2,0,74,0,0
89057,-133.333333333333,4,2,0,25,0,0
89132,-133.333333333333,4,2,0,74,0,0
89357,-133.333333333333,4,2,0,25,0,0
89432,-133.333333333333,4,2,0,74,0,0
89732,-100,4,2,0,74,0,0
91682,-133.333333333333,4,2,0,74,0,0
92357,-133.333333333333,4,2,0,25,0,0
92432,-133.333333333333,4,2,0,74,0,0
92807,-133.333333333333,4,2,0,25,0,0
92882,-133.333333333333,4,2,0,74,0,0
93182,-100,4,2,0,74,0,0
94232,-133.333333333333,4,2,0,74,0,0
94457,-133.333333333333,4,2,0,25,0,0
94532,-133.333333333333,4,2,0,74,0,0
94832,-100,4,2,0,74,0,0
95957,-100,4,2,0,25,0,0
96032,-100,4,2,0,74,0,0
96107,-100,4,2,0,25,0,0
96182,-100,4,2,0,74,0,0
96557,-100,4,2,0,25,0,0
96632,-100,4,2,0,74,0,0
98432,-133.333333333333,4,2,0,74,0,0
98657,-133.333333333333,4,2,0,25,0,0
98732,-133.333333333333,4,2,0,74,0,0
98957,-133.333333333333,4,2,0,25,0,0
99032,-133.333333333333,4,2,0,74,0,0
99332,-100,4,2,0,74,0,0
100832,-133.333333333333,4,2,0,74,0,0
101057,-133.333333333333,4,2,0,25,0,0
101132,-133.333333333333,4,2,0,74,0,0
101357,-133.333333333333,4,2,0,25,0,0
101432,-133.333333333333,4,2,0,74,0,0
101882,-100,4,2,0,74,0,0
101957,-100,4,2,0,25,0,0
102032,-100,4,2,0,74,0,0
105632,-133.333333333333,4,2,0,74,0,0
105857,-133.333333333333,4,2,0,25,0,0
105932,-133.333333333333,4,2,0,74,0,0
106457,-133.333333333333,4,2,0,25,0,0
106532,-133.333333333333,4,2,0,74,0,0
107207,-133.333333333333,4,2,0,25,0,0
107282,-133.333333333333,4,2,0,74,0,0
107732,-133.333333333333,4,2,0,74,0,0
107957,-133.333333333333,4,2,0,25,0,0
108032,-133.333333333333,4,2,0,74,0,0
109082,-133.333333333333,4,2,0,50,0,0
109682,-133.333333333333,4,2,0,50,0,0
110357,-133.333333333333,4,2,0,25,0,0
110432,-100,4,2,0,74,0,0
112832,-133.333333333333,4,2,0,74,0,0
113657,-133.333333333333,4,2,0,25,0,0
113732,-133.333333333333,4,2,0,74,0,0
114257,-133.333333333333,4,2,0,25,0,0
114332,-133.333333333333,4,2,0,74,0,0
114407,-133.333333333333,4,2,0,25,0,0
114482,-133.333333333333,4,2,0,74,0,0
114557,-133.333333333333,4,2,0,25,0,0
114782,-133.333333333333,4,2,0,74,0,0
115232,-100,4,2,0,74,0,0
115457,-100,4,2,0,25,0,0
115532,-100,4,2,0,74,0,0
116057,-100,4,2,0,25,0,0
116132,-100,4,2,0,74,0,0
116657,-100,4,2,0,25,0,0
116732,-100,4,2,0,74,0,0
116957,-100,4,2,0,25,0,0
117032,-100,4,2,0,74,0,0
117632,-100,4,2,0,74,0,1
117932,-100,4,2,0,74,0,1
121157,-100,4,2,0,25,0,1
121232,-100,4,2,0,74,0,1
135332,-133.333333333333,4,2,0,74,0,1
135557,-133.333333333333,4,2,0,25,0,1
135632,-100,4,2,0,74,0,1
136532,-100,4,2,0,74,0,0
136832,-100,4,2,0,74,0,1
141632,-133.333333333333,4,2,0,74,0,1
148832,-100,4,2,0,74,0,1
149282,-100,4,2,0,74,0,1
154757,-100,4,2,0,25,0,1
154832,-111.111111111111,4,2,0,74,0,1
155432,-125,4,2,0,74,0,1
155657,-125,4,2,0,74,0,1
155732,-142.857142857143,4,2,0,74,0,1
155957,-142.857142857143,4,2,0,74,0,1
156032,-166.666666666667,4,2,0,50,0,0
160307,-166.666666666667,4,2,0,25,0,0
160382,-166.666666666667,4,2,0,50,0,0
160607,-166.666666666667,4,2,0,25,0,0
160682,-166.666666666667,4,2,0,50,0,0
165632,-142.857142857143,4,2,0,50,0,0
166757,-142.857142857143,4,2,0,25,0,0
166832,-142.857142857143,4,2,0,50,0,0
168857,-142.857142857143,4,2,0,25,0,0
168932,-142.857142857143,4,2,0,50,0,0
169157,-142.857142857143,4,2,0,25,0,0
169232,-142.857142857143,4,2,0,50,0,0
170432,-125,4,2,0,50,0,0
172532,-125,4,2,0,60,0,0
173357,-125,4,2,0,25,0,0
173432,-125,4,2,0,65,0,0
173957,-125,4,2,0,25,0,0
174032,-111.111111111111,4,2,0,65,0,0
174257,-111.111111111111,4,2,0,25,0,0
174332,-111.111111111111,4,2,0,65,0,0
174557,-111.111111111111,4,2,0,25,0,0
174632,-100,4,2,0,65,0,0
174932,-76.9230769230769,4,2,0,65,0,0
176432,-100,4,2,0,74,0,1
194357,-100,4,2,0,25,0,1
194432,-100,4,2,0,74,0,1
194657,-100,4,2,0,25,0,1
194732,-83.3333333333333,4,2,0,74,0,1
194957,-83.3333333333333,4,2,0,25,0,1
195032,-71.4285714285714,4,2,0,74,0,1
195257,-71.4285714285714,4,2,0,25,0,1
195332,-100,4,2,0,74,0,0
195557,-100,4,2,0,25,0,0
195632,-100,4,2,0,74,0,1
213557,-100,4,2,0,25,0,1
213632,-100,4,2,0,74,0,1
214457,-100,4,2,0,25,0,1
214532,-100,4,2,0,74,0,1
214757,-100,4,2,0,25,0,1
214832,-100,4,2,0,74,0,0
223832,-100,4,2,0,80,0,0
224132,-83.3333333333333,4,2,0,74,0,0
224432,-100,4,2,0,74,0,0
233957,-100,4,2,0,25,0,0
234032,-100,4,2,0,74,0,0

[Colours]
Combo1 : 255,255,181
Combo2 : 179,255,217
Combo3 : 255,172,255
Combo4 : 155,205,255

[HitObjects]
236,208,2432,5,0,0:0:0:0:
236,208,2882,1,0,0:0:0:0:
236,208,3332,6,0,P|196:168|148:140,2,112
236,208,4082,1,0,0:0:0:0:
236,208,4382,5,0,0:0:0:0:
392,212,4682,5,0,0:0:0:0:
236,208,4832,1,0,0:0:0:0:
236,208,5282,1,0,0:0:0:0:
236,208,5582,1,0,0:0:0:0:
52,336,5882,5,0,0:0:0:0:
144,272,6032,1,0,0:0:0:0:
236,208,6182,1,0,0:0:0:0:
236,208,6482,1,0,0:0:0:0:
268,44,6782,1,0,0:0:0:0:
236,208,6932,6,2,P|288:248|228:276,1,126.000004806519
144,312,7232,1,0,0:0:0:0:
289,256,7532,5,0,0:0:0:0:
292,228,7682,1,0,0:0:0:0:
144,312,8132,5,0,0:0:0:0:
140,348,8282,1,0,0:0:0:0:
136,384,8432,1,0,0:0:0:0:
28,284,8732,5,0,0:0:0:0:
36,240,8882,1,0,0:0:0:0:
60,88,9182,1,0,0:0:0:0:
188,164,9482,5,0,0:0:0:0:
172,240,9632,1,0,0:0:0:0:
280,112,9932,5,0,0:0:0:0:
296,16,10082,1,0,0:0:0:0:
428,64,10382,2,0,P|468:88|488:228,1,168.000006408692
412,336,10832,5,4,0:0:0:0:
348,188,10982,1,0,0:0:0:0:
348,188,11057,1,0,0:0:0:0:
348,188,11132,1,0,0:0:0:0:
412,336,11282,1,0,0:0:0:0:
300,384,11432,1,0,0:0:0:0:
212,308,11582,1,0,0:0:0:0:
104,360,11732,1,0,0:0:0:0:
48,264,11882,1,0,0:0:0:0:
48,264,12032,6,0,P|48:184|56:140,1,112,4|0,0:0|0:0,0:0:0:0:
212,132,12332,1,0,0:0:0:0:
20,160,12482,1,0,0:0:0:0:
164,108,12632,2,0,P|252:80|356:100,1,168,0|0,0:0|2:0,0:0:0:0:
432,132,12932,2,0,P|336:168|260:232,1,168,0|0,0:0|2:0,0:0:0:0:
260,232,13232,1,0,0:0:0:0:
164,312,13382,1,0,0:0:0:0:
164,312,13532,1,0,0:0:0:0:
164,312,13682,6,0,P|88:360|120:284,1,224
296,348,14132,1,0,0:0:0:0:
404,248,14282,1,0,0:0:0:0:
440,124,14432,2,0,P|440:68|420:32,1,84.0000032043458
344,100,14732,2,0,P|340:140|360:184,1,84
456,304,15032,1,0,0:0:0:0:
460,268,15182,1,0,0:0:0:0:
368,40,15332,1,0,0:0:0:0:
356,72,15482,1,0,0:0:0:0:
344,100,15632,6,0,L|260:100,1,84.0000032043458,4|0,0:0|0:0,0:0:0:0:
172,220,15932,2,0,L|256:220,1,84.0000032043458
328,216,16232,1,0,0:0:0:0:
56,56,16682,1,0,0:0:0:0:
8,152,16832,6,0,P|68:160|136:120,1,112
240,48,17132,1,0,0:0:0:0:
232,236,17282,1,0,0:0:0:0:
288,80,17432,1,0,0:0:0:0:
296,160,17582,5,0,0:0:0:0:
352,316,17732,1,0,0:0:0:0:
344,128,17882,1,0,0:0:0:0:
277,43,18032,6,0,P|329:23|384:32,2,112
156,148,18482,1,0,0:0:0:0:
112,184,18632,2,0,L|112:296,1,112
292,288,18932,5,0,0:0:0:0:
248,252,19082,2,0,L|248:140,1,112
242,16,19382,6,0,P|200:-4|116:4,2,112
376,88,19832,1,0,0:0:0:0:
504,8,19982,1,0,0:0:0:0:
508,176,20132,1,0,0:0:0:0:
376,256,20282,1,0,0:0:0:0:
376,256,20357,1,0,0:0:0:0:
376,256,20432,6,0,P|312:260|252:236,1,112,4|0,0:0|0:0,0:0:0:0:
328,144,20732,1,0,0:0:0:0:
344,112,20882,1,0,0:0:0:0:
356,88,21032,1,8,0:0:0:0:
512,184,21182,1,8,0:0:0:0:
512,0,21332,1,8,0:0:0:0:
180,64,21782,1,0,0:0:0:0:
192,36,21932,6,0,P|132:48|96:80,1,84.0000032043458
244,120,22232,2,0,L|344:104,1,84.0000032043458
124,208,22532,2,0,P|74:234|152:261,1,168.000006408692
260,184,22982,1,0,0:0:0:0:
280,332,23132,1,0,0:0:0:0:
112,280,23282,1,0,0:0:0:0:
264,168,23432,2,0,P|312:164|352:88,1,126.000004806519
352,136,23732,2,0,P|408:96|336:40,1,168.000006408692
224,88,24182,1,0,0:0:0:0:
208,120,24332,6,0,P|220:180|252:216,1,84.0000032043458
328,240,24632,1,0,0:0:0:0:
352,116,24782,1,0,0:0:0:0:
356,92,24932,2,0,P|428:152|420:248,1,168.000006408692
504,364,25382,2,0,P|476:308|472:252,1,84.0000032043458
320,335,25682,2,0,P|362:333|400:316,1,84.0000032043458
512,216,25982,1,0,0:0:0:0:
500,216,26132,1,0,0:0:0:0:
124,4,26582,5,0,0:0:0:0:
228,32,26732,2,0,L|228:136,1,84.0000032043458
304,240,27032,1,0,0:0:0:0:
192,144,27182,1,0,0:0:0:0:
264,324,27332,2,0,P|312:320|348:344,1,84.0000032043458
140,384,27632,2,0,B|105:396|105:396|39:334|39:334|0:343,1,168.000006408692,4|0,0:0|0:0,0:0:0:0:
120,232,28082,1,0,0:0:0:0:
4,140,28232,2,0,P|24:68|48:36,1,84.0000032043458
44,36,28532,1,0,0:0:0:0:
44,36,28832,1,0,0:0:0:0:
120,168,28982,5,0,0:0:0:0:
124,292,29132,2,0,P|133:242|128:188,1,84.0000032043458
80,64,29432,2,0,P|164:92|216:88,1,126.000004806519
288,72,29732,2,0,L|312:112,1,42.0000016021729
312,0,29882,2,0,L|360:0,1,42.0000016021729
152,0,30032,2,0,B|140:35|140:35|202:101|202:101|193:140,1,168.000006408692,4|0,0:0|0:0,0:0:0:0:
136,284,30482,1,0,0:0:0:0:
288,248,30632,2,0,L|224:364,2,112
364,80,31082,6,0,P|432:72|484:100,1,112,2|0,0:0|0:0,0:0:0:0:
472,240,31532,1,0,0:0:0:0:
320,316,31682,2,0,P|256:256|252:212,1,112
360,212,31982,2,0,P|408:180|376:76,1,168
368,64,32282,6,0,P|436:56|488:84,1,112,2|0,0:0|0:0,0:0:0:0:
424,272,32732,1,0,0:0:0:0:
364,284,32882,1,0,0:0:0:0:
284,100,33182,1,0,0:0:0:0:
332,64,33332,1,0,0:0:0:0:
372,44,33482,6,0,P|440:36|492:64,1,112,2|0,0:0|0:0,0:0:0:0:
512,200,33932,2,0,L|384:272,1,112
456,324,34232,1,0,0:0:0:0:
352,204,34382,1,0,0:0:0:0:
348,32,34532,1,0,0:0:0:0:
376,24,34682,6,0,P|444:16|496:44,1,112,2|0,0:0|0:0,0:0:0:0:
416,164,35132,2,0,L|292:164,1,112
220,168,35432,2,0,B|124:144|124:64|168:32,1,168
176,72,35732,1,0,0:0:0:0:
67,130,35882,6,0,P|57:75|76:24,1,112,2|0,0:0|0:0,0:0:0:0:
176,72,36332,1,0,0:0:0:0:
260,184,36482,2,0,L|260:296,1,112
184,216,36782,2,0,B|184:272|164:284|104:300,1,112
31,118,37082,6,0,P|21:63|40:12,1,112,2|0,0:0|0:0,0:0:0:0:
178,1,37532,1,0,0:0:0:0:
144,76,37682,1,0,0:0:0:0:
264,0,37832,2,0,P|266:90|214:146,1,168
194,156,38132,1,0,0:0:0:0:
0,106,38282,6,0,P|-10:52|8:0,1,112,2|0,0:0|0:0,0:0:0:0:
120,76,38732,1,0,0:0:0:0:
48,180,38882,1,0,0:0:0:0:
192,192,39032,1,0,0:0:0:0:
124,304,39182,1,0,0:0:0:0:
256,324,39332,2,0,P|328:328|392:320,1,112
392,320,39557,1,0,0:0:0:0:
412,316,39632,6,0,P|488:260|484:352,1,224,4|0,0:0|0:0,0:0:0:0:
336,384,40082,1,0,0:0:0:0:
224,296,40232,1,0,0:0:0:0:
220,160,40382,1,0,0:0:0:0:
356,60,40532,1,0,0:0:0:0:
308,40,40682,6,0,B|236:84|236:84|208:79,1,112,2|0,0:0|0:0,0:0:0:0:
56,36,41132,2,0,P|56:108|116:248,1,224
236,168,41582,1,0,0:0:0:0:
308,40,41732,1,0,0:0:0:0:
264,20,41882,6,0,B|200:60|200:60|168:60,1,84,2|0,0:0|0:0,0:0:0:0:
232,104,42182,6,0,B|223:104|223:104|164:168,1,84,2|0,0:0|0:0,0:0:0:0:
248,256,42482,2,0,L|292:212,1,56
396,232,42632,2,0,L|328:236,1,56
272,168,42782,2,0,L|272:112,1,56
268,24,42932,1,0,0:0:0:0:
228,0,43082,6,0,B|156:44|156:44|128:39,1,112,2|0,0:0|0:0,0:0:0:0:
56,88,43682,2,0,P|56:156|136:248,1,168
240,272,43982,2,0,P|233:241|228:204,1,56
216,136,44132,2,0,P|233:114|259:104,1,56
336,204,44282,2,0,P|326:178|332:148,1,56,0|0,2:0|2:0,2:0:0:0:
417,64,44432,2,0,P|416:153|352:92,1,224
360,0,44882,1,0,0:0:0:0:
248,32,45032,2,0,B|120:68|120:68|84:124,1,168
60,168,45332,2,0,P|36:180|6:175,1,56
48,244,45482,6,0,P|68:292|112:256,1,112,2|0,0:0|0:0,0:0:0:0:
128,112,45932,1,0,0:0:0:0:
248,36,46082,2,0,P|312:64|352:104,1,112
420,224,46382,1,0,0:0:0:0:
504,376,46532,5,0,0:0:0:0:
452,376,46682,1,0,0:0:0:0:
512,108,46832,5,0,0:0:0:0:
465,79,46982,1,0,0:0:0:0:
424,56,47132,1,0,0:0:0:0:
200,236,47432,1,0,0:0:0:0:
200,236,47732,1,0,0:0:0:0:
28,276,47882,6,0,P|48:324|92:288,1,112,2|0,0:0|0:0,0:0:0:0:
116,64,48332,2,0,L|60:24,1,56
188,132,48632,2,0,L|252:88,1,56
408,88,48932,1,0,0:0:0:0:
400,248,49082,1,0,0:0:0:0:
340,368,49232,1,0,0:0:0:0:
340,368,49307,1,0,0:0:0:0:
340,368,49382,5,0,0:0:0:0:
232,336,49532,1,0,0:0:0:0:
352,224,49682,1,0,0:0:0:0:
132,308,49832,1,0,0:0:0:0:
352,100,49982,1,0,0:0:0:0:
8,240,50132,1,8,0:0:0:0:
32,244,50282,1,8,0:0:0:0:
64,244,50432,6,0,B|136:240|388:124|84:24|-12:132|72:192|248:392|396:172,1,616,10|0,0:0|0:0,0:0:0:0:
388,176,51332,1,0,0:0:0:0:
144,164,51482,1,0,0:0:0:0:
284,60,51632,2,0,P|160:32|100:64,1,168.000006408692
232,8,52082,2,0,L|240:96,1,56
240,96,52232,5,0,0:0:0:0:
257,269,52382,1,0,0:0:0:0:
97,191,52532,1,0,0:0:0:0:
257,70,52682,1,0,0:0:0:0:
278,290,52832,6,0,P|342:328|455:333,1,168.000006408692,2|0,0:0|0:0,0:0:0:0:
296,336,53282,2,0,P|297:252|337:179,1,168.000006408692,2|0,0:0|0:0,0:0:0:0:
492,296,53732,1,0,0:0:0:0:
492,296,53882,1,0,0:0:0:0:
500,93,54032,6,0,P|427:53|344:52,1,168.000006408692,2|0,0:0|0:0,0:0:0:0:
476,36,54482,2,0,P|440:96|436:200,1,168.000006408692,2|0,0:0|0:0,0:0:0:0:
496,368,54932,2,0,P|448:364|408:352,1,84.0000032043458
324,296,55232,5,4,0:0:0:0:
220,272,55382,2,0,L|148:252,1,67.1999979492188
276,168,55682,2,0,P|244:144|240:108,1,67.1999979492188
220,0,55982,2,0,P|160:4|88:68,1,134.399995898438
168,208,56432,2,0,P|120:176|108:160,1,67.1999979492188
260,68,56732,2,0,P|268:12|260:-12,1,67.1999979492188
112,24,57182,5,0,0:0:0:0:
80,44,57332,1,0,0:0:0:0:
160,176,57482,1,0,0:0:0:0:
188,208,57632,2,0,P|212:232|252:244,1,67.1999979492188,4|0,0:0|0:0,0:0:0:0:
396,276,57932,1,0,0:0:0:0:
288,104,58082,2,0,P|288:144|300:172,1,67.1999979492188
248,348,58382,2,0,P|184:328|160:308,2,67.1999979492188
220,136,58832,1,4,0:0:0:0:
184,160,58982,1,0,0:0:0:0:
296,268,59132,1,0,0:0:0:0:
324,296,59282,1,0,0:0:0:0:
112,32,59732,6,0,P|56:108|56:160,1,112
28,296,60032,2,0,P|112:304|160:276,1,112
184,56,60332,1,0,0:0:0:0:
180,264,60482,5,0,0:0:0:0:
156,184,60782,1,0,2:0:0:0:
162,229,60932,1,0,2:0:0:0:
201,201,61082,1,0,2:0:0:0:
376,68,61232,5,2,0:0:0:0:
400,52,61532,1,0,0:0:0:0:
452,216,61682,1,0,0:0:0:0:
284,192,61832,1,0,0:0:0:0:
112,184,61982,1,0,0:0:0:0:
192,336,62132,1,0,0:0:0:0:
312,176,62282,1,0,0:0:0:0:
88,160,62432,6,0,B|-4:168|4:216|48:280,1,168,2|0,0:0|0:0,0:0:0:0:
132,288,62732,2,0,P|96:260|52:264,1,56,0|0,2:0|2:0,2:0:0:0:
68,336,62882,2,0,P|132:376|276:344,1,224,2|0,2:0|2:0,2:0:0:0:
132,288,63332,1,0,0:0:0:0:
16,372,63482,1,0,0:0:0:0:
48,156,63632,2,0,P|104:76|20:28,1,168,2|0,0:0|0:0,0:0:0:0:
28,24,63932,2,0,L|-48:32,1,56
68,4,64082,2,0,P|160:24|272:104,1,224,2|0,0:0|0:0,0:0:0:0:
408,248,64532,2,0,P|448:296|476:352,2,112
336,28,65132,6,0,P|432:0|480:12,1,112
424,136,65432,1,0,0:0:0:0:
364,264,65582,1,0,0:0:0:0:
208,284,65732,1,0,0:0:0:0:
276,160,65882,1,0,0:0:0:0:
512,232,66032,5,4,0:0:0:0:
424,136,66182,1,0,0:0:0:0:
336,28,66332,1,0,0:0:0:0:
276,160,66482,1,0,0:0:0:0:
208,284,66632,2,0,B|176:328|176:328|120:352,1,112
0,384,66932,1,0,0:0:0:0:
24,192,67082,1,0,0:0:0:0:
208,284,67232,6,0,B|324:216|176:200|162:192|96:108,1,224,4|0,0:0|0:0,0:0:0:0:
20,8,67682,1,0,0:0:0:0:
168,56,67832,2,0,B|224:60|224:60|284:40,1,112
416,4,68132,2,0,P|448:68|440:168,1,168,4|0,0:0|0:0,0:0:0:0:
484,132,68432,6,0,P|432:208|424:256,1,112,4|0,0:0|0:0,0:0:0:0:
432,372,68732,1,0,0:0:0:0:
324,228,68882,1,0,0:0:0:0:
280,376,69032,1,0,0:0:0:0:
188,228,69182,1,0,0:0:0:0:
136,380,69332,1,0,0:0:0:0:
64,236,69482,1,0,0:0:0:0:
64,236,69557,1,0,0:0:0:0:
64,236,69632,1,4,0:0:0:0:
72,84,76832,5,0,0:0:0:0:
40,36,77132,1,0,0:0:0:0:
44,272,77282,1,0,0:0:0:0:
8,228,77582,1,0,0:0:0:0:
128,384,77732,1,0,0:0:0:0:
208,180,77882,1,0,0:0:0:0:
208,180,77957,1,0,0:0:0:0:
208,180,78032,5,0,0:0:0:0:
360,280,78182,1,0,0:0:0:0:
296,56,78332,1,0,0:0:0:0:
440,192,78482,2,0,P|452:138|496:141,1,84.0000032043458
332,164,78782,1,0,0:0:0:0:
200,228,78932,1,0,0:0:0:0:
64,300,79082,1,0,0:0:0:0:
0,252,79232,6,0,P|64:216|112:120,1,168.000006408692
148,336,79682,1,0,0:0:0:0:
64,300,79832,2,0,P|128:248|172:160,1,168.000006408692
216,296,80282,1,0,0:0:0:0:
284,264,80432,6,0,P|292:224|376:120,1,168.000006408692
148,336,80882,1,0,0:0:0:0:
216,296,81032,2,0,P|216:232|280:116,1,168.000006408692
444,80,81482,1,0,0:0:0:0:
376,180,81632,6,0,P|356:128|328:88,1,84.0000032043458
252,4,81932,1,0,0:0:0:0:
164,160,82082,1,0,0:0:0:0:
44,52,82232,2,0,P|80:0|120:8,1,84.0000032043458
288,68,82532,1,0,0:0:0:0:
460,132,82682,1,0,0:0:0:0:
324,260,82832,2,0,P|384:228|432:172,1,126.000004806519
508,63,83132,2,0,L|460:131,1,84.0000032043458
352,188,83432,1,0,0:0:0:0:
292,16,83582,5,0,0:0:0:0:
212,136,83732,1,0,0:0:0:0:
264,264,83882,1,0,0:0:0:0:
188,368,84032,2,0,P|244:384|292:372,1,84.0000032043458
428,352,84332,2,0,P|396:324|304:328,1,126.000004806519
208,304,84632,2,0,P|216:368|244:400,1,84.0000032043458
316,320,84932,2,0,P|360:348|380:384,1,84.0000032043458
225,383,85232,6,0,B|184:372|172:324|176:256,1,126.000004806519
172,168,85532,1,0,0:0:0:0:
236,288,85682,1,0,0:0:0:0:
96,280,85832,2,0,P|92:232|40:248,1,84.0000032043458
92,384,86132,1,0,0:0:0:0:
96,184,86282,1,0,0:0:0:0:
96,184,86432,6,0,P|128:104|168:88,1,112,8|0,0:0|0:0,0:0:0:0:
296,64,86732,5,0,0:0:0:0:
232,272,86882,1,0,0:0:0:0:
192,212,87032,5,0,0:0:0:0:
424,208,87182,1,0,0:0:0:0:
452,120,87332,5,0,0:0:0:0:
232,272,87482,1,0,0:0:0:0:
200,60,87632,5,8,0:0:0:0:
220,24,87707,1,0,0:0:0:0:
264,8,87782,1,0,0:0:0:0:
400,8,87932,2,0,L|512:12,2,112
316,128,88382,1,8,0:0:0:0:
200,60,88532,1,8,0:0:0:0:
128,160,88682,1,8,0:0:0:0:
20,92,88832,6,0,P|76:40|144:32,1,126.000004806519,10|0,0:0|0:0,0:0:0:0:
223,52,89132,2,0,P|212:0|164:24,1,126.000004806519,2|0,0:0|0:0,0:0:0:0:
148,104,89432,1,2,0:0:0:0:
132,280,89582,1,0,0:0:0:0:
292,200,89732,2,0,L|183:173,1,112
8,268,90032,2,0,L|116:294,1,112
316,200,90332,1,0,0:0:0:0:
144,84,90482,1,0,0:0:0:0:
144,84,90782,6,0,P|204:56|260:68,1,112
388,104,91082,1,0,0:0:0:0:
356,264,91232,1,0,0:0:0:0:
412,228,91382,1,0,0:0:0:0:
468,192,91532,1,0,0:0:0:0:
480,384,91682,2,0,P|472:332|512:320,1,84.0000032043458
380,344,91982,1,0,0:0:0:0:
268,376,92132,6,0,P|172:348|128:356,1,126.000004806519,2|0,0:0|0:0,0:0:0:0:
16,384,92432,1,2,0:0:0:0:
16,384,92732,2,0,P|36:352|40:316,1,42.0000016021729,2|0,0:0|0:0,0:0:0:0:
24,248,92882,1,2,0:0:0:0:
36,0,93182,6,0,P|96:-12|152:4,2,112
92,124,93632,1,0,0:0:0:0:
96,264,93782,1,0,0:0:0:0:
252,256,93932,1,0,0:0:0:0:
252,124,94082,1,0,0:0:0:0:
252,124,94232,2,0,P|364:92|388:76,1,126.000004806519
472,80,94532,1,0,0:0:0:0:
304,148,94682,1,0,0:0:0:0:
140,208,94832,2,0,P|136:276|248:368,1,224
252,248,95282,1,0,0:0:0:0:
252,248,95732,5,0,0:0:0:0:
248,124,95882,2,0,P|256:92|280:56,1,56
352,0,96032,2,0,P|320:12|296:44,1,56
352,152,96182,1,0,0:0:0:0:
440,80,96332,2,0,P|464:168|456:272,1,168
432,360,96632,1,0,0:0:0:0:
432,360,96932,1,0,0:0:0:0:
368,356,97082,1,0,0:0:0:0:
396,192,97232,5,0,0:0:0:0:
240,268,97382,1,0,0:0:0:0:
384,384,97532,1,0,0:0:0:0:
436,156,97682,2,0,P|400:64|328:20,1,168
232,88,97982,1,0,0:0:0:0:
304,192,98132,1,0,0:0:0:0:
188,276,98282,1,0,0:0:0:0:
272,384,98432,6,0,P|368:360|416:320,1,126.000004806519,2|0,0:0|0:0,0:0:0:0:
464,376,98732,2,0,P|412:340|400:252,1,126.000004806519,2|0,0:0|0:0,0:0:0:0:
392,180,99032,1,2,0:0:0:0:
392,180,99332,6,0,P|400:96|364:60,1,112
248,0,99632,1,0,0:0:0:0:
260,168,99782,1,0,0:0:0:0:
124,88,99932,1,0,0:0:0:0:
296,192,100082,1,0,0:0:0:0:
296,192,100382,5,0,0:0:0:0:
216,376,100532,1,0,0:0:0:0:
260,168,100682,1,0,0:0:0:0:
248,384,100832,6,0,P|344:360|392:320,1,126.000004806519,2|0,0:0|0:0,0:0:0:0:
472,352,101132,2,0,P|420:316|408:228,1,126.000004806519,2|0,0:0|0:0,0:0:0:0:
396,148,101432,1,2,0:0:0:0:
396,148,101732,5,0,0:0:0:0:
296,240,101882,2,0,P|284:260|272:316,1,56
336,128,102032,2,0,P|284:108|248:44,1,112,2|0,0:0|0:0,0:0:0:0:
348,16,102332,1,0,0:0:0:0:
196,148,102482,1,0,0:0:0:0:
196,148,102932,5,0,0:0:0:0:
196,304,103082,1,0,0:0:0:0:
56,232,103232,1,0,0:0:0:0:
56,232,103382,1,0,0:0:0:0:
56,48,103532,1,8,0:0:0:0:
24,32,103832,1,8,0:0:0:0:
224,120,104282,5,0,0:0:0:0:
224,328,104432,1,0,0:0:0:0:
24,232,104582,1,0,0:0:0:0:
28,16,104732,1,8,0:0:0:0:
0,0,105032,1,8,0:0:0:0:
232,96,105482,1,0,0:0:0:0:
260,112,105632,6,0,P|364:128|420:120,1,126.000004806519
456,88,105932,2,0,P|408:76|364:84,1,84.0000032043458
432,272,106232,2,0,P|400:224|392:156,1,126.000004806519
348,40,106532,2,0,P|328:88|328:140,1,84.0000032043458
352,296,106832,1,0,0:0:0:0:
136,328,106982,1,0,0:0:0:0:
312,284,107132,2,0,P|292:272|268:276,1,42.0000016021729
170,296,107282,2,0,P|222:256|211:193,1,126.000004806519
217,202,107732,6,0,P|277:174|280:104,1,126.000004806519,2|0,0:0|0:0,0:0:0:0:
208,120,108032,2,0,P|216:192|264:288,1,168.000006408692,2|0,0:0|0:0,0:0:0:0:
352,328,108482,1,0,0:0:0:0:
432,204,108632,2,0,P|451:156|464:96,2,84.0000032043458
256,277,109082,1,0,0:0:0:0:
336,153,109232,2,0,P|355:105|368:45,2,84.0000032043458
256,277,109682,1,0,0:0:0:0:
256,277,109982,1,0,0:0:0:0:
220,68,110132,6,0,P|240:20|288:56,1,126.000004806519,2|0,0:0|0:0,0:0:0:0:
284,84,110432,2,0,B|232:100|220:252|208:160|432:56|256:204|320:288|344:120|376:248,1,224,2|0,0:0|0:0,0:0:0:0:
358,207,111032,5,0,0:0:0:0:
324,360,111182,1,0,0:0:0:0:
476,316,111332,1,0,0:0:0:0:
358,207,111482,2,0,P|376:152|420:104,1,112
410,111,112082,5,0,0:0:0:0:
256,156,112232,1,0,0:0:0:0:
290,3,112382,1,0,0:0:0:0:
410,111,112532,2,0,P|392:164|358:207,1,112
360,356,112832,6,0,P|308:360|260:344,1,84.0000032043458,0|0,1:0|0:0,0:0:0:0:
168,296,113132,1,0,0:0:0:0:
320,288,113282,1,0,0:0:0:0:
252,376,113432,2,0,P|224:336|208:252,1,126.000004806519,0|0,1:0|0:0,0:0:0:0:
224,176,113732,1,0,0:0:0:0:
280,324,113882,1,0,0:0:0:0:
280,324,114032,6,0,P|272:271|227:299,1,126.000004806519,0|0,1:0|0:0,0:0:0:0:
168,384,114332,2,0,L|108:380,1,42.0000016021729,2|0,0:0|0:0,0:0:0:0:
80,308,114482,2,0,L|52:264,1,42.0000016021729,2|0,0:0|0:0,0:0:0:0:
80,308,114782,5,0,0:0:0:0:
140,268,114932,1,0,0:0:0:0:
200,228,115082,1,0,0:0:0:0:
212,8,115232,2,0,P|296:8|400:68,1,168
456,108,115532,1,0,0:0:0:0:
464,264,115682,1,0,0:0:0:0:
332,188,115832,2,0,P|324:256|212:252,1,168
120,212,116132,1,0,0:0:0:0:
292,160,116282,1,0,0:0:0:0:
492,104,116432,6,0,P|472:44|340:24,1,168
388,100,116732,2,0,P|388:48|284:48,1,168
224,112,117032,1,0,0:0:0:0:
320,216,117182,1,0,0:0:0:0:
228,328,117332,1,8,0:0:0:0:
188,348,117482,1,8,0:0:0:0:
155,359,117632,6,2,P|99:319|55:231,1,168,10|2,0:0|0:0,0:0:0:0:
52,192,117932,1,0,0:0:0:0:
72,280,118082,2,0,P|164:244|228:128,1,224,2|0,0:0|0:0,0:0:0:0:
140,0,118532,1,0,0:0:0:0:
312,0,118682,1,0,0:0:0:0:
408,180,118832,5,0,0:0:0:0:
172,132,119132,1,0,0:0:0:0:
180,96,119282,1,0,0:0:0:0:
192,56,119432,5,0,0:0:0:0:
276,220,119582,1,0,0:0:0:0:
84,208,119732,1,0,0:0:0:0:
192,20,119882,1,0,0:0:0:0:
300,248,120032,2,0,B|420:392|420:392|464:380,1,224,2|0,0:0|0:0,0:0:0:0:
480,216,120482,2,0,B|295:247|295:247|290:288,1,224,2|0,0:0|0:0,0:0:0:0:
208,252,120932,2,0,B|216:176|264:172|248:164|324:156|368:152,1,168
416,144,121232,1,0,0:0:0:0:
416,144,121532,1,0,0:0:0:0:
392,328,121682,1,0,0:0:0:0:
392,328,121982,5,0,0:0:0:0:
336,268,122132,1,0,0:0:0:0:
260,176,122282,1,0,0:0:0:0:
172,68,122432,5,4,0:0:0:0:
112,228,122582,1,0,0:0:0:0:
288,192,122732,1,0,0:0:0:0:
164,32,122882,1,0,0:0:0:0:
80,256,123032,1,0,0:0:0:0:
320,208,123182,1,0,0:0:0:0:
320,208,123482,5,2,0:0:0:0:
80,256,123632,1,0,0:0:0:0:
164,32,123782,1,0,0:0:0:0:
288,192,123932,1,0,0:0:0:0:
112,228,124082,1,0,0:0:0:0:
112,228,124382,5,2,0:0:0:0:
24,384,124532,1,0,0:0:0:0:
208,376,124682,1,0,0:0:0:0:
0,236,124832,6,0,P|-16:184|28:128,1,112,4|0,0:0|0:0,0:0:0:0:
152,56,125132,1,0,0:0:0:0:
344,64,125282,1,0,0:0:0:0:
132,108,125432,1,0,0:0:0:0:
132,108,125582,5,0,0:0:0:0:
144,292,125732,1,0,0:0:0:0:
188,96,125882,1,0,0:0:0:0:
188,96,126032,6,0,P|268:160|292:160,1,112
464,144,126332,1,0,0:0:0:0:
496,136,126482,1,0,0:0:0:0:
368,320,126782,5,0,0:0:0:0:
352,176,126932,1,0,0:0:0:0:
300,244,127082,1,0,0:0:0:0:
264,168,127232,2,0,P|192:196|52:160,1,224,2|0,0:0|0:0,0:0:0:0:
252,40,127682,2,0,P|355:3|462:33,1,224,2|0,0:0|0:0,0:0:0:0:
444,192,128132,1,0,0:0:0:0:
512,144,128282,1,0,0:0:0:0:
428,104,128432,2,0,P|352:176|404:276,1,224,2|0,0:0|0:0,0:0:0:0:
444,192,128882,6,0,L|320:184,1,112,2|0,0:0|0:0,0:0:0:0:
248,284,129182,1,0,0:0:0:0:
176,172,129332,1,0,0:0:0:0:
120,336,129482,1,0,0:0:0:0:
284,144,129632,6,0,P|320:92|368:60,1,112
496,28,129932,1,0,0:0:0:0:
468,168,130082,1,0,0:0:0:0:
468,168,130382,2,0,P|424:220|480:244,1,112
332,156,130682,1,0,0:0:0:0:
224,56,130832,2,0,B|36:112|132:192|208:144,1,224,2|0,0:0|0:0,0:0:0:0:
256,172,131282,2,0,B|298:155|394:235|206:291,1,224,2|0,0:0|0:0,0:0:0:0:
36,348,131732,6,0,P|128:344|156:352,1,112
260,376,132032,1,0,0:0:0:0:
260,376,132332,2,0,P|180:364|144:336,1,112
72,264,132632,5,4,0:0:0:0:
73,165,132782,1,0,0:0:0:0:
76,32,132932,1,0,0:0:0:0:
76,32,133082,1,0,0:0:0:0:
76,32,133232,5,4,0:0:0:0:
173,50,133382,1,0,0:0:0:0:
328,76,133532,1,0,0:0:0:0:
328,76,133682,1,0,0:0:0:0:
328,76,133832,5,4,0:0:0:0:
244,144,133982,1,0,0:0:0:0:
136,248,134132,1,0,0:0:0:0:
136,248,134282,1,0,0:0:0:0:
136,248,134432,6,0,B|160:384|256:252|332:252,1,224,4|0,0:0|0:0,0:0:0:0:
484,256,134882,1,0,0:0:0:0:
400,128,135032,1,0,0:0:0:0:
310,255,135182,1,0,0:0:0:0:
310,255,135332,2,0,P|352:216|296:208,1,126.000004806519,4|0,0:0|0:0,0:0:0:0:
296,212,135632,6,0,P|248:176|228:16,1,224,4|0,0:0|0:0,0:0:0:0:
260,96,136082,1,0,0:0:0:0:
160,176,136232,1,0,0:0:0:0:
260,268,136382,1,0,0:0:0:0:
152,360,136532,1,8,0:0:0:0:
184,376,136682,1,8,0:0:0:0:
224,384,136832,6,0,P|280:384|348:376,1,112,10|0,0:0|0:0,0:0:0:0:
480,356,137282,2,0,P|380:368|244:300,1,224,2|0,0:0|0:0,0:0:0:0:
120,204,137732,1,0,0:0:0:0:
288,268,137882,1,0,0:0:0:0:
464,152,138032,6,0,P|380:144|344:152,1,112,2|0,0:0|0:0,0:0:0:0:
176,192,138482,1,2,0:0:0:0:
323,155,138632,1,0,0:0:0:0:
444,216,138782,1,0,0:0:0:0:
412,292,138932,2,0,B|384:232|384:232|396:156,1,112
408,60,139232,6,0,P|332:52|292:56,1,112,2|0,0:0|0:0,0:0:0:0:
236,32,139682,2,0,B|348:-4|348:-4|460:32,1,224,2|0,0:0|0:0,0:0:0:0:
348,152,140132,1,0,0:0:0:0:
236,32,140282,1,0,0:0:0:0:
168,148,140432,5,2,0:0:0:0:
88,36,140582,1,0,0:0:0:0:
104,192,140732,5,0,0:0:0:0:
0,40,140882,1,2,0:0:0:0:
0,40,141182,6,0,P|8:112|-20:152,2,112
168,32,141632,5,4,0:0:0:0:
332,80,141782,2,0,P|360:124|356:164,1,84.0000032043458
232,232,142082,1,0,0:0:0:0:
308,232,142232,1,0,0:0:0:0:
272,164,142382,2,0,P|252:124|320:148,1,168.000006408692
304,284,142832,2,0,P|340:352|368:368,1,84.0000032043458
428,260,143132,1,0,0:0:0:0:
488,380,143282,1,0,0:0:0:0:
488,380,143582,5,0,0:0:0:0:
448,308,143732,1,0,0:0:0:0:
404,192,143882,1,0,0:0:0:0:
508,316,144032,6,0,P|436:328|392:324,1,84.0000032043458,4|0,0:0|0:0,0:0:0:0:
264,312,144332,1,0,0:0:0:0:
271,227,144482,1,0,0:0:0:0:
279,95,144632,1,0,0:0:0:0:
192,276,144782,2,0,P|160:252|144:208,1,84.0000032043458
152,104,145082,1,0,0:0:0:0:
240,252,145232,5,4,0:0:0:0:
340,112,145382,1,0,0:0:0:0:
344,104,145457,1,0,0:0:0:0:
348,96,145532,1,0,0:0:0:0:
188,8,145682,1,4,0:0:0:0:
192,12,145982,1,0,0:0:0:0:
192,12,146132,5,0,0:0:0:0:
168,44,146282,1,0,0:0:0:0:
152,84,146432,2,0,P|208:104|144:144,1,168.000006408692,2|0,0:0|0:0,0:0:0:0:
120,112,146882,2,0,P|24:168|12:216,1,168.000006408692,2|0,0:0|0:0,0:0:0:0:
144,232,147332,2,0,P|188:268|240:292,1,84.0000032043458
376,332,147632,2,0,P|368:280|384:244,1,84.0000032043458,2|0,0:0|0:0,0:0:0:0:
508,172,147932,1,0,0:0:0:0:
392,100,148082,1,2,0:0:0:0:
248,220,148232,5,0,0:0:0:0:
286,89,148382,1,0,0:0:0:0:
208,188,148532,1,0,0:0:0:0:
251,34,148682,1,0,0:0:0:0:
88,88,148832,2,0,P|56:136|60:216,1,112,2|0,0:0|0:0,0:0:0:0:
156,168,149132,1,0,0:0:0:0:
108,328,149282,2,0,P|216:332|308:256,1,224,2|0,0:0|0:0,0:0:0:0:
328,88,149732,1,0,0:0:0:0:
196,188,149882,1,0,0:0:0:0:
428,136,150032,5,2,0:0:0:0:
428,136,150332,1,0,0:0:0:0:
196,112,150482,1,2,0:0:0:0:
196,112,150782,1,0,0:0:0:0:
124,248,150932,1,0,0:0:0:0:
288,208,151082,1,0,0:0:0:0:
96,212,151232,5,4,0:0:0:0:
96,212,151532,2,0,P|92:136|112:108,1,112
232,52,151832,1,0,0:0:0:0:
288,208,151982,1,0,0:0:0:0:
264,344,152132,2,0,P|196:328|160:280,2,112,0|0|4,0:0|0:0|0:0,0:0:0:0:
356,224,152582,1,0,0:0:0:0:
436,368,152732,1,0,0:0:0:0:
512,260,152882,1,0,0:0:0:0:
512,260,153032,6,0,P|432:248|408:216,1,112
468,120,153332,2,0,P|392:96|348:112,1,112
232,140,153632,5,4,0:0:0:0:
336,144,153782,1,0,0:0:0:0:
128,224,153932,5,8,0:0:0:0:
256,208,154082,1,0,0:0:0:0:
32,360,154232,5,8,0:0:0:0:
176,284,154382,1,0,0:0:0:0:
320,200,154532,6,0,P|344:136|448:96,1,168,4|0,0:0|0:0,0:0:0:0:
464,128,154832,2,0,B|444:192|396:144|392:124|368:84,1,100.799996923828,4|0,0:0|0:0,0:0:0:0:
296,16,155132,1,0,0:0:0:0:
200,116,155282,1,0,0:0:0:0:
264,240,155432,2,0,P|220:308|144:344,1,134.4
124,324,155732,2,0,P|124:280|64:288,1,117.599996411133
20,384,156032,5,4,0:0:0:0:
20,384,156332,1,0,0:0:0:0:
24,208,156482,1,0,0:0:0:0:
116,328,156632,1,0,0:0:0:0:
116,328,156932,1,0,0:0:0:0:
108,164,157082,1,0,0:0:0:0:
212,276,157232,1,0,0:0:0:0:
212,276,157532,1,0,0:0:0:0:
356,200,157682,1,0,0:0:0:0:
356,200,157982,6,0,P|396:172|408:148,1,67.1999979492188
436,56,158282,1,0,0:0:0:0:
308,168,158432,5,2,0:0:0:0:
328,284,158582,1,0,0:0:0:0:
368,172,158732,1,0,0:0:0:0:
392,324,158882,1,2,0:0:0:0:
432,172,159032,6,0,P|460:136|424:68,1,100.799996923828
500,164,159332,2,0,P|512:196|508:236,1,67.1999979492188
472,356,159632,2,0,P|448:384|404:384,2,67.1999979492188,2|0|2,0:0|0:0|0:0,0:0:0:0:
428,268,160082,2,0,P|360:296|328:288,1,100.799996923828,2|0,0:0|0:0,0:0:0:0:
408,320,160382,2,0,P|468:316|512:264,1,100.799996923828
456,360,160682,1,0,0:0:0:0:
292,276,160832,5,2,0:0:0:0:
200,380,160982,1,0,0:0:0:0:
144,256,161132,1,0,0:0:0:0:
56,360,161282,1,0,0:0:0:0:
4,224,161432,2,0,P|12:192|32:160,1,67.1999979492188
132,80,161732,1,0,0:0:0:0:
100,192,161882,1,0,0:0:0:0:
164,16,162032,6,0,P|216:44|232:36,1,67.1999979492188,2|0,0:0|0:0,0:0:0:0:
336,12,162332,1,0,0:0:0:0:
324,148,162482,1,0,0:0:0:0:
296,168,162632,1,0,0:0:0:0:
276,184,162782,1,0,0:0:0:0:
276,184,163232,5,2,0:0:0:0:
148,264,163382,2,0,P|144:224|152:180,1,67.1999979492188
176,36,163682,1,0,0:0:0:0:
0,164,163832,1,0,0:0:0:0:
0,164,164132,5,0,0:0:0:0:
16,12,164282,1,0,0:0:0:0:
36,240,164432,2,0,P|96:276|144:240,1,134.399995898438
152,32,164882,1,0,0:0:0:0:
116,16,165032,1,0,0:0:0:0:
84,16,165182,1,0,0:0:0:0:
84,16,165482,1,0,0:0:0:0:
96,224,165632,6,0,P|76:288|0:372,1,156.799995214844,0|0,1:0|0:0,0:0:0:0:
20,357,166232,1,0,0:0:0:0:
148,296,166382,1,0,0:0:0:0:
264,368,166532,2,0,P|300:328|308:256,1,117.599996411133
348,304,166832,2,0,P|356:220|368:200,1,78.399997607422
396,116,167132,1,0,0:0:0:0:
396,116,167282,1,0,0:0:0:0:
396,116,167582,6,0,L|484:108,2,78.399997607422
192,128,168032,1,0,1:0:0:0:
192,128,168332,1,0,0:0:0:0:
20,136,168482,1,0,0:0:0:0:
112,272,168632,2,0,P|176:232|232:232,1,117.599996411133,2|0,0:0|0:0,0:0:0:0:
240,328,168932,2,0,P|244:244|284:200,1,117.599996411133,2|0,0:0|0:0,0:0:0:0:
280,196,169232,5,0,1:0:0:0:
400,148,169382,1,0,0:0:0:0:
408,152,169532,1,0,0:0:0:0:
392,336,169682,2,0,L|384:252,1,78.399997607422
392,248,169982,1,0,0:0:0:0:
256,304,170132,1,0,0:0:0:0:
288,164,170282,5,0,0:0:0:0:
160,164,170432,1,8,0:0:0:0:
280,140,170582,1,0,0:0:0:0:
144,144,170732,1,0,0:0:0:0:
224,248,170882,1,0,0:0:0:0:
84,272,171032,5,8,0:0:0:0:
60,156,171182,1,0,0:0:0:0:
0,208,171332,5,8,0:0:0:0:
0,56,171482,1,0,0:0:0:0:
128,124,171632,1,8,0:0:0:0:
60,156,171782,5,8,0:0:0:0:
112,8,171932,1,0,0:0:0:0:
128,200,172082,1,0,0:0:0:0:
128,124,172232,5,8,0:0:0:0:
296,108,172382,1,8,0:0:0:0:
384,152,172532,1,0,0:0:0:0:
196,168,172682,1,0,0:0:0:0:
420,184,172832,6,0,B|512:256|464:328|372:248|296:228|240:284|216:300,1,313.6
300,320,173432,2,0,B|268:260|364:180|200:248|180:336|48:276,1,313.6
172,344,174032,2,0,P|208:264|164:188,1,151.199995385742
148,204,174332,2,0,P|116:152|112:44,1,151.199995385742
168,128,174632,2,0,L|268:56,1,112,8|8,0:0|0:0,0:0:0:0:
248,120,174932,2,0,L|384:24,1,145.599993334961,8|8,0:0|0:0,0:0:0:0:
256,192,175232,12,8,176132,0:0:0:0:
268,244,176282,5,8,0:0:0:0:
220,244,176432,2,0,P|176:152|188:24,1,224,10|0,0:0|0:0,0:0:0:0:
244,116,176882,2,0,P|100:120|64:200,1,224,2|0,0:0|0:0,0:0:0:0:
208,188,177332,1,0,0:0:0:0:
48,232,177482,1,0,0:0:0:0:
296,180,177632,6,0,P|360:248|292:240,1,224,2|0,0:0|0:0,0:0:0:0:
304,116,178082,2,0,B|352:68|352:68|428:56,1,112,2|0,0:0|0:0,0:0:0:0:
512,52,178382,1,0,0:0:0:0:
232,160,178532,1,0,0:0:0:0:
360,144,178682,1,0,0:0:0:0:
152,220,178832,6,0,P|80:152|32:20,1,224,2|0,0:0|0:0,0:0:0:0:
12,284,179282,2,0,P|96:364|236:384,1,224,2|0,0:0|0:0,0:0:0:0:
320,360,179732,1,0,0:0:0:0:
256,276,179882,1,0,0:0:0:0:
168,156,180032,5,2,0:0:0:0:
168,156,180332,1,0,0:0:0:0:
344,124,180482,1,2,0:0:0:0:
344,124,180782,1,0,0:0:0:0:
256,4,180932,1,0,0:0:0:0:
196,132,181082,1,0,0:0:0:0:
344,124,181232,5,4,0:0:0:0:
452,192,181382,1,0,0:0:0:0:
328,268,181532,1,0,0:0:0:0:
452,340,181682,1,0,0:0:0:0:
328,384,181832,2,0,P|264:348|236:312,1,112
240,318,182282,2,0,P|336:288|344:256,1,112
356,156,182582,1,0,0:0:0:0:
360,128,182732,1,0,0:0:0:0:
360,108,182882,1,0,0:0:0:0:
360,108,183182,5,0,0:0:0:0:
196,248,183332,1,0,0:0:0:0:
220,140,183482,1,0,0:0:0:0:
164,284,183632,2,0,L|144:168,1,112,4|0,0:0|0:0,0:0:0:0:
52,44,183932,1,0,0:0:0:0:
4,208,184082,1,0,0:0:0:0:
100,340,184232,5,0,0:0:0:0:
160,184,184382,1,0,0:0:0:0:
120,360,184532,2,0,L|256:344,1,112
372,304,184832,5,0,0:0:0:0:
220,304,184982,1,0,0:0:0:0:
220,304,185057,1,0,0:0:0:0:
220,304,185132,1,0,0:0:0:0:
408,244,185282,1,0,0:0:0:0:
408,244,185582,5,0,0:0:0:0:
368,76,185732,1,0,0:0:0:0:
424,212,185882,1,0,0:0:0:0:
416,0,186032,2,0,P|396:88|492:40,1,224,2|0,0:0|0:0,0:0:0:0:
476,0,186482,2,0,P|448:44|300:136,1,224,2|0,0:0|0:0,0:0:0:0:
176,120,186932,2,0,B|104:108|104:108|76:144,1,112
20,288,187232,6,0,B|192:312|192:312|236:280,1,224,2|0,0:0|0:0,0:0:0:0:
296,160,187682,2,0,B|157:259|157:259|144:312,1,224,2|0,0:0|0:0,0:0:0:0:
328,372,188132,1,0,0:0:0:0:
232,380,188282,1,0,0:0:0:0:
376,276,188432,6,0,B|412:220|400:180|288:208|248:100,1,224,2|0,0:0|0:0,0:0:0:0:
192,0,188882,2,0,L|0:148,1,224,2|0,0:0|0:0,0:0:0:0:
155,224,189332,1,0,0:0:0:0:
259,124,189482,1,0,0:0:0:0:
192,0,189632,5,2,0:0:0:0:
48,140,189782,1,2,0:0:0:0:
224,8,189932,5,0,0:0:0:0:
72,176,190082,1,0,0:0:0:0:
464,80,190382,1,0,0:0:0:0:
464,80,190532,6,0,B|375:150|375:150|480:200,1,224
480,224,191132,1,0,0:0:0:0:
368,296,191282,1,0,0:0:0:0:
480,352,191432,1,0,0:0:0:0:
496,196,191582,1,0,0:0:0:0:
324,296,191732,1,0,0:0:0:0:
504,384,191882,1,0,0:0:0:0:
348,196,192032,5,4,0:0:0:0:
256,256,192182,1,0,0:0:0:0:
112,344,192332,1,0,0:0:0:0:
112,236,192482,1,0,0:0:0:0:
56,328,192632,5,0,0:0:0:0:
58,247,192782,1,0,0:0:0:0:
60,96,192932,1,0,0:0:0:0:
124,136,193082,1,0,0:0:0:0:
160,0,193232,5,4,0:0:0:0:
256,0,193382,1,0,0:0:0:0:
400,0,193532,1,0,0:0:0:0:
328,128,193682,1,0,0:0:0:0:
472,68,193832,1,0,0:0:0:0:
440,232,193982,1,0,0:0:0:0:
328,144,194132,2,0,P|232:100|152:100,1,168,4|0,0:0|0:0,0:0:0:0:
128,108,194432,2,0,P|76:128|148:192,1,168,4|0,0:0|0:0,0:0:0:0:
172,180,194732,2,0,P|124:172|152:280,1,201.599993847656,4|0,0:0|0:0,0:0:0:0:
144,228,195032,6,0,P|36:264|8:124,1,235.199992822266,4|0,0:0|0:0,0:0:0:0:
52,164,195332,2,0,L|216:24,1,168,4|0,0:0|0:0,0:0:0:0:
356,56,195632,6,0,P|248:100|288:164,1,224,6|0,0:0|0:0,0:0:0:0:
312,104,196082,2,0,P|200:72|104:132,1,224,2|0,0:0|0:0,0:0:0:0:
188,276,196532,1,0,0:0:0:0:
376,308,196682,1,0,0:0:0:0:
136,224,196832,5,2,0:0:0:0:
136,224,197132,2,0,L|236:168,1,112,0|2,0:0|0:0,0:0:0:0:
380,84,197432,1,0,0:0:0:0:
392,240,197582,1,0,0:0:0:0:
200,172,197732,1,0,0:0:0:0:
400,56,197882,1,0,0:0:0:0:
396,272,198032,6,0,P|408:364|532:360,1,224,2|0,0:0|0:0,0:0:0:0:
472,308,198482,2,0,B|520:288|560:176|480:64,1,224,2|0,0:0|0:0,0:0:0:0:
296,92,198932,1,0,0:0:0:0:
496,84,199082,1,0,0:0:0:0:
356,40,199232,5,2,0:0:0:0:
408,168,199382,1,0,0:0:0:0:
296,92,199532,5,0,0:0:0:0:
344,252,199682,1,2,0:0:0:0:
220,160,199832,1,0,0:0:0:0:
152,120,199982,5,0,0:0:0:0:
188,324,200132,1,2,0:0:0:0:
100,272,200282,1,0,0:0:0:0:
148,384,200432,5,2,0:0:0:0:
16,368,200582,2,0,P|0:328|0:256,1,112
60,96,200882,2,0,P|84:44|68:-40,2,112
60,96,201482,2,0,P|36:148|48:232,2,112
172,12,201932,1,0,0:0:0:0:
200,12,202082,1,0,0:0:0:0:
200,12,202382,6,0,P|184:76|196:128,1,112
236,244,202682,1,0,0:0:0:0:
356,180,202832,2,0,P|296:156|240:168,1,112
96,200,203132,1,0,0:0:0:0:
60,212,203282,1,0,0:0:0:0:
28,228,203432,1,0,0:0:0:0:
224,172,203582,1,0,0:0:0:0:
200,328,203732,1,0,0:0:0:0:
256,156,203882,1,0,0:0:0:0:
384,272,204032,5,0,0:0:0:0:
365,244,204107,1,0,0:0:0:0:
356,212,204182,1,0,0:0:0:0:
360,176,204257,1,0,0:0:0:0:
376,144,204332,1,0,0:0:0:0:
464,200,204482,1,0,0:0:0:0:
464,200,204782,1,0,0:0:0:0:
464,200,204932,6,0,P|420:136|384:112,1,112
240,0,205232,2,0,P|200:104|204:216,1,224,2|0,0:0|0:0,0:0:0:0:
24,368,205682,2,0,P|64:264|60:152,1,224,2|0,0:0|0:0,0:0:0:0:
16,16,206132,1,0,0:0:0:0:
188,24,206282,1,0,0:0:0:0:
40,204,206432,2,0,P|16:284|28:328,1,112,2|0,0:0|0:0,0:0:0:0:
136,276,206732,2,0,P|176:240|128:224,1,112,0|2,0:0|0:0,0:0:0:0:
40,204,207032,5,0,0:0:0:0:
200,164,207182,1,0,0:0:0:0:
52,164,207332,1,0,0:0:0:0:
232,120,207482,1,0,0:0:0:0:
120,16,207632,2,0,P|44:28|-16:172,1,224,2|0,0:0|0:0,0:0:0:0:
100,136,208082,2,0,L|312:56,1,224,2|0,0:0|0:0,0:0:0:0:
456,12,208532,1,0,0:0:0:0:
308,56,208682,1,0,0:0:0:0:
512,16,208832,6,0,P|508:88|504:128,1,112,2|0,0:0|0:0,0:0:0:0:
480,272,209132,1,0,0:0:0:0:
464,112,209282,1,2,0:0:0:0:
464,112,209582,1,0,0:0:0:0:
352,72,209732,6,0,P|396:24|444:-8,2,112
352,72,210332,1,0,0:0:0:0:
376,204,210482,2,0,P|324:268|272:288,1,112
180,176,210782,1,0,0:0:0:0:
104,284,210932,1,0,0:0:0:0:
200,204,211082,1,0,0:0:0:0:
92,348,211232,5,4,0:0:0:0:
16,244,211382,2,0,P|44:188|84:152,1,112
232,100,211682,1,0,0:0:0:0:
240,252,211832,1,0,0:0:0:0:
296,208,211982,1,0,0:0:0:0:
348,160,212132,1,0,0:0:0:0:
220,184,212282,2,0,P|192:200|156:200,1,56
164,116,212432,6,0,B|120:92|132:52|256:68|312:-4,1,224,4|0,0:0|0:0,0:0:0:0:
304,108,212882,2,0,P|240:160|240:196,2,112
432,120,213332,2,0,P|480:140|444:80,1,168,4|0,0:0|0:0,0:0:0:0:
308,92,213632,2,0,P|276:200|284:224,1,112,4|0,0:0|0:0,0:0:0:0:
152,168,213932,1,0,0:0:0:0:
232,276,214082,1,0,0:0:0:0:
160,368,214232,2,0,P|272:376|320:296,1,168,4|0,0:0|0:0,0:0:0:0:
296,220,214532,2,0,P|360:312|420:352,1,168,4|0,0:0|0:0,0:0:0:0:
468,372,214832,5,4,0:0:0:0:
376,212,215132,5,0,0:0:0:0:
384,188,215282,1,2,0:0:0:0:
228,132,215582,1,0,0:0:0:0:
280,220,215732,5,0,0:0:0:0:
260,264,215882,1,0,0:0:0:0:
240,308,216032,1,2,0:0:0:0:
128,192,216332,5,0,0:0:0:0:
148,156,216482,1,2,0:0:0:0:
52,16,216782,1,0,0:0:0:0:
264,24,217082,5,0,0:0:0:0:
236,100,217232,1,2,0:0:0:0:
335,199,217532,5,0,0:0:0:0:
372,100,217682,1,2,0:0:0:0:
172,248,217982,1,0,0:0:0:0:
408,344,218282,1,0,0:0:0:0:
412,184,218432,5,2,2:0:0:0:
407,196,218507,1,0,2:0:0:0:
403,209,218582,1,0,2:0:0:0:
352,124,218732,5,0,0:0:0:0:
304,264,218882,1,2,0:0:0:0:
304,264,219182,5,0,0:0:0:0:
352,124,219332,1,0,0:0:0:0:
336,264,219482,1,0,0:0:0:0:
324,88,219632,6,0,P|236:36|116:104,1,224,2|0,0:0|0:0,0:0:0:0:
224,160,220082,2,0,B|376:184|376:184|432:136,1,224,2|0,0:0|0:0,0:0:0:0:
504,0,220532,1,0,0:0:0:0:
448,160,220682,1,0,0:0:0:0:
256,124,220832,2,0,P|208:184|324:288,1,224,2|0,0:0|0:0,0:0:0:0:
292,204,221282,2,0,P|192:208|140:216,1,112,2|0,0:0|0:0,0:0:0:0:
12,256,221582,5,0,0:0:0:0:
184,264,221732,1,0,0:0:0:0:
156,336,221882,1,0,0:0:0:0:
232,320,222032,5,2,0:0:0:0:
204,152,222182,1,0,0:0:0:0:
280,280,222332,5,0,0:0:0:0:
260,88,222482,1,2,0:0:0:0:
260,88,222782,6,0,L|144:144,2,112
392,40,223232,5,0,2:0:0:0:
393,56,223307,1,0,2:0:0:0:
389,76,223382,1,0,2:0:0:0:
328,136,223532,2,0,P|272:168|212:152,1,112
452,88,223832,5,0,2:0:0:0:
464,120,223907,1,0,2:0:0:0:
468,160,223982,1,0,2:0:0:0:
460,284,224132,2,0,P|430:331|328:364,1,134.399995898438
220,380,224432,1,2,0:0:0:0:
220,380,224732,5,0,0:0:0:0:
92,232,224882,1,2,0:0:0:0:
304,336,225182,5,0,0:0:0:0:
264,376,225332,1,0,0:0:0:0:
220,380,225482,1,0,0:0:0:0:
240,168,225632,1,2,0:0:0:0:
240,168,225932,5,0,0:0:0:0:
72,68,226082,1,2,0:0:0:0:
164,368,226382,1,0,0:0:0:0:
408,172,226682,5,0,0:0:0:0:
240,256,226832,1,2,0:0:0:0:
360,368,227132,5,0,0:0:0:0:
240,256,227282,1,2,0:0:0:0:
360,176,227432,1,0,0:0:0:0:
240,104,227582,1,0,0:0:0:0:
240,104,227657,1,0,0:0:0:0:
240,104,227732,1,0,0:0:0:0:
216,284,227882,1,0,0:0:0:0:
400,176,228032,6,0,P|396:104|356:52,1,112
256,160,228332,2,0,P|228:244|240:300,1,112
48,160,228782,1,0,0:0:0:0:
48,112,228932,1,0,0:0:0:0:
56,64,229082,1,0,0:0:0:0:
148,8,229232,5,8,0:0:0:0:
148,8,229682,1,8,0:0:0:0:
296,124,229982,1,0,0:0:0:0:
384,44,230132,1,0,0:0:0:0:
328,168,230282,5,0,0:0:0:0:
472,48,230432,1,8,0:0:0:0:
472,48,230882,1,8,0:0:0:0:
444,200,231182,5,0,0:0:0:0:
464,336,231332,1,0,0:0:0:0:
396,244,231482,5,0,0:0:0:0:
412,380,231632,1,8,0:0:0:0:
412,380,232082,1,8,0:0:0:0:
168,288,232382,1,0,0:0:0:0:
236,192,232532,1,0,0:0:0:0:
172,88,232682,1,0,0:0:0:0:
268,8,232832,5,4,0:0:0:0:
268,8,232907,1,0,0:0:0:0:
268,8,232982,1,0,0:0:0:0:
332,96,233132,1,0,0:0:0:0:
268,192,233282,1,0,0:0:0:0:
328,308,233432,1,0,0:0:0:0:
232,384,233582,1,0,0:0:0:0:
108,300,233732,2,0,P|100:184|152:112,1,168,4|0,0:0|0:0,0:0:0:0:
160,100,234032,5,4,0:0:0:0:
