osu file format v14

[General]
AudioFilename: NT.mp3
AudioLeadIn: 0
PreviewTime: 50097
Countdown: 0
SampleSet: Soft
StackLeniency: 0.7
Mode: 0
LetterboxInBreaks: 0
WidescreenStoryboard: 0

[Editor]
Bookmarks: 11547,50397,69597
DistanceSpacing: 0.8
BeatDivisor: 4
GridSize: 4
TimelineZoom: 1

[Metadata]
Title:No title
TitleUnicode:No title
Artist:Reol
ArtistUnicode:Reol
Creator:cerly
Version:~
Source:
Tags:
BeatmapID:853980
BeatmapSetID:392142

[Difficulty]
HPDrainRate:6
CircleSize:4.5
OverallDifficulty:9
ApproachRate:9.3
SliderMultiplier:1.4
SliderTickRate:1

[Events]
//Background and Video events
0,0,"BG.jpg",0,0
//Break Periods
//Storyboard Layer 0 (Background)
//Storyboard Layer 1 (Fail)
//Storyboard Layer 2 (Pass)
//Storyboard Layer 3 (Foreground)
//Storyboard Sound Samples

[TimingPoints]
2397,300,4,2,0,100,1,0
11472,-83.3333333333333,4,2,0,35,0,0
50322,-76.9230769230769,4,2,0,35,0,0

[HitObjects]
33,111,11547,6,0,L|117:117,2,83.9999974365235
246,79,11997,2,0,B|270:164|204:158|232:244,1,167.999994873047
295,363,12447,1,0,0:0:0:0:
433,203,12597,2,0,L|336:210,1,83.9999974365235
424,95,12897,1,0,0:0:0:0:
444,315,13047,1,0,0:0:0:0:
146,116,13197,1,0,0:0:0:0:
126,336,13347,1,0,0:0:0:0:
226,253,13497,1,0,0:0:0:0:
41,237,13647,1,0,0:0:0:0:
23,235,13947,5,0,0:0:0:0:
125,354,14097,1,0,0:0:0:0:
147,98,14247,1,0,0:0:0:0:
23,235,14397,2,0,L|117:231,1,83.9999974365235
343,85,14697,2,0,L|249:89,1,83.9999974365235
93,363,14997,1,0,0:0:0:0:
128,28,15147,1,0,0:0:0:0:
212,314,15297,2,0,L|306:310,1,83.9999974365235
350,15,15597,5,0,0:0:0:0:
373,280,15747,1,0,0:0:0:0:
483,141,15897,1,0,0:0:0:0:
240,166,16047,1,0,0:0:0:0:
497,342,16197,2,0,B|412:318|418:384|332:356,1,167.999994873047
359,87,16647,6,0,L|368:180,1,83.9999974365235
238,143,16947,1,0,0:0:0:0:
462,121,17097,1,0,0:0:0:0:
199,245,17247,1,0,0:0:0:0:
181,23,17397,1,0,0:0:0:0:
325,290,17547,1,0,0:0:0:0:
31,163,17697,1,0,0:0:0:0:
290,138,17847,2,0,L|378:129,1,83.9999974365235
123,333,18147,2,0,L|35:324,1,83.9999974365235
213,27,18447,5,0,0:0:0:0:
257,377,18597,2,0,L|244:273,1,83.9999974365235
20,79,18897,2,0,L|33:183,1,83.9999974365235
454,121,19197,1,0,0:0:0:0:
223,47,19347,1,0,0:0:0:0:
367,245,19497,1,0,0:0:0:0:
367,0,19647,1,0,0:0:0:0:
223,198,19797,5,0,0:0:0:0:
475,222,19947,1,0,0:0:0:0:
148,119,20097,1,0,0:0:0:0:
264,313,20247,1,0,0:0:0:0:
367,0,20397,1,0,0:0:0:0:
417,380,20547,1,0,0:0:0:0:
417,380,20622,1,0,0:0:0:0:
417,380,20697,2,0,L|405:291,2,83.9999974365235
69,220,21147,1,0,0:0:0:0:
471,192,21297,1,0,0:0:0:0:
69,220,21597,6,0,L|57:309,1,83.9999974365235
162,369,21897,1,0,0:0:0:0:
193,119,22047,2,0,B|108:143|114:77|28:105,1,167.999994873047
304,227,22497,1,0,0:0:0:0:
322,19,22647,1,0,0:0:0:0:
295,331,22797,1,0,0:0:0:0:
189,240,22947,1,0,0:0:0:0:
502,203,23097,2,0,L|419:214,1,83.9999974365235
161,44,23397,2,0,L|244:54,1,83.9999974365235
241,380,23697,2,0,L|224:209,1,167.999994873047
359,286,24147,5,0,0:0:0:0:
22,305,24297,2,0,B|83:297|83:297|122:314|122:314|185:305,1,167.999994873047
380,284,24747,1,0,0:0:0:0:
244,54,24897,2,0,L|253:140,1,83.9999974365235
279,377,25197,1,0,0:0:0:0:
368,182,25347,1,0,0:0:0:0:
152,201,25497,1,0,0:0:0:0:
400,179,25647,1,0,0:0:0:0:
120,204,25797,2,0,L|34:210,1,83.9999974365235
480,301,26097,2,0,B|451:217|517:219|486:138,1,167.999994873047,0|0,0:3|0:3,0:3:0:0:
256,30,26547,5,0,0:0:0:0:
282,327,26697,1,0,0:0:0:0:
371,75,26847,1,0,0:0:0:0:
153,95,26997,1,0,0:0:0:0:
397,307,27147,2,0,L|483:301,1,83.9999974365235
128,359,27447,1,0,0:0:0:0:
155,67,27597,1,0,0:0:0:0:
320,300,27747,1,0,0:0:0:0:
31,270,27897,6,0,B|21:227|21:227|32:188,1,83.9999974365235
286,34,28197,2,0,B|296:77|296:77|285:116,1,83.9999974365235
165,382,28497,2,0,B|138:297|204:301|173:216,1,167.999994873047
299,364,28947,1,0,0:0:0:0:
32,245,29097,1,0,0:0:0:0:
380,292,29247,1,0,0:0:0:0:
32,245,29397,2,0,L|36:156,1,83.9999974365235
380,292,29697,2,0,L|376:381,1,83.9999974365235
231,114,29997,5,0,0:0:0:0:
230,105,30072,1,0,0:0:0:0:
229,96,30147,1,0,0:0:0:0:
254,339,30297,1,0,0:0:0:0:
318,22,30447,1,0,0:0:0:0:
147,254,30597,1,0,0:0:0:0:
124,56,30747,1,0,0:0:0:0:
475,186,30897,1,0,0:0:0:0:
35,161,31047,6,0,L|203:148,1,167.999994873047
160,363,31497,1,0,0:0:0:0:
121,30,31647,1,0,0:0:0:0:
36,319,31797,1,0,0:0:0:0:
276,214,31947,2,0,L|273:298,1,83.9999974365235
374,53,32247,2,0,B|313:45|313:45|274:62|274:62|211:53,1,167.999994873047
349,356,32697,1,0,0:0:0:0:
323,134,32847,1,0,0:0:0:0:
184,252,32997,1,0,0:0:0:0:
489,286,33147,2,0,L|394:276,1,83.9999974365235
210,54,33447,5,0,0:0:0:0:
257,374,33597,2,0,L|264:276,1,83.9999974365235
405,17,33897,2,0,L|398:115,1,83.9999974365235
151,147,34197,1,0,0:0:0:0:
409,235,34347,2,0,L|504:245,1,83.9999974365235
210,54,34647,2,0,B|125:30|131:96|45:68,1,167.999994873047
273,335,35097,1,0,0:0:0:0:
255,121,35247,1,0,0:0:0:0:
277,374,35397,1,0,0:0:0:0:
136,303,35547,1,0,0:0:0:0:
394,267,35697,1,0,0:0:0:0:
44,315,35847,6,0,L|29:131,1,167.999994873047
394,267,36297,2,0,L|386:358,1,83.9999974365235
239,135,36597,1,0,0:0:0:0:
496,104,36747,1,0,0:0:0:0:
223,254,36897,1,0,0:0:0:0:
197,26,37047,2,0,B|282:2|276:68|362:40,1,167.999994873047
34,191,37497,2,0,L|26:99,1,83.9999974365235
307,264,37797,2,0,L|314:355,1,83.9999974365235
151,310,38097,1,0,0:0:0:0:
457,142,38247,6,0,B|396:134|396:134|357:151|357:151|294:142,1,167.999994873047
416,264,38697,1,0,0:0:0:0:
338,34,38847,1,0,0:0:0:0:
283,348,38997,1,0,0:0:0:0:
494,271,39147,1,0,0:0:0:0:
187,242,39297,1,0,0:0:0:0:
448,338,39447,1,0,0:0:0:0:
473,63,39597,1,0,0:0:0:0:
283,348,39747,5,0,0:0:0:0:
284,357,39822,1,0,0:0:0:0:
285,366,39897,1,0,0:0:0:0:
254,92,40047,1,0,0:0:0:0:
365,313,40197,1,0,0:0:0:0:
23,258,40347,2,0,L|121:246,1,83.9999974365235
415,68,40647,6,0,B|328:48|338:114|250:90,1,167.999994873047
365,313,41097,2,0,L|358:229,1,83.9999974365235
483,346,41397,1,0,0:0:0:0:
257,361,41547,1,0,0:0:0:0:
507,199,41697,1,0,0:0:0:0:
200,148,41847,2,0,L|208:232,1,83.9999974365235
422,151,42147,2,0,L|414:67,1,83.9999974365235
354,353,42447,1,0,0:0:0:0:
159,34,42597,2,0,B|244:10|238:76|324:48,1,167.999994873047
119,363,43047,6,0,L|29:355,1,83.9999974365235
277,187,43347,2,0,L|367:195,1,83.9999974365235
75,121,43647,2,0,L|67:31,1,83.9999974365235
265,275,43947,1,0,0:0:0:0:
27,260,44097,1,0,0:0:0:0:
285,101,44247,1,0,0:0:0:0:
253,376,44397,2,0,L|263:293,2,83.9999974365235
103,295,44847,1,0,0:0:0:0:
455,184,44997,2,0,B|463:245|463:245|446:284|446:284|455:347,1,167.999994873047
106,146,45447,6,0,L|96:63,1,83.9999974365235
299,295,45747,2,0,L|289:378,1,83.9999974365235
35,226,46047,1,0,0:0:0:0:
361,189,46197,1,0,0:0:0:0:
208,324,46347,1,0,0:0:0:0:
170,5,46497,2,0,L|180:88,1,83.9999974365235
439,248,46797,2,0,L|449:165,1,83.9999974365235
41,200,47097,2,0,B|9:282|75:282|40:365,1,167.999994873047
463,62,47697,5,0,0:0:0:0:
326,210,47847,2,0,L|316:127,1,83.9999974365235
343,351,48147,1,0,0:0:0:0:
303,17,48297,1,0,0:0:0:0:
174,300,48447,1,0,0:0:0:0:
455,269,48597,1,0,0:0:0:0:
144,42,48747,1,0,0:0:0:0:
184,376,48897,1,0,0:0:0:0:
421,158,49047,1,0,0:0:0:0:
44,196,49197,5,0,0:0:0:0:
35,197,49272,1,0,0:0:0:0:
27,198,49347,1,0,0:0:0:0:
19,199,49422,1,0,0:0:0:0:
11,200,49497,1,0,0:0:0:0:
184,376,49647,1,0,0:0:0:0:
140,16,49797,1,0,0:0:0:0:
428,283,49947,1,0,0:0:0:0:
83,304,50097,2,0,L|-6:310,1,83.9999974365235
292,258,50397,6,0,B|382:234|375:304|468:276,1,181.999991668702
146,181,50847,2,0,L|167:361,1,181.999991668702
316,68,51297,1,0,0:0:0:0:
34,103,51447,1,0,0:0:0:0:
405,56,51597,2,0,L|496:44,1,90.9999958343508
167,361,51897,2,0,L|76:349,1,90.9999958343508
230,25,52197,1,0,0:0:0:0:
282,359,52347,2,0,L|267:264,2,90.9999958343508
183,158,52797,6,0,B|92:134|99:204|6:176,1,181.999991668702
455,276,53247,2,0,L|469:89,1,181.999991668702
267,269,53697,2,0,L|282:359,1,90.9999958343508
232,29,53997,1,0,0:0:0:0:
370,134,54147,1,0,0:0:0:0:
136,162,54297,1,0,0:0:0:0:
335,34,54447,2,0,B|426:10|419:80|512:52,1,181.999991668702
93,251,54897,5,0,0:0:0:0:
68,33,55047,1,0,0:0:0:0:
431,360,55197,1,0,0:0:0:0:
456,142,55347,1,0,0:0:0:0:
0,198,55497,1,0,0:0:0:0:
238,169,55647,1,0,0:0:0:0:
151,29,55797,1,0,0:0:0:0:
108,367,55947,2,0,L|120:276,1,90.9999958343508
496,258,56247,1,0,0:0:0:0:
68,33,56397,6,0,L|80:124,2,90.9999958343508
256,191,56847,2,0,B|247:254|247:254|265:300|265:300|256:369,1,181.999991668702
114,322,57297,1,0,0:0:0:0:
398,237,57447,1,0,0:0:0:0:
23,214,57597,2,0,L|125:194,1,90.9999958343508
477,366,57897,2,0,L|375:346,1,90.9999958343508
172,0,58197,1,0,0:0:0:0:
234,373,58347,1,0,0:0:0:0:
321,0,58497,2,0,L|301:88,1,90.9999958343508
90,116,58797,5,0,0:0:0:0:
472,189,58947,1,0,0:0:0:0:
469,170,59022,1,0,0:0:0:0:
466,151,59097,1,0,0:0:0:0:
234,373,59247,6,0,B|324:397|317:327|410:355,1,181.999991668702
90,116,59697,2,0,L|-3:126,1,90.9999958343508
357,171,59997,2,0,B|392:86|392:86|357:2,1,181.999991668702
99,374,60447,2,0,B|90:311|90:311|108:265|108:265|99:196,1,181.999991668702
235,346,60897,1,0,0:0:0:0:
2,247,61047,1,0,0:0:0:0:
305,260,61197,2,0,L|497:267,1,181.999991668702
238,365,61647,5,0,0:0:0:0:
205,56,61797,1,0,0:0:0:0:
393,376,61947,1,0,0:0:0:0:
421,107,62097,2,0,L|430:9,1,90.9999958343508
177,228,62397,6,0,B|87:204|94:274|1:246,1,181.999991668702
421,107,62847,2,0,P|458:173|418:272,1,181.999991668702
209,90,63297,2,0,L|200:-8,1,90.9999958343508
237,373,63597,1,0,0:0:0:0:
0,187,63747,2,0,P|45:179|92:197,1,90.9999958343508
237,373,64047,2,0,B|327:397|320:327|413:355,1,181.999991668702
209,90,64497,5,0,0:0:0:0:
273,274,64647,1,0,0:0:0:0:
376,107,64797,1,0,0:0:0:0:
124,82,64947,1,0,0:0:0:0:
273,274,65097,1,0,0:0:0:0:
301,1,65247,1,0,0:0:0:0:
166,330,65397,2,0,L|76:321,1,90.9999958343508
376,107,65697,2,0,L|466:116,1,90.9999958343508
37,71,65997,5,0,0:0:0:0:
256,374,66147,1,0,0:0:0:0:
207,0,66297,2,0,L|221:104,1,90.9999958343508
21,324,66597,1,0,0:0:0:0:
418,276,66747,1,0,0:0:0:0:
123,34,66897,1,0,0:0:0:0:
170,378,67047,1,0,0:0:0:0:
428,152,67197,6,0,L|437:61,1,90.9999958343508
0,189,67497,1,0,0:0:0:0:
141,216,67647,2,0,L|132:125,1,90.9999958343508
463,352,67947,1,0,0:0:0:0:
322,379,68097,2,0,L|331:288,1,90.9999958343508
354,15,68397,5,0,0:0:0:0:
354,15,68472,1,0,0:0:0:0:
354,15,68547,1,0,0:0:0:0:
338,197,68697,1,0,0:0:0:0:
132,125,68847,1,0,0:0:0:0:
512,155,68997,1,0,0:0:0:0:
330,288,69147,1,0,0:0:0:0:
346,106,69297,1,0,0:0:0:0:
322,379,69447,5,0,0:0:0:0:
322,379,69522,1,0,0:0:0:0:
322,379,69597,1,0,0:0:0:0:
