osu file format v14

[General]
AudioFilename: No title.mp3
AudioLeadIn: 0
PreviewTime: 117336
Countdown: 0
SampleSet: Soft
StackLeniency: 0.7
Mode: 0
LetterboxInBreaks: 0
WidescreenStoryboard: 0

[Editor]
Bookmarks: 10386,104436
DistanceSpacing: 1.8
BeatDivisor: 4
GridSize: 4
TimelineZoom: 3.099999

[Metadata]
Title:No title
TitleUnicode:No title
Artist:Reol
ArtistUnicode:れをる
Creator:Sakaue Nachi
Version:Rizia's Extra
Source:
Tags:IamKwaN Kencho Crystal Mei Rizia kawaiwkyik Guy japanese pop jpop gigap giga_p okiku title- title+
BeatmapID:862511
BeatmapSetID:388782

[Difficulty]
HPDrainRate:7
CircleSize:4
OverallDifficulty:8.5
ApproachRate:9.3
SliderMultiplier:1.8
SliderTickRate:2

[Events]
//Background and Video events
0,0,"BG.jpg",0,0
//Break Periods
2,69886,76332
2,156286,165132
//Storyboard Layer 0 (Background)
//Storyboard Layer 1 (Fail)
//Storyboard Layer 2 (Pass)
//Storyboard Layer 3 (Foreground)
//Storyboard Layer 4 (Overlay)
//Storyboard Sound Samples

[TimingPoints]
2486,300,4,2,1,60,1,0
2486,-166.666666666667,4,2,1,25,0,0
7286,-125,4,2,1,35,0,0
9386,-83.3333333333333,4,2,1,35,0,0
9686,-100,4,2,1,50,0,0
12086,-100,4,2,1,60,0,0
50486,-100,4,2,1,70,0,1
69686,-100,4,2,1,60,0,0
79286,-111.111111111111,4,2,1,60,0,0
107786,-83.3333333333333,4,2,1,60,0,0
108086,-111.111111111111,4,2,1,60,0,0
110111,-83.3333333333333,4,2,1,60,0,0
110411,-111.111111111111,4,2,1,60,0,0
115286,-100,4,2,1,60,0,0
117686,-100,4,2,1,70,0,1
156086,-100,4,2,1,60,0,0
165686,-125,4,2,1,60,0,0
176486,-90.9090909090909,4,2,1,70,0,1
195686,-90.9090909090909,4,2,1,80,0,1
214886,-100,4,2,1,60,0,0

[Colours]
Combo1 : 13,196,95
Combo2 : 2,134,253
Combo3 : 183,74,230
Combo4 : 248,92,252

[HitObjects]
72,224,2486,6,0,P|124:228|180:240,1,107.999996704102,0|0,1:0|0:0,0:0:0:0:
268,152,2936,2,0,P|216:148|160:136,1,107.999996704102,0|0,1:0|0:0,0:0:0:0:
96,76,3386,1,2,0:0:0:0:
240,36,3536,1,2,0:0:0:0:
272,244,3686,6,0,L|252:360,1,107.999996704102,0|0,1:0|0:0,0:0:0:0:
348,316,4136,1,0,1:0:0:0:
168,276,4436,1,2,0:0:0:0:
348,316,4736,1,2,0:0:0:0:
196,184,4886,6,0,P|188:144|228:72,1,107.999996704102,0|0,1:0|0:0,0:0:0:0:
352,208,5336,2,0,P|360:248|320:320,1,107.999996704102,0|2,1:0|0:0,0:0:0:0:
240,344,5936,5,2,0:0:0:0:
168,276,6086,1,0,1:0:0:0:
352,208,6236,1,0,0:0:0:0:
224,48,6536,6,0,P|228:100|236:176,1,107.999996704102,0|0,1:0|1:0,0:0:0:0:
272,224,6986,1,8,0:0:0:0:
504,128,7286,5,0,1:0:0:0:
460,64,7436,1,0,0:0:0:0:
384,44,7586,1,0,0:0:0:0:
316,80,7736,2,0,P|252:92|168:56,1,144,0|0,1:0|0:0,0:0:0:0:
116,16,8186,1,2,0:0:0:0:
156,156,8336,1,2,0:0:0:0:
48,252,8486,6,0,L|60:336,1,72,0|0,1:0|0:0,0:0:0:0:
132,292,8786,1,0,0:0:0:0:
200,336,8936,2,0,P|256:344|328:296,1,144,0|0,1:0|0:0,0:0:0:0:
331,208,9386,6,0,P|278:216|244:256,1,107.999996704102,8|0,0:1|0:0,0:0:0:0:
452,340,9686,1,2,1:3:0:0:
360,100,9986,5,0,0:0:0:0:
300,312,10136,1,2,1:3:0:0:
240,140,10436,5,4,0:3:0:0:
296,300,10586,1,2,0:3:0:0:
124,264,10736,1,6,0:3:0:0:
312,208,10886,5,8,0:3:0:0:
312,208,10961,1,8,0:3:0:0:
312,208,11036,1,8,0:3:0:0:
108,244,11186,1,8,0:3:0:0:
304,320,11336,1,8,0:3:0:0:
136,156,11486,6,0,P|144:100|164:52,1,90,8|8,0:3|0:3,0:0:0:0:
312,208,11786,1,8,0:1:0:0:
224,340,11936,1,2,0:0:0:0:
448,336,12086,6,0,P|440:292|412:160,1,180,4|0,0:0|0:0,0:0:0:0:
237,55,12536,2,0,P|181:55|141:167,1,180,0|0,1:0|0:0,0:0:0:0:
232,256,12986,1,2,0:3:0:0:
372,140,13136,1,2,0:0:0:0:
237,55,13286,6,0,P|238:101|245:159,1,90,0|0,1:0|0:0,0:0:0:0:
392,304,13586,1,2,0:0:0:0:
392,304,13736,2,0,P|340:292|248:384,1,180,0|2,1:0|0:0,0:0:0:0:
120,284,14186,1,8,0:1:0:0:
120,284,14336,1,2,0:0:0:0:
188,216,14486,6,0,P|144:192|88:196,1,90,0|2,1:0|0:0,0:0:0:0:
56,348,14786,2,0,P|100:372|156:368,1,90,2|0,0:0|1:0,0:0:0:0:
256,292,15086,1,2,0:0:0:0:
188,216,15236,1,2,0:0:0:0:
276,312,15386,1,2,0:3:0:0:
316,152,15536,1,2,0:0:0:0:
180,304,15686,5,0,1:0:0:0:
336,232,15836,1,2,0:0:0:0:
175,127,15986,2,0,P|179:171|195:243,1,90,2|0,0:0|1:0,0:0:0:0:
364,320,16286,5,0,0:0:0:0:
400,172,16436,1,0,0:0:0:0:
180,304,16586,2,0,L|80:292,1,90,8|0,0:1|0:0,0:0:0:0:
128,56,16886,6,0,P|188:44|260:140,1,180,0|2,1:0|0:0,0:0:0:0:
180,304,17336,2,0,L|172:204,1,90,0|2,1:0|0:0,0:0:0:0:
308,240,17636,1,2,0:0:0:0:
320,356,17786,2,0,L|328:256,1,90,2|2,0:3|0:0,0:0:0:0:
392,82,18086,6,0,L|399:171,1,90,0|0,1:0|0:0,0:0:0:0:
288,136,18386,1,2,0:0:0:0:
272,256,18536,1,0,1:0:0:0:
180,88,18686,1,2,0:0:0:0:
164,208,18836,1,2,0:0:0:0:
288,136,18986,1,8,0:1:0:0:
76,72,19136,1,0,0:0:0:0:
0,204,19286,6,0,P|38:181|83:177,1,90,0|2,1:0|0:0,0:0:0:0:
252,225,19586,2,0,L|132:201,1,90,2|0,0:0|1:0,0:0:0:0:
64,264,19886,1,2,0:0:0:0:
180,88,20036,1,2,0:0:0:0:
216,328,20186,1,2,0:3:0:0:
216,328,20336,1,2,0:0:0:0:
352,288,20486,6,0,L|472:280,1,90,0|2,1:0|0:0,0:0:0:0:
441,282,20711,1,2,0:0:0:0:
441,282,20786,1,2,0:0:0:0:
392,180,20936,1,0,1:0:0:0:
272,344,21086,2,0,L|152:352,1,90,0|2,0:0|0:0,0:0:0:0:
252,225,21386,1,8,0:1:0:0:
400,356,21536,1,0,0:0:0:0:
236,212,21686,6,0,P|216:168|268:48,1,180,0|0,1:0|0:0,0:0:0:0:
396,168,22136,1,0,1:0:0:0:
396,168,22436,1,2,0:0:0:0:
328,240,22586,1,2,0:3:0:0:
476,284,22736,1,2,0:0:0:0:
384,80,22886,6,0,P|396:144|408:260,1,180,0|2,1:0|0:0,0:0:0:0:
236,360,23336,2,0,P|230:328|224:270,1,90,0|0,1:0|0:0,0:0:0:0:
244,164,23636,1,0,0:0:0:0:
336,272,23786,1,8,0:1:0:0:
128,312,23936,1,2,0:0:0:0:
360,284,24086,6,0,P|408:296|504:184,1,180,0|0,1:0|0:0,0:0:0:0:
380,124,24536,1,0,1:0:0:0:
380,124,24836,1,0,0:0:0:0:
268,248,24986,2,0,P|223:247|182:229,1,90,2|2,0:3|0:0,0:0:0:0:
216,52,25286,5,0,1:0:0:0:
244,164,25436,1,2,0:0:0:0:
244,164,25511,1,0,0:0:0:0:
244,164,25586,1,2,0:0:0:0:
80,124,25736,2,0,L|96:304,1,180,0|2,1:0|0:0,0:0:0:0:
236,74,26186,2,0,L|245:181,1,90,8|0,0:1|0:0,0:0:0:0:
328,308,26486,6,0,P|376:324|504:240,1,180,0|2,1:0|0:0,0:0:0:0:
389,66,26936,2,0,P|362:150|396:232,1,180,0|2,1:0|0:0,0:0:0:0:
464,148,27386,1,2,0:0:0:0:
280,216,27536,1,2,0:3:0:0:
424,320,27686,6,0,P|364:304|216:288,1,180,0|2,1:0|0:0,0:0:0:0:
103,247,28136,2,0,P|192:237|279:215,1,180,0|2,1:0|0:0,0:0:0:0:
304,120,28586,1,8,0:1:0:0:
248,320,28736,1,0,0:0:0:0:
304,120,28886,1,2,1:3:0:0:
120,168,29186,5,0,0:0:0:0:
320,128,29336,1,2,1:3:0:0:
208,232,29636,5,4,0:3:0:0:
8,192,29786,1,2,0:3:0:0:
164,96,29936,1,6,0:3:0:0:
116,280,30086,5,8,0:3:0:0:
116,280,30161,1,8,0:3:0:0:
116,280,30236,1,8,0:3:0:0:
296,200,30386,1,8,0:3:0:0:
308,304,30536,1,8,0:3:0:0:
416,256,30686,1,8,0:3:0:0:
240,144,30836,1,8,0:3:0:0:
176,336,30986,1,8,0:1:0:0:
409,300,31136,2,0,L|417:244,1,45,2|2,0:0|0:0,0:0:0:0:
460,180,31286,6,0,P|456:128|336:84,1,180,4|0,0:0|0:0,0:0:0:0:
152,180,31736,2,0,B|196:192|196:192|340:160,1,180,0|2,1:0|0:0,0:0:0:0:
351,77,32186,1,0,1:0:0:0:
216,20,32336,1,2,0:0:0:0:
80,128,32486,6,0,P|64:184|152:272,1,180,0|2,1:0|0:0,0:0:0:0:
308,344,32936,2,0,P|320:300|320:164,1,180,0|2,1:0|0:0,0:0:0:0:
228,116,33386,1,8,0:1:0:0:
136,269,33536,1,2,0:0:0:0:
328,332,33686,6,0,L|524:312,1,180,0|0,1:0|0:0,0:0:0:0:
344,176,34136,2,0,L|148:196,1,180,0|2,1:0|0:0,0:0:0:0:
248,288,34586,1,2,0:3:0:0:
60,256,34736,1,2,0:0:0:0:
228,116,34886,5,0,1:0:0:0:
168,344,35036,2,0,P|164:296|160:264,1,45
112,184,35186,1,0,0:0:0:0:
248,288,35336,2,0,P|300:304|424:232,1,180,2|2,1:2|0:0,0:0:0:0:
260,28,35786,2,0,L|148:44,1,90,8|2,0:1|0:0,0:0:0:0:
316,200,36086,6,0,L|494:174,1,180,0|2,1:0|0:0,0:0:0:0:
228,126,36536,2,0,P|204:211|247:287,1,180,0|0,1:0|0:0,0:0:0:0:
384,164,36986,1,2,0:3:0:0:
260,28,37136,1,2,0:0:0:0:
136,112,37286,6,0,B|0:128|0:128|52:72,1,180,0|2,1:0|0:0,0:0:0:0:
196,216,37736,2,0,B|285:205,2,90,0|0|2,1:0|0:0|0:0,0:0:0:0:
76,332,38186,2,0,B|174:320,1,90,8|0,0:1|0:0,0:0:0:0:
428,360,38486,6,0,P|464:308|440:172,1,180,0|2,1:0|0:0,0:0:0:0:
252,156,38936,2,0,P|216:208|240:344,1,180,0|2,1:0|0:0,0:0:0:0:
340,256,39386,1,2,0:3:0:0:
340,256,39536,1,2,0:0:0:0:
448,84,39686,5,0,1:0:0:0:
340,136,39836,1,2,0:0:0:0:
340,136,39911,1,2,0:0:0:0:
340,136,39986,1,2,0:0:0:0:
300,16,40136,1,0,1:0:0:0:
68,248,40436,1,0,1:0:0:0:
184,204,40586,1,8,0:1:0:0:
220,324,40736,1,2,0:0:0:0:
340,288,40886,6,0,P|376:272|508:340,1,180,0|2,1:0|0:0,0:0:0:0:
498,320,41336,2,0,P|480:264|468:132,1,180,0|0,1:0|0:0,0:0:0:0:
353,47,41786,2,0,P|341:103|341:155,1,90,2|2,0:3|0:0,0:0:0:0:
108,256,42086,6,0,B|96:200|96:200|120:136|120:136|108:64,1,180,0|2,1:0|0:0,0:0:0:0:
260,228,42536,2,0,L|244:356,1,90,0|0,1:0|0:0,0:0:0:0:
280,88,42836,1,2,0:0:0:0:
400,224,42986,2,0,L|388:134,1,90,8|2,0:1|0:0,0:0:0:0:
170,216,43286,6,0,P|226:150|312:160,1,180,0|2,1:0|0:0,0:0:0:0:
492,308,43736,2,0,L|284:284,1,180,0|0,1:0|0:0,0:0:0:0:
420,136,44186,1,2,0:3:0:0:
260,228,44336,1,2,0:0:0:0:
276,36,44486,6,0,P|292:104|296:160,1,90,0|2,1:0|0:0,0:0:0:0:
294,123,44711,1,2,0:0:0:0:
294,123,44786,1,2,0:0:0:0:
168,104,44936,2,0,P|128:88|28:180,1,180,0|0,1:0|0:0,0:0:0:0:
196,308,45386,1,8,0:1:0:0:
116,176,45536,1,2,0:0:0:0:
72,352,45686,1,0,1:0:0:0:
72,352,45986,5,0,0:0:0:0:
206,225,46136,2,0,P|269:283|252:368,1,180,0|0,1:0|0:0,0:0:0:0:
101,264,46586,2,0,P|109:208|117:168,1,90,2|2,0:3|0:0,0:0:0:0:
256,32,46886,5,0,1:0:0:0:
280,148,47036,1,0,0:0:0:0:
360,72,47186,1,2,0:0:0:0:
256,32,47336,1,0,1:0:0:0:
256,168,47486,2,0,P|312:156|456:140,1,180,2|8,0:0|0:1,0:0:0:0:
512,228,47936,1,2,0:0:0:0:
512,228,48086,1,2,1:3:0:0:
308,344,48386,5,0,0:0:0:0:
352,176,48536,1,2,1:3:0:0:
176,88,48836,5,4,0:3:0:0:
220,256,48986,1,2,0:3:0:0:
352,176,49136,1,6,0:3:0:0:
132,168,49286,5,8,0:3:0:0:
132,168,49361,1,8,0:3:0:0:
132,168,49436,1,8,0:3:0:0:
184,348,49586,1,8,0:3:0:0:
244,152,49736,1,8,0:3:0:0:
72,268,49886,5,8,0:3:0:0:
280,324,50036,1,8,0:3:0:0:
352,176,50186,1,2,0:3:0:0:
144,240,50336,1,2,0:3:0:0:
392,268,50486,6,0,P|432:236|416:104,1,180,4|0,0:0|0:0,0:0:0:0:
288,40,50936,2,0,P|248:48|84:64,1,180,0|0,1:0|0:0,0:0:0:0:
56,212,51386,1,2,0:3:0:0:
228,264,51536,1,2,0:3:0:0:
191,66,51686,2,0,P|163:150|139:266,1,180,0|2,1:0|0:0,0:0:0:0:
336,208,52136,1,0,1:0:0:0:
296,344,52286,5,0,0:0:0:0:
296,344,52436,1,2,0:0:0:0:
228,264,52586,1,8,0:1:0:0:
428,212,52736,1,2,0:2:0:0:
308,44,52886,6,0,P|264:100|288:236,1,180,0|0,1:0|0:0,0:0:0:0:
444,320,53336,2,0,P|464:260|472:140,1,180,0|0,1:0|0:0,0:0:0:0:
348,292,53786,1,2,0:3:0:0:
267,204,53936,1,2,0:3:0:0:
168,352,54086,5,0,1:0:0:0:
112,252,54236,1,2,0:0:0:0:
112,252,54311,1,2,0:0:0:0:
112,252,54386,1,2,0:0:0:0:
272,296,54536,2,0,P|304:248|296:104,1,180,0|4,1:0|0:3,0:0:0:0:
148,120,54986,1,8,0:1:0:0:
148,120,55136,1,2,0:2:0:0:
248,56,55286,6,0,P|296:44|348:36,1,90,0|0,1:0|0:0,0:0:0:0:
492,144,55586,2,0,P|447:136|404:125,1,90,2|0,0:0|1:0,0:0:0:0:
248,56,55886,1,2,0:2:0:0:
288,192,56036,2,0,P|300:248|304:308,1,90,0|2,0:0|0:3,0:0:0:0:
172,264,56336,1,2,0:3:0:0:
320,112,56486,5,0,1:0:0:0:
312,316,56636,1,2,0:0:0:0:
196,160,56786,1,0,0:0:0:0:
408,208,56936,2,0,P|384:256|356:380,1,180,0|4,1:0|0:3,0:0:0:0:
172,264,57386,1,8,0:1:0:0:
288,192,57536,1,2,0:2:0:0:
132,96,57686,6,0,L|32:116,1,90,0|0,1:0|0:0,0:0:0:0:
196,260,57986,2,0,L|296:240,1,90,2|0,0:0|1:0,0:0:0:0:
220,72,58286,1,0,0:0:0:0:
88,232,58436,2,0,P|76:296|68:348,1,90,2|4,0:2|0:3,0:0:0:0:
256,304,58736,5,2,0:3:0:0:
288,192,58886,1,0,1:0:0:0:
372,340,59036,1,2,0:0:0:0:
372,340,59111,1,2,0:0:0:0:
372,340,59186,1,2,0:0:0:0:
448,224,59336,2,0,P|464:180|416:28,1,180,0|2,1:0|0:3,0:0:0:0:
260,200,59786,5,8,0:1:0:0:
372,144,59936,1,2,0:2:0:0:
164,116,60086,6,0,P|148:160|196:312,1,180,0|0,1:0|0:0,0:0:0:0:
472,308,60536,2,0,P|432:268|296:268,1,180,0|0,1:0|0:0,0:0:0:0:
212,308,60986,1,2,0:3:0:0:
164,116,61136,1,2,0:3:0:0:
36,280,61286,6,0,P|64:240|188:236,1,180,0|2,1:0|0:0,0:0:0:0:
331,346,61736,2,0,P|319:294|311:218,1,90,0|0,1:0|0:0,0:0:0:0:
340,148,62036,1,2,0:0:0:0:
416,280,62186,1,8,0:1:0:0:
236,184,62336,1,2,0:2:0:0:
448,108,62486,6,0,P|412:60|284:44,1,180,0|0,1:0|0:0,0:0:0:0:
140,88,62936,2,0,L|336:56,1,180,0|0,1:0|0:0,0:0:0:0:
432,192,63386,1,2,0:3:0:0:
236,184,63536,1,2,0:3:0:0:
317,58,63686,5,0,1:0:0:0:
348,256,63836,1,2,0:0:0:0:
348,256,63911,1,2,0:0:0:0:
348,256,63986,1,2,0:0:0:0:
164,176,64136,2,0,P|112:160|32:268,1,180,0|4,1:0|0:3,0:0:0:0:
168,352,64586,5,8,0:1:0:0:
292,224,64736,1,2,0:2:0:0:
192,76,64886,1,0,1:0:0:0:
192,76,65186,6,0,B|208:120|208:120|196:184,1,90,0|0,0:0|1:0,0:0:0:0:
56,272,65486,2,0,B|40:228|40:228|52:164,1,90,2|2,0:0|0:2,0:0:0:0:
192,76,65786,1,4,0:3:0:0:
292,224,65936,1,2,0:3:0:0:
168,352,66086,6,0,L|64:340,1,90,0|0,1:0|0:0,0:0:0:0:
344,284,66386,1,2,0:0:0:0:
228,168,66536,2,0,L|138:178,1,90,0|2,1:0|0:0,0:0:0:0:
328,96,66836,1,0,0:0:0:0:
196,260,66986,1,8,0:1:0:0:
420,236,67136,1,2,0:2:0:0:
260,48,67286,5,2,1:3:0:0:
276,136,67436,1,0,0:0:0:0:
292,224,67586,1,0,0:0:0:0:
112,292,67736,5,2,1:3:0:0:
128,204,67886,1,0,0:0:0:0:
144,116,68036,1,4,0:3:0:0:
292,224,68186,5,2,0:3:0:0:
112,292,68336,1,6,0:3:0:0:
276,360,68486,5,8,0:3:0:0:
276,360,68561,1,8,0:3:0:0:
276,360,68636,2,0,P|324:348|368:344,1,90,8|8,0:3|0:3,0:0:0:0:
476,344,68936,1,8,0:3:0:0:
292,224,69086,1,8,0:3:0:0:
496,172,69236,1,8,0:3:0:0:
396,44,69386,1,2,0:0:0:0:
420,280,69536,2,0,P|412:236|400:196,1,45,2|2,0:0|0:0,0:0:0:0:
308,96,69686,1,4,0:0:0:0:
160,84,76886,5,2,1:3:0:0:
352,152,77186,5,0,0:0:0:0:
152,216,77336,1,2,1:3:0:0:
288,264,77636,5,4,0:3:0:0:
352,64,77786,1,2,0:3:0:0:
228,140,77936,1,6,0:3:0:0:
388,248,78086,5,8,0:3:0:0:
388,248,78161,1,8,0:3:0:0:
388,248,78236,1,8,0:3:0:0:
196,300,78386,1,8,0:3:0:0:
352,152,78536,5,8,0:3:0:0:
304,352,78686,1,8,0:3:0:0:
152,216,78836,1,8,0:3:0:0:
288,264,78986,5,8,0:1:0:0:
260,112,79136,1,2,0:0:0:0:
64,216,79286,6,0,B|51:164|51:164|84:32,1,161.999995056153,4|0,0:0|0:0,0:0:0:0:
243,32,79736,1,0,1:0:0:0:
243,32,79886,2,0,P|255:83|263:135,1,80.9999975280763,0|2,0:0|0:0,0:0:0:0:
376,143,80186,1,2,0:1:0:0:
268,208,80336,1,2,0:0:0:0:
376,272,80486,6,0,P|428:264|484:260,1,80.9999975280763,0|0,1:0|0:0,0:0:0:0:
259,344,80786,1,0,0:0:0:0:
268,208,80936,2,0,P|223:203|177:196,2,80.9999975280763,0|0|2,1:0|0:0|0:0,0:0:0:0:
124,268,81386,1,2,0:1:0:0:
160,100,81536,1,2,0:0:0:0:
344,180,81686,6,0,P|340:248|232:284,1,161.999995056153,0|0,1:0|0:0,0:0:0:0:
117,233,82136,2,0,P|197:196|284:216,1,161.999995056153,0|2,1:0|0:0,0:0:0:0:
428,300,82586,2,0,P|440:256|448:184,1,80.9999975280763,2|2,0:1|0:0,0:0:0:0:
324,43,82886,5,0,1:0:0:0:
344,180,83036,1,2,0:0:0:0:
344,180,83111,1,2,0:0:0:0:
344,180,83186,1,2,0:0:0:0:
212,224,83336,2,0,L|12:200,1,161.999995056153,0|0,1:0|0:0,0:0:0:0:
240,324,83786,2,0,L|350:310,1,80.9999975280763,2|2,0:1|0:0,0:0:0:0:
388,208,84086,6,0,L|374:98,1,80.9999975280763,0|0,1:0|0:0,0:0:0:0:
124,176,84386,2,0,L|133:265,1,80.9999975280763,0|0,0:0|1:0,0:0:0:0:
272,60,84686,6,0,L|182:69,1,80.9999975280763,2|2,0:0|0:0,0:0:0:0:
300,172,84986,1,2,0:1:0:0:
400,88,85136,1,2,0:0:0:0:
436,240,85286,6,0,P|384:208|260:216,1,161.999995056153,0|0,1:0|0:0,0:0:0:0:
216,152,85736,2,0,P|232:211|252:344,1,161.999995056153,0|2,1:0|0:0,0:0:0:0:
120,256,86186,1,2,0:1:0:0:
120,256,86336,1,2,0:0:0:0:
32,336,86486,6,0,P|7:280|0:232,1,80.9999975280763,0|2,1:0|0:0,0:0:0:0:
51,103,86786,1,0,0:0:0:0:
71,184,86936,1,0,1:0:0:0:
143,103,87086,1,2,0:0:0:0:
168,204,87236,1,0,0:0:0:0:
236,100,87386,1,2,0:1:0:0:
268,224,87536,1,2,0:0:0:0:
356,132,87686,6,0,P|364:76|368:16,1,80.9999975280763,0|2,1:0|0:0,0:0:0:0:
366,51,87911,1,2,0:0:0:0:
366,51,87986,1,2,0:0:0:0:
268,224,88136,2,0,P|340:216|404:312,1,161.999995056153,0|2,1:0|0:0,0:0:0:0:
184,352,88586,1,2,0:1:0:0:
316,304,88736,1,2,0:0:0:0:
164,364,88886,6,0,B|116:380|116:380|-15:352,1,161.999995056153,0|0,1:0|0:0,0:0:0:0:
96,136,89336,2,0,B|143:120|143:120|276:148,1,161.999995056153,0|2,1:0|0:0,0:0:0:0:
364,224,89786,1,2,0:1:0:0:
212,284,89936,1,2,0:0:0:0:
270,145,90086,5,0,1:0:0:0:
316,304,90236,1,0,0:0:0:0:
396,200,90386,1,2,0:0:0:0:
212,284,90536,2,0,P|147:296|48:236,1,161.999995056153,0|2,1:0|0:0,0:0:0:0:
161,102,90986,2,0,P|163:147|156:192,1,80.9999975280763,2|2,0:1|0:0,0:0:0:0:
20,103,91286,5,0,1:0:0:0:
76,19,91436,1,0,0:0:0:0:
161,102,91586,1,2,0:0:0:0:
251,57,91736,1,0,1:0:0:0:
284,168,91886,2,0,P|340:160|436:248,2,161.999995056153,0|2|0,0:0|0:1|1:0,0:0:0:0:
152,228,92636,5,2,0:0:0:0:
152,228,92711,1,2,0:0:0:0:
152,228,92786,1,2,0:0:0:0:
72,148,92936,2,0,P|64:100|136:4,1,161.999995056153,0|2,1:0|0:0,0:0:0:0:
220,68,93386,1,2,0:1:0:0:
328,36,93536,1,2,0:0:0:0:
364,144,93686,5,0,1:0:0:0:
256,176,93836,1,0,0:0:0:0:
288,284,93986,1,2,0:0:0:0:
396,252,94136,1,0,1:0:0:0:
472,168,94286,2,0,P|424:136|296:136,1,161.999995056153,0|2,0:0|0:1,0:0:0:0:
168,224,94736,1,2,0:0:0:0:
80,176,94886,6,0,P|108:144|232:144,1,161.999995056153,0|2,1:0|0:0,0:0:0:0:
256,268,95336,2,0,P|228:300|104:300,1,161.999995056153,0|2,1:0|0:0,0:0:0:0:
168,224,95786,1,2,0:1:0:0:
356,304,95936,1,2,0:0:0:0:
400,104,96086,1,2,1:3:0:0:
280,352,96386,5,0,0:0:0:0:
448,188,96536,1,2,1:3:0:0:
236,156,96836,5,4,0:3:0:0:
436,280,96986,1,2,0:3:0:0:
208,168,97136,1,6,0:3:0:0:
384,124,97286,5,8,0:3:0:0:
384,124,97361,1,8,0:3:0:0:
384,124,97436,1,8,0:3:0:0:
280,28,97586,1,8,0:3:0:0:
236,156,97736,6,0,P|220:216|216:256,1,80.9999975280763,8|8,0:3|0:3,0:0:0:0:
352,344,98036,2,0,P|363:305|370:265,1,80.9999975280763,8|8,0:3|0:3,0:0:0:0:
300,108,98336,1,8,0:3:0:0:
176,304,98486,6,0,P|224:316|300:240,1,161.999995056153,4|0,0:0|0:0,0:0:0:0:
464,204,98936,2,0,P|452:148|408:44,1,161.999995056153,0|2,1:0|0:0,0:0:0:0:
268,28,99386,1,2,0:3:0:0:
240,168,99536,1,2,0:3:0:0:
142,71,99686,6,0,P|214:83|310:111,1,161.999995056153,0|0,1:0|0:0,0:0:0:0:
464,204,100136,2,0,P|386:226|306:240,1,161.999995056153,0|2,1:0|0:0,0:0:0:0:
212,328,100586,1,8,0:1:0:0:
240,168,100736,1,2,0:2:0:0:
52,193,100886,6,0,P|96:256|172:244,1,161.999995056153,0|0,1:0|0:0,0:0:0:0:
279,323,101336,2,0,P|252:247|240:168,1,161.999995056153,0|2,1:0|0:0,0:0:0:0:
300,44,101786,1,2,0:3:0:0:
300,44,101936,1,2,0:3:0:0:
448,132,102086,6,0,L|352:148,1,80.9999975280763,0|2,1:0|0:0,0:0:0:0:
368,145,102311,1,2,0:0:0:0:
368,145,102386,1,2,0:0:0:0:
164,132,102536,2,0,P|144:80|228:12,1,161.999995056153,0|2,1:0|0:0,0:0:0:0:
300,245,102986,2,0,P|288:297|272:345,1,80.9999975280763,8|2,0:1|0:2,0:0:0:0:
54,186,103286,5,0,1:0:0:0:
183,147,103436,1,0,0:0:0:0:
150,277,103586,1,2,0:0:0:0:
111,147,103736,1,0,1:0:0:0:
227,300,103886,2,0,P|172:354|96:337,1,161.999995056153,0|2,0:0|0:3,0:0:0:0:
256,220,104336,1,4,0:3:0:0:
484,285,104486,5,0,1:0:0:0:
385,378,104636,1,0,0:0:0:0:
350,245,104786,1,2,0:0:0:0:
449,344,104936,1,0,1:0:0:0:
270,261,105086,2,0,P|292:186|366:164,1,161.999995056153,2|8,0:0|0:1,0:0:0:0:
484,324,105536,1,2,0:2:0:0:
448,56,105686,6,0,P|388:72|344:80,1,80.9999975280763,0|0,1:0|0:0,0:0:0:0:
396,312,105986,2,0,P|357:300|317:292,1,80.9999975280763,0|0,0:0|1:0,0:0:0:0:
280,124,106286,2,0,P|220:140|176:148,1,80.9999975280763,0|2,0:0|0:0,0:0:0:0:
168,272,106586,2,0,P|129:260|89:252,1,80.9999975280763,2|2,3:0|0:3,0:0:0:0:
40,80,106886,5,0,1:0:0:0:
184,36,107036,1,2,0:0:0:0:
184,36,107111,1,2,0:0:0:0:
184,36,107186,1,2,0:0:0:0:
224,180,107336,2,0,P|272:200|356:136,1,161.999995056153,0|2,1:0|0:0,0:0:0:0:
288,19,107786,2,0,B|272:72|272:72|280:124,1,107.999996704102,8|2,0:1|0:2,0:0:0:0:
416,228,108086,6,0,P|448:172|436:76,1,161.999995056153,0|2,1:0|0:0,0:0:0:0:
328,260,108536,2,0,L|496:300,1,161.999995056153,0|2,1:0|0:0,0:0:0:0:
348,352,108986,1,2,0:3:0:0:
276,196,109136,1,2,0:3:0:0:
216,308,109286,6,0,P|176:320|68:264,1,161.999995056153,0|2,1:0|0:0,0:0:0:0:
112,132,109736,2,0,P|152:120|260:176,1,161.999995056153,0|2,1:0|0:0,0:0:0:0:
407,244,110186,2,0,L|284:269,1,107.999996704102,8|4,0:1|0:3,0:0:0:0:
36,64,110486,6,0,L|195:33,1,161.999995056153,0|0,1:0|0:0,0:0:0:0:
356,168,110936,2,0,L|196:198,1,161.999995056153,0|2,1:0|0:0,0:0:0:0:
80,256,111386,1,2,3:0:0:0:
196,198,111536,1,2,3:0:0:0:
184,328,111686,5,0,1:0:0:0:
104,164,111836,1,2,0:0:0:0:
264,272,111986,1,2,0:0:0:0:
96,348,112136,2,0,P|56:312|52:184,1,161.999995056153,0|2,1:0|0:0,0:0:0:0:
216,88,112586,2,0,L|297:88,1,80.9999975280763,8|2,0:1|0:2,0:0:0:0:
471,209,112886,6,0,P|468:288|416:348,1,161.999995056153,0|0,1:0|0:0,0:0:0:0:
308,180,113336,2,0,P|310:100|363:41,1,161.999995056153,0|2,1:0|0:0,0:0:0:0:
472,208,113786,2,0,P|412:228|368:224,1,80.9999975280763,2|2,0:3|0:3,0:0:0:0:
200,168,114086,1,0,1:0:0:0:
408,136,114386,5,2,0:2:0:0:
332,332,114536,2,0,P|288:352|164:296,1,161.999995056153,0|0,1:0|0:0,0:0:0:0:
260,112,114986,2,0,P|280:160|272:208,1,80.9999975280763,8|0,0:1|0:0,0:0:0:0:
80,320,115286,1,2,1:3:0:0:
200,168,115586,5,0,0:0:0:0:
60,344,115736,1,2,1:3:0:0:
184,84,116036,5,4,0:3:0:0:
224,288,116186,1,2,0:3:0:0:
116,140,116336,1,6,0:3:0:0:
288,184,116486,5,8,0:3:0:0:
100,292,116636,1,8,0:3:0:0:
336,304,116786,1,8,0:3:0:0:
136,220,116936,1,8,0:3:0:0:
352,92,117086,5,8,0:3:0:0:
352,92,117236,1,8,0:3:0:0:
320,320,117386,2,0,P|256:312|204:300,1,90,2|2,0:3|0:3,0:0:0:0:
12,104,117686,6,0,P|68:48|192:68,1,180,4|0,1:2|0:0,0:0:0:0:
392,184,118136,2,0,L|180:148,1,180,0|0,1:0|0:0,0:0:0:0:
340,72,118586,1,2,0:3:0:0:
492,208,118736,1,2,0:3:0:0:
328,284,118886,6,0,L|116:248,1,180,0|2,1:0|0:0,0:0:0:0:
216,188,119336,1,0,1:0:0:0:
52,296,119486,1,0,0:0:0:0:
216,188,119636,1,2,0:0:0:0:
36,132,119786,1,8,0:1:0:0:
168,300,119936,1,2,0:2:0:0:
332,200,120086,6,0,P|356:124|272:28,1,180,0|0,1:0|0:0,0:0:0:0:
180,184,120536,2,0,P|156:260|240:356,1,180,0|0,1:0|0:0,0:0:0:0:
372,360,120986,1,2,0:3:0:0:
372,360,121136,1,4,0:3:0:0:
421,211,121286,6,0,L|331:199,1,90,0|2,1:0|0:0,0:0:0:0:
331,199,121511,1,2,0:0:0:0:
331,199,121586,1,2,0:0:0:0:
476,140,121736,2,0,P|508:188|448:300,1,180,0|4,1:0|0:3,0:0:0:0:
196,292,122186,2,0,L|285:279,1,90,8|2,0:1|0:2,0:0:0:0:
420,212,122486,5,0,1:0:0:0:
336,88,122636,1,0,0:0:0:0:
285,279,122786,1,2,0:0:0:0:
352,176,122936,1,0,1:0:0:0:
172,88,123086,1,2,0:0:0:0:
356,252,123236,1,2,0:2:0:0:
128,340,123386,2,0,P|116:292|124:236,1,90,2|2,3:0|3:0,0:0:0:0:
180,160,123686,5,0,1:0:0:0:
292,360,123836,1,2,0:0:0:0:
180,160,123986,1,0,0:0:0:0:
119,252,124136,2,0,P|167:268|287:196,1,180,0|4,1:0|0:3,0:0:0:0:
252,36,124586,5,8,0:1:0:0:
180,160,124736,1,2,0:2:0:0:
308,228,124886,5,0,1:0:0:0:
380,104,125036,1,0,0:0:0:0:
192,84,125186,1,2,0:0:0:0:
228,222,125336,1,0,1:0:0:0:
367,180,125486,5,0,0:0:0:0:
330,41,125636,1,2,0:2:0:0:
180,160,125786,1,4,0:3:0:0:
380,256,125936,1,2,0:3:0:0:
232,336,126086,6,0,L|136:324,1,90,0|2,1:0|0:0,0:0:0:0:
142,324,126311,1,2,0:0:0:0:
142,324,126386,1,2,0:0:0:0:
341,295,126536,2,0,P|381:311|497:247,1,180,0|2,1:0|0:3,0:0:0:0:
425,91,126986,1,8,0:1:0:0:
405,227,127136,1,2,0:2:0:0:
330,60,127286,6,0,P|397:6|484:19,1,180,4|0,0:0|0:0,0:0:0:0:
328,164,127736,2,0,L|136:148,1,180,0|0,1:0|0:0,0:0:0:0:
196,44,128186,1,2,0:3:0:0:
48,168,128336,1,2,0:3:0:0:
208,320,128486,6,0,P|244:268|232:140,1,180,0|2,1:0|0:0,0:0:0:0:
92,52,128936,1,0,1:0:0:0:
276,80,129086,1,0,0:0:0:0:
48,168,129236,1,2,0:0:0:0:
224,236,129386,1,8,0:1:0:0:
196,44,129536,1,2,0:2:0:0:
208,320,129686,6,0,B|276:308|276:308|320:324|320:324|396:312,1,180,0|0,1:0|0:0,0:0:0:0:
500,164,130136,2,0,B|432:152|432:152|388:168|388:168|312:156,1,180,0|0,1:0|0:0,0:0:0:0:
196,100,130586,1,4,0:3:0:0:
316,232,130736,1,2,0:3:0:0:
396,0,130886,6,0,P|385:42|380:96,1,90,0|2,1:0|0:0,0:0:0:0:
380,88,131111,1,2,0:0:0:0:
380,88,131186,1,2,0:0:0:0:
461,278,131336,2,0,P|433:234|305:242,1,180,0|4,1:0|0:3,0:0:0:0:
188,264,131786,1,8,0:1:0:0:
372,308,131936,1,2,0:2:0:0:
280,136,132086,5,0,1:0:0:0:
280,136,132386,1,2,0:0:0:0:
195,199,132536,1,0,1:0:0:0:
292,240,132686,1,0,0:0:0:0:
219,143,132836,1,2,0:2:0:0:
232,248,132986,5,4,0:3:0:0:
316,184,133136,1,2,0:3:0:0:
158,203,133286,5,0,1:0:0:0:
314,270,133436,1,2,0:0:0:0:
294,101,133586,1,0,0:0:0:0:
217,282,133736,5,0,1:0:0:0:
353,180,133886,1,2,0:0:0:0:
197,113,134036,1,0,0:0:0:0:
338,302,134186,5,8,0:1:0:0:
310,65,134336,1,2,0:2:0:0:
120,132,134486,6,0,L|16:160,2,90,2|0|0,1:3|0:0|0:0,0:0:0:0:
338,302,134936,2,0,L|442:330,2,90,2|0|4,1:3|0:0|0:3,0:0:0:0:
256,32,135386,2,0,L|256:128,1,90,2|6,0:3|0:3,0:0:0:0:
192,232,135686,5,8,0:3:0:0:
192,232,135761,1,8,0:3:0:0:
192,232,135836,1,8,0:3:0:0:
336,276,135986,1,8,0:3:0:0:
160,328,136136,1,8,0:3:0:0:
304,188,136286,1,8,0:3:0:0:
368,364,136436,1,8,0:3:0:0:
116,256,136586,1,2,0:3:0:0:
188,72,136736,1,2,0:3:0:0:
467,218,136886,6,0,P|415:234|291:170,1,180,4|0,1:2|0:0,0:0:0:0:
332,28,137336,2,0,P|384:12|508:76,1,180,0|0,1:0|0:0,0:0:0:0:
304,188,137786,1,2,0:3:0:0:
188,72,137936,1,2,0:3:0:0:
360,124,138086,6,0,P|271:142|156:160,1,180,0|2,1:0|0:0,0:0:0:0:
70,32,138536,2,0,P|51:72|40:116,1,90,0|0,1:0|0:0,0:0:0:0:
95,210,138836,1,2,0:0:0:0:
188,72,138986,1,8,0:1:0:0:
304,188,139136,1,2,0:2:0:0:
70,32,139286,6,0,L|78:88|98:228,1,180,0|0,1:0|0:0,0:0:0:0:
208,352,139736,2,0,L|225:229|233:173,1,180,0|0,1:0|0:0,0:0:0:0:
344,104,140186,1,4,0:3:0:0:
392,260,140336,1,2,0:3:0:0:
232,173,140486,6,0,P|188:161|144:153,1,90,0|2,1:0|0:0,0:0:0:0:
144,153,140711,1,2,0:0:0:0:
144,153,140786,1,2,0:0:0:0:
304,284,140936,2,0,P|391:261|480:252,1,180,0|4,1:0|0:3,0:0:0:0:
368,152,141386,5,8,0:1:0:0:
144,232,141536,1,2,0:2:0:0:
373,172,141686,5,0,1:0:0:0:
138,211,141836,1,0,0:0:0:0:
236,74,141986,1,2,0:0:0:0:
275,309,142136,1,0,1:0:0:0:
56,256,142286,5,2,0:0:0:0:
240,204,142436,1,2,0:2:0:0:
336,348,142586,2,0,P|376:344|448:328,1,90,2|2,0:3|0:3,0:0:0:0:
372,116,142886,6,0,P|332:120|260:136,1,90,0|2,1:0|0:0,0:0:0:0:
384,232,143186,1,0,0:0:0:0:
476,100,143336,2,0,P|452:44|320:32,1,180,0|4,1:0|0:3,0:0:0:0:
200,72,143786,1,8,0:1:0:0:
240,204,143936,1,2,0:2:0:0:
328,112,144086,5,0,1:0:0:0:
232,252,144236,1,0,0:0:0:0:
168,64,144386,1,2,0:0:0:0:
236,288,144536,1,0,1:0:0:0:
352,140,144686,5,0,0:0:0:0:
152,212,144836,1,2,0:0:0:0:
336,268,144986,1,2,0:3:0:0:
168,332,145136,1,2,0:3:0:0:
260,164,145286,6,0,P|268:112|272:72,1,90,0|2,1:0|0:0,0:0:0:0:
271,74,145511,1,2,0:0:0:0:
271,74,145586,1,2,0:0:0:0:
68,20,145736,2,0,P|28:52|32:180,1,180,0|4,1:0|0:3,0:0:0:0:
224,236,146186,1,8,0:1:0:0:
96,112,146336,1,2,0:2:0:0:
48,296,146486,6,0,B|184:272|184:272|232:288,1,180,4|0,1:2|0:0,0:0:0:0:
400,132,146936,2,0,B|264:156|264:156|216:140,1,180,0|0,1:0|0:0,0:0:0:0:
120,112,147386,1,2,0:3:0:0:
272,32,147536,1,2,0:3:0:0:
356,228,147686,6,0,P|372:280|296:384,1,180,0|2,1:0|0:0,0:0:0:0:
164,188,148136,1,0,1:0:0:0:
288,288,148286,1,0,0:0:0:0:
112,336,148436,1,2,0:0:0:0:
280,212,148586,1,8,0:1:0:0:
80,140,148736,1,2,0:2:0:0:
272,32,148886,6,0,L|248:228,1,180,0|0,1:0|0:0,0:0:0:0:
388,344,149336,2,0,L|412:148,1,180,0|0,1:0|0:0,0:0:0:0:
364,72,149786,1,4,0:3:0:0:
224,144,149936,1,2,0:3:0:0:
368,236,150086,6,0,L|484:220,1,90,0|2,1:0|0:0,0:0:0:0:
457,223,150311,1,2,0:0:0:0:
457,223,150386,1,2,0:0:0:0:
288,304,150536,2,0,P|240:320|108:264,1,180,0|4,1:0|0:3,0:0:0:0:
88,152,150986,5,8,0:1:0:0:
248,68,151136,1,2,0:2:0:0:
204,288,151286,1,0,1:0:0:0:
204,288,151586,1,2,0:0:0:0:
160,196,151736,1,0,1:0:0:0:
288,304,151886,1,2,0:0:0:0:
128,356,152036,1,2,0:2:0:0:
256,220,152186,2,0,P|248:132|240:100,1,90,2|2,0:3|0:3,0:0:0:0:
96,62,152486,6,0,P|89:106|87:151,1,90,0|0,1:0|0:0,0:0:0:0:
344,236,152786,1,2,0:0:0:0:
356,116,152936,1,0,1:0:0:0:
256,164,153086,5,2,0:0:0:0:
440,180,153236,1,2,0:2:0:0:
248,172,153386,1,8,0:1:0:0:
450,189,153536,1,0,0:0:0:0:
336,320,153686,6,0,L|220:336,1,90,2|0,1:3|0:0,0:0:0:0:
140,348,153986,1,0,0:0:0:0:
266,103,154136,2,0,L|382:119,1,90,2|0,1:3|0:0,0:0:0:0:
462,131,154436,1,4,0:3:0:0:
264,248,154586,2,0,L|148:264,1,90,2|6,0:3|0:3,0:0:0:0:
60,120,154886,5,8,3:0:0:0:
60,120,154961,1,8,0:3:0:0:
60,120,155036,1,8,0:3:0:0:
188,56,155186,1,8,0:3:0:0:
292,156,155336,1,8,0:3:0:0:
124,216,155486,1,8,0:3:0:0:
266,103,155636,1,8,0:3:0:0:
440,152,155786,1,4,0:1:0:0:
480,328,155936,1,0,0:3:0:0:
356,356,156086,5,0,1:0:0:0:
112,216,165686,6,0,L|104:128,1,72,4|0,0:0|0:0,0:0:0:0:
192,164,165986,2,0,L|184:76,1,72,0|0,0:0|1:0,0:0:0:0:
288,144,166286,2,0,L|281:215,1,72,0|2,0:0|0:0,0:0:0:0:
368,196,166586,2,0,L|361:267,1,72,2|2,0:1|0:0,0:0:0:0:
280,344,166886,6,0,P|228:352|148:300,1,144,0|0,1:0|0:0,0:0:0:0:
236,252,167336,2,0,L|384:232,1,144,0|2,1:0|0:0,0:0:0:0:
484,168,167786,1,2,0:1:0:0:
420,64,167936,1,2,0:0:0:0:
312,120,168086,6,0,L|169:139,1,144,0|0,1:0|0:0,0:0:0:0:
93,233,168536,2,0,L|236:252,1,144,0|2,1:0|0:0,0:0:0:0:
316,328,168986,2,0,L|392:316,1,72,2|2,0:1|0:0,0:0:0:0:
476,240,169286,5,0,1:0:0:0:
420,140,169436,1,2,0:0:0:0:
324,204,169586,1,2,0:0:0:0:
280,100,169736,2,0,P|244:68|132:76,1,144,0|2,1:0|0:0,0:0:0:0:
8,208,170186,2,0,P|12:264|36:300,1,72,2|2,0:1|0:0,0:0:0:0:
120,320,170486,5,0,1:0:0:0:
120,320,170636,1,2,0:0:0:0:
184,200,170786,1,0,0:0:0:0:
184,200,170936,1,0,1:0:0:0:
92,232,171086,5,2,0:0:0:0:
212,296,171236,1,2,0:0:0:0:
280,188,171386,2,0,L|288:100,1,72,2|0,0:1|0:0,0:0:0:0:
196,24,171686,5,0,1:0:0:0:
112,44,171836,1,2,0:0:0:0:
64,116,171986,1,0,0:0:0:0:
80,200,172136,1,0,1:0:0:0:
96,356,172286,5,2,0:0:0:0:
180,304,172436,1,2,0:0:0:0:
280,284,172586,1,2,0:1:0:0:
380,296,172736,1,2,0:0:0:0:
468,348,172886,6,0,L|480:192,1,144,2|0,1:3|0:0,0:0:0:0:
340,216,173336,2,0,L|352:60,1,144,2|4,1:3|0:3,0:0:0:0:
432,24,173786,1,2,0:3:0:0:
479,204,173936,1,6,0:3:0:0:
244,168,174086,5,8,0:3:0:0:
244,168,174161,1,8,0:3:0:0:
244,168,174236,1,8,0:3:0:0:
156,240,174386,2,0,L|168:332,1,72,8|8,0:3|0:3,0:0:0:0:
244,168,174686,5,8,0:3:0:0:
48,276,174836,1,8,0:3:0:0:
252,336,174986,1,8,0:3:0:0:
136,92,175136,1,8,0:3:0:0:
256,192,175211,12,0,176036,0:0:0:0:
136,92,176186,5,0,0:0:0:0:
256,284,176336,1,2,0:0:0:0:
376,92,176486,6,0,P|348:48|212:48,1,198.000006042481,4|0,1:2|0:0,0:0:0:0:
48,136,176936,2,0,P|44:212|88:348,1,198.000006042481,0|0,1:0|0:0,0:0:0:0:
324,212,177386,1,2,0:3:0:0:
136,92,177536,1,2,0:3:0:0:
168,256,177686,2,0,P|220:244|364:228,1,198.000006042481,0|2,1:0|0:0,0:0:0:0:
268,104,178136,1,0,1:0:0:0:
428,168,178286,1,0,0:0:0:0:
256,284,178436,1,2,0:0:0:0:
456,192,178586,1,8,0:1:0:0:
336,28,178736,1,2,0:2:0:0:
168,136,178886,6,0,P|136:208|164:336,1,198.000006042481,0|0,1:0|0:0,0:0:0:0:
344,248,179336,2,0,P|376:176|348:48,1,198.000006042481,0|0,1:0|0:0,0:0:0:0:
200,20,179786,1,2,0:3:0:0:
236,176,179936,1,2,0:3:0:0:
80,88,180086,5,0,1:0:0:0:
164,240,180236,1,2,0:0:0:0:
164,240,180311,1,2,0:0:0:0:
164,240,180386,1,2,0:0:0:0:
296,124,180536,2,0,P|348:112|468:208,1,198.000006042481,0|4,1:0|0:3,0:0:0:0:
344,248,180986,1,8,0:1:0:0:
212,152,181136,1,2,0:2:0:0:
164,240,181286,6,0,L|172:340,1,99.0000030212403,0|2,1:0|0:0,0:0:0:0:
351,149,181586,1,0,0:0:0:0:
351,149,181736,2,0,L|343:249,1,99.0000030212403,0|2,1:0|0:0,0:0:0:0:
120,112,182036,1,2,0:2:0:0:
120,112,182186,6,0,L|128:212,1,99.0000030212403,2|2,0:3|0:3,0:0:0:0:
232,112,182486,1,0,1:0:0:0:
20,176,182636,1,2,0:0:0:0:
256,136,182786,1,0,0:0:0:0:
24,88,182936,6,0,P|64:36|196:52,1,198.000006042481,0|0,1:0|0:0,0:0:0:0:
288,224,183386,1,8,0:1:0:0:
120,112,183536,1,2,0:2:0:0:
312,16,183686,5,0,1:0:0:0:
280,136,183836,1,0,0:0:0:0:
172,48,183986,1,2,0:0:0:0:
120,192,184136,1,0,1:0:0:0:
264,264,184286,2,0,L|376:244,1,99.0000030212403,0|2,0:0|0:2,0:0:0:0:
380,88,184586,1,2,0:3:0:0:
200,188,184736,1,4,0:3:0:0:
436,312,184886,6,0,P|456:256|444:192,1,99.0000030212403,0|2,1:0|0:0,0:0:0:0:
453,217,185111,1,2,0:0:0:0:
453,217,185186,1,2,0:0:0:0:
216,373,185336,2,0,P|188:325|204:181,1,198.000006042481,0|4,1:0|0:3,0:0:0:0:
476,67,185786,2,0,L|360:91,1,99.0000030212403,8|2,0:1|0:0,0:0:0:0:
264,56,186086,6,0,P|284:128|312:276,1,198.000006042481,0|0,1:0|0:0,0:0:0:0:
104,360,186536,2,0,P|84:288|56:140,1,198.000006042481,0|0,1:0|0:0,0:0:0:0:
160,72,186986,1,2,0:3:0:0:
332,196,187136,1,2,0:3:0:0:
96,272,187286,6,0,P|116:208|260:196,1,198.000006042481,0|2,1:0|0:0,0:0:0:0:
416,256,187736,1,0,1:0:0:0:
248,328,187886,1,0,0:0:0:0:
428,264,188036,1,2,0:0:0:0:
292,120,188186,1,8,0:1:0:0:
440,272,188336,1,2,0:2:0:0:
236,336,188486,6,0,P|212:296|324:240,1,198.000006042481,0|0,1:0|0:0,0:0:0:0:
488,336,188936,2,0,P|512:284|496:136,1,198.000006042481,0|0,1:0|0:0,0:0:0:0:
368,60,189386,1,2,0:3:0:0:
268,200,189536,1,2,0:3:0:0:
428,288,189686,6,0,P|444:236|428:172,1,99.0000030212403,0|2,1:0|0:0,0:0:0:0:
437,192,189911,1,2,0:0:0:0:
437,192,189986,1,2,0:0:0:0:
248,296,190136,2,0,L|44:272,1,198.000006042481,0|4,1:0|0:3,0:0:0:0:
364,152,190586,1,8,0:1:0:0:
148,232,190736,1,2,0:2:0:0:
428,288,190886,5,0,1:0:0:0:
428,288,191186,1,2,0:0:0:0:
316,232,191336,1,0,1:0:0:0:
268,368,191486,1,0,0:0:0:0:
192,160,191636,1,2,0:2:0:0:
112,324,191786,1,4,0:3:0:0:
344,312,191936,1,2,0:3:0:0:
296,204,192086,6,0,P|284:144|280:88,1,99.0000030212403,0|2,1:0|0:0,0:0:0:0:
456,44,192386,1,0,0:0:0:0:
448,148,192536,1,0,1:0:0:0:
208,72,192686,5,2,0:0:0:0:
302,26,192836,1,0,0:0:0:0:
192,168,192986,1,8,0:1:0:0:
98,122,193136,1,2,0:2:0:0:
320,120,193286,5,2,1:3:0:0:
286,283,193436,1,0,0:0:0:0:
161,172,193586,1,0,0:0:0:0:
388,224,193736,5,0,1:3:0:0:
256,192,193886,1,0,0:0:0:0:
162,290,194036,1,4,0:3:0:0:
308,364,194186,1,2,0:3:0:0:
308,364,194336,1,6,0:3:0:0:
388,224,194486,5,8,0:3:0:0:
388,224,194561,1,8,0:3:0:0:
388,224,194636,1,8,0:3:0:0:
245,93,194786,2,0,L|257:205,1,99.0000030212403,8|8,0:3|0:3,0:0:0:0:
492,268,195086,2,0,L|480:156,1,99.0000030212403,8|8,0:3|0:3,0:0:0:0:
344,52,195386,1,2,0:3:0:0:
160,204,195536,1,2,0:3:0:0:
412,352,195686,6,0,P|352:332|208:308,1,198.000006042481,4|0,1:2|0:0,0:0:0:0:
84,272,196136,2,0,P|56:220|128:104,1,198.000006042481,0|0,1:0|0:0,0:0:0:0:
328,152,196586,1,2,0:3:0:0:
116,107,196736,1,2,0:3:0:0:
328,152,196886,6,0,P|308:264|296:360,1,198.000006042481,0|2,1:0|0:0,0:0:0:0:
160,204,197336,2,0,P|172:280|176:332,1,99.0000030212403,0|0,1:0|0:0,0:0:0:0:
44,168,197636,1,2,0:0:0:0:
104,360,197786,1,8,0:1:0:0:
260,228,197936,1,2,0:2:0:0:
408,320,198086,6,0,P|444:276|432:132,1,198.000006042481,0|0,1:0|0:0,0:0:0:0:
241,30,198536,2,0,L|261:238,1,198.000006042481,0|0,1:0|0:3,0:0:0:0:
364,216,198986,1,2,3:0:0:0:
160,204,199136,1,2,0:3:0:0:
344,32,199286,6,0,L|358:177,1,99.0000030212403,0|2,1:0|0:0,0:0:0:0:
353,130,199511,1,2,0:0:0:0:
353,130,199586,1,2,0:0:0:0:
168,56,199736,2,0,P|112:36|-4:124,1,198.000006042481,0|4,1:0|0:3,0:0:0:0:
56,268,200186,1,8,0:1:0:0:
100,136,200336,1,2,0:2:0:0:
208,296,200486,6,0,P|248:320|312:320,1,99.0000030212403,0|2,1:0|0:0,0:0:0:0:
256,192,200786,1,0,0:0:0:0:
304,88,200936,2,0,P|264:64|200:64,1,99.0000030212403,0|2,1:0|0:0,0:0:0:0:
256,192,201236,1,2,0:2:0:0:
322,285,201386,2,0,P|362:262|394:207,1,99.0000030212403,2|2,0:3|0:3,0:0:0:0:
189,98,201686,6,0,P|149:121|117:176,1,99.0000030212403,0|2,1:0|0:0,0:0:0:0:
256,192,201986,1,0,0:0:0:0:
322,285,202136,2,0,P|364:261|391:220,1,99.0000030212403,0|0,1:0|0:0,0:0:0:0:
256,192,202436,1,0,0:0:0:0:
136,324,202586,1,8,0:1:0:0:
308,372,202736,1,2,0:2:0:0:
168,220,202886,5,0,1:0:0:0:
304,88,203036,1,0,0:0:0:0:
322,285,203186,1,2,0:0:0:0:
152,120,203336,1,0,1:0:0:0:
364,180,203486,2,0,L|472:160,1,99.0000030212403,0|2,0:0|0:2,0:0:0:0:
336,0,203786,2,0,L|228:20,1,99.0000030212403,2|2,0:3|0:3,0:0:0:0:
76,180,204086,5,0,1:0:0:0:
256,216,204236,1,2,0:0:0:0:
256,216,204311,1,2,0:0:0:0:
256,216,204386,1,2,0:0:0:0:
48,96,204536,2,0,P|0:136|28:260,1,198.000006042481,0|0,1:0|0:0,0:0:0:0:
322,285,204986,2,0,P|348:232|344:176,1,99.0000030212403,8|2,0:1|0:2,0:0:0:0:
230,19,205286,6,0,P|242:123|262:251,1,198.000006042481,4|0,1:2|0:0,0:0:0:0:
424,352,205736,2,0,P|438:254|449:155,1,198.000006042481,0|0,1:0|0:0,0:0:0:0:
336,112,206186,1,2,0:3:0:0:
152,220,206336,1,2,0:3:0:0:
298,381,206486,6,0,P|314:325|322:281,1,99.0000030212403,0|0,1:0|0:0,0:0:0:0:
228,136,206786,1,2,0:0:0:0:
60,256,206936,1,0,1:0:0:0:
244,232,207086,1,0,0:0:0:0:
76,120,207236,1,2,0:0:0:0:
148,320,207386,1,8,0:1:0:0:
336,212,207536,1,2,0:2:0:0:
199,40,207686,6,0,P|145:122|151:219,1,198.000006042481,0|0,1:0|0:0,0:0:0:0:
312,343,208136,2,0,P|366:261|360:164,1,198.000006042481,0|0,1:0|0:0,0:0:0:0:
276,24,208586,1,2,0:3:0:0:
360,164,208736,1,2,0:3:0:0:
176,136,208886,5,0,1:0:0:0:
132,280,209036,1,2,0:0:0:0:
132,280,209111,1,2,0:0:0:0:
132,280,209186,1,2,0:0:0:0:
376,280,209336,2,0,P|368:208|340:84,1,198.000006042481,0|4,1:0|0:3,0:0:0:0:
100,68,209786,2,0,P|88:120|84:180,1,99.0000030212403,8|2,0:1|0:2,0:0:0:0:
256,348,210086,6,0,P|336:336|460:316,1,198.000006042481,0|2,1:0|0:0,0:0:0:0:
456,200,210536,1,0,1:0:0:0:
256,152,210686,1,2,0:0:0:0:
420,80,210836,1,2,0:2:0:0:
256,244,210986,1,2,0:3:0:0:
476,204,211136,1,2,0:3:0:0:
236,148,211286,5,0,1:0:0:0:
384,268,211436,1,0,0:0:0:0:
420,80,211586,1,2,0:0:0:0:
176,80,211736,2,0,P|148:128|152:184,1,99.0000030212403,0|2,1:0|0:0,0:0:0:0:
256,332,212036,1,2,0:0:0:0:
348,164,212186,1,8,0:1:0:0:
144,292,212336,1,2,0:2:0:0:
360,344,212486,5,2,1:3:0:0:
220,236,212636,1,0,0:0:0:0:
380,168,212786,1,0,0:0:0:0:
256,332,212936,5,2,1:3:0:0:
279,156,213086,1,0,0:0:0:0:
418,261,213236,1,4,0:3:0:0:
220,236,213386,1,2,0:3:0:0:
220,236,213536,1,6,0:3:0:0:
320,80,213686,5,8,0:3:0:0:
320,80,213761,1,8,0:3:0:0:
320,80,213836,1,8,0:3:0:0:
192,280,213986,2,0,L|184:384,1,99.0000030212403,8|8,0:3|0:3,0:0:0:0:
400,128,214286,2,0,L|408:232,1,99.0000030212403,8|8,0:3|0:3,0:0:0:0:
108,44,214586,2,0,L|100:148,1,99.0000030212403,8|8,0:3|0:3,0:0:0:0:
92,224,214811,1,8,0:3:0:0:
92,224,214886,1,4,0:0:0:0:
