osu file format v14

[General]
AudioFilename: No title.mp3
AudioLeadIn: 0
PreviewTime: 117336
Countdown: 0
SampleSet: Soft
StackLeniency: 0.7
Mode: 0
LetterboxInBreaks: 0
WidescreenStoryboard: 1

[Editor]
Bookmarks: 2436,7236,12036,16836,21636,26436,31236,36036,40836,45636,49236,50436,55236,60036,64836,69636,136836,141636,146436,151236,156036,160836,165636,170436,175236,176436
DistanceSpacing: 1.4
BeatDivisor: 4
GridSize: 4
TimelineZoom: 1.899999

[Metadata]
Title:No title
TitleUnicode:No title
Artist:Reol
ArtistUnicode:れをる
Creator:Sakaue Nachi
Version:Hard
Source:
Tags:IamKwaN Kencho Crystal Mei Rizia kawaiwkyik Guy japanese pop jpop gigap giga_p okiku title- title+
BeatmapID:3607362
BeatmapSetID:388782

[Difficulty]
HPDrainRate:5
CircleSize:4
OverallDifficulty:6
ApproachRate:7.5
SliderMultiplier:1.2
SliderTickRate:1

[Events]
//Background and Video events
0,0,"BG.jpg",0,0
//Break Periods
2,69886,78461
2,156286,164861
//Storyboard Layer 0 (Background)
//Storyboard Layer 1 (Fail)
//Storyboard Layer 2 (Pass)
//Storyboard Layer 3 (Foreground)
//Storyboard Layer 4 (Overlay)
//Storyboard Sound Samples

[TimingPoints]
2486,300,4,2,1,60,1,0
2486,-133.333333333333,4,2,1,25,0,0
7286,-100,4,2,1,40,0,0
12086,-100,4,2,1,60,0,0
50486,-90.9090909090909,4,2,1,70,0,1
69686,-100,4,2,1,60,0,0
117686,-90.9090909090909,4,2,1,70,0,1
153686,-90.9090909090909,4,2,1,60,0,1
154886,-90.9090909090909,4,2,1,60,0,1
156086,-100,4,2,1,60,0,0
176486,-90.9090909090909,4,2,1,70,0,1
195686,-90.9090909090909,4,2,1,80,0,1
214886,-100,4,2,1,60,0,0

[Colours]
Combo1 : 13,196,95
Combo2 : 2,134,253
Combo3 : 183,74,230
Combo4 : 248,92,252

[HitObjects]
90,131,2486,6,0,L|101:229,1,90.0000034332277,0|0,1:0|0:0,0:0:0:0:
182,239,2936,2,0,L|171:149,1,90.0000034332277,0|0,1:0|0:0,0:0:0:0:
186,74,3386,2,0,L|248:83,1,45.0000017166138,2|2,0:0|0:0,0:0:0:0:
300,48,3686,2,0,P|334:28|389:49,1,90.0000034332277,0|0,1:0|0:0,0:0:0:0:
417,119,4136,2,0,L|411:219,1,90.0000034332277,0|2,1:0|0:0,0:0:0:0:
350,322,4736,1,2,0:0:0:0:
350,322,4886,6,0,P|324:294|278:304,1,90.0000034332277,0|0,1:0|0:0,0:0:0:0:
241,371,5336,2,0,L|146:366,1,90.0000034332277,0|2,1:0|0:0,0:0:0:0:
22,283,5936,1,2,0:0:0:0:
22,283,6086,2,0,P|16:249|18:223,1,45.0000017166138,0|0,1:0|0:0,0:0:0:0:
110,118,6536,2,0,P|116:152|114:178,1,45.0000017166138,0|0,1:0|0:0,0:0:0:0:
96,236,6836,1,0,1:0:0:0:
96,236,6986,1,8,0:0:0:0:
268,344,7286,6,0,P|335:349|395:345,1,120,0|0,1:0|0:0,0:0:0:0:
427,265,7736,2,0,P|360:260|300:264,1,120,0|0,1:0|0:0,0:0:0:0:
217,264,8186,2,0,P|211:227|218:201,1,60,2|2,0:0|0:0,0:0:0:0:
265,129,8486,2,0,P|308:173|355:148,1,120,0|0,1:0|0:0,0:0:0:0:
433,191,8936,2,0,P|439:113|444:54,1,120,0|0,1:0|0:0,0:0:0:0:
367,21,9386,2,0,L|294:26,1,60,8|0,0:1|0:0,0:0:0:0:
242,88,9686,6,0,L|157:77,1,60,2|0,1:3|0:0,0:0:0:0:
97,47,9986,1,0,0:0:0:0:
97,47,10136,2,0,L|107:176,1,120,2|4,1:3|0:3,0:0:0:0:
64,247,10586,2,0,L|-8:236,1,60,2|6,0:3|0:3,0:0:0:0:
40,321,10886,2,0,L|113:330,1,60,8|8,0:3|0:3,0:0:0:0:
183,294,11186,2,0,L|175:220,1,60,8|8,0:3|0:3,0:0:0:0:
249,181,11486,2,0,L|257:255,1,60,8|8,0:3|0:3,0:0:0:0:
264,330,11786,2,0,P|296:341|331:332,1,60,8|2,0:1|0:0,0:0:0:0:
409,319,12086,6,0,P|384:277|418:200,1,120,4|0,0:0|0:0,0:0:0:0:
484,175,12536,2,0,P|488:115|435:60,1,120,0|0,1:0|0:0,0:0:0:0:
373,28,12986,1,2,0:3:0:0:
297,89,13136,1,2,0:0:0:0:
219,42,13286,2,0,L|81:50,1,120,0|2,1:0|0:0,0:0:0:0:
57,128,13736,2,0,L|195:120,1,120,0|2,1:0|0:0,0:0:0:0:
240,184,14186,1,8,0:1:0:0:
240,184,14336,1,2,0:0:0:0:
158,222,14486,6,0,L|78:210,1,60,0|2,1:0|0:0,0:0:0:0:
32,274,14786,2,0,L|39:352,1,60,2|0,0:0|1:0,0:0:0:0:
118,373,15086,1,2,0:0:0:0:
118,373,15236,1,2,0:0:0:0:
200,336,15386,2,0,L|208:264,1,60,2|2,0:3|0:0,0:0:0:0:
279,223,15686,2,0,L|364:239,1,60,0|2,1:0|0:0,0:0:0:0:
427,241,15986,2,0,L|502:217,1,60,2|0,0:0|1:0,0:0:0:0:
443,142,16286,2,0,P|469:91|435:45,1,120,0|8,0:0|0:1,0:0:0:0:
353,5,16736,1,0,0:0:0:0:
296,74,16886,6,0,P|297:138|303:205,1,120,0|2,1:0|0:0,0:0:0:0:
322,281,17336,2,0,P|256:272|185:275,1,120,0|2,1:0|0:0,0:0:0:0:
112,280,17786,2,0,P|121:249|117:213,1,60,2|2,0:3|0:0,0:0:0:0:
42,175,18086,2,0,P|37:124|44:49,1,120,0|2,1:0|0:0,0:0:0:0:
130,31,18536,2,0,P|179:55|242:22,1,120,0|2,1:0|0:0,0:0:0:0:
324,12,18986,1,8,0:1:0:0:
298,98,19136,1,0,0:0:0:0:
385,75,19286,6,0,L|526:70,1,120,0|2,1:0|0:0,0:0:0:0:
488,159,19736,2,0,L|347:164,1,120,0|2,1:0|0:0,0:0:0:0:
280,183,20186,2,0,P|289:212|292:246,1,60,2|2,0:3|0:0,0:0:0:0:
270,329,20486,1,0,1:0:0:0:
359,319,20636,2,0,L|401:308,2,30,2|2|2,0:0|0:0|0:0,0:0:0:0:
270,329,20936,1,0,1:0:0:0:
181,312,21086,2,0,P|189:344|190:378,2,60,0|2|8,0:0|0:0|0:1,0:0:0:0:
114,251,21536,1,0,0:0:0:0:
173,183,21686,6,0,P|188:106|154:66,1,120,0|0,1:0|0:0,0:0:0:0:
93,21,22136,2,0,B|225:24,1,120,0|2,1:0|0:0,0:0:0:0:
286,73,22586,2,0,P|312:89|341:90,1,60,2|2,0:3|0:0,0:0:0:0:
403,20,22886,2,0,P|431:72|422:131,1,120,0|2,1:0|0:0,0:0:0:0:
458,213,23336,2,0,P|376:205|311:199,1,120,0|0,1:0|0:0,0:0:0:0:
264,253,23786,2,0,P|282:294|279:320,1,60,8|2,0:1|0:0,0:0:0:0:
203,353,24086,6,0,L|60:346,1,120,0|0,1:0|0:0,0:0:0:0:
136,274,24536,2,0,P|144:210|112:143,1,120,0|0,1:0|0:0,0:0:0:0:
54,102,24986,1,2,0:3:0:0:
54,102,25136,1,2,0:0:0:0:
116,37,25286,2,0,P|149:44|182:43,1,60,0|2,1:0|0:0,0:0:0:0:
248,95,25586,2,0,P|281:88|314:89,1,60,2|0,0:0|1:0,0:0:0:0:
396,104,25886,2,0,P|391:75|396:36,1,60,2|2,0:0|0:0,0:0:0:0:
478,13,26186,2,0,P|483:42|478:81,1,60,8|0,0:1|0:0,0:0:0:0:
461,160,26486,6,0,P|510:218|489:262,1,120,0|2,1:0|0:0,0:0:0:0:
453,331,26936,2,0,P|413:322|333:325,1,120,0|2,1:0|0:0,0:0:0:0:
246,346,27386,1,2,0:0:0:0:
246,346,27536,1,2,0:3:0:0:
156,337,27686,2,0,L|148:260,1,60,0|2,1:0|0:0,0:0:0:0:
71,321,27986,2,0,L|63:244,1,60,2|0,0:0|1:0,0:0:0:0:
123,192,28286,2,0,L|115:115,1,60,2|2,0:0|0:0,0:0:0:0:
40,179,28586,2,0,L|32:102,1,60,8|0,0:1|0:0,0:0:0:0:
75,39,28886,6,0,L|219:25,1,120,2|0,1:3|0:0,0:0:0:0:
235,107,29336,2,0,L|377:92,1,120,2|4,1:3|0:3,0:0:0:0:
436,56,29786,2,0,P|450:87|444:115,1,60,2|6,0:3|0:3,0:0:0:0:
445,201,30086,2,0,L|495:194,2,30,8|8|8,0:3|0:3|0:3,0:0:0:0:
374,256,30386,2,0,L|386:321,1,60,8|8,0:3|0:3,0:0:0:0:
311,367,30686,2,0,L|223:355,1,60,8|8,0:3|0:3,0:0:0:0:
161,369,30986,1,8,0:1:0:0:
72,384,31136,1,2,0:0:0:0:
161,369,31286,6,0,P|125:316|145:254,1,120,4|0,0:0|0:0,0:0:0:0:
187,190,31736,2,0,L|39:200,1,120,0|2,1:0|0:0,0:0:0:0:
12,126,32186,2,0,P|3:104|13:66,1,60,0|2,1:0|0:0,0:0:0:0:
84,17,32486,2,0,P|142:21|169:74,1,120,0|2,1:0|0:0,0:0:0:0:
244,122,32936,2,0,L|392:112,1,120,0|2,1:0|0:0,0:0:0:0:
415,41,33386,2,0,L|495:56,1,60,8|2,0:1|0:0,0:0:0:0:
440,136,33686,6,0,P|441:203|455:276,1,120,0|0,1:0|0:0,0:0:0:0:
411,336,34136,2,0,P|376:300|304:292,1,120,0|2,1:0|0:0,0:0:0:0:
224,322,34586,1,2,0:3:0:0:
224,322,34736,1,2,0:0:0:0:
159,258,34886,2,0,P|160:226|168:192,2,60,0|0|0,1:0|0:0|0:0,0:0:0:0:
96,323,35336,1,2,1:2:0:0:
95,322,35486,2,0,P|64:272|40:217,1,120,8|8,1:3|0:1,0:0:0:0:
17,128,35936,1,2,0:0:0:0:
17,128,36086,6,0,B|100:121|158:109,1,120,0|2,1:0|0:0,0:0:0:0:
202,52,36536,2,0,P|225:92|215:163,1,120,0|0,1:0|0:0,0:0:0:0:
155,230,36986,1,2,0:3:0:0:
155,230,37136,1,2,0:0:0:0:
241,255,37286,2,0,L|377:249,1,120,0|2,1:0|0:0,0:0:0:0:
433,302,37736,1,0,1:0:0:0:
484,228,37886,2,0,P|481:174|480:87,1,120,0|8,0:0|0:1,0:0:0:0:
426,35,38336,1,0,0:0:0:0:
426,35,38486,6,0,P|405:63|310:59,1,120,0|2,1:0|0:0,0:0:0:0:
237,47,38936,1,0,1:0:0:0:
252,135,39086,2,0,P|261:173|258:203,1,60,2|2,0:0|0:0,0:0:0:0:
189,251,39386,2,0,P|180:213|183:183,1,60,2|2,0:3|0:0,0:0:0:0:
138,113,39686,1,0,1:0:0:0:
173,30,39836,2,0,L|183:-17,2,30,2|2|2,0:0|0:0|0:0,0:0:0:0:
138,113,40136,2,0,P|84:93|7:121,1,120,0|0,1:0|1:0,0:0:0:0:
4,194,40586,2,0,L|11:253,1,60,8|2,0:1|0:0,0:0:0:0:
30,341,40886,6,0,P|86:343|112:293,1,120,0|2,1:0|0:0,0:0:0:0:
104,201,41336,2,0,P|169:213|199:258,1,120,0|0,1:0|0:0,0:0:0:0:
193,344,41786,1,2,0:3:0:0:
193,344,41936,1,2,0:0:0:0:
281,328,42086,2,0,P|347:330|412:322,1,120,0|2,1:0|0:0,0:0:0:0:
453,250,42536,2,0,P|387:248|322:256,1,120,0|2,1:0|0:0,0:0:0:0:
254,211,42986,2,0,P|250:164|254:146,1,60,8|2,0:1|0:0,0:0:0:0:
334,112,43286,6,0,P|371:148|439:134,1,120,0|2,1:0|0:0,0:0:0:0:
456,50,43736,2,0,P|419:14|351:28,1,120,0|0,1:0|0:0,0:0:0:0:
270,53,44186,2,0,L|189:44,1,60,2|2,0:3|0:0,0:0:0:0:
156,118,44486,2,0,P|166:155|167:197,2,60,0|2|2,1:0|0:0|0:0,0:0:0:0:
113,38,44936,2,0,P|85:60|6:37,1,120,0|0,1:0|0:0,0:0:0:0:
20,130,45386,2,0,P|20:165|30:196,1,60,8|2,0:1|0:0,0:0:0:0:
8,277,45686,6,0,P|40:313|124:295,1,120,0|0,1:0|0:0,0:0:0:0:
181,258,46136,2,0,P|177:198|180:137,1,120,0|0,1:0|0:0,0:0:0:0:
228,62,46586,2,0,P|256:57|290:61,1,60,2|2,0:3|0:0,0:0:0:0:
359,114,46886,2,0,P|388:117|418:112,1,60,0|0,1:0|0:0,0:0:0:0:
497,68,47186,2,0,P|508:112|506:146,1,60,2|0,0:0|1:0,0:0:0:0:
454,199,47486,2,0,P|489:245|481:303,1,120,2|8,0:0|0:1,0:0:0:0:
409,358,47936,1,2,0:0:0:0:
340,299,48086,6,0,P|293:279|234:317,1,120,2|0,1:3|0:0,0:0:0:0:
166,367,48536,2,0,L|155:226,1,120,2|4,1:3|0:3,0:0:0:0:
119,165,48986,2,0,P|81:180|49:166,1,60,2|6,0:3|0:3,0:0:0:0:
30,91,49286,2,0,L|1:64,2,30,8|8|8,0:3|0:3|0:3,0:0:0:0:
117,69,49586,2,0,P|167:60|193:50,1,60,8|8,0:3|0:3,0:0:0:0:
248,2,49886,2,0,P|265:33|268:65,1,60,8|8,0:3|0:3,0:0:0:0:
223,135,50186,2,0,P|224:174|244:202,1,60,2|2,0:3|0:3,0:0:0:0:
317,225,50486,6,0,P|384:215|464:206,1,132.00000402832,4|0,0:0|0:0,0:0:0:0:
500,131,50936,2,0,P|535:214|513:268,1,132.00000402832,0|0,1:0|0:0,0:0:0:0:
462,320,51386,2,0,L|374:316,1,66.0000020141602,2|2,0:3|0:3,0:0:0:0:
320,370,51686,2,0,P|293:330|201:347,1,132.00000402832,0|2,1:0|0:0,0:0:0:0:
124,343,52136,1,0,1:0:0:0:
165,260,52286,2,0,L|177:175,1,66.0000020141602,0|2,0:0|0:0,0:0:0:0:
95,85,52586,2,0,L|101:154,1,66.0000020141602,8|2,0:1|0:2,0:0:0:0:
174,194,52886,6,0,P|233:191|306:178,1,132.00000402832,0|0,1:0|0:0,0:0:0:0:
336,90,53336,2,0,P|385:60|450:89,1,132.00000402832,0|0,1:0|0:0,0:0:0:0:
501,164,53786,2,0,P|495:197|495:242,1,66.0000020141602,2|2,0:3|0:3,0:0:0:0:
458,315,54086,2,0,P|380:315|359:262,1,132.00000402832,0|2,1:0|0:0,0:0:0:0:
283,221,54536,2,0,P|226:220|191:297,1,132.00000402832,0|4,1:0|0:3,0:0:0:0:
133,352,54986,2,0,P|100:345|47:348,1,66.0000020141602,8|2,0:1|0:2,0:0:0:0:
108,260,55286,6,0,P|121:207|59:162,1,132.00000402832,0|2,1:0|0:0,0:0:0:0:
63,68,55736,2,0,P|35:78|-6:80,2,66.0000020141602,0|2|0,1:0|0:2|0:0,0:0:0:0:
144,22,56186,2,0,P|157:54|149:97,1,66.0000020141602,2|2,0:3|0:3,0:0:0:0:
203,163,56486,2,0,P|227:131|255:119,1,66.0000020141602,0|2,1:0|0:0,0:0:0:0:
339,96,56786,1,0,0:0:0:0:
339,96,56936,2,0,L|332:230,1,132.00000402832,0|4,1:0|0:3,0:0:0:0:
370,312,57386,2,0,P|413:315|450:308,1,66.0000020141602,8|2,0:1|0:2,0:0:0:0:
503,248,57686,6,0,P|511:216|503:175,1,66.0000020141602,0|0,1:0|0:0,0:0:0:0:
490,92,57986,2,0,P|456:64|412:56,1,66.0000020141602,2|0,0:0|1:0,0:0:0:0:
349,90,58286,1,0,0:0:0:0:
259,66,58436,2,0,P|264:25|276:-11,2,66.0000020141602,2|4|2,0:2|0:3|0:3,0:0:0:0:
191,129,58886,1,0,1:0:0:0:
260,189,59036,2,0,L|311:174,2,33.0000010070801,2|2|2,0:0|0:0|0:0,0:0:0:0:
171,218,59336,2,0,P|111:212|32:212,1,132.00000402832,0|2,1:0|0:3,0:0:0:0:
2,296,59786,2,0,P|-5:329|3:372,1,66.0000020141602,8|2,0:1|0:2,0:0:0:0:
86,329,60086,6,0,L|237:317,1,132.00000402832,0|0,1:0|0:0,0:0:0:0:
296,368,60536,2,0,P|356:359|372:293,1,132.00000402832,0|0,1:0|0:0,0:0:0:0:
329,215,60986,2,0,L|415:221,1,66.0000020141602,2|2,0:3|0:3,0:0:0:0:
454,289,61286,2,0,P|488:235|464:162,1,132.00000402832,0|2,1:0|0:0,0:0:0:0:
387,135,61736,1,0,1:0:0:0:
450,68,61886,2,0,P|478:74|514:66,1,66.0000020141602,0|2,0:0|0:0,0:0:0:0:
362,48,62186,2,0,P|334:42|291:51,1,66.0000020141602,8|2,0:1|0:2,0:0:0:0:
243,122,62486,6,0,P|179:157|131:112,1,132.00000402832,0|0,1:0|0:0,0:0:0:0:
45,111,62936,2,0,P|62:178|47:255,1,132.00000402832,0|0,1:0|0:0,0:0:0:0:
13,323,63386,2,0,L|89:336,1,66.0000020141602,2|2,0:3|0:3,0:0:0:0:
165,365,63686,2,0,L|299:346,1,132.00000402832,0|2,1:0|0:0,0:0:0:0:
385,369,64136,2,0,B|374:224,1,132.00000402832,0|4,1:0|0:3,0:0:0:0:
287,206,64586,2,0,L|197:220,1,66.0000020141602,8|2,0:1|0:2,0:0:0:0:
129,205,64886,6,0,P|100:159|156:87,1,132.00000402832,0|0,1:0|0:0,0:0:0:0:
199,30,65336,2,0,P|255:56|326:41,1,132.00000402832,0|2,1:0|0:2,0:0:0:0:
409,14,65786,2,0,P|418:42|406:84,1,66.0000020141602,4|2,0:3|0:3,0:0:0:0:
442,164,66086,2,0,P|483:153|529:149,2,66.0000020141602,0|0|2,1:0|0:0|0:0,0:0:0:0:
360,208,66536,2,0,P|344:255|405:317,1,132.00000402832,0|0,1:0|0:0,0:0:0:0:
474,357,66986,2,0,P|485:325|516:298,1,66.0000020141602,8|2,0:1|0:2,0:0:0:0:
353,384,67286,6,0,P|279:368|201:371,1,132.00000402832,2|0,1:3|0:0,0:0:0:0:
193,280,67736,2,0,P|133:276|64:259,1,132.00000402832,2|4,1:3|0:3,0:0:0:0:
7,185,68186,1,2,0:3:0:0:
7,185,68336,1,6,0:3:0:0:
98,171,68486,2,0,P|108:131|109:94,1,66.0000020141602,8|8,0:3|0:3,0:0:0:0:
203,143,68786,2,0,P|213:103|214:66,1,66.0000020141602,8|8,0:3|0:3,0:0:0:0:
300,116,69086,2,0,P|310:76|311:39,1,66.0000020141602,8|8,0:3|0:3,0:0:0:0:
397,96,69386,2,0,P|407:56|408:19,2,66.0000020141602,2|2|4,0:0|0:0|0:0,0:0:0:0:
373,163,79286,6,0,P|315:165|229:172,1,120,4|0,0:0|0:0,0:0:0:0:
214,250,79736,2,0,P|272:248|358:241,1,120,0|2,1:0|0:0,0:0:0:0:
408,293,80186,2,0,P|423:244|419:223,1,60,2|2,0:1|0:0,0:0:0:0:
489,176,80486,2,0,P|459:157|502:80,1,120,0|0,1:0|0:0,0:0:0:0:
409,24,80936,1,0,1:0:0:0:
409,24,81086,2,0,P|358:51|280:25,1,120,0|2,0:0|0:1,0:0:0:0:
209,23,81536,1,2,0:0:0:0:
236,108,81686,6,0,P|246:138|238:169,1,60,0|0,1:0|0:0,0:0:0:0:
190,240,81986,1,0,0:0:0:0:
109,280,82136,2,0,L|33:264,2,60,0|0|2,1:0|0:0|0:0,0:0:0:0:
173,343,82586,2,0,L|260:331,1,60,2|2,0:1|0:0,0:0:0:0:
319,357,82886,2,0,P|334:298|282:256,1,120,0|2,1:0|0:0,0:0:0:0:
225,204,83336,1,0,1:0:0:0:
310,175,83486,2,0,P|348:189|406:138,1,120,0|2,0:0|0:1,0:0:0:0:
416,53,83936,1,2,0:0:0:0:
327,38,84086,6,0,P|296:39|208:36,1,120,0|0,1:0|0:0,0:0:0:0:
132,86,84536,2,0,P|101:87|13:84,1,120,0|2,1:0|0:0,0:0:0:0:
16,173,84986,2,0,P|33:201|44:234,1,60,2|2,0:1|0:0,0:0:0:0:
62,314,85286,2,0,P|52:349|43:375,2,60,0|0|0,1:0|0:0|0:0,0:0:0:0:
127,251,85736,1,0,1:0:0:0:
192,312,85886,2,0,P|245:340|304:297,1,120,0|2,0:0|0:1,0:0:0:0:
348,242,86336,1,2,0:0:0:0:
348,242,86486,6,0,P|342:194|344:171,1,60,0|2,1:0|0:0,0:0:0:0:
431,166,86786,2,0,P|437:140|455:97,1,60,0|0,0:0|1:0,0:0:0:0:
433,19,87086,2,0,P|387:40|354:40,1,60,2|0,0:0|0:0,0:0:0:0:
299,85,87386,2,0,P|260:78|221:59,1,60,2|2,0:1|0:0,0:0:0:0:
161,111,87686,2,0,P|118:72|126:14,1,120,0|2,1:0|0:0,0:0:0:0:
161,111,88136,2,0,P|176:169|150:252,1,120,0|2,1:0|0:0,0:0:0:0:
88,276,88586,2,0,P|112:293|127:319,1,60,2|2,0:1|0:0,0:0:0:0:
206,359,88886,6,0,P|214:286|257:241,1,120,0|0,1:0|0:0,0:0:0:0:
326,220,89336,2,0,P|318:293|275:338,1,120,0|2,1:0|0:0,0:0:0:0:
242,251,89786,2,0,P|236:216|241:173,1,60,2|2,0:1|0:0,0:0:0:0:
303,129,90086,2,0,P|341:125|369:134,1,60,0|0,1:0|0:0,0:0:0:0:
438,177,90386,1,2,0:0:0:0:
512,224,90536,2,0,P|487:258|479:335,1,120,0|2,1:0|0:0,0:0:0:0:
391,357,90986,2,0,P|357:344|319:341,1,60,2|2,0:1|0:0,0:0:0:0:
246,363,91286,6,0,P|253:275|253:220,1,120,0|2,1:0|0:0,0:0:0:0:
223,157,91736,2,0,P|134:153|79:154,1,120,0|2,1:0|0:0,0:0:0:0:
19,187,92186,2,0,P|13:144|24:115,1,60,2|2,0:1|0:0,0:0:0:0:
50,44,92486,2,0,P|79:9|147:33,1,120,0|2,1:0|0:0,0:0:0:0:
211,85,92936,2,0,P|262:79|353:69,1,120,0|2,1:0|0:0,0:0:0:0:
416,45,93386,2,0,L|410:122,1,60,2|2,0:1|0:0,0:0:0:0:
352,173,93686,6,0,L|365:314,1,120,0|2,1:0|0:0,0:0:0:0:
371,382,94136,1,0,1:0:0:0:
290,342,94286,2,0,P|237:312|166:339,1,120,0|2,0:0|0:1,0:0:0:0:
99,361,94736,1,2,0:0:0:0:
99,361,94886,2,0,P|62:297|96:244,1,120,0|2,1:0|0:0,0:0:0:0:
142,197,95336,2,0,P|83:217|26:191,1,120,0|2,1:0|0:0,0:0:0:0:
0,112,95786,2,0,P|12:83|38:63,1,60,2|2,0:1|0:0,0:0:0:0:
121,48,96086,6,0,L|264:63,1,120,2|0,1:3|0:0,0:0:0:0:
330,61,96536,2,0,L|473:46,1,120,2|4,1:3|0:3,0:0:0:0:
445,138,96986,1,2,0:3:0:0:
445,138,97136,1,6,0:3:0:0:
435,227,97286,2,0,L|487:221,2,30,8|8|8,0:3|0:3|0:3,0:0:0:0:
424,316,97586,1,8,0:3:0:0:
338,288,97736,2,0,P|286:277|258:284,1,60,8|8,0:3|0:3,0:0:0:0:
218,344,98036,2,0,P|183:346|146:334,1,60,8|8,0:3|0:3,0:0:0:0:
94,275,98336,1,8,0:3:0:0:
94,275,98486,6,0,P|114:214|64:175,1,120,4|0,0:0|0:0,0:0:0:0:
0,137,98936,2,0,P|66:155|126:121,1,120,0|2,1:0|0:0,0:0:0:0:
198,162,99386,1,2,0:3:0:0:
178,74,99536,1,2,0:3:0:0:
178,74,99686,2,0,L|176:13,1,60,0|2,1:0|0:0,0:0:0:0:
265,26,99986,1,0,0:0:0:0:
265,26,100136,2,0,L|266:91,1,60,0|0,1:0|0:0,0:0:0:0:
235,170,100436,1,2,0:0:0:0:
323,154,100586,2,0,L|395:147,1,60,8|2,0:1|0:2,0:0:0:0:
453,92,100886,6,0,P|474:143|464:171,1,60,0|0,1:0|0:0,0:0:0:0:
430,225,101186,1,0,0:0:0:0:
430,225,101336,2,0,P|376:267|414:320,1,120,0|2,1:0|0:0,0:0:0:0:
457,370,101786,2,0,L|386:382,1,60,2|2,0:3|0:3,0:0:0:0:
312,348,102086,2,0,P|295:324|245:320,1,60,0|2,1:0|0:0,0:0:0:0:
176,311,102386,1,2,0:0:0:0:
221,233,102536,2,0,P|221:179|219:105,1,120,0|2,1:0|0:0,0:0:0:0:
143,63,102986,2,0,L|151:-8,1,60,8|2,0:1|0:2,0:0:0:0:
62,26,103286,6,0,L|54:102,1,60,0|0,1:0|0:0,0:0:0:0:
24,169,103586,2,0,L|40:254,1,60,2|0,0:0|1:0,0:0:0:0:
15,315,103886,2,0,P|72:366|116:340,1,120,0|2,0:0|0:3,0:0:0:0:
167,289,104336,1,4,0:3:0:0:
230,224,104486,2,0,P|207:177|207:154,1,60,0|0,1:0|0:0,0:0:0:0:
281,120,104786,2,0,P|285:90|301:65,1,60,2|0,0:0|1:0,0:0:0:0:
391,60,105086,2,0,P|448:50|450:115,1,120,2|8,0:0|0:1,0:0:0:0:
413,175,105536,1,2,0:2:0:0:
375,256,105686,6,0,P|404:252|434:255,1,60,0|0,1:0|0:0,0:0:0:0:
476,335,105986,2,0,P|446:338|416:335,1,60,0|0,0:0|1:0,0:0:0:0:
330,362,106286,2,0,P|300:365|270:362,1,60,0|2,0:0|0:0,0:0:0:0:
208,296,106586,2,0,P|178:299|148:296,1,60,2|2,3:0|0:3,0:0:0:0:
62,324,106886,1,0,1:0:0:0:
30,239,107036,2,0,L|-3:228,2,30,2|2|2,0:0|0:0|0:0,0:0:0:0:
115,211,107336,2,0,P|140:152|96:109,1,120,0|2,1:0|0:0,0:0:0:0:
45,48,107786,2,0,L|115:37,1,60,8|2,0:1|0:2,0:0:0:0:
190,17,108086,6,0,P|228:43|307:25,1,120,0|2,1:0|0:0,0:0:0:0:
376,76,108536,2,0,P|389:37|387:3,2,60,0|0|2,1:0|0:0|0:0,0:0:0:0:
295,118,108986,1,2,0:3:0:0:
363,176,109136,2,0,P|423:216|419:272,1,120,2|0,0:3|0:0,0:0:0:0:
379,336,109586,1,2,0:0:0:0:
379,336,109736,2,0,P|340:329|308:325,1,60,0|0,1:0|0:0,0:0:0:0:
230,311,110036,1,2,0:0:0:0:
230,311,110186,2,0,L|163:319,1,60,8|4,0:1|0:3,0:0:0:0:
86,350,110486,6,0,P|88:273|61:221,1,120,0|0,1:0|0:0,0:0:0:0:
18,161,110936,2,0,L|164:170,1,120,0|2,1:0|0:0,0:0:0:0:
218,208,111386,1,2,3:0:0:0:
219,118,111536,2,0,P|216:83|188:52,2,60,2|0|2,3:0|1:0|0:0,0:0:0:0:
218,208,111986,1,2,0:0:0:0:
299,158,112136,2,0,P|322:114|318:80,2,60,0|0|2,1:0|0:0|0:0,0:0:0:0:
347,233,112586,2,0,P|387:210|409:179,1,60,8|2,0:1|0:2,0:0:0:0:
481,228,112886,6,0,P|521:270|494:334,1,120,0|0,1:0|0:0,0:0:0:0:
423,360,113336,1,0,1:0:0:0:
423,360,113486,2,0,P|360:352|275:354,1,120,0|2,0:0|0:3,0:0:0:0:
215,368,113936,1,2,0:3:0:0:
246,283,114086,2,0,P|244:223|249:153,1,120,0|2,1:0|0:2,0:0:0:0:
329,123,114536,2,0,P|331:183|326:253,1,120,0|0,1:0|0:0,0:0:0:0:
377,318,114986,2,0,L|299:314,1,60,8|0,0:1|0:0,0:0:0:0:
228,332,115286,6,0,P|184:324|107:345,1,120,2|0,1:3|0:0,0:0:0:0:
24,317,115736,2,0,P|42:259|35:193,1,120,2|4,1:3|0:3,0:0:0:0:
5,116,116186,1,2,0:3:0:0:
5,116,116336,1,6,0:3:0:0:
39,32,116486,2,0,L|-16:18,2,30,8|8|8,0:3|0:3|0:3,0:0:0:0:
104,93,116786,2,0,P|153:107|188:100,1,60,8|8,0:3|0:3,0:0:0:0:
212,180,117086,2,0,P|261:166|296:173,1,60,8|8,0:3|0:3,0:0:0:0:
335,105,117386,2,0,P|364:102|392:91,1,60,2|2,0:3|0:3,0:0:0:0:
475,144,117686,6,0,P|521:194|481:263,1,132.00000402832,4|0,1:2|0:0,0:0:0:0:
430,307,118136,2,0,P|377:298|278:281,1,132.00000402832,0|0,1:0|0:0,0:0:0:0:
219,239,118586,2,0,L|230:322,1,66.0000020141602,2|2,0:3|0:3,0:0:0:0:
146,347,118886,2,0,L|128:212,1,132.00000402832,0|2,1:0|0:0,0:0:0:0:
162,129,119336,1,0,1:0:0:0:
70,145,119486,2,0,L|0:159,1,66.0000020141602,0|2,0:0|0:0,0:0:0:0:
27,67,119786,2,0,L|112:53,1,66.0000020141602,8|2,0:1|0:2,0:0:0:0:
183,39,120086,6,0,P|245:17|300:71,1,132.00000402832,0|0,1:0|0:0,0:0:0:0:
280,144,120536,2,0,P|330:123|417:94,1,132.00000402832,0|0,1:0|0:0,0:0:0:0:
490,130,120986,2,0,P|484:163|484:208,1,66.0000020141602,2|4,0:3|0:3,0:0:0:0:
402,241,121286,2,0,P|324:241|304:308,1,132.00000402832,0|2,1:0|0:0,0:0:0:0:
211,305,121736,2,0,P|154:304|116:228,1,132.00000402832,0|4,1:0|0:3,0:0:0:0:
73,163,122186,2,0,P|40:156|-12:175,1,66.0000020141602,8|2,0:1|0:2,0:0:0:0:
44,76,122486,6,0,P|110:82|205:72,1,132.00000402832,0|2,1:0|0:0,0:0:0:0:
267,90,122936,2,0,P|266:44|270:-4,2,66.0000020141602,0|2|2,1:0|0:0|0:2,0:0:0:0:
305,174,123386,2,0,P|303:208|310:249,1,66.0000020141602,2|2,3:0|3:0,0:0:0:0:
270,324,123686,2,0,P|310:316|360:325,1,66.0000020141602,0|2,1:0|0:0,0:0:0:0:
425,337,123986,1,0,0:0:0:0:
425,337,124136,2,0,L|431:205,1,132.00000402832,0|4,1:0|0:3,0:0:0:0:
483,128,124586,2,0,P|450:131|417:128,1,66.0000020141602,8|2,0:1|0:2,0:0:0:0:
325,120,124886,6,0,P|333:88|325:47,1,66.0000020141602,0|0,1:0|0:0,0:0:0:0:
242,21,125186,2,0,P|205:17|150:24,1,66.0000020141602,2|0,0:0|1:0,0:0:0:0:
95,63,125486,1,0,0:0:0:0:
118,152,125636,2,0,P|118:178|112:220,2,66.0000020141602,2|4|2,0:2|0:3|0:3,0:0:0:0:
95,63,126086,1,0,1:0:0:0:
24,122,126236,2,0,L|-27:94,2,33.0000010070801,2|2|2,0:0|0:0|0:0,0:0:0:0:
19,214,126536,2,0,P|6:262|88:304,1,132.00000402832,0|2,1:0|0:3,0:0:0:0:
152,338,126986,2,0,P|148:305|155:273,1,66.0000020141602,8|2,0:1|0:2,0:0:0:0:
208,198,127286,6,0,L|363:229,1,132.00000402832,4|0,0:0|0:0,0:0:0:0:
408,283,127736,2,0,P|464:258|452:179,1,132.00000402832,0|0,1:0|0:0,0:0:0:0:
405,122,128186,2,0,L|414:49,1,66.0000020141602,2|2,0:3|0:3,0:0:0:0:
321,40,128486,2,0,P|240:35|190:88,1,132.00000402832,0|2,1:0|0:0,0:0:0:0:
147,138,128936,1,0,1:0:0:0:
147,138,129086,2,0,P|175:144|211:136,1,66.0000020141602,0|2,0:0|0:0,0:0:0:0:
83,73,129386,2,0,P|55:67|12:76,1,66.0000020141602,8|2,0:1|0:2,0:0:0:0:
48,160,129686,6,0,P|66:240|71:302,1,132.00000402832,0|0,1:0|0:0,0:0:0:0:
151,245,130136,2,0,P|219:229|311:220,1,132.00000402832,0|0,1:0|0:0,0:0:0:0:
363,263,130586,2,0,L|355:344,1,66.0000020141602,4|2,0:3|0:3,0:0:0:0:
445,302,130886,2,0,L|459:165,1,132.00000402832,0|2,1:0|0:0,0:0:0:0:
427,82,131336,2,0,P|390:89|293:71,1,132.00000402832,0|4,1:0|0:3,0:0:0:0:
209,46,131786,2,0,L|224:123,1,66.0000020141602,8|2,0:1|0:2,0:0:0:0:
221,203,132086,6,0,P|181:182|88:235,1,132.00000402832,0|2,1:0|0:0,0:0:0:0:
67,294,132536,2,0,P|123:320|191:289,1,132.00000402832,0|2,1:0|0:2,0:0:0:0:
272,325,132986,2,0,P|280:293|271:262,1,66.0000020141602,4|2,0:3|0:3,0:0:0:0:
340,201,133286,2,0,P|381:190|429:197,2,66.0000020141602,0|2|0,1:0|0:0|0:0,0:0:0:0:
252,169,133736,2,0,P|217:113|251:55,1,132.00000402832,0|0,1:0|0:0,0:0:0:0:
328,21,134186,2,0,P|369:30|408:28,1,66.0000020141602,8|2,0:1|0:2,0:0:0:0:
445,106,134486,6,0,P|438:174|437:253,1,132.00000402832,2|0,1:3|0:0,0:0:0:0:
391,318,134936,2,0,P|330:334|236:340,1,132.00000402832,2|4,1:3|0:3,0:0:0:0:
176,303,135386,1,2,0:3:0:0:
176,303,135536,1,6,0:3:0:0:
221,222,135686,2,0,P|255:215|296:211,1,66.0000020141602,8|8,0:3|0:3,0:0:0:0:
382,244,135986,2,0,P|382:204|386:165,1,66.0000020141602,8|8,0:3|0:3,0:0:0:0:
469,142,136286,2,0,P|473:108|471:64,1,66.0000020141602,8|8,0:3|0:3,0:0:0:0:
379,73,136586,2,0,P|335:69|299:78,1,66.0000020141602,2|2,0:3|0:3,0:0:0:0:
229,110,136886,6,0,P|237:53|166:19,1,132.00000402832,4|0,1:2|0:0,0:0:0:0:
98,60,137336,2,0,P|90:117|161:151,1,132.00000402832,0|0,1:0|0:0,0:0:0:0:
224,205,137786,2,0,L|318:196,1,66.0000020141602,2|2,0:3|0:3,0:0:0:0:
382,201,138086,2,0,P|350:256|379:312,1,132.00000402832,0|2,1:0|0:0,0:0:0:0:
446,376,138536,1,0,1:0:0:0:
502,303,138686,2,0,L|495:212,1,66.0000020141602,0|2,0:0|0:0,0:0:0:0:
466,149,138986,2,0,L|475:76,1,66.0000020141602,8|2,0:1|0:2,0:0:0:0:
385,56,139286,6,0,P|331:72|280:9,1,132.00000402832,0|0,1:0|0:0,0:0:0:0:
201,71,139736,2,0,P|156:49|89:100,1,132.00000402832,0|0,1:0|0:0,0:0:0:0:
42,167,140186,2,0,P|42:207|49:249,1,66.0000020141602,4|2,0:3|0:3,0:0:0:0:
131,197,140486,2,0,P|220:197|286:184,1,132.00000402832,0|2,1:0|0:0,0:0:0:0:
346,229,140936,2,0,P|289:228|254:305,1,132.00000402832,0|4,1:0|0:3,0:0:0:0:
198,361,141386,2,0,P|165:354|112:357,1,66.0000020141602,8|2,0:1|0:2,0:0:0:0:
46,320,141686,6,0,P|37:268|36:177,1,132.00000402832,0|2,1:0|0:0,0:0:0:0:
79,107,142136,2,0,P|76:77|85:32,2,66.0000020141602,0|2|2,1:0|0:0|0:2,0:0:0:0:
119,190,142586,2,0,P|154:201|203:199,1,66.0000020141602,2|2,0:3|0:3,0:0:0:0:
264,157,142886,2,0,P|302:143|345:147,1,66.0000020141602,0|2,1:0|0:0,0:0:0:0:
415,172,143186,1,0,0:0:0:0:
415,172,143336,2,0,L|408:313,1,132.00000402832,0|4,1:0|0:3,0:0:0:0:
336,362,143786,2,0,P|303:365|270:362,1,66.0000020141602,8|2,0:1|0:2,0:0:0:0:
181,336,144086,6,0,P|174:303|178:271,1,66.0000020141602,0|0,1:0|0:0,0:0:0:0:
193,179,144386,2,0,P|203:148|237:109,1,66.0000020141602,2|0,0:0|1:0,0:0:0:0:
309,87,144686,1,0,0:0:0:0:
309,87,144836,2,0,P|353:81|391:91,2,66.0000020141602,2|2|2,0:0|0:3|0:3,0:0:0:0:
227,41,145286,1,0,1:0:0:0:
143,80,145436,2,0,L|118:27,2,33.0000010070801,2|2|2,0:0|0:0|0:0,0:0:0:0:
157,171,145736,2,0,P|117:192|57:118,1,132.00000402832,0|4,1:0|0:3,0:0:0:0:
21,230,146186,2,0,P|26:264|22:306,1,66.0000020141602,8|2,0:1|0:2,0:0:0:0:
115,312,146486,6,0,P|162:275|244:311,1,132.00000402832,4|0,1:2|0:0,0:0:0:0:
276,370,146936,2,0,P|336:361|420:363,1,132.00000402832,0|0,1:0|0:0,0:0:0:0:
374,274,147386,2,0,P|369:243|371:205,1,66.0000020141602,2|2,0:3|0:3,0:0:0:0:
453,167,147686,2,0,P|429:179|316:146,1,132.00000402832,0|2,1:0|0:0,0:0:0:0:
272,87,148136,1,0,1:0:0:0:
181,70,148286,2,0,P|191:33|220:12,1,66.0000020141602,0|2,0:0|0:0,0:0:0:0:
272,87,148586,2,0,P|262:124|233:145,1,66.0000020141602,8|2,0:1|0:2,0:0:0:0:
151,162,148886,6,0,P|118:219|157:268,1,132.00000402832,0|0,1:0|0:0,0:0:0:0:
228,319,149336,2,0,P|275:332|361:309,1,132.00000402832,0|0,1:0|0:0,0:0:0:0:
427,255,149786,2,0,L|434:342,1,66.0000020141602,4|2,0:3|0:3,0:0:0:0:
507,267,150086,2,0,L|492:132,1,132.00000402832,0|2,1:0|0:0,0:0:0:0:
407,174,150536,2,0,B|392:27,1,132.00000402832,0|4,1:0|0:3,0:0:0:0:
301,47,150986,2,0,P|263:66|212:63,1,66.0000020141602,8|2,0:1|0:2,0:0:0:0:
147,62,151286,6,0,P|109:116|143:172,1,132.00000402832,0|2,1:0|0:0,0:0:0:0:
216,217,151736,1,0,1:0:0:0:
296,262,151886,2,0,L|370:248,1,66.0000020141602,2|2,0:0|0:2,0:0:0:0:
448,280,152186,2,0,P|455:248|446:216,1,66.0000020141602,2|2,0:3|0:3,0:0:0:0:
368,165,152486,2,0,L|303:179,2,66.0000020141602,0|0|2,1:0|0:0|0:0,0:0:0:0:
455,134,152936,2,0,P|438:71|466:12,1,132.00000402832,0|2,1:0|0:2,0:0:0:0:
374,19,153386,2,0,P|330:33|281:34,1,66.0000020141602,8|0,0:1|0:0,0:0:0:0:
249,104,153686,6,0,P|185:90|154:161,1,132.00000402832,2|0,1:3|0:0,0:0:0:0:
105,218,154136,2,0,P|181:214|246:194,1,132.00000402832,2|4,1:3|0:3,0:0:0:0:
318,237,154586,1,2,0:3:0:0:
318,237,154736,1,6,0:3:0:0:
401,276,154886,2,0,P|411:236|412:199,1,66.0000020141602,8|8,3:0|0:3,0:0:0:0:
390,121,155186,1,8,0:3:0:0:
390,121,155336,1,8,0:3:0:0:
302,149,155486,2,0,P|264:150|225:138,1,66.0000020141602,8|8,0:3|0:3,0:0:0:0:
151,180,155786,2,0,P|118:179|86:187,1,66.0000020141602,4|0,0:1|0:3,0:0:0:0:
25,245,156086,1,0,1:0:0:0:
63,253,165686,6,0,P|131:250|202:253,1,120,4|0,0:0|0:0,0:0:0:0:
265,287,166136,2,0,P|277:242|362:221,1,120,0|2,1:0|0:0,0:0:0:0:
430,216,166586,2,0,L|494:228,1,60,2|2,0:1|0:0,0:0:0:0:
500,137,166886,2,0,P|486:93|487:20,1,120,0|0,1:0|0:0,0:0:0:0:
397,31,167336,2,0,P|329:46|266:49,1,120,0|2,1:0|0:0,0:0:0:0:
192,20,167786,2,0,P|203:68|205:89,1,60,2|2,0:1|0:0,0:0:0:0:
171,163,168086,6,0,P|116:158|30:163,1,120,0|0,1:0|0:0,0:0:0:0:
1,235,168536,1,0,1:0:0:0:
75,285,168686,2,0,P|130:290|216:285,1,120,0|2,0:0|0:1,0:0:0:0:
276,326,169136,1,2,0:0:0:0:
269,236,169286,2,0,P|250:206|282:130,1,120,0|2,1:0|0:0,0:0:0:0:
367,142,169736,2,0,P|386:172|354:248,1,120,0|2,1:0|0:0,0:0:0:0:
335,332,170186,2,0,L|249:323,1,60,2|2,0:1|0:0,0:0:0:0:
186,342,170486,6,0,L|180:270,1,60,0|2,1:0|0:0,0:0:0:0:
94,305,170786,1,0,0:0:0:0:
84,215,170936,2,0,L|78:141,1,60,0|2,1:0|0:0,0:0:0:0:
102,68,171236,1,2,0:0:0:0:
173,123,171386,2,0,L|179:189,1,60,2|0,0:1|0:0,0:0:0:0:
264,209,171686,2,0,L|258:143,1,60,0|2,1:0|0:0,0:0:0:0:
252,59,171986,2,0,L|329:52,1,60,0|0,0:0|1:0,0:0:0:0:
389,7,172286,2,0,L|466:0,1,60,2|2,0:0|0:0,0:0:0:0:
449,91,172586,2,0,P|436:126|441:164,1,60,2|2,0:1|0:0,0:0:0:0:
473,231,172886,6,0,P|485:273|410:298,1,120,2|0,1:3|0:0,0:0:0:0:
337,315,173336,2,0,P|280:311|272:256,1,120,2|4,1:3|0:3,0:0:0:0:
323,183,173786,1,2,0:3:0:0:
282,102,173936,1,6,0:3:0:0:
327,24,174086,2,0,L|379:0,2,30,8|8|8,0:3|0:3|0:3,0:0:0:0:
236,19,174386,2,0,L|166:9,1,60,8|8,0:3|0:3,0:0:0:0:
86,12,174686,2,0,L|17:25,1,60,8|8,0:3|0:3,0:0:0:0:
49,110,174986,1,8,0:3:0:0:
21,195,175136,1,8,0:3:0:0:
242,295,176186,2,0,P|269:297|304:314,1,60,0|2,0:0|0:0,0:0:0:0:
387,283,176486,6,0,P|409:224|364:181,1,132.00000402832,4|0,1:2|0:0,0:0:0:0:
271,173,176936,2,0,P|206:184|141:175,1,132.00000402832,0|0,1:0|0:0,0:0:0:0:
172,88,177386,2,0,P|179:48|179:14,1,66.0000020141602,2|2,0:3|0:3,0:0:0:0:
92,55,177686,2,0,P|53:88|62:162,1,132.00000402832,0|2,1:0|0:0,0:0:0:0:
86,252,178136,1,0,1:0:0:0:
109,341,178286,2,0,L|23:328,1,66.0000020141602,0|2,0:0|0:0,0:0:0:0:
172,285,178586,2,0,L|249:281,1,66.0000020141602,8|2,0:1|0:2,0:0:0:0:
325,252,178886,6,0,P|387:265|399:333,1,132.00000402832,0|0,1:0|0:0,0:0:0:0:
481,277,179336,2,0,P|486:213|493:140,1,132.00000402832,0|0,1:0|0:0,0:0:0:0:
441,67,179786,2,0,P|405:72|346:77,1,66.0000020141602,2|2,0:3|0:3,0:0:0:0:
351,164,180086,2,0,P|273:140|204:132,1,132.00000402832,0|2,1:0|0:0,0:0:0:0:
142,87,180536,2,0,P|128:162|93:240,1,132.00000402832,0|4,1:0|0:3,0:0:0:0:
65,296,180986,2,0,P|100:291|140:293,1,66.0000020141602,8|2,0:1|0:2,0:0:0:0:
205,345,181286,6,0,P|264:377|329:337,1,132.00000402832,0|0,1:0|0:0,0:0:0:0:
390,293,181736,2,0,P|413:293|470:305,2,66.0000020141602,0|2|2,1:0|0:0|0:2,0:0:0:0:
303,261,182186,2,0,P|298:229|302:172,1,66.0000020141602,2|2,0:3|0:3,0:0:0:0:
351,119,182486,2,0,P|344:87|324:49,1,66.0000020141602,0|2,1:0|0:0,0:0:0:0:
242,24,182786,1,0,0:0:0:0:
242,24,182936,2,0,L|110:42,1,132.00000402832,0|0,1:0|0:0,0:0:0:0:
90,132,183386,2,0,L|166:123,1,66.0000020141602,8|2,0:1|0:2,0:0:0:0:
247,120,183686,6,0,P|251:152|243:184,1,66.0000020141602,0|0,1:0|0:0,0:0:0:0:
155,213,183986,2,0,P|146:246|150:284,1,66.0000020141602,2|0,0:0|1:0,0:0:0:0:
206,349,184286,1,0,0:0:0:0:
114,357,184436,2,0,P|80:340|29:342,2,66.0000020141602,2|2|4,0:2|0:3|0:3,0:0:0:0:
206,349,184886,1,0,1:0:0:0:
298,341,185036,2,0,L|302:373,2,33.0000010070801,2|2|2,0:0|0:0|0:0,0:0:0:0:
248,262,185336,2,0,P|282:216|367:242,1,132.00000402832,0|4,1:0|0:3,0:0:0:0:
430,271,185786,2,0,P|426:238|433:206,1,66.0000020141602,8|2,0:1|0:0,0:0:0:0:
493,135,186086,6,0,L|359:127,1,132.00000402832,0|0,1:0|0:0,0:0:0:0:
268,133,186536,2,0,P|316:115|312:38,1,132.00000402832,0|0,1:0|0:0,0:0:0:0:
223,35,186986,2,0,L|152:46,1,66.0000020141602,2|2,0:3|0:3,0:0:0:0:
85,103,187286,2,0,P|138:144|121:211,1,132.00000402832,0|2,1:0|0:0,0:0:0:0:
71,274,187736,1,0,1:0:0:0:
163,274,187886,2,0,P|191:280|227:272,1,66.0000020141602,0|2,0:0|0:0,0:0:0:0:
302,219,188186,2,0,P|334:212|366:218,1,66.0000020141602,8|2,0:1|0:2,0:0:0:0:
410,300,188486,6,0,P|454:253|451:188,1,132.00000402832,0|0,1:0|0:0,0:0:0:0:
424,99,188936,2,0,P|407:70|311:56,1,132.00000402832,0|0,1:0|0:0,0:0:0:0:
268,131,189386,2,0,L|271:216,1,66.0000020141602,2|2,0:3|0:3,0:0:0:0:
283,289,189686,2,0,L|137:275,1,132.00000402832,0|2,1:0|0:0,0:0:0:0:
130,367,190136,2,0,B|-24:350,1,132.00000402832,0|4,1:0|0:3,0:0:0:0:
33,266,190586,2,0,L|20:201,1,66.0000020141602,8|2,0:1|0:2,0:0:0:0:
31,108,190886,6,0,P|76:107|111:27,1,132.00000402832,0|2,1:0|0:0,0:0:0:0:
207,31,191336,2,0,P|256:68|334:42,1,132.00000402832,0|2,1:0|0:2,0:0:0:0:
401,99,191786,2,0,P|406:134|398:178,1,66.0000020141602,4|2,0:3|0:3,0:0:0:0:
416,255,192086,2,0,P|457:244|503:240,2,66.0000020141602,0|2|0,1:0|0:0|0:0,0:0:0:0:
370,335,192536,2,0,P|325:290|330:223,1,132.00000402832,0|0,1:0|0:0,0:0:0:0:
366,140,192986,2,0,P|333:144|300:140,1,66.0000020141602,8|2,0:1|0:2,0:0:0:0:
245,215,193286,6,0,P|167:208|89:211,1,132.00000402832,2|0,1:3|0:0,0:0:0:0:
26,242,193736,2,0,P|21:145|20:102,1,132.00000402832,0|4,1:3|0:3,0:0:0:0:
5,18,194186,1,2,0:3:0:0:
5,18,194336,1,6,0:3:0:0:
88,56,194486,2,0,L|155:53,1,66.0000020141602,8|8,0:3|0:3,0:0:0:0:
242,24,194786,1,8,0:3:0:0:
220,113,194936,1,8,0:3:0:0:
253,199,195086,2,0,P|285:198|330:195,1,66.0000020141602,8|8,0:3|0:3,0:0:0:0:
366,275,195386,2,0,P|398:274|443:271,1,66.0000020141602,2|2,0:3|0:3,0:0:0:0:
406,361,195686,6,0,L|249:348,1,132.00000402832,4|0,1:2|0:0,0:0:0:0:
183,369,196136,2,0,P|181:305|193:214,1,132.00000402832,0|0,1:0|0:0,0:0:0:0:
241,161,196586,2,0,L|306:163,1,66.0000020141602,2|2,0:3|0:3,0:0:0:0:
392,199,196886,2,0,P|433:133|380:91,1,132.00000402832,0|2,1:0|0:0,0:0:0:0:
336,37,197336,1,0,1:0:0:0:
250,71,197486,2,0,L|176:68,1,66.0000020141602,0|2,0:0|0:0,0:0:0:0:
103,114,197786,2,0,L|37:111,1,66.0000020141602,8|2,0:1|0:2,0:0:0:0:
70,197,198086,6,0,P|142:195|214:205,1,132.00000402832,0|0,1:0|0:0,0:0:0:0:
292,184,198536,2,0,P|345:207|333:299,1,132.00000402832,0|0,1:0|0:3,0:0:0:0:
278,328,198986,2,0,P|249:324|201:330,1,66.0000020141602,2|2,3:0|0:3,0:0:0:0:
121,318,199286,2,0,P|72:297|107:221,1,132.00000402832,0|2,1:0|0:0,0:0:0:0:
121,145,199736,2,0,P|207:151|275:132,1,132.00000402832,0|4,1:0|0:3,0:0:0:0:
341,117,200186,2,0,P|344:69|334:34,1,66.0000020141602,8|2,0:1|0:2,0:0:0:0:
247,46,200486,6,0,P|161:40|92:58,1,132.00000402832,0|0,1:0|0:0,0:0:0:0:
35,94,200936,2,0,P|27:41|14:1,2,66.0000020141602,0|2|2,1:0|0:0|0:2,0:0:0:0:
98,161,201386,2,0,P|130:195|129:236,1,66.0000020141602,2|2,0:3|0:3,0:0:0:0:
63,273,201686,2,0,P|54:304|63:335,1,66.0000020141602,0|2,1:0|0:0,0:0:0:0:
153,313,201986,1,0,0:0:0:0:
153,313,202136,2,0,L|304:321,1,132.00000402832,0|0,1:0|0:0,0:0:0:0:
358,263,202586,2,0,P|355:231|360:194,1,66.0000020141602,8|2,0:1|0:2,0:0:0:0:
451,191,202886,6,0,P|454:158|450:125,1,66.0000020141602,0|0,1:0|0:0,0:0:0:0:
360,102,203186,2,0,P|320:97|276:107,1,66.0000020141602,2|0,0:0|1:0,0:0:0:0:
213,144,203486,1,0,0:0:0:0:
136,92,203636,2,0,P|141:51|153:15,2,66.0000020141602,2|2|2,0:2|0:3|0:3,0:0:0:0:
137,184,204086,1,0,1:0:0:0:
96,267,204236,2,0,L|43:253,2,33.0000010070801,2|2|2,0:0|0:0|0:0,0:0:0:0:
188,256,204536,2,0,P|257:261|326:254,1,132.00000402832,0|0,1:0|0:0,0:0:0:0:
407,284,204986,2,0,P|410:249|402:219,1,66.0000020141602,8|2,0:1|0:2,0:0:0:0:
333,158,205286,6,0,P|408:185|454:141,1,132.00000402832,4|0,1:2|0:0,0:0:0:0:
446,65,205736,2,0,P|389:35|333:65,1,132.00000402832,0|0,1:0|0:0,0:0:0:0:
258,120,206186,2,0,L|260:196,1,66.0000020141602,2|2,0:3|0:3,0:0:0:0:
315,260,206486,2,0,P|386:236|464:226,1,132.00000402832,0|2,1:0|0:0,0:0:0:0:
500,299,206936,1,0,1:0:0:0:
418,341,207086,2,0,P|386:343|344:341,1,66.0000020141602,0|2,0:0|0:0,0:0:0:0:
261,324,207386,2,0,P|233:318|189:298,1,66.0000020141602,8|2,0:1|0:2,0:0:0:0:
167,216,207686,6,0,P|149:180|201:113,1,132.00000402832,0|0,1:0|0:0,0:0:0:0:
281,73,208136,2,0,P|294:143|285:223,1,132.00000402832,0|0,1:0|0:0,0:0:0:0:
358,264,208586,2,0,L|436:256,1,66.0000020141602,2|2,0:3|0:3,0:0:0:0:
507,219,208886,2,0,P|500:159|522:67,1,132.00000402832,0|2,1:0|0:0,0:0:0:0:
419,92,209336,2,0,P|378:59|303:72,1,132.00000402832,0|4,1:0|0:3,0:0:0:0:
263,156,209786,2,0,L|276:235,1,66.0000020141602,8|2,0:1|0:2,0:0:0:0:
218,295,210086,6,0,L|81:279,1,132.00000402832,0|2,1:0|0:0,0:0:0:0:
51,193,210536,2,0,L|212:210,1,132.00000402832,0|2,1:0|0:2,0:0:0:0:
270,236,210986,2,0,P|277:204|268:172,1,66.0000020141602,2|2,0:3|0:3,0:0:0:0:
216,96,211286,2,0,P|183:100|140:97,2,66.0000020141602,0|0|2,1:0|0:0|0:0,0:0:0:0:
308,83,211736,2,0,P|370:117|353:192,1,132.00000402832,0|2,1:0|0:0,0:0:0:0:
428,243,212186,2,0,P|405:266|394:297,1,66.0000020141602,8|2,0:1|0:2,0:0:0:0:
303,311,212486,6,0,P|233:335|167:297,1,132.00000402832,2|0,1:3|0:0,0:0:0:0:
116,248,212936,2,0,P|186:224|252:262,1,132.00000402832,2|4,1:3|0:3,0:0:0:0:
326,225,213386,1,2,0:3:0:0:
326,225,213536,1,6,0:3:0:0:
391,159,213686,2,0,P|392:122|371:73,1,66.0000020141602,8|8,0:3|0:3,0:0:0:0:
308,40,213986,1,8,0:3:0:0:
222,74,214136,1,8,0:3:0:0:
130,58,214286,2,0,P|129:102|140:142,1,66.0000020141602,8|8,0:3|0:3,0:0:0:0:
199,188,214586,2,0,P|204:219|200:270,1,66.0000020141602,8|8,0:3|0:3,0:0:0:0:
169,330,214886,1,4,0:0:0:0:
256,192,215036,12,0,218486,0:0:0:0:
