osu file format v14

[General]
AudioFilename: No title.mp3
AudioLeadIn: 0
PreviewTime: 50398
Countdown: 0
SampleSet: Soft
StackLeniency: 0.7
Mode: 3
LetterboxInBreaks: 0
SpecialStyle: 0
WidescreenStoryboard: 0

[Editor]
DistanceSpacing: 1.9
BeatDivisor: 4
GridSize: 4
TimelineZoom: 2.1

[Metadata]
Title:No title
TitleUnicode:No title
Artist:Reol
ArtistUnicode:れをる
Creator:Niks
Version:Hard
Source:
Tags:れをる GigaP ギガP
BeatmapID:871035
BeatmapSetID:400304

[Difficulty]
HPDrainRate:8
CircleSize:7
OverallDifficulty:8
ApproachRate:5
SliderMultiplier:1.4
SliderTickRate:1

[Events]
//Background and Video events
0,0,"bg.jpg",0,0
//Break Periods
//Storyboard Layer 0 (Background)
//Storyboard Layer 1 (Fail)
//Storyboard Layer 2 (Pass)
//Storyboard Layer 3 (Foreground)
//Storyboard Sound Samples
Sample,10799,0,"LR_Kick Bass strong fast.wav",30
Sample,11549,0,"C#5S_Db5S.wav",45
Sample,11699,0,"C#5S_Db5S.wav",45
Sample,11849,0,"A4S.wav",45
Sample,11999,0,"E5S.wav",45
Sample,12149,0,"E5S.wav",45
Sample,12299,0,"E5S.wav",45
Sample,12449,0,"E5S.wav",45
Sample,12599,0,"E5S.wav",45
Sample,12899,0,"C#5S_Db5S.wav",45
Sample,13049,0,"A4S.wav",45
Sample,13199,0,"E5S.wav",45
Sample,13349,0,"E5S.wav",45
Sample,13499,0,"D#5S_Eb5S.wav",45
Sample,13649,0,"E5S.wav",45
Sample,13949,0,"C#5S_Db5S.wav",45
Sample,14099,0,"C#5S_Db5S.wav",45
Sample,14249,0,"A4S.wav",45
Sample,14399,0,"E5S.wav",45
Sample,14549,0,"D#5S_Eb5S.wav",45
Sample,14699,0,"E5S.wav",45
Sample,14849,0,"D#5S_Eb5S.wav",45
Sample,14999,0,"E5S.wav",45
Sample,15149,0,"D#5S_Eb5S.wav",45
Sample,15299,0,"E5S.wav",45
Sample,15449,0,"D#5S_Eb5S.wav",45
Sample,15599,0,"E5S.wav",45
Sample,15749,0,"D#5S_Eb5S.wav",45
Sample,15899,0,"E5S.wav",45
Sample,16049,0,"D#5S_Eb5S.wav",45
Sample,16199,0,"E5S.wav",45
Sample,16349,0,"LR_HiHat Click.wav",45
Sample,16649,0,"B4S.wav",45
Sample,16799,0,"C#5S_Db5S.wav",45
Sample,16949,0,"B4S.wav",45
Sample,17099,0,"C#5S_Db5S.wav",45
Sample,17249,0,"D#5S_Eb5S.wav",45
Sample,17399,0,"E5S.wav",45
Sample,17549,0,"B4S.wav",45
Sample,17699,0,"C#5S_Db5S.wav",45
Sample,17849,0,"B4S.wav",45
Sample,17999,0,"C#5S_Db5S.wav",45
Sample,18149,0,"D#5S_Eb5S.wav",45
Sample,18299,0,"E5S.wav",45
Sample,18449,0,"B4S.wav",45
Sample,18599,0,"C#5S_Db5S.wav",45
Sample,18749,0,"B4S.wav",45
Sample,18899,0,"C#5S_Db5S.wav",45
Sample,19049,0,"D#5S_Eb5S.wav",45
Sample,19199,0,"E5S.wav",45
Sample,19349,0,"B4S.wav",45
Sample,19499,0,"C#5S_Db5S.wav",45
Sample,19649,0,"B4S.wav",45
Sample,19799,0,"C#5S_Db5S.wav",45
Sample,19949,0,"B4S.wav",45
Sample,20099,0,"C#5S_Db5S.wav",45
Sample,20249,0,"B4S.wav",45
Sample,20399,0,"C#5S_Db5S.wav",45
Sample,20549,0,"B4S.wav",45
Sample,20624,0,"B4S.wav",45
Sample,20699,0,"C#5S_Db5S.wav",45
Sample,20849,0,"B4S.wav",45
Sample,20999,0,"C#5S_Db5S.wav",45
Sample,21149,0,"D#5S_Eb5S.wav",45
Sample,21299,0,"E5S.wav",45
Sample,21749,0,"B4S.wav",45
Sample,21899,0,"C#5S_Db5S.wav",45
Sample,22499,0,"C#5S_Db5S.wav",45
Sample,22649,0,"B4S.wav",45
Sample,22799,0,"C#5S_Db5S.wav",45
Sample,22949,0,"B4S.wav",45
Sample,23099,0,"C#5S_Db5S.wav",45
Sample,23249,0,"B4S.wav",45
Sample,23399,0,"C#5S_Db5S.wav",45
Sample,23699,0,"E5S.wav",45
Sample,24149,0,"B4S.wav",45
Sample,24299,0,"C#5S_Db5S.wav",45
Sample,24899,0,"C#5S_Db5S.wav",45
Sample,25049,0,"B4S.wav",45
Sample,25199,0,"C#5S_Db5S.wav",45
Sample,25349,0,"B4S.wav",45
Sample,25499,0,"C#5S_Db5S.wav",45
Sample,25649,0,"B4S.wav",45
Sample,25799,0,"C#5S_Db5S.wav",45
Sample,25949,0,"B4S.wav",45
Sample,26099,0,"E5S.wav",45
Sample,26549,0,"G#5S_Ab5S.wav",45
Sample,26699,0,"G#5S_Ab5S.wav",45
Sample,26849,0,"F#5S_Gb5S.wav",45
Sample,26999,0,"F#5S_Gb5S.wav",45
Sample,27149,0,"E5S.wav",45
Sample,27299,0,"E5S.wav",45
Sample,27449,0,"B4S.wav",45
Sample,27599,0,"E5S.wav",45
Sample,27749,0,"C#5S_Db5S.wav",45
Sample,27899,0,"E5S.wav",45
Sample,28049,0,"C#5S_Db5S.wav",45
Sample,28199,0,"E5S.wav",45
Sample,28349,0,"F#5S_Gb5S.wav",45
Sample,28499,0,"C#5S_Db5S.wav",45
Sample,28949,0,"G#5S_Ab5S.wav",45
Sample,29099,0,"G#5S_Ab5S.wav",45
Sample,29249,0,"F#5S_Gb5S.wav",45
Sample,29399,0,"F#5S_Gb5S.wav",45
Sample,29699,0,"E5S.wav",45
Sample,29849,0,"C#5S_Db5S.wav",45
Sample,29999,0,"E5S.wav",45
Sample,30149,0,"C#5S_Db5S.wav",45
Sample,30299,0,"E5S.wav",45
Sample,30449,0,"C#5S_Db5S.wav",45
Sample,30599,0,"E5S.wav",45
Sample,30749,0,"F#5S_Gb5S.wav",45
Sample,30899,0,"E5S.wav",45
Sample,31049,0,"B5S.wav",45
Sample,31349,0,"E5S.wav",45
Sample,31499,0,"E5S.wav",45
Sample,31649,0,"D#5S_Eb5S.wav",45
Sample,31949,0,"E5S.wav",45
Sample,32249,0,"B5S.wav",45
Sample,32549,0,"E5S.wav",45
Sample,32699,0,"E5S.wav",45
Sample,32849,0,"D#5S_Eb5S.wav",45
Sample,33149,0,"E5S.wav",45
Sample,33449,0,"B5S.wav",45
Sample,33749,0,"E5S.wav",45
Sample,33899,0,"E5S.wav",45
Sample,34049,0,"E5S.wav",45
Sample,34199,0,"E5S.wav",45
Sample,34349,0,"D#5S_Eb5S.wav",45
Sample,34499,0,"E5S.wav",45
Sample,34649,0,"B5S.wav",45
Sample,34949,0,"E5S.wav",45
Sample,35099,0,"E5S.wav",45
Sample,35249,0,"E5S.wav",45
Sample,35399,0,"F#5S_Gb5S.wav",45
Sample,35699,0,"G#5S_Ab5S.wav",45
Sample,35849,0,"B5S.wav",45
Sample,35849,0,"LR_HiHat Click.wav",45
Sample,36149,0,"E5S.wav",45
Sample,36299,0,"E5S.wav",45
Sample,36449,0,"E5S.wav",45
Sample,36599,0,"E5S.wav",45
Sample,36749,0,"D#5S_Eb5S.wav",45
Sample,36899,0,"E5S.wav",45
Sample,37049,0,"B5S.wav",45
Sample,37349,0,"E5S.wav",45
Sample,37499,0,"E5S.wav",45
Sample,37649,0,"E5S.wav",45
Sample,37799,0,"D#5S_Eb5S.wav",45
Sample,38099,0,"E5S.wav",45
Sample,38249,0,"B5S.wav",45
Sample,38549,0,"E5S.wav",45
Sample,38699,0,"E5S.wav",45
Sample,38849,0,"D#5S_Eb5S.wav",45
Sample,38999,0,"E5S.wav",45
Sample,39149,0,"D#5S_Eb5S.wav",45
Sample,39299,0,"E5S.wav",45
Sample,39449,0,"C#5S_Db5S.wav",45
Sample,39599,0,"E5S.wav",45
Sample,39899,0,"G#5S_Ab5S.wav",45
Sample,40199,0,"F#5S_Gb5S.wav",45
Sample,40499,0,"E5S.wav",45
Sample,40649,0,"B5S.wav",45
Sample,40949,0,"E5S.wav",45
Sample,41099,0,"E5S.wav",45
Sample,41399,0,"D#5S_Eb5S.wav",45
Sample,41699,0,"E5S.wav",45
Sample,41849,0,"B5S.wav",45
Sample,42149,0,"E5S.wav",45
Sample,42599,0,"D#5S_Eb5S.wav",45
Sample,42899,0,"E5S.wav",45
Sample,43049,0,"B5S.wav",45
Sample,43349,0,"E5S.wav",45
Sample,43649,0,"E5S.wav",45
Sample,43949,0,"E5S.wav",45
Sample,44099,0,"E5S.wav",45
Sample,44249,0,"C#5S_Db5S.wav",45
Sample,44399,0,"E5S.wav",45
Sample,44549,0,"E5S.wav",45
Sample,44699,0,"LR_HiHat Click.wav",45
Sample,44849,0,"E5S.wav",45
Sample,44999,0,"F#5S_Gb5S.wav",45
Sample,45299,0,"G#5S_Ab5S.wav",45
Sample,45449,0,"B5S.wav",45
Sample,45749,0,"E5S.wav",45
Sample,45899,0,"E5S.wav",45
Sample,46049,0,"E5S.wav",45
Sample,46199,0,"E5S.wav",45
Sample,46499,0,"C#5S_Db5S.wav",45
Sample,46649,0,"C#5S_Db5S.wav",45
Sample,46799,0,"E5S.wav",45
Sample,46949,0,"E5S.wav",45
Sample,47099,0,"F#5S_Gb5S.wav",45
Sample,47399,0,"E5S.wav",45
Sample,47699,0,"E5S.wav",45
Sample,47849,0,"B5S.wav",45
Sample,48149,0,"E5S.wav",45
Sample,48299,0,"E5S.wav",45
Sample,48449,0,"E5S.wav",45
Sample,48599,0,"E5S.wav",45
Sample,48899,0,"C#5S_Db5S.wav",45
Sample,49049,0,"C#5S_Db5S.wav",45
Sample,49199,0,"E5S.wav",45
Sample,49349,0,"E5S.wav",45
Sample,49499,0,"F#5S_Gb5S.wav",45
Sample,49799,0,"E5S.wav",45
Sample,50099,0,"E5S.wav",45
Sample,50249,0,"E5S.wav",45
Sample,50399,0,"E6S.wav",45
Sample,51299,0,"D#6S_Eb6S.wav",45
Sample,51449,0,"B5S.wav",45
Sample,52199,0,"E5S.wav",45
Sample,52349,0,"E5S.wav",45
Sample,52499,0,"E5S.wav",45
Sample,52649,0,"E5S.wav",45
Sample,52799,0,"E6S.wav",45
Sample,53699,0,"D#6S_Eb6S.wav",45
Sample,53849,0,"B5S.wav",45
Sample,54749,0,"E5S.wav",45
Sample,54899,0,"F#5S_Gb5S.wav",45
Sample,55049,0,"E5S.wav",45
Sample,55199,0,"E5S.wav",45
Sample,55349,0,"E5S.wav",45
Sample,55499,0,"E5S.wav",45
Sample,55649,0,"E5S.wav",45
Sample,55799,0,"E5S.wav",45
Sample,55949,0,"E5S.wav",45
Sample,56249,0,"E5S.wav",45
Sample,56399,0,"F#5S_Gb5S.wav",45
Sample,56549,0,"E5S.wav",45
Sample,56699,0,"E5S.wav",45
Sample,56849,0,"E5S.wav",45
Sample,57149,0,"C#5S_Db5S.wav",45
Sample,57299,0,"C#5S_Db5S.wav",45
Sample,57449,0,"C#5S_Db5S.wav",45
Sample,57599,0,"E5S.wav",45
Sample,57749,0,"E5S.wav",45
Sample,57899,0,"E5S.wav",45
Sample,58049,0,"E5S.wav",45
Sample,58199,0,"E5S.wav",45
Sample,58349,0,"C#5S_Db5S.wav",45
Sample,58499,0,"C#5S_Db5S.wav",45
Sample,58649,0,"C#5S_Db5S.wav",45
Sample,58799,0,"F#5S_Gb5S.wav",45
Sample,58949,0,"E5S.wav",45
Sample,59099,0,"F#5S_Gb5S.wav",45
Sample,59249,0,"G#5S_Ab5S.wav",45
Sample,59699,0,"E5S.wav",45
Sample,59999,0,"E6S.wav",45
Sample,60899,0,"D#6S_Eb6S.wav",45
Sample,61049,0,"B5S.wav",45
Sample,61799,0,"E5S.wav",45
Sample,61949,0,"E5S.wav",45
Sample,62099,0,"E5S.wav",45
Sample,62249,0,"E5S.wav",45
Sample,62399,0,"E6S.wav",45
Sample,63299,0,"D#6S_Eb6S.wav",45
Sample,63449,0,"B5S.wav",45
Sample,64499,0,"F#5S_Gb5S.wav",45
Sample,64649,0,"E5S.wav",45
Sample,64799,0,"E5S.wav",45
Sample,65099,0,"E5S.wav",45
Sample,65249,0,"E5S.wav",45
Sample,65399,0,"E5S.wav",45
Sample,65549,0,"E5S.wav",45
Sample,65699,0,"E5S.wav",45
Sample,65849,0,"E5S.wav",45
Sample,65999,0,"F#5S_Gb5S.wav",45
Sample,66149,0,"E5S.wav",45
Sample,66299,0,"E5S.wav",45
Sample,66449,0,"E5S.wav",45
Sample,66599,0,"C#5S_Db5S.wav",45
Sample,66749,0,"C#5S_Db5S.wav",45
Sample,66899,0,"C#5S_Db5S.wav",45
Sample,67049,0,"C#5S_Db5S.wav",45
Sample,67199,0,"E5S.wav",45
Sample,67349,0,"E5S.wav",45
Sample,67499,0,"E5S.wav",45
Sample,67649,0,"E5S.wav",45
Sample,67799,0,"E5S.wav",45
Sample,67949,0,"E5S.wav",100
Sample,68099,0,"F#5S_Gb5S.wav",45
Sample,68399,0,"E5S.wav",45
Sample,72599,0,"C#7S_Db7S.wav",45
Sample,73199,0,"B6S.wav",45
Sample,73799,0,"A6S.wav",45
Sample,74399,0,"G#6S_Ab6S.wav",45
Sample,79199,0,"C#7S_Db7S.wav",45

[TimingPoints]
2399.58061833087,300,4,2,1,50,1,0
50399,-100,4,2,1,50,0,1
69599,-100,4,2,1,50,0,0

[HitObjects]
475,192,2399,5,0,0:0:0:50:LR_Kick Bass strong fast.wav
36,192,2399,1,0,0:0:0:0:
475,192,2849,1,0,0:0:0:50:LR_Kick Bass strong fast.wav
36,192,2849,1,0,0:0:0:0:
402,192,3299,1,0,0:0:0:0:
329,192,3449,1,0,0:0:0:0:
109,192,3599,1,0,0:0:0:100:LR_Drum EDge.wav
402,192,3599,1,0,0:0:0:0:
402,192,4049,1,0,0:0:0:100:LR_Drum EDge.wav
109,192,4049,1,0,0:0:0:0:
329,192,4349,1,0,0:0:0:0:
256,192,4649,1,0,0:0:0:0:
182,192,4799,1,0,0:0:0:50:LR_Kick Bass strong fast.wav
329,192,4799,1,0,0:0:0:0:
182,192,5249,1,0,0:0:0:50:LR_Kick Bass strong fast.wav
329,192,5249,1,0,0:0:0:0:
109,192,5549,1,0,0:0:0:0:
36,192,5849,1,0,0:0:0:0:
109,192,5999,1,0,0:0:0:100:LR_Drum EDge.wav
402,192,5999,1,0,0:0:0:0:
182,192,6149,1,0,0:0:0:0:
109,192,6449,1,0,0:0:0:100:LR_Drum EDge.wav
402,192,6449,1,0,0:0:0:0:
329,192,6749,1,0,0:0:0:0:
256,192,6899,128,0,7199:0:0:0:0:
36,192,7199,1,0,0:0:0:100:LR_Drum EDge.wav
475,192,7199,1,0,0:0:0:0:
329,192,7349,1,0,0:0:0:0:
182,192,7499,1,0,0:0:0:100:LR_HiHat Click.wav
475,192,7649,1,0,0:0:0:100:LR_Drum EDge.wav
36,192,7649,1,0,0:0:0:0:
402,192,8099,1,0,0:0:0:100:LR_HiHat Click.wav
109,192,8249,1,0,0:0:0:30:LR_Kick Bass strong fast.wav
182,192,8399,1,0,0:0:0:100:LR_Drum EDge.wav
329,192,8399,1,0,0:0:0:0:
36,192,8549,1,0,0:0:0:0:
475,192,8699,1,0,0:0:0:100:LR_HiHat Click.wav
182,192,8849,1,0,0:0:0:100:LR_Drum EDge.wav
329,192,8849,1,0,0:0:0:0:
256,192,9149,1,0,0:0:0:100:LR_HiHat Click.wav
36,192,9299,1,0,0:0:0:100:LR_Clap DS.wav
402,192,9299,1,0,0:0:0:0:
109,192,9299,1,0,0:0:0:0:
329,192,9599,1,0,0:0:0:70:soft-hitclap.wav
475,192,9599,1,0,0:0:0:0:
329,192,9899,1,0,0:0:0:100:LR_HiHat Click.wav
475,192,9899,1,0,0:0:0:0:
182,192,10049,1,0,0:0:0:40:soft-hitclap.wav
36,192,10049,1,0,0:0:0:100:LR_Drum EDge.wav
182,192,10349,1,0,0:0:0:70:LR_Tom Hit.wav
36,192,10349,1,0,0:0:0:0:
329,192,10499,1,0,0:0:0:40:soft-hitclap.wav
475,192,10499,1,0,0:0:0:30:LR_Kick Bass strong fast.wav
182,192,10649,1,0,0:0:0:40:soft-hitclap.wav
36,192,10649,1,0,0:0:0:30:LR_Kick Bass strong fast.wav
109,192,10799,1,0,0:0:0:40:soft-hitclap.wav
182,192,10874,1,0,0:0:0:0:
402,192,10949,1,0,0:0:0:30:LR_Kick Bass strong fast.wav
329,192,11024,1,0,0:0:0:0:
256,192,11099,1,0,0:0:0:30:LR_Kick Bass strong fast.wav
182,192,11249,1,0,0:0:0:30:LR_Kick Bass strong fast.wav
475,192,11399,1,0,0:0:0:30:LR_Kick Bass strong fast.wav
402,192,11549,1,0,0:0:0:30:LR_Kick Bass strong fast.wav
36,192,11699,1,0,0:0:0:30:LR_Kick Bass strong fast.wav
329,192,11699,1,0,0:0:0:0:
256,192,11699,1,0,0:0:0:0:
182,192,11849,1,0,0:0:0:40:soft-hitclap.wav
475,192,11999,1,0,0:0:0:70:LR_CymbalG.wav
109,192,11999,1,0,0:0:0:30:LR_Kick Bass strong fast.wav
182,192,12299,1,0,0:0:0:100:LR_HiHat Click.wav
109,192,12449,1,0,0:0:0:30:LR_Kick Bass strong fast.wav
475,192,12449,1,0,0:0:0:0:
256,192,12749,1,0,0:0:0:0:
182,192,12899,1,0,0:0:0:100:LR_HiHat Click.wav
329,192,12899,1,0,0:0:0:0:
109,192,13049,1,0,0:0:0:100:LR_HiHat Click.wav
402,192,13049,1,0,0:0:0:0:
475,192,13199,1,0,0:0:0:30:LR_Kick Bass strong fast.wav
36,192,13199,1,0,0:0:0:0:
256,192,13499,1,0,0:0:0:100:LR_HiHat Click.wav
475,192,13649,1,0,0:0:0:30:LR_Kick Bass strong fast.wav
36,192,13649,1,0,0:0:0:0:
329,192,13949,1,0,0:0:0:100:LR_HiHat Click.wav
256,192,14099,1,0,0:0:0:100:LR_Clap DS.wav
109,192,14099,1,0,0:0:0:0:
402,192,14099,1,0,0:0:0:0:
36,192,14249,1,0,0:0:0:0:
182,192,14399,1,0,0:0:0:50:LR_Kick Bass strong fast.wav
329,192,14399,1,0,0:0:0:0:
109,192,14549,1,0,0:0:0:0:
402,192,14699,1,0,0:0:0:100:LR_HiHat Click.wav
329,192,14849,1,0,0:0:0:50:LR_Kick Bass strong fast.wav
182,192,14849,1,0,0:0:0:0:
475,192,14999,1,0,0:0:0:0:
36,192,15149,1,0,0:0:0:0:
402,192,15299,1,0,0:0:0:100:LR_HiHat Click.wav
329,192,15299,1,0,0:0:0:0:
109,192,15449,1,0,0:0:0:100:LR_HiHat Click.wav
475,192,15599,1,0,0:0:0:50:LR_Kick Bass strong fast.wav
36,192,15599,1,0,0:0:0:0:
182,192,15749,1,0,0:0:0:0:
329,192,15899,1,0,0:0:0:100:LR_HiHat Click.wav
36,192,16049,1,0,0:0:0:50:LR_Kick Bass strong fast.wav
475,192,16049,1,0,0:0:0:0:
256,192,16199,128,0,16499:0:0:0:0:
36,192,16499,1,0,0:0:0:100:LR_Clap DS.wav
475,192,16499,1,0,0:0:0:0:
329,192,16499,1,0,0:0:0:0:
402,192,16799,1,0,0:0:0:50:LR_Kick Bass strong fast.wav
109,192,16799,1,0,0:0:0:0:
329,192,17099,1,0,0:0:0:100:LR_HiHat Click.wav
109,192,17249,1,0,0:0:0:50:LR_Kick Bass strong fast.wav
402,192,17249,1,0,0:0:0:0:
475,192,17549,1,0,0:0:0:0:
182,192,17699,1,0,0:0:0:100:LR_HiHat Click.wav
402,192,17699,1,0,0:0:0:0:
109,192,17849,1,0,0:0:0:100:LR_HiHat Click.wav
329,192,17849,1,0,0:0:0:0:
36,192,17999,1,0,0:0:0:30:LR_Kick Bass strong fast.wav
256,192,17999,1,0,0:0:0:0:
182,192,18299,1,0,0:0:0:100:LR_HiHat Click.wav
329,192,18449,1,0,0:0:0:30:LR_Kick Bass strong fast.wav
36,192,18449,1,0,0:0:0:0:
109,192,18749,1,0,0:0:0:100:LR_HiHat Click.wav
329,192,18899,1,0,0:0:0:100:LR_Clap DS.wav
475,192,18899,1,0,0:0:0:0:
182,192,18899,1,0,0:0:0:0:
256,192,19049,1,0,0:0:0:0:
182,192,19199,1,0,0:0:0:50:LR_Kick Bass strong fast.wav
475,192,19199,1,0,0:0:0:0:
36,192,19499,1,0,0:0:0:100:LR_HiHat Click.wav
402,192,19649,1,0,0:0:0:50:LR_Kick Bass strong fast.wav
109,192,19649,1,0,0:0:0:0:
256,192,19949,1,0,0:0:0:0:
182,192,20099,1,0,0:0:0:100:LR_HiHat Click.wav
402,192,20099,1,0,0:0:0:0:
109,192,20249,1,0,0:0:0:100:LR_HiHat Click.wav
329,192,20249,1,0,0:0:0:0:
36,192,20399,1,0,0:0:0:50:LR_Kick Bass strong fast.wav
256,192,20399,1,0,0:0:0:0:
182,192,20549,1,0,0:0:0:100:LR_HiHat Click.wav
256,192,20624,1,0,0:0:0:0:
329,192,20699,1,0,0:0:0:100:LR_HiHat Click.wav
402,192,20849,1,0,0:0:0:50:LR_Kick Bass strong fast.wav
109,192,20849,1,0,0:0:0:0:
256,192,21149,1,0,0:0:0:100:LR_HiHat Click.wav
182,192,21299,1,0,0:0:0:100:LR_Clap DS.wav
475,192,21299,1,0,0:0:0:0:
329,192,21299,1,0,0:0:0:0:
109,192,21449,1,0,0:0:0:0:
256,192,21599,1,0,0:0:0:50:LR_Kick Bass strong fast.wav
36,192,21599,1,0,0:0:0:0:
329,192,21899,1,0,0:0:0:100:LR_HiHat Click.wav
36,192,22049,1,0,0:0:0:50:LR_Kick Bass strong fast.wav
475,192,22049,1,0,0:0:0:0:
402,192,22349,1,0,0:0:0:0:
329,192,22499,1,0,0:0:0:100:LR_HiHat Click.wav
109,192,22499,1,0,0:0:0:0:
256,192,22649,1,0,0:0:0:100:LR_HiHat Click.wav
36,192,22649,1,0,0:0:0:0:
402,192,22799,1,0,0:0:0:50:LR_Kick Bass strong fast.wav
109,192,22799,1,0,0:0:0:0:
329,192,23099,1,0,0:0:0:100:LR_HiHat Click.wav
109,192,23249,1,0,0:0:0:50:LR_Kick Bass strong fast.wav
402,192,23249,1,0,0:0:0:0:
256,192,23549,1,0,0:0:0:100:LR_HiHat Click.wav
475,192,23699,1,0,0:0:0:100:LR_Clap DS.wav
402,192,23699,1,0,0:0:0:0:
182,192,23699,1,0,0:0:0:0:
109,192,23849,1,0,0:0:0:100:LR_HiHat Click.wav
329,192,23999,1,0,0:0:0:50:LR_Kick Bass strong fast.wav
36,192,23999,1,0,0:0:0:0:
256,192,24299,1,0,0:0:0:100:LR_HiHat Click.wav
36,192,24449,1,0,0:0:0:50:LR_Kick Bass strong fast.wav
329,192,24449,1,0,0:0:0:0:
109,192,24749,1,0,0:0:0:0:
182,192,24899,1,0,0:0:0:100:LR_HiHat Click.wav
402,192,24899,1,0,0:0:0:0:
256,192,25049,1,0,0:0:0:100:LR_HiHat Click.wav
475,192,25049,1,0,0:0:0:0:
36,192,25199,1,0,0:0:0:50:LR_Kick Bass strong fast.wav
329,192,25199,1,0,0:0:0:0:
402,192,25349,1,0,0:0:0:100:LR_HiHat Click.wav
256,192,25499,1,0,0:0:0:100:LR_HiHat Click.wav
182,192,25649,1,0,0:0:0:100:LR_HiHat Click.wav
475,192,25649,1,0,0:0:0:0:
109,192,25799,1,0,0:0:0:0:
256,192,25949,1,0,0:0:0:100:LR_HiHat Click.wav
475,192,26099,1,0,0:0:0:100:LR_Clap DS.wav
36,192,26099,1,0,0:0:0:0:
329,192,26099,1,0,0:0:0:0:
402,192,26399,1,0,0:0:0:50:LR_Kick Bass strong fast.wav
109,192,26399,1,0,0:0:0:0:
182,192,26549,1,0,0:0:0:0:
256,192,26699,1,0,0:0:0:100:LR_HiHat Click.wav
109,192,26849,1,0,0:0:0:50:LR_Kick Bass strong fast.wav
402,192,26849,1,0,0:0:0:0:
329,192,27149,1,0,0:0:0:0:
256,192,27299,1,0,0:0:0:100:LR_HiHat Click.wav
475,192,27299,1,0,0:0:0:0:
182,192,27449,1,0,0:0:0:100:LR_HiHat Click.wav
402,192,27449,1,0,0:0:0:0:
109,192,27599,1,0,0:0:0:50:LR_Kick Bass strong fast.wav
329,192,27599,1,0,0:0:0:0:
182,192,27749,1,0,0:0:0:0:
256,192,27899,1,0,0:0:0:100:LR_HiHat Click.wav
329,192,28049,1,0,0:0:0:50:LR_Kick Bass strong fast.wav
109,192,28049,1,0,0:0:0:0:
182,192,28199,1,0,0:0:0:0:
475,192,28349,1,0,0:0:0:0:
182,192,28499,1,0,0:0:0:100:LR_Clap DS.wav
109,192,28499,1,0,0:0:0:0:
36,192,28499,1,0,0:0:0:0:
256,192,28649,1,0,0:0:0:100:LR_HiHat Click.wav
402,192,28799,1,0,0:0:0:50:LR_Kick Bass strong fast.wav
475,192,28799,1,0,0:0:0:0:
402,192,29099,1,0,0:0:0:100:LR_HiHat Click.wav
329,192,29099,1,0,0:0:0:0:
329,192,29249,1,0,0:0:0:50:LR_Kick Bass strong fast.wav
402,192,29249,1,0,0:0:0:0:
36,192,29549,1,0,0:0:0:70:LR_Tom Hit.wav
109,192,29549,1,0,0:0:0:0:
475,192,29699,1,0,0:0:0:50:LR_Kick Bass strong fast.wav
402,192,29699,1,0,0:0:0:0:
256,192,29849,1,0,0:0:0:100:LR_HiHat Click.wav
402,192,29999,1,0,0:0:0:70:LR_Tom Hit.wav
109,192,29999,1,0,0:0:0:0:
182,192,30149,1,0,0:0:0:50:LR_Kick Bass strong fast.wav
256,192,30224,1,0,0:0:0:0:
329,192,30299,1,0,0:0:0:70:LR_Tom Hit.wav
109,192,30449,1,0,0:0:0:50:LR_Kick Bass strong fast.wav
402,192,30449,1,0,0:0:0:0:
256,192,30599,1,0,0:0:0:100:LR_HiHat Click.wav
182,192,30749,1,0,0:0:0:70:LR_Tom Hit.wav
36,192,30899,1,0,0:0:0:100:LR_Clap DS.wav
475,192,30899,1,0,0:0:0:0:
256,192,30899,1,0,0:0:0:0:
329,192,31049,1,0,0:0:0:0:
256,192,31199,1,0,0:0:0:50:LR_Kick Bass strong fast.wav
109,192,31199,1,0,0:0:0:0:
402,192,31199,1,0,0:0:0:0:
329,192,31499,1,0,0:0:0:100:LR_HiHat Click.wav
256,192,31649,1,0,0:0:0:50:LR_Kick Bass strong fast.wav
36,192,31649,1,0,0:0:0:0:
329,192,31949,1,0,0:0:0:0:
256,192,32099,1,0,0:0:0:100:LR_HiHat Click.wav
475,192,32099,1,0,0:0:0:0:
109,192,32249,1,0,0:0:0:100:LR_HiHat Click.wav
329,192,32249,1,0,0:0:0:0:
402,192,32399,1,0,0:0:0:50:LR_Kick Bass strong fast.wav
182,192,32399,1,0,0:0:0:0:
256,192,32699,1,0,0:0:0:100:LR_HiHat Click.wav
182,192,32849,1,0,0:0:0:50:LR_Kick Bass strong fast.wav
402,192,32849,1,0,0:0:0:0:
329,192,33149,1,0,0:0:0:100:LR_HiHat Click.wav
256,192,33299,1,0,0:0:0:100:LR_Clap DS.wav
109,192,33299,1,0,0:0:0:0:
402,192,33299,1,0,0:0:0:0:
182,192,33449,1,0,0:0:0:0:
36,192,33599,1,0,0:0:0:50:LR_Kick Bass strong fast.wav
475,192,33599,1,0,0:0:0:0:
402,192,33749,1,0,0:0:0:0:
109,192,33899,1,0,0:0:0:100:LR_HiHat Click.wav
475,192,34049,1,0,0:0:0:50:LR_Kick Bass strong fast.wav
36,192,34049,1,0,0:0:0:0:
256,192,34199,1,0,0:0:0:0:
329,192,34349,1,0,0:0:0:50:LR_Kick Bass strong fast.wav
256,192,34499,1,0,0:0:0:100:LR_HiHat Click.wav
402,192,34499,1,0,0:0:0:0:
182,192,34649,1,0,0:0:0:100:LR_HiHat Click.wav
475,192,34649,1,0,0:0:0:0:
402,192,34799,1,0,0:0:0:50:LR_Kick Bass strong fast.wav
109,192,34799,1,0,0:0:0:0:
329,192,34949,1,0,0:0:0:100:LR_HiHat Click.wav
36,192,34949,1,0,0:0:0:0:
256,192,35099,1,0,0:0:0:100:LR_HiHat Click.wav
109,192,35249,1,0,0:0:0:50:LR_Kick Bass strong fast.wav
402,192,35249,1,0,0:0:0:0:
182,192,35399,128,0,35699:0:0:0:0:
329,192,35699,1,0,0:0:0:100:LR_Clap DS.wav
402,192,35699,1,0,0:0:0:0:
36,192,35699,1,0,0:0:0:0:
329,192,35999,1,0,0:0:0:50:LR_Kick Bass strong fast.wav
36,192,35999,1,0,0:0:0:0:
256,192,36299,1,0,0:0:0:100:LR_HiHat Click.wav
475,192,36449,1,0,0:0:0:50:LR_Kick Bass strong fast.wav
182,192,36449,1,0,0:0:0:0:
402,192,36749,1,0,0:0:0:0:
329,192,36899,1,0,0:0:0:100:LR_HiHat Click.wav
36,192,36899,1,0,0:0:0:0:
256,192,37049,1,0,0:0:0:100:LR_HiHat Click.wav
109,192,37049,1,0,0:0:0:0:
182,192,37199,1,0,0:0:0:50:LR_Kick Bass strong fast.wav
475,192,37199,1,0,0:0:0:0:
256,192,37499,1,0,0:0:0:100:LR_HiHat Click.wav
36,192,37649,1,0,0:0:0:50:LR_Kick Bass strong fast.wav
329,192,37649,1,0,0:0:0:0:
256,192,37949,1,0,0:0:0:0:
475,192,38099,1,0,0:0:0:100:LR_Clap DS.wav
109,192,38099,1,0,0:0:0:0:
182,192,38099,1,0,0:0:0:0:
256,192,38249,1,0,0:0:0:100:LR_HiHat Click.wav
329,192,38399,1,0,0:0:0:50:LR_Kick Bass strong fast.wav
36,192,38399,1,0,0:0:0:0:
402,192,38549,1,0,0:0:0:0:
256,192,38699,1,0,0:0:0:100:LR_HiHat Click.wav
182,192,38849,1,0,0:0:0:50:LR_Kick Bass strong fast.wav
475,192,38849,1,0,0:0:0:0:
256,192,38999,1,0,0:0:0:0:
182,192,39149,1,0,0:0:0:70:LR_Tom Hit.wav
402,192,39149,1,0,0:0:0:0:
109,192,39299,1,0,0:0:0:0:
329,192,39299,1,0,0:0:0:0:
36,192,39449,1,0,0:0:0:100:LR_HiHat Click.wav
256,192,39449,1,0,0:0:0:0:
475,192,39599,1,0,0:0:0:50:LR_Kick Bass strong fast.wav
182,192,39599,1,0,0:0:0:0:
109,192,39749,1,0,0:0:0:0:
182,192,39824,1,0,0:0:0:0:
256,192,39899,1,0,0:0:0:100:LR_HiHat Click.wav
182,192,40049,1,0,0:0:0:50:LR_Kick Bass strong fast.wav
475,192,40049,1,0,0:0:0:0:
402,192,40199,1,0,0:0:0:0:
109,192,40349,1,0,0:0:0:100:LR_HiHat Click.wav
329,192,40349,1,0,0:0:0:0:
36,192,40499,1,0,0:0:0:50:LR_Kick Bass strong fast.wav
256,192,40499,1,0,0:0:0:0:
475,192,40499,1,0,0:0:0:0:
402,192,40799,1,0,0:0:0:50:LR_Kick Bass strong fast.wav
109,192,40799,1,0,0:0:0:0:
182,192,41099,1,0,0:0:0:100:LR_HiHat Click.wav
109,192,41249,1,0,0:0:0:50:LR_Kick Bass strong fast.wav
402,192,41249,1,0,0:0:0:0:
256,192,41549,1,0,0:0:0:0:
329,192,41699,1,0,0:0:0:50:LR_Kick Bass strong fast.wav
109,192,41699,1,0,0:0:0:0:
182,192,41849,1,0,0:0:0:100:LR_HiHat Click.wav
402,192,41849,1,0,0:0:0:0:
475,192,41999,1,0,0:0:0:50:LR_Kick Bass strong fast.wav
36,192,41999,1,0,0:0:0:0:
402,192,42299,1,0,0:0:0:100:LR_HiHat Click.wav
36,192,42449,1,0,0:0:0:50:LR_Kick Bass strong fast.wav
475,192,42449,1,0,0:0:0:0:
182,192,42749,1,0,0:0:0:100:LR_HiHat Click.wav
36,192,42899,1,0,0:0:0:70:LR_Clap DS.wav
475,192,42899,1,0,0:0:0:0:
402,192,42899,1,0,0:0:0:0:
109,192,43049,1,0,0:0:0:0:
329,192,43199,1,0,0:0:0:50:LR_Kick Bass strong fast.wav
182,192,43199,1,0,0:0:0:0:
256,192,43499,1,0,0:0:0:100:LR_HiHat Click.wav
182,192,43649,1,0,0:0:0:50:LR_Kick Bass strong fast.wav
329,192,43649,1,0,0:0:0:0:
402,192,43949,1,0,0:0:0:100:LR_HiHat Click.wav
329,192,44099,1,0,0:0:0:50:LR_Kick Bass strong fast.wav
36,192,44099,1,0,0:0:0:0:
256,192,44249,1,0,0:0:0:100:LR_HiHat Click.wav
402,192,44399,1,0,0:0:0:50:LR_Kick Bass strong fast.wav
109,192,44399,1,0,0:0:0:0:
182,192,44549,1,0,0:0:0:0:
109,192,44849,1,0,0:0:0:50:LR_Kick Bass strong fast.wav
402,192,44849,1,0,0:0:0:0:
256,192,45149,1,0,0:0:0:100:LR_HiHat Click.wav
182,192,45299,1,0,0:0:0:70:LR_Clap DS.wav
475,192,45299,1,0,0:0:0:0:
109,192,45299,1,0,0:0:0:0:
36,192,45599,1,0,0:0:0:50:LR_Kick Bass strong fast.wav
329,192,45599,1,0,0:0:0:0:
256,192,45899,1,0,0:0:0:100:LR_HiHat Click.wav
329,192,46049,1,0,0:0:0:50:LR_Kick Bass strong fast.wav
36,192,46049,1,0,0:0:0:0:
256,192,46349,1,0,0:0:0:100:LR_HiHat Click.wav
402,192,46499,1,0,0:0:0:50:LR_Kick Bass strong fast.wav
109,192,46499,1,0,0:0:0:0:
329,192,46649,1,0,0:0:0:100:LR_HiHat Click.wav
182,192,46649,1,0,0:0:0:0:
475,192,46799,1,0,0:0:0:50:LR_Kick Bass strong fast.wav
36,192,46799,1,0,0:0:0:0:
109,192,46949,1,0,0:0:0:0:
402,192,47099,1,0,0:0:0:100:LR_HiHat Click.wav
36,192,47249,1,0,0:0:0:50:LR_Kick Bass strong fast.wav
475,192,47249,1,0,0:0:0:0:
256,192,47399,1,0,0:0:0:0:
329,192,47549,1,0,0:0:0:70:LR_HiHat Click.wav
36,192,47699,1,0,0:0:0:70:LR_Clap DS.wav
182,192,47699,1,0,0:0:0:0:
475,192,47699,1,0,0:0:0:0:
256,192,47849,1,0,0:0:0:100:LR_HiHat Click.wav
109,192,47999,1,0,0:0:0:50:LR_Kick Bass strong fast.wav
182,192,47999,1,0,0:0:0:0:
182,192,48299,1,0,0:0:0:100:LR_HiHat Click.wav
109,192,48299,1,0,0:0:0:0:
402,192,48449,1,0,0:0:0:50:LR_Kick Bass strong fast.wav
329,192,48449,1,0,0:0:0:0:
329,192,48749,1,0,0:0:0:50:LR_Kick Bass strong fast.wav
402,192,48749,1,0,0:0:0:0:
182,192,48899,1,0,0:0:0:50:LR_Kick Bass strong fast.wav
109,192,48899,1,0,0:0:0:0:
329,192,49049,1,0,0:0:0:50:LR_Kick Bass strong fast.wav
402,192,49049,1,0,0:0:0:0:
256,192,49199,1,0,0:0:0:50:LR_Kick Bass strong fast.wav
475,192,49199,1,0,0:0:0:0:
182,192,49274,1,0,0:0:0:0:
109,192,49349,1,0,0:0:0:0:
36,192,49424,1,0,0:0:0:0:
475,192,49499,1,0,0:0:0:50:LR_Kick Bass strong fast.wav
402,192,49574,1,0,0:0:0:0:
329,192,49649,1,0,0:0:0:0:
256,192,49724,1,0,0:0:0:0:
402,192,49799,1,0,0:0:0:50:LR_Kick Bass strong fast.wav
109,192,49799,1,0,0:0:0:0:
182,192,49949,1,0,0:0:0:50:LR_Kick Bass strong fast.wav
329,192,49949,1,0,0:0:0:0:
402,192,50099,1,0,0:0:0:50:LR_Kick Bass strong fast.wav
109,192,50099,1,0,0:0:0:0:
256,192,50099,1,0,0:0:0:0:
182,192,50249,1,0,0:0:0:0:
329,192,50249,1,0,0:0:0:0:
36,192,50399,1,0,0:0:0:70:LR_Kick Bass strong fast.wav
256,192,50399,1,0,0:0:0:0:
475,192,50399,1,0,0:0:0:0:
329,192,50699,1,0,0:0:0:70:LR_HiHat Click.wav
36,192,50849,1,0,0:0:0:70:LR_Kick Bass strong fast.wav
475,192,50849,1,0,0:0:0:0:
256,192,50849,1,0,0:0:0:0:
182,192,51149,1,0,0:0:0:0:
256,192,51299,1,0,0:0:0:70:LR_HiHat Click.wav
475,192,51299,1,0,0:0:0:0:
182,192,51449,1,0,0:0:0:70:LR_HiHat Click.wav
402,192,51449,1,0,0:0:0:0:
475,192,51599,1,0,0:0:0:70:LR_Kick Bass strong fast.wav
329,192,51599,1,0,0:0:0:0:
109,192,51599,1,0,0:0:0:0:
36,192,51899,1,0,0:0:0:70:LR_HiHat Click.wav
109,192,52049,1,0,0:0:0:70:LR_Kick Bass strong fast.wav
329,192,52049,1,0,0:0:0:0:
475,192,52049,1,0,0:0:0:0:
256,192,52199,1,0,0:0:0:0:
182,192,52349,1,0,0:0:0:100:LR_HiHat Click.wav
256,192,52499,1,0,0:0:0:70:LR_Clap DS.wav
475,192,52499,1,0,0:0:0:0:
109,192,52499,1,0,0:0:0:0:
329,192,52649,1,0,0:0:0:70:LR_HiHat Click.wav
402,192,52649,1,0,0:0:0:0:
36,192,52799,1,0,0:0:0:70:LR_Kick Bass strong fast.wav
182,192,52799,1,0,0:0:0:0:
475,192,52799,1,0,0:0:0:0:
256,192,53099,1,0,0:0:0:70:LR_HiHat Click.wav
36,192,53249,1,0,0:0:0:70:LR_Kick Bass strong fast.wav
182,192,53249,1,0,0:0:0:0:
475,192,53249,1,0,0:0:0:0:
402,192,53549,1,0,0:0:0:0:
329,192,53699,1,0,0:0:0:70:LR_HiHat Click.wav
109,192,53699,1,0,0:0:0:0:
182,192,53849,1,0,0:0:0:70:LR_HiHat Click.wav
109,192,53999,1,0,0:0:0:70:LR_Kick Bass strong fast.wav
256,192,53999,1,0,0:0:0:0:
475,192,53999,1,0,0:0:0:0:
402,192,54074,1,0,0:0:0:0:
329,192,54149,1,0,0:0:0:0:
182,192,54299,1,0,0:0:0:70:LR_HiHat Click.wav
475,192,54449,1,0,0:0:0:70:LR_Kick Bass strong fast.wav
256,192,54449,1,0,0:0:0:0:
109,192,54449,1,0,0:0:0:0:
329,192,54749,1,0,0:0:0:70:LR_HiHat Click.wav
475,192,54899,1,0,0:0:0:70:LR_HiHat Click.wav
36,192,54899,1,0,0:0:0:0:
182,192,54899,1,0,0:0:0:0:
256,192,55049,1,0,0:0:0:70:LR_HiHat Click.wav
109,192,55199,1,0,0:0:0:70:LR_Kick Bass strong fast.wav
182,192,55199,1,0,0:0:0:0:
402,192,55199,1,0,0:0:0:0:
329,192,55499,1,0,0:0:0:70:LR_HiHat Click.wav
182,192,55649,1,0,0:0:0:70:LR_Kick Bass strong fast.wav
109,192,55649,1,0,0:0:0:0:
402,192,55649,1,0,0:0:0:0:
256,192,55949,1,0,0:0:0:100:LR_HiHat Click.wav
182,192,56099,1,0,0:0:0:70:LR_HiHat Click.wav
329,192,56099,1,0,0:0:0:0:
109,192,56249,1,0,0:0:0:70:LR_HiHat Click.wav
402,192,56249,1,0,0:0:0:0:
329,192,56399,1,0,0:0:0:70:LR_Kick Bass strong fast.wav
475,192,56399,1,0,0:0:0:0:
36,192,56399,1,0,0:0:0:0:
256,192,56699,1,0,0:0:0:70:LR_HiHat Click.wav
36,192,56849,1,0,0:0:0:70:LR_Kick Bass strong fast.wav
475,192,56849,1,0,0:0:0:0:
329,192,56849,1,0,0:0:0:0:
256,192,56999,1,0,0:0:0:0:
182,192,57149,1,0,0:0:0:100:LR_HiHat Click.wav
475,192,57299,1,0,0:0:0:70:LR_HiHat Click.wav
109,192,57299,1,0,0:0:0:0:
36,192,57299,1,0,0:0:0:0:
182,192,57449,1,0,0:0:0:70:LR_HiHat Click.wav
256,192,57599,1,0,0:0:0:70:LR_Kick Bass strong fast.wav
36,192,57599,1,0,0:0:0:0:
402,192,57599,1,0,0:0:0:0:
475,192,57899,1,0,0:0:0:70:LR_HiHat Click.wav
256,192,58049,1,0,0:0:0:70:LR_Kick Bass strong fast.wav
36,192,58049,1,0,0:0:0:0:
402,192,58049,1,0,0:0:0:0:
109,192,58349,1,0,0:0:0:70:LR_HiHat Click.wav
182,192,58499,1,0,0:0:0:70:LR_HiHat Click.wav
402,192,58499,1,0,0:0:0:0:
256,192,58649,1,0,0:0:0:70:LR_HiHat Click.wav
475,192,58799,1,0,0:0:0:70:LR_Kick Bass strong fast.wav
329,192,58799,1,0,0:0:0:0:
109,192,58799,1,0,0:0:0:0:
36,192,58949,1,0,0:0:0:0:
402,192,59024,1,0,0:0:0:0:
256,192,59099,1,0,0:0:0:70:LR_HiHat Click.wav
475,192,59249,1,0,0:0:0:70:LR_Kick Bass strong fast.wav
329,192,59249,1,0,0:0:0:0:
109,192,59249,1,0,0:0:0:0:
182,192,59549,1,0,0:0:0:100:LR_HiHat Click.wav
329,192,59699,1,0,0:0:0:70:LR_HiHat Click.wav
402,192,59699,1,0,0:0:0:0:
256,192,59699,1,0,0:0:0:0:
182,192,59849,1,0,0:0:0:70:LR_HiHat Click.wav
109,192,59999,1,0,0:0:0:70:LR_Kick Bass strong fast.wav
475,192,59999,1,0,0:0:0:0:
36,192,59999,1,0,0:0:0:0:
182,192,60299,1,0,0:0:0:70:LR_HiHat Click.wav
36,192,60449,1,0,0:0:0:70:LR_Kick Bass strong fast.wav
109,192,60449,1,0,0:0:0:0:
475,192,60449,1,0,0:0:0:0:
256,192,60749,1,0,0:0:0:100:LR_HiHat Click.wav
182,192,60899,1,0,0:0:0:70:LR_HiHat Click.wav
402,192,60899,1,0,0:0:0:0:
109,192,61049,1,0,0:0:0:70:LR_HiHat Click.wav
329,192,61049,1,0,0:0:0:0:
475,192,61199,1,0,0:0:0:70:LR_Kick Bass strong fast.wav
402,192,61199,1,0,0:0:0:0:
36,192,61199,1,0,0:0:0:0:
256,192,61499,1,0,0:0:0:70:LR_HiHat Click.wav
475,192,61649,1,0,0:0:0:70:LR_Kick Bass strong fast.wav
402,192,61649,1,0,0:0:0:0:
36,192,61649,1,0,0:0:0:0:
109,192,61799,1,0,0:0:0:0:
402,192,61949,1,0,0:0:0:100:LR_HiHat Click.wav
182,192,61949,1,0,0:0:0:0:
329,192,62099,1,0,0:0:0:70:LR_Clap DS.wav
475,192,62099,1,0,0:0:0:0:
109,192,62099,1,0,0:0:0:0:
256,192,62249,1,0,0:0:0:70:LR_HiHat Click.wav
36,192,62249,1,0,0:0:0:0:
109,192,62399,1,0,0:0:0:50:LR_Kick Bass strong fast.wav
182,192,62399,1,0,0:0:0:0:
402,192,62399,1,0,0:0:0:0:
329,192,62699,1,0,0:0:0:70:LR_HiHat Click.wav
402,192,62849,1,0,0:0:0:50:LR_Kick Bass strong fast.wav
182,192,62849,1,0,0:0:0:0:
109,192,62849,1,0,0:0:0:0:
256,192,63149,1,0,0:0:0:50:LR_Kick Bass strong fast.wav
182,192,63299,1,0,0:0:0:50:LR_Kick Bass strong fast.wav
256,192,63449,1,0,0:0:0:50:LR_Kick Bass strong fast.wav
329,192,63599,1,0,0:0:0:50:LR_Kick Bass strong fast.wav
402,192,63599,1,0,0:0:0:0:
109,192,63599,1,0,0:0:0:0:
182,192,63749,1,0,0:0:0:0:
256,192,63899,1,0,0:0:0:70:LR_HiHat Click.wav
182,192,63974,1,0,0:0:0:0:
109,192,64049,1,0,0:0:0:50:LR_Kick Bass strong fast.wav
329,192,64049,1,0,0:0:0:0:
402,192,64049,1,0,0:0:0:0:
256,192,64349,1,0,0:0:0:0:
182,192,64499,1,0,0:0:0:70:LR_Clap DS.wav
402,192,64499,1,0,0:0:0:0:
109,192,64499,1,0,0:0:0:0:
256,192,64574,1,0,0:0:0:0:
329,192,64649,1,0,0:0:0:100:LR_HiHat Click.wav
36,192,64799,1,0,0:0:0:50:LR_Kick Bass strong fast.wav
256,192,64799,1,0,0:0:0:0:
475,192,64799,1,0,0:0:0:0:
182,192,65099,1,0,0:0:0:70:LR_HiHat Click.wav
475,192,65249,1,0,0:0:0:50:LR_Kick Bass strong fast.wav
256,192,65249,1,0,0:0:0:0:
36,192,65249,1,0,0:0:0:0:
329,192,65549,1,0,0:0:0:0:
256,192,65699,1,0,0:0:0:50:LR_Kick Bass strong fast.wav
475,192,65699,1,0,0:0:0:0:
182,192,65849,1,0,0:0:0:70:LR_HiHat Click.wav
402,192,65849,1,0,0:0:0:0:
329,192,65999,1,0,0:0:0:50:LR_Kick Bass strong fast.wav
475,192,65999,1,0,0:0:0:0:
109,192,65999,1,0,0:0:0:0:
256,192,66299,1,0,0:0:0:70:LR_HiHat Click.wav
329,192,66449,1,0,0:0:0:50:LR_Kick Bass strong fast.wav
475,192,66449,1,0,0:0:0:0:
109,192,66449,1,0,0:0:0:0:
182,192,66599,1,0,0:0:0:0:
36,192,66749,1,0,0:0:0:0:
329,192,66899,1,0,0:0:0:70:LR_Clap DS.wav
475,192,66899,1,0,0:0:0:0:
182,192,66899,1,0,0:0:0:0:
256,192,67049,1,0,0:0:0:70:LR_HiHat Click.wav
402,192,67049,1,0,0:0:0:0:
36,192,67199,1,0,0:0:0:50:LR_Kick Bass strong fast.wav
182,192,67199,1,0,0:0:0:0:
329,192,67199,1,0,0:0:0:0:
109,192,67499,1,0,0:0:0:70:LR_HiHat Click.wav
36,192,67649,1,0,0:0:0:50:LR_Kick Bass strong fast.wav
182,192,67649,1,0,0:0:0:0:
329,192,67649,1,0,0:0:0:0:
256,192,67949,1,0,0:0:0:50:LR_Kick Bass strong fast.wav
329,192,68099,1,0,0:0:0:50:LR_Kick Bass strong fast.wav
109,192,68099,1,0,0:0:0:0:
402,192,68249,1,0,0:0:0:50:LR_Kick Bass strong fast.wav
329,192,68324,1,0,0:0:0:0:
475,192,68399,1,0,0:0:0:50:LR_Kick Bass strong fast.wav
36,192,68399,1,0,0:0:0:0:
256,192,68399,1,0,0:0:0:0:
329,192,68549,1,0,0:0:0:0:
256,192,68624,1,0,0:0:0:0:
182,192,68699,1,0,0:0:0:50:LR_Kick Bass strong fast.wav
36,192,68849,1,0,0:0:0:70:LR_HiHat Click.wav
329,192,68999,1,0,0:0:0:50:LR_Kick Bass strong fast.wav
109,192,69149,1,0,0:0:0:50:LR_Kick Bass strong fast.wav
182,192,69224,1,0,0:0:0:0:
402,192,69299,1,0,0:0:0:50:LR_Kick Bass strong fast.wav
475,192,69299,1,0,0:0:0:0:
256,192,69299,1,0,0:0:0:0:
36,192,69374,1,0,0:0:0:0:
109,192,69449,1,0,0:0:0:0:
329,192,69449,1,0,0:0:0:0:
182,192,69524,1,0,0:0:0:0:
402,192,69599,1,0,0:0:0:50:LR_Kick Bass strong fast.wav
256,192,69599,1,0,0:0:0:0:
475,192,69599,128,0,70799:0:0:0:0:
329,192,69899,1,0,0:0:0:70:LR_HiHat Click.wav
36,192,70049,1,0,0:0:0:50:LR_Kick Bass strong fast.wav
402,192,70049,1,0,0:0:0:0:
182,192,70349,1,0,0:0:0:70:LR_HiHat Click.wav
256,192,70499,1,0,0:0:0:50:LR_Kick Bass strong fast.wav
329,192,70649,1,0,0:0:0:70:LR_HiHat Click.wav
402,192,70799,1,0,0:0:0:50:LR_Kick Bass strong fast.wav
182,192,70799,1,0,0:0:0:0:
256,192,71099,1,0,0:0:0:70:LR_HiHat Click.wav
182,192,71249,1,0,0:0:0:50:LR_Kick Bass strong fast.wav
402,192,71249,1,0,0:0:0:0:
109,192,71549,1,0,0:0:0:0:
182,192,71699,1,0,0:0:0:70:LR_Clap DS.wav
402,192,71699,1,0,0:0:0:0:
256,192,71849,1,0,0:0:0:70:LR_HiHat Click.wav
329,192,71999,1,0,0:0:0:50:LR_Kick Bass strong fast.wav
109,192,71999,1,0,0:0:0:0:
36,192,72299,1,0,0:0:0:70:LR_HiHat Click.wav
109,192,72449,1,0,0:0:0:50:LR_Kick Bass strong fast.wav
329,192,72449,1,0,0:0:0:0:
402,192,72599,128,0,73199:0:0:0:0:
256,192,72749,1,0,0:0:0:70:LR_HiHat Click.wav
182,192,72899,1,0,0:0:0:50:LR_Kick Bass strong fast.wav
109,192,73049,1,0,0:0:0:70:LR_HiHat Click.wav
329,192,73199,128,0,73799:0:0:0:50:LR_Kick Bass strong fast.wav
36,192,73199,1,0,0:0:0:0:
475,192,73199,1,0,0:0:0:0:
109,192,73274,1,0,0:0:0:0:
182,192,73349,1,0,0:0:0:0:
109,192,73499,1,0,0:0:0:70:LR_HiHat Click.wav
36,192,73649,1,0,0:0:0:50:LR_Kick Bass strong fast.wav
475,192,73649,1,0,0:0:0:0:
256,192,73799,128,0,74399:0:0:0:0:
475,192,73949,1,0,0:0:0:70:LR_HiHat Click.wav
402,192,74099,1,0,0:0:0:70:LR_Clap DS.wav
109,192,74099,1,0,0:0:0:0:
36,192,74099,1,0,0:0:0:0:
329,192,74249,1,0,0:0:0:70:LR_HiHat Click.wav
182,192,74399,128,0,76799:0:0:0:50:LR_Kick Bass strong fast.wav
402,192,74399,1,0,0:0:0:0:
475,192,74399,1,0,0:0:0:0:
36,192,74699,1,0,0:0:0:70:LR_HiHat Click.wav
402,192,74849,1,0,0:0:0:50:LR_Kick Bass strong fast.wav
109,192,74849,1,0,0:0:0:0:
475,192,75149,1,0,0:0:0:0:
402,192,75299,1,0,0:0:0:50:LR_Kick Bass strong fast.wav
329,192,75449,1,0,0:0:0:70:LR_HiHat Click.wav
475,192,75599,1,0,0:0:0:50:LR_Kick Bass strong fast.wav
36,192,75599,1,0,0:0:0:0:
256,192,75899,1,0,0:0:0:70:LR_HiHat Click.wav
36,192,76049,1,0,0:0:0:50:LR_Kick Bass strong fast.wav
475,192,76049,1,0,0:0:0:0:
402,192,76199,1,0,0:0:0:0:
329,192,76349,1,0,0:0:0:0:
256,192,76499,1,0,0:0:0:70:LR_Clap DS.wav
402,192,76499,1,0,0:0:0:0:
109,192,76499,1,0,0:0:0:0:
36,192,76649,1,0,0:0:0:70:LR_HiHat Click.wav
475,192,76799,1,0,0:0:0:70:LR_Kick Bass strong.wav
475,192,77099,1,0,0:0:0:70:LR_HiHat Click.wav
36,192,77249,1,0,0:0:0:70:LR_Kick Bass strong.wav
36,192,77549,1,0,0:0:0:0:
475,192,77699,1,0,0:0:0:70:LR_Kick Bass strong.wav
109,192,77699,1,0,0:0:0:0:
402,192,77849,1,0,0:0:0:70:LR_Kick Bass strong.wav
329,192,77924,1,0,0:0:0:0:
256,192,77999,1,0,0:0:0:70:wierd hitnormal.wav
182,192,78149,1,0,0:0:0:70:wierd hitnormal.wav
109,192,78299,1,0,0:0:0:70:wierd hitnormal.wav
182,192,78449,1,0,0:0:0:70:wierd hitnormal.wav
256,192,78599,1,0,0:0:0:70:LR_Snare Drum .wav
329,192,78749,1,0,0:0:0:70:LR_Snare Drum .wav
402,192,78899,1,0,0:0:0:70:LR_Snare Drum .wav
109,192,78899,1,0,0:0:0:0:
182,192,78899,1,0,0:0:0:0:
256,192,79049,1,0,0:0:0:70:LR_HiHat Click.wav
36,192,79199,1,0,0:0:0:50:LR_Kick Bass strong fast.wav
475,192,79199,1,0,0:0:0:70:LR_CymbalG.wav
109,192,79199,1,0,0:0:0:0:
