osu file format v14

[General]
AudioFilename: no.mp3
AudioLeadIn: 0
PreviewTime: 136587
Countdown: 0
SampleSet: Soft
StackLeniency: 0.7
Mode: 0
LetterboxInBreaks: 0
WidescreenStoryboard: 0

[Editor]
Bookmarks: 92937,94887,109287
DistanceSpacing: 1
BeatDivisor: 4
GridSize: 4
TimelineZoom: 1

[Metadata]
Title:No title
TitleUnicode:No title
Artist:Reol
ArtistUnicode:れをる
Creator:Kinomi
Version:Maximum
Source:
Tags:baldrace cRyo[iceeicee] yf_bmp -Yuzuriha ZZHBOY TT_Mouse Little CloudSplash16 EmingK
BeatmapID:861232
BeatmapSetID:394851

[Difficulty]
HPDrainRate:5
CircleSize:4
OverallDifficulty:8.5
ApproachRate:9.4
SliderMultiplier:1.8
SliderTickRate:1

[Events]
//Background and Video events
0,0,"BG.jpg",0,0
//Break Periods
2,69887,76333
//Storyboard Layer 0 (Background)
//Storyboard Layer 1 (Fail)
//Storyboard Layer 2 (Pass)
//Storyboard Layer 3 (Foreground)
//Storyboard Layer 4 (Overlay)
//Storyboard Sound Samples

[TimingPoints]
87,300,4,2,1,100,1,0
2487,-200,4,2,1,100,0,0
6987,-100,4,2,1,100,0,0
7212,-200,4,2,1,100,0,0
9687,-133.333333333333,4,2,1,100,0,0
21687,-200,4,2,1,100,0,0
21837,-133.333333333333,4,2,1,100,0,0
31287,-80,4,2,1,100,0,0
31437,-133.333333333333,4,2,1,100,0,0
32487,-80,4,2,1,100,0,0
32637,-133.333333333333,4,2,1,100,0,0
33687,-80,4,2,1,100,0,0
33837,-133.333333333333,4,2,1,100,0,0
34887,-80,4,2,1,100,0,0
35037,-133.333333333333,4,2,1,100,0,0
36087,-80,4,2,1,100,0,0
36237,-133.333333333333,4,2,1,100,0,0
37287,-80,4,2,1,100,0,0
37437,-133.333333333333,4,2,1,100,0,0
38487,-80,4,2,1,100,0,0
38637,-133.333333333333,4,2,1,100,0,0
39687,-80,4,2,1,100,0,0
41037,-133.333333333333,4,2,1,100,0,0
42087,-80,4,2,1,100,0,0
42237,-133.333333333333,4,2,1,100,0,0
43287,-80,4,2,1,100,0,0
43437,-133.333333333333,4,2,1,100,0,0
50487,-100,4,2,1,100,0,1
51687,-66.6666666666667,4,2,1,100,0,1
52287,-100,4,2,1,100,0,1
54087,-66.6666666666667,4,2,1,100,0,1
54837,-100,4,2,1,100,0,1
59337,-133.333333333333,4,2,1,100,0,1
59637,-100,4,2,1,100,0,1
61287,-66.6666666666667,4,2,1,100,0,1
61887,-100,4,2,1,100,0,1
63687,-66.6666666666667,4,2,1,100,0,1
64287,-100,4,2,1,100,0,1
69687,-133.333333333333,4,2,1,100,0,0
117687,-133.333333333333,4,2,1,100,0,1
135687,-133.333333333333,4,2,1,100,0,0
136887,-133.333333333333,4,2,1,100,0,1
156087,-133.333333333333,4,2,1,100,0,0
176487,-133.333333333333,4,2,1,100,0,1
194487,-133.333333333333,4,2,1,100,0,0
195687,-133.333333333333,4,2,1,100,0,1
214887,-133.333333333333,4,2,1,100,0,0

[Colours]
Combo1 : 250,250,5
Combo2 : 255,128,192
Combo3 : 4,251,202
Combo4 : 249,170,6

[HitObjects]
256,192,2487,5,2,0:0:0:0:
256,192,2937,1,2,0:0:0:0:
428,136,3387,1,2,0:0:0:0:
340,108,3537,1,0,0:0:0:0:
424,148,3687,6,0,P|368:140|332:112,1,90,2|0,0:0|0:0,0:0:0:0:
88,148,4137,2,0,P|144:140|180:112,1,90,2|2,0:0|0:0,0:0:0:0:
256,284,4737,1,0,0:0:0:0:
328,168,4887,6,0,B|349:189|349:189|349:249,1,90,2|0,0:0|0:0,0:0:0:0:
184,168,5337,2,0,B|162:189|162:189|162:249,1,90,2|0,0:0|0:0,0:0:0:0:
256,96,5937,5,2,0:0:0:0:
328,168,6087,1,0,0:0:0:0:
162,249,6237,1,2,0:0:0:0:
352,248,6537,5,2,0:0:0:0:
184,168,6837,5,2,0:0:0:0:
352,248,6987,6,0,B|464:224|464:224|452:260,1,135
416,324,7287,5,2,0:0:0:0:
352,248,7437,1,0,0:0:0:0:
457,243,7587,1,0,0:0:0:0:
292,172,7737,2,0,P|304:136|356:96,1,90,2|0,0:0|0:0,0:0:0:0:
256,252,8187,1,2,0:0:0:0:
170,101,8337,1,0,0:0:0:0:
220,172,8487,6,0,P|208:136|156:96,1,90,2|0,0:0|0:0,0:0:0:0:
211,319,8937,2,0,P|252:332|297:319,1,90,2|0,0:0|0:0,0:0:0:0:
152,368,9387,1,0,0:0:0:0:
256,248,9537,1,0,0:0:0:0:
356,372,9687,5,0,0:0:0:0:
184,192,9837,1,0,0:0:0:0:
256,332,9987,1,0,0:0:0:0:
389,169,10137,2,0,P|355:175|327:192,1,67.5000025749208
388,260,10437,1,0,0:0:0:0:
256,144,10587,1,0,0:0:0:0:
464,108,10737,1,0,0:0:0:0:
184,192,10887,6,0,L|164:152,1,33.7500012874604
343,161,11037,2,0,L|328:192,1,33.7500012874604
256,64,11187,1,0,0:0:0:0:
124,248,11337,5,0,0:0:0:0:
388,248,11487,1,0,0:0:0:0:
184,192,11637,5,0,0:0:0:0:
328,192,11787,1,0,0:0:0:0:
256,64,11937,1,0,0:0:0:0:
56,175,12087,6,0,P|94:163|130:123,1,67.5000025749208
47,86,12387,1,0,0:0:0:0:
124,248,12537,1,0,0:0:0:0:
191,107,12687,2,0,P|229:119|265:159,1,67.5000025749208
265,154,12912,1,0,0:0:0:0:
274,175,12987,1,0,0:0:0:0:
361,148,13137,1,0,0:0:0:0:
214,204,13287,6,0,P|252:192|288:152,1,67.5000025749208
173,286,13587,1,0,0:0:0:0:
314,253,13737,2,0,P|347:261|374:282,1,67.5000025749208
274,175,14037,1,0,0:0:0:0:
260,45,14187,2,0,P|236:68|224:100,1,67.5000025749208
496,192,14487,5,0,0:0:0:0:
330,241,14637,1,0,0:0:0:0:
352,80,14787,1,0,0:0:0:0:
437,274,14937,1,0,0:0:0:0:
269,151,15087,5,0,0:0:0:0:
269,353,15237,1,0,0:0:0:0:
400,167,15387,1,0,0:0:0:0:
183,220,15537,1,0,0:0:0:0:
281,24,15687,5,0,0:0:0:0:
291,236,15837,2,0,L|252:212,1,33.7500012874604
85,108,15987,1,0,0:0:0:0:
346,147,16137,1,0,0:0:0:0:
104,215,16287,5,0,0:0:0:0:
375,153,16437,1,0,0:0:0:0:
182,68,16587,1,0,0:0:0:0:
191,273,16737,1,0,0:0:0:0:
315,84,16887,6,0,P|365:62|406:67,1,67.5000025749208
462,244,17187,1,0,0:0:0:0:
462,244,17337,1,0,0:0:0:0:
222,281,17487,2,0,P|182:242|172:202,1,67.5000025749208
315,84,17787,1,0,0:0:0:0:
315,84,17937,1,0,0:0:0:0:
462,244,18087,6,0,P|458:299|435:333,1,67.5000025749208
222,281,18387,1,0,0:0:0:0:
222,281,18537,1,0,0:0:0:0:
150,82,18687,2,0,P|96:96|67:125,1,67.5000025749208
315,84,18987,1,0,0:0:0:0:
315,84,19137,1,0,0:0:0:0:
115,217,19287,5,0,0:0:0:0:
334,251,19437,1,0,0:0:0:0:
233,138,19587,1,0,0:0:0:0:
220,284,19737,5,0,0:0:0:0:
462,244,19887,1,0,0:0:0:0:
315,84,20037,1,0,0:0:0:0:
298,339,20187,1,0,0:0:0:0:
132,127,20337,1,0,0:0:0:0:
376,176,20487,5,0,0:0:0:0:
185,350,20637,2,0,L|201:295,1,33.7500012874604
237,145,20787,1,0,0:0:0:0:
386,283,20937,1,0,0:0:0:0:
132,127,21087,1,0,0:0:0:0:
86,327,21237,1,0,0:0:0:0:
242,71,21387,2,0,L|290:-4,1,67.5000025749208
217,108,21687,6,0,L|241:70,1,45
256,192,21987,5,0,0:0:0:0:
86,111,22137,2,0,P|151:124|216:108,1,135.000005149842
52,196,22587,1,0,0:0:0:0:
86,111,22737,1,0,0:0:0:0:
256,192,22887,5,0,0:0:0:0:
216,107,23037,1,0,0:0:0:0:
60,212,23187,1,0,0:0:0:0:
94,127,23337,1,0,0:0:0:0:
264,208,23487,5,0,0:0:0:0:
224,123,23637,1,0,0:0:0:0:
408,112,23787,1,0,0:0:0:0:
336,56,23937,1,0,0:0:0:0:
380,173,24087,6,0,L|408:112,1,67.5000025749208
294,187,24387,1,0,0:0:0:0:
420,297,24537,2,0,P|386:238|379:172,1,135.000005149842
345,347,24987,1,0,0:0:0:0:
478,204,25137,1,0,0:0:0:0:
294,187,25287,5,0,0:0:0:0:
461,115,25437,1,0,0:0:0:0:
410,285,25587,1,0,0:0:0:0:
284,173,25737,1,0,0:0:0:0:
478,204,25887,5,0,0:0:0:0:
367,36,26037,1,0,0:0:0:0:
369,158,26187,1,0,0:0:0:0:
285,9,26337,1,0,0:0:0:0:
152,88,26487,6,0,P|173:61|201:43,1,67.5000025749208
318,128,26787,1,0,0:0:0:0:
152,88,26937,1,0,0:0:0:0:
318,128,27087,2,0,P|355:156|374:189,1,67.5000025749208
209,238,27387,1,0,0:0:0:0:
366,173,27537,1,0,0:0:0:0:
209,238,27687,6,0,P|172:266|153:299,1,67.5000025749208
323,335,27987,1,0,0:0:0:0:
209,238,28137,1,0,0:0:0:0:
318,128,28287,5,0,0:0:0:0:
209,238,28437,1,0,0:0:0:0:
201,43,28587,5,0,0:0:0:0:
318,128,28737,1,0,0:0:0:0:
201,43,28887,6,0,P|164:71|145:104,1,67.5000025749208
180,192,29187,1,0,0:0:0:0:
201,341,29337,2,0,P|164:313|145:280,1,67.5000025749208
180,192,29637,1,0,0:0:0:0:
332,192,29787,2,0,L|244:192,1,67.5000025749208
323,159,30087,6,0,L|332:192,1,33.7500012874604
180,192,30237,2,0,L|188:159,1,33.7500012874604
256,292,30387,1,0,0:0:0:0:
256,92,30537,1,0,0:0:0:0:
408,192,30687,5,0,0:0:0:0:
188,159,30837,1,0,0:0:0:0:
324,225,30987,1,0,0:0:0:0:
104,192,31137,1,0,0:0:0:0:
104,192,31287,6,0,B|84:188|84:188|52:208|52:208|20:188|20:188|3:188,1,112.5
192,192,31587,5,0,0:0:0:0:
104,192,31737,2,0,P|96:156|108:120,1,67.5000025749208
272,240,32037,2,0,P|280:276|268:312,1,67.5000025749208
274,139,32337,1,0,0:0:0:0:
274,139,32487,6,0,B|270:159|270:159|290:191|290:191|270:223|270:223|271:239,1,112.5
272,48,32787,5,0,0:0:0:0:
192,92,32937,2,0,P|160:108|120:108,1,67.5000025749208
348,96,33237,2,0,P|380:80|420:80,1,67.5000025749208
260,147,33537,1,0,0:0:0:0:
260,147,33687,6,0,B|275:134|275:134|313:136|313:136|332:104|332:104|347:96,1,112.5
189,204,33987,5,0,0:0:0:0:
169,116,34137,1,0,0:0:0:0:
181,292,34287,1,0,0:0:0:0:
189,204,34437,1,0,0:0:0:0:
101,176,34587,1,0,0:0:0:0:
274,241,34737,1,0,0:0:0:0:
274,241,34887,6,0,B|289:253|289:253|327:251|327:251|346:283|346:283|362:291,1,112.5
189,204,35187,5,0,0:0:0:0:
433,233,35337,1,0,0:0:0:0:
189,204,35487,2,0,B|197:236|197:236|186:289,1,67.5000025749208
433,233,35787,2,0,B|424:200|424:200|435:147,1,67.5000025749208
433,233,36087,6,0,B|437:213|437:213|417:181|417:181|437:149|437:149|436:133,1,112.5
362,291,36387,5,0,0:0:0:0:
311,215,36537,1,0,0:0:0:0:
268,295,36687,2,0,P|281:347|302:365,1,67.5000025749208
311,215,36987,2,0,P|257:201|223:217,1,67.5000025749208
311,215,37287,6,0,B|293:210|293:210|269:182|269:182|232:191|232:191|215:182,1,112.5
49,120,37587,5,0,0:0:0:0:
97,198,37737,1,0,0:0:0:0:
146,120,37887,2,0,P|136:76|108:48,1,67.5000025749208
97,198,38187,2,0,P|107:242|135:270,1,67.5000025749208
97,198,38487,6,0,B|103:214|103:214|95:251|95:251|124:275|124:275|127:294,1,112.5
294,351,38787,5,0,0:0:0:0:
222,294,38937,1,0,0:0:0:0:
309,263,39087,1,0,0:0:0:0:
294,351,39237,1,0,0:0:0:0:
222,294,39387,2,0,P|216:246|236:210,1,67.5000025749208
222,294,39687,6,0,P|228:262|145:180,1,112.5
159,170,39912,1,0,0:0:0:0:
159,170,39987,2,0,P|223:166|270:130,1,112.5
213,353,40287,2,0,P|184:305|135:279,1,112.5,0|0,0:0|3:0,3:0:0:0:
347,213,40587,2,0,P|320:261|321:317,1,112.5
347,213,40887,6,0,B|342:229|342:229|313:253|313:253|321:290|321:290|312:306,1,112.5
443,178,41187,5,0,0:0:0:0:
347,213,41337,2,0,P|297:212|262:190,1,67.5000025749208
443,178,41637,1,0,0:0:0:0:
351,83,41787,2,0,P|385:80|417:91,1,67.5000025749208
251,70,42087,6,0,B|267:73|267:73|302:58|302:58|331:83|331:83|349:82,1,112.5
181,130,42387,5,0,0:0:0:0:
251,70,42537,2,0,P|207:39|180:35,1,67.5000025749208
181,130,42837,1,0,0:0:0:0:
109,188,42987,2,0,P|153:219|180:223,1,67.5000025749208
108,187,43287,6,0,B|126:194|126:194|142:229|142:229|180:230|180:230|194:240,1,112.5
35,133,43587,5,0,0:0:0:0:
243,83,43737,2,0,P|177:68|113:85,1,135.000005149842
290,163,44187,1,0,0:0:0:0:
334,83,44337,1,0,0:0:0:0:
293,254,44487,5,0,0:0:0:0:
411,134,44637,1,0,0:0:0:0:
286,344,44787,1,0,0:0:0:0:
463,209,44937,1,0,0:0:0:0:
286,344,45087,2,0,P|248:334|223:307,1,67.5000025749208
377,319,45387,1,0,0:0:0:0:
310,256,45537,1,0,0:0:0:0:
450,265,45687,6,0,P|428:240|397:229,1,67.5000025749208
242,190,45987,1,0,0:0:0:0:
154,300,46137,2,0,P|187:296|215:278,1,67.5000025749208
173,129,46437,1,0,0:0:0:0:
310,256,46587,1,0,0:0:0:0:
104,67,46737,1,0,0:0:0:0:
311,130,46887,5,0,0:0:0:0:
84,155,47037,1,0,0:0:0:0:
326,40,47187,2,0,P|362:55|388:88,1,67.5000025749208
84,155,47487,2,0,P|48:140|22:107,1,67.5000025749208
173,129,47787,1,0,0:0:0:0:
150,217,47937,1,0,0:0:0:0:
305,189,48087,6,0,P|271:184|239:191,1,67.5000025749208
123,303,48387,1,0,0:0:0:0:
358,225,48537,2,0,P|336:200|305:189,1,67.5000025749208
197,40,48837,1,0,0:0:0:0:
123,303,48987,1,0,0:0:0:0:
173,129,49137,1,0,0:0:0:0:
202,262,49287,6,0,L|190:218,1,33.7500012874604
173,129,49437,2,0,L|228:146,1,33.7500012874604
302,166,49587,1,0,0:0:0:0:
108,212,49737,5,0,0:0:0:0:
308,270,49887,1,0,0:0:0:0:
259,74,50037,1,0,0:0:0:0:
288,307,50187,5,0,0:0:0:0:
75,178,50337,1,0,0:0:0:0:
293,66,50487,6,0,B|332:44|364:64|364:64|372:128|448:144,1,180
83,138,50937,2,0,B|140:128|148:64|148:64|180:44|219:66,1,180
344,192,51387,1,0,0:0:0:0:
168,192,51537,1,0,0:0:0:0:
320,204,51687,6,0,B|256:224|256:224|180:204,1,135.000005149842
355,86,51987,5,0,0:0:0:0:
192,188,52137,2,0,B|257:205|257:205|321:185,1,135.000005149842
157,86,52437,5,0,0:0:0:0:
360,296,52587,1,0,0:0:0:0:
152,296,52737,1,0,0:0:0:0:
434,143,52887,6,0,B|395:184|411:240|411:240|360:296,1,180
77,144,53337,2,0,B|116:184|100:240|100:240|152:296,1,180
267,34,53787,1,0,0:0:0:0:
256,276,53937,1,0,0:0:0:0:
267,34,54087,6,0,B|215:24|215:24|143:64,1,135.000005149842
144,64,54312,1,0,0:0:0:0:
144,64,54387,1,0,0:0:0:0:
213,308,54537,2,0,B|265:318|265:318|337:278,1,135.000005149842
239,126,54837,5,0,0:0:0:0:
181,293,54987,1,0,0:0:0:0:
362,259,55137,1,0,0:0:0:0:
103,217,55287,5,0,0:0:0:0:
323,186,55437,1,0,0:0:0:0:
144,64,55587,1,0,0:0:0:0:
224,261,55737,5,0,0:0:0:0:
270,60,55887,1,0,0:0:0:0:
98,189,56037,1,0,0:0:0:0:
349,170,56187,5,0,0:0:0:0:
261,365,56337,1,0,0:0:0:0:
349,170,56487,2,0,P|285:149|244:157,1,90
366,352,56787,1,0,0:0:0:0:
214,154,56937,2,0,P|278:133|319:141,1,90
166,334,57237,5,0,0:0:0:0:
134,104,57387,1,0,0:0:0:0:
274,225,57537,1,0,0:0:0:0:
66,180,57687,5,0,0:0:0:0:
242,128,57837,1,0,0:0:0:0:
370,280,57987,1,0,0:0:0:0:
134,104,58137,1,0,0:0:0:0:
248,301,58287,5,0,0:0:0:0:
353,104,58437,1,0,0:0:0:0:
134,242,58587,1,0,0:0:0:0:
248,64,58737,1,0,0:0:0:0:
370,280,58887,1,0,0:0:0:0:
144,220,59037,6,0,L|215:210,1,45
416,183,59187,1,0,0:0:0:0:
132,132,59337,6,0,P|84:156|60:236,1,135.000005149842
256,120,59787,1,0,0:0:0:0:
256,264,59937,1,0,0:0:0:0:
67,77,60087,6,0,B|115:121|115:121|151:117|151:117|176:192,1,180
68,307,60537,2,0,B|116:263|116:263|152:267|152:267|176:192,1,180
264,192,60987,1,0,0:0:0:0:
84,192,61137,1,0,0:0:0:0:
315,115,61287,6,0,B|292:67|292:67|250:112|199:73,1,135.000005149842
364,192,61587,1,0,0:0:0:0:
218,299,61737,2,0,B|250:272|292:317|292:317|313:272,1,135.000005149842
175,192,62037,1,0,0:0:0:0:
448,192,62187,1,0,0:0:0:0:
268,192,62337,1,0,0:0:0:0:
442,317,62487,6,0,B|396:312|396:312|360:260|360:260|376:228|364:192,1,180
442,66,62937,2,0,B|396:72|396:72|360:124|360:124|376:156|364:192,1,180
185,48,63387,1,0,0:0:0:0:
256,284,63537,1,0,0:0:0:0:
247,113,63687,6,0,B|157:63|157:63|185:47,1,135.000005149842
184,47,63912,1,0,0:0:0:0:
184,47,63987,1,0,0:0:0:0:
174,271,64137,2,0,B|202:255|202:255|112:205,1,135.000005149842
298,272,64437,5,0,0:0:0:0:
112,205,64587,1,0,0:0:0:0:
168,364,64737,1,0,0:0:0:0:
264,80,64887,6,0,B|290:163|290:163|355:97,1,180
188,132,65337,1,0,0:0:0:0:
396,180,65487,1,0,0:0:0:0:
264,57,65637,1,0,0:0:0:0:
268,260,65787,1,0,0:0:0:0:
88,177,65937,1,0,0:0:0:0:
380,261,66087,5,0,0:0:0:0:
139,287,66237,1,0,0:0:0:0:
304,139,66387,1,0,0:0:0:0:
240,364,66537,1,0,0:0:0:0:
195,157,66687,5,0,0:0:0:0:
364,361,66837,1,0,0:0:0:0:
405,108,66987,1,0,0:0:0:0:
247,277,67137,1,0,0:0:0:0:
424,256,67287,5,0,0:0:0:0:
250,118,67437,1,0,0:0:0:0:
130,265,67587,1,0,0:0:0:0:
364,361,67737,5,0,0:0:0:0:
217,216,67887,1,0,0:0:0:0:
84,354,68037,1,0,0:0:0:0:
395,259,68187,5,0,0:0:0:0:
118,135,68337,1,0,0:0:0:0:
345,127,68487,6,0,L|277:151,1,45
259,312,68637,2,0,L|191:288,1,45
257,151,68787,2,0,L|189:171,1,45
175,280,68937,2,0,L|119:264,1,45
172,105,69087,6,0,L|240:129,1,45
291,314,69237,2,0,L|359:290,1,45
260,129,69387,2,0,L|328:149,1,45
375,282,69537,2,0,L|431:266,1,45
194,194,69687,5,0,0:0:0:0:
72,136,76887,6,0,L|148:124,1,67.5000025749208
200,192,77187,1,0,0:0:0:0:
332,79,77337,6,0,L|200:56,1,135.000005149842
124,244,77787,1,0,0:0:0:0:
316,184,77937,2,0,L|269:177,1,33.7500012874604
112,156,78087,5,0,0:0:0:0:
112,156,78162,1,0,0:0:0:0:
112,156,78237,1,0,0:0:0:0:
309,271,78387,1,0,0:0:0:0:
137,334,78537,1,0,0:0:0:0:
312,288,78687,1,0,0:0:0:0:
124,244,78837,1,0,0:0:0:0:
316,308,78987,1,0,0:0:0:0:
112,156,79137,1,0,0:0:0:0:
319,327,79287,5,0,0:0:0:0:
436,161,79437,2,0,L|423:212,1,33.7500012874604
465,289,79587,1,0,0:0:0:0:
264,200,79737,2,0,L|196:193,1,67.5000025749208
356,112,80037,1,0,0:0:0:0:
356,204,80187,1,0,0:0:0:0:
432,64,80337,1,0,0:0:0:0:
264,200,80487,5,0,0:0:0:0:
432,64,80637,2,0,L|516:56,1,67.5000025749208
328,32,80937,1,0,0:0:0:0:
356,204,81087,2,0,L|423:210,1,67.5000025749208
260,92,81387,2,0,P|224:136|220:152,1,67.5000025749208
352,112,81687,5,0,0:0:0:0:
212,232,81837,1,0,0:0:0:0:
423,210,81987,1,0,0:0:0:0:
221,145,82137,2,0,P|180:104|172:68,1,67.5000025749208
124,256,82437,1,0,0:0:0:0:
212,232,82587,1,0,0:0:0:0:
44,212,82737,1,0,0:0:0:0:
296,200,82887,6,0,L|384:168,1,67.5000025749208
392,164,83112,1,0,0:0:0:0:
392,164,83187,1,0,0:0:0:0:
221,145,83337,1,0,0:0:0:0:
336,328,83487,2,0,P|306:313|284:288,1,67.5000025749208
168,185,83787,2,0,P|199:169|221:144,1,67.5000025749208
85,157,84087,5,0,0:0:0:0:
274,74,84237,2,0,L|361:89,1,67.5000025749208
500,216,84537,2,0,L|413:231,1,67.5000025749208
432,100,84837,1,0,0:0:0:0:
276,226,84987,2,0,L|343:215,1,67.5000025749208
254,317,85287,5,0,0:0:0:0:
132,157,85437,2,0,L|198:168,1,67.5000025749208
13,243,85737,2,0,L|79:232,1,67.5000025749208
86,79,86037,1,0,0:0:0:0:
235,252,86187,2,0,L|169:263,1,67.5000025749208
269,110,86487,5,0,0:0:0:0:
198,168,86637,1,0,0:0:0:0:
303,298,86787,5,0,0:0:0:0:
199,198,86937,1,0,0:0:0:0:
142,364,87087,5,0,0:0:0:0:
338,315,87237,1,0,0:0:0:0:
79,252,87387,5,0,0:0:0:0:
298,332,87537,1,0,0:0:0:0:
227,107,87687,6,0,P|187:100|152:118,1,67.5000025749208
133,125,87912,1,0,0:0:0:0:
133,125,87987,1,0,0:0:0:0:
79,252,88137,1,0,0:0:0:0:
163,214,88287,1,0,0:0:0:0:
14,317,88437,1,0,0:0:0:0:
250,232,88587,2,0,P|294:260|317:299,1,67.5000025749208
296,70,88887,6,0,P|296:123|317:163,1,67.5000025749208
109,80,89187,2,0,P|153:108|176:147,1,67.5000025749208
57,208,89487,1,0,0:0:0:0:
226,186,89637,1,0,0:0:0:0:
150,266,89787,1,0,0:0:0:0:
244,80,89937,1,0,0:0:0:0:
331,224,90087,5,0,0:0:0:0:
226,186,90237,1,0,0:0:0:0:
413,156,90387,1,0,0:0:0:0:
208,327,90537,2,0,P|242:327|274:317,1,67.5000025749208
405,356,90837,1,0,0:0:0:0:
413,155,90987,2,0,P|394:183|387:216,1,67.5000025749208
152,211,91287,5,0,0:0:0:0:
289,233,91437,1,0,0:0:0:0:
353,65,91587,1,0,0:0:0:0:
233,152,91737,1,0,0:0:0:0:
134,36,91887,6,0,P|180:51|209:74,1,67.5000025749208
23,197,92187,1,0,0:0:0:0:
37,29,92337,1,0,0:0:0:0:
207,233,92487,6,0,P|161:218|132:195,1,67.5000025749208
122,182,92712,1,0,0:0:0:0:
122,182,92787,1,0,0:0:0:0:
327,179,92937,2,0,P|298:161|265:153,1,67.5000025749208
435,147,93237,1,0,0:0:0:0:
375,308,93387,2,0,P|407:298|435:280,1,67.5000025749208
215,313,93687,6,0,P|243:294|275:284,1,67.5000025749208
110,320,93987,1,0,0:0:0:0:
260,161,94137,2,0,L|187:137,1,67.5000025749208
304,251,94437,1,0,0:0:0:0:
111,211,94587,1,0,0:0:0:0:
334,349,94737,1,0,0:0:0:0:
195,139,94887,6,0,L|260:161,1,67.5000025749208
111,211,95187,1,0,0:0:0:0:
367,229,95337,2,0,L|302:251,1,67.5000025749208
277,64,95637,1,0,0:0:0:0:
460,183,95787,1,0,0:0:0:0:
281,165,95937,1,0,0:0:0:0:
111,211,96087,6,0,P|165:217|189:210,1,67.5000025749208
277,64,96387,1,0,0:0:0:0:
460,183,96537,2,0,P|406:189|382:182,1,67.5000025749208
188,115,96837,1,0,0:0:0:0:
289,299,96987,2,0,L|354:282,1,67.5000025749208
378,86,97287,5,0,0:0:0:0:
378,86,97362,1,0,0:0:0:0:
378,86,97437,1,0,0:0:0:0:
220,215,97587,1,0,0:0:0:0:
408,174,97737,1,0,0:0:0:0:
121,236,97887,1,0,0:0:0:0:
318,195,98037,1,0,0:0:0:0:
23,259,98187,1,0,0:0:0:0:
408,174,98337,1,0,0:0:0:0:
23,259,98487,6,0,L|110:239,1,67.5000025749208
239,321,98787,1,0,0:0:0:0:
73,90,98937,2,0,L|161:109,1,67.5000025749208
123,327,99237,1,0,0:0:0:0:
225,59,99387,1,0,0:0:0:0:
17,170,99537,1,0,0:0:0:0:
323,195,99687,6,0,L|269:153,1,67.5000025749208
17,170,99987,5,0,0:0:0:0:
322,195,100137,2,0,L|269:236,1,67.5000025749208
214,314,100437,1,0,0:0:0:0:
225,59,100587,1,0,0:0:0:0:
359,288,100737,1,0,0:0:0:0:
132,183,100887,6,0,L|219:139,1,67.5000025749208
359,288,101187,5,0,0:0:0:0:
71,152,101337,2,0,L|132:183,1,67.5000025749208
131,287,101637,1,0,0:0:0:0:
343,184,101787,1,0,0:0:0:0:
191,101,101937,1,0,0:0:0:0:
359,288,102087,6,0,L|285:330,1,67.5000025749208
274,343,102312,1,0,0:0:0:0:
274,343,102387,1,0,0:0:0:0:
491,252,102537,2,0,L|454:344,1,67.5000025749208
453,35,102837,1,0,0:0:0:0:
281,208,102987,1,0,0:0:0:0:
491,137,103137,5,0,0:0:0:0:
172,159,103287,2,0,L|230:124,1,67.5000025749208
405,218,103587,5,0,0:0:0:0:
114,124,103737,2,0,L|172:159,1,67.5000025749208
269,240,104037,1,0,0:0:0:0:
178,40,104187,1,0,0:0:0:0:
62,208,104337,1,0,0:0:0:0:
343,138,104487,6,0,L|259:118,1,67.5000025749208
419,333,104787,5,0,0:0:0:0:
211,138,104937,2,0,L|295:118,1,67.5000025749208
370,160,105237,1,0,0:0:0:0:
120,176,105387,1,0,0:0:0:0:
463,190,105537,1,0,0:0:0:0:
266,297,105687,6,0,L|350:277,1,67.5000025749208
238,98,105987,2,0,L|172:82,1,67.5000025749208
305,305,106287,2,0,L|239:289,1,67.5000025749208
212,105,106587,2,0,L|277:89,1,67.5000025749208
356,316,106887,6,0,L|290:300,1,67.5000025749208
259,293,107112,1,0,0:0:0:0:
259,293,107187,1,0,0:0:0:0:
134,135,107337,2,0,P|165:162|191:83,1,135.000005149842
41,124,107787,1,0,0:0:0:0:
209,102,107937,1,0,0:0:0:0:
33,144,108087,6,0,P|23:206|30:292,1,135.000005149842
127,112,108537,1,0,0:0:0:0:
192,332,108687,2,0,P|158:327|126:317,1,67.5000025749208
328,192,108987,1,0,0:0:0:0:
127,112,109137,1,0,0:0:0:0:
126,346,109287,2,0,P|159:342|191:332,1,67.5000025749208
328,192,109587,1,0,0:0:0:0:
61,126,109737,2,0,P|93:116|127:111,1,67.5000025749208
431,143,110037,1,0,0:0:0:0:
241,121,110187,1,0,0:0:0:0:
443,162,110337,1,0,0:0:0:0:
233,142,110487,6,0,P|219:190|214:285,1,135.000005149842
337,193,110937,1,0,0:0:0:0:
129,183,111087,1,0,0:0:0:0:
311,293,111237,1,0,0:0:0:0:
182,98,111387,1,0,0:0:0:0:
81,267,111537,1,0,0:0:0:0:
359,97,111687,6,0,P|400:95|439:101,1,67.5000025749208
463,106,111912,1,0,0:0:0:0:
463,106,111987,1,0,0:0:0:0:
278,34,112137,1,0,0:0:0:0:
337,189,112287,1,0,0:0:0:0:
250,133,112437,1,0,0:0:0:0:
445,203,112587,1,0,0:0:0:0:
355,95,112737,1,0,0:0:0:0:
232,303,112887,6,0,P|295:301|376:274,1,135.000005149842
174,382,113337,1,0,0:0:0:0:
93,183,113487,2,0,P|156:185|189:195,1,67.5000025749208
44,272,113787,1,0,0:0:0:0:
231,125,113937,1,0,0:0:0:0:
232,303,114087,6,0,P|169:301|136:291,1,67.5000025749208
327,252,114387,1,0,0:0:0:0:
163,122,114537,2,0,P|226:124|259:134,1,67.5000025749208
66,171,114837,1,0,0:0:0:0:
327,252,114987,1,0,0:0:0:0:
59,279,115137,1,0,0:0:0:0:
213,340,115287,6,0,P|150:338|117:328,1,67.5000025749208
365,158,115587,1,0,0:0:0:0:
280,342,115737,2,0,P|217:340|184:330,1,67.5000025749208
275,108,116037,1,0,0:0:0:0:
327,252,116187,1,0,0:0:0:0:
125,287,116337,1,0,0:0:0:0:
391,163,116487,6,0,L|407:200,1,33.7500012874604
212,339,116637,2,0,L|231:284,1,33.7500012874604
275,108,116787,1,0,0:0:0:0:
343,340,116937,1,0,0:0:0:0:
380,140,117087,1,0,0:0:0:0:
176,137,117237,1,0,0:0:0:0:
437,220,117387,1,0,0:0:0:0:
275,108,117537,1,0,0:0:0:0:
228,308,117687,6,0,B|270:311|270:311|315:334|315:334|371:335,1,135.000005149842
