osu file format v14

[General]
AudioFilename: no.mp3
AudioLeadIn: 0
PreviewTime: 136587
Countdown: 0
SampleSet: Soft
StackLeniency: 0.7
Mode: 0
LetterboxInBreaks: 0
WidescreenStoryboard: 0

[Editor]
DistanceSpacing: 0.9
BeatDivisor: 4
GridSize: 4
TimelineZoom: 1

[Metadata]
Title:No title
TitleUnicode:No title
Artist:Reol
ArtistUnicode:れをる
Creator:Kinomi
Version:Little's Normal
Source:
Tags:baldrace cRyo[iceeicee] yf_bmp -Yuzuriha ZZHBOY TT_Mouse Little CloudSplash16 EmingK
BeatmapID:926014
BeatmapSetID:394851

[Difficulty]
HPDrainRate:4
CircleSize:3.5
OverallDifficulty:4
ApproachRate:5.5
SliderMultiplier:1.1
SliderTickRate:1

[Events]
//Background and Video events
0,0,"BG.jpg",0,0
//Break Periods
2,69887,75762
2,156287,164562
//Storyboard Layer 0 (Background)
//Storyboard Layer 1 (Fail)
//Storyboard Layer 2 (Pass)
//Storyboard Layer 3 (Foreground)
//Storyboard Sound Samples

[TimingPoints]
87,300,4,2,16,50,1,0
12087,-100,4,2,16,60,0,0
50487,-100,4,2,16,70,0,1
69687,-100,4,2,16,65,0,0
79287,-100,4,2,16,60,0,0
117687,-100,4,2,16,70,0,1
135687,-100,4,2,16,70,0,0
136887,-100,4,2,16,70,0,1
156087,-100,4,2,16,60,0,0
176487,-100,4,2,16,75,0,1
194487,-100,4,2,16,75,0,0
195687,-100,4,2,16,75,0,1
214887,-100,4,2,16,70,0,0

[Colours]
Combo1 : 250,250,5
Combo2 : 255,128,192
Combo3 : 4,251,202
Combo4 : 249,170,6

[HitObjects]
88,224,2487,5,0,3:0:0:0:
224,284,2937,2,0,L|392:272,1,165,0|0,3:0|3:0,0:0:0:0:
436,268,3537,2,0,L|425:321,1,55,0|0,3:0|3:0,0:0:0:0:
300,244,4137,6,0,L|321:136,2,110,0|0|0,3:0|3:0|3:0,0:0:0:0:
290,292,4887,1,0,3:0:0:0:
184,190,5337,2,0,P|130:190|87:224,1,110,0|0,3:0|3:0,0:0:0:0:
92,324,5937,6,0,L|145:334,1,55,0|0,3:0|3:0,0:0:0:0:
196,344,6237,1,0,3:0:0:0:
295,343,6537,2,0,P|337:310|392:310,1,110,0|0,3:0|3:0,0:0:0:0:
440,308,6987,2,0,P|460:267|414:268,1,110,0|0,3:0|3:0,0:0:0:0:
381,363,7587,6,0,L|392:310,1,55,2|0,0:3|3:0,0:0:0:0:
344,224,8037,2,0,L|354:170,1,55,0|2,0:0|3:0,0:0:0:0:
352,120,8337,1,0,3:0:0:0:
352,120,8487,2,0,P|310:87|255:87,1,110,0|2,3:0|0:3,0:0:0:0:
208,100,8937,2,0,P|158:121|105:106,1,110,0|0,3:0|3:0,0:0:0:0:
64,80,9387,1,8,0:0:0:0:
4,160,9687,5,8,3:0:0:0:
43,251,9987,2,0,L|97:261,1,55,2|8,0:3|3:0,0:0:0:0:
196,280,10437,2,0,L|247:261,1,55,8|2,3:0|0:3,0:0:0:0:
346,261,10887,2,0,P|248:262|292:184,1,220,0|0,3:0|0:0,0:0:0:0:
346,261,11787,1,8,3:2:0:0:
268,320,12087,6,0,P|215:305|166:326,1,110,4|2,3:1|0:3,0:0:0:0:
116,328,12537,2,0,L|106:274,1,55,0|0,3:0|0:0,0:0:0:0:
88,176,12987,2,0,L|139:194,1,55,2|0,3:0|3:0,0:0:0:0:
188,208,13287,2,0,L|296:187,1,110,0|2,3:0|0:3,0:0:0:0:
336,216,13737,2,0,L|228:237,1,110,0|0,3:0|3:0,0:0:0:0:
180,248,14187,1,8,0:0:0:0:
224,336,14487,6,0,P|275:351|325:330,1,110,0|2,3:0|0:3,0:0:0:0:
400,264,15087,2,0,P|415:212|394:162,1,110,0|2,0:0|0:3,0:0:0:0:
328,88,15687,1,0,3:0:0:0:
235,122,15987,1,2,0:3:0:0:
235,122,16287,2,0,L|127:101,1,110,0|8,0:0|3:2,0:0:0:0:
40,148,16887,6,0,P|24:199|45:249,1,110,0|2,3:0|0:3,0:0:0:0:
136,292,17487,2,0,L|244:271,1,110,0|2,0:0|3:0,0:0:0:0:
340,252,18087,1,0,3:0:0:0:
408,324,18387,1,2,0:3:0:0:
495,280,18687,2,0,P|511:228|490:178,1,110,0|8,0:0|0:0,0:0:0:0:
396,144,19287,6,0,P|342:155|290:140,1,110,0|2,3:0|0:3,0:0:0:0:
192,144,19887,2,0,P|138:132|86:147,1,110,0|2,0:0|0:3,0:0:0:0:
12,212,20487,1,0,3:0:0:0:
29,307,20787,1,2,0:3:0:0:
119,339,21087,1,0,0:0:0:0:
191,277,21387,2,0,P|240:256|292:271,1,110,8|0,3:2|3:0,0:0:0:0:
344,272,21837,2,0,L|355:219,1,55,0|2,0:0|0:3,0:0:0:0:
236,60,22587,6,0,L|225:113,1,55,2|0,3:0|3:0,0:0:0:0:
208,160,22887,2,0,P|156:175|106:154,1,110,0|2,3:0|0:3,0:0:0:0:
32,88,23487,1,0,0:0:0:0:
13,185,23787,2,0,L|34:293,1,110,8|0,0:0|3:0,0:0:0:0:
64,332,24237,2,0,P|91:335|117:330,1,55,0|2,0:0|0:3,0:0:0:0:
288,228,24987,6,0,P|260:224|234:229,1,55,2|0,0:3|3:0,0:0:0:0:
196,260,25287,2,0,L|217:368,1,110,0|2,3:0|0:3,0:0:0:0:
312,344,25887,1,0,0:0:0:0:
361,257,26187,2,0,P|362:203|329:160,1,110,8|0,3:2|3:0,0:0:0:0:
288,132,26637,5,0,0:0:0:0:
188,132,26937,2,0,P|134:143|82:128,1,110,0|0,3:0|0:0,0:0:0:0:
36,108,27387,1,2,3:0:0:0:
36,108,27687,2,0,L|57:216,1,110,0|2,3:0|0:3,0:0:0:0:
76,312,28287,1,0,0:0:0:0:
152,248,28587,1,8,0:0:0:0:
232,304,28887,6,0,P|281:324|333:309,1,110,8|2,3:0|0:3,0:0:0:0:
360,268,29337,2,0,L|371:215,1,55,8|0,3:0|0:0,0:0:0:0:
448,152,29787,2,0,L|437:99,1,55,2|8,0:3|3:0,0:0:0:0:
428,48,30087,1,0,3:0:0:0:
340,92,30387,1,2,0:3:0:0:
256,40,30687,2,0,P|204:24|154:45,1,110,0|8,0:0|3:2,0:0:0:0:
128,88,31137,6,0,L|149:196,1,110,4|0,0:1|0:0,0:0:0:0:
184,232,31587,2,0,L|173:285,1,55,2|0,0:3|3:0,0:0:0:0:
244,356,32037,1,0,0:0:0:0:
336,316,32337,2,0,P|351:264|330:214,1,110,0|0,3:0|0:0,0:0:0:0:
304,172,32787,2,0,L|315:119,1,55,2|0,0:3|3:0,0:0:0:0:
396,60,33237,1,0,3:0:0:0:
464,132,33537,6,0,L|443:240,1,110,0|0,3:0|0:0,0:0:0:0:
432,288,33987,1,2,0:3:0:0:
336,316,34287,2,0,P|284:300|234:321,1,110,0|2,0:0|0:3,0:0:0:0:
192,344,34737,2,0,P|140:360|90:339,1,110,0|0,3:0|3:0,0:0:0:0:
56,304,35187,1,2,0:3:0:0:
92,212,35487,2,0,L|200:191,1,110,0|8,0:0|3:2,0:0:0:0:
248,176,35937,6,0,P|268:126|252:74,1,110,0|0,0:0|0:0,0:0:0:0:
216,40,36387,1,2,0:3:0:0:
120,68,36687,2,0,P|99:117|115:169,1,110,0|2,0:0|3:0,0:0:0:0:
156,200,37137,2,0,L|145:253,1,55,0|0,3:0|3:0,0:0:0:0:
124,352,37587,1,2,0:3:0:0:
124,352,37887,2,0,P|173:331|225:347,1,110,0|8,0:0|0:0,0:0:0:0:
276,348,38337,6,0,L|297:240,1,110,0|0,3:0|0:0,0:0:0:0:
308,192,38787,1,2,0:3:0:0:
404,168,39087,1,0,0:0:0:0:
436,260,39387,1,2,0:3:0:0:
345,303,39687,2,0,P|293:319|243:298,1,110,0|2,3:0|0:3,0:0:0:0:
156,252,40287,2,0,P|104:235|54:256,1,110,0|8,0:0|3:2,0:0:0:0:
16,288,40737,6,0,L|37:180,1,110,0|0,0:0|0:0,0:0:0:0:
48,132,41187,1,2,0:3:0:0:
136,84,41487,2,0,P|185:104|237:88,1,110,0|2,0:0|3:0,0:0:0:0:
280,60,41937,1,0,3:0:0:0:
280,60,42237,2,0,L|259:168,1,110,0|0,0:0|3:0,0:0:0:0:
248,216,42687,1,0,0:0:0:0:
292,304,42987,1,8,0:0:0:0:
292,304,43137,6,0,P|341:324|393:308,1,110,0|0,3:0|0:0,0:0:0:0:
428,272,43587,2,0,L|439:219,1,55,2|0,0:3|3:0,0:0:0:0:
378,140,44037,2,0,L|325:129,1,55,0|2,3:0|0:3,0:0:0:0:
227,108,44487,2,0,L|248:216,1,110,0|2,3:0|0:3,0:0:0:0:
248,264,44937,1,0,3:0:0:0:
248,264,45087,2,0,P|198:284|146:268,1,110,0|8,0:0|3:2,0:0:0:0:
104,244,45537,6,0,P|54:224|2:240,2,110,0|0|0,0:0|0:0|3:0,0:0:0:0:
146,268,46287,1,0,0:0:0:0:
248,264,46587,2,0,L|259:211,1,55,2|0,3:0|3:0,0:0:0:0:
272,160,46887,1,0,3:0:0:0:
352,104,47187,1,2,0:3:0:0:
429,162,47487,1,0,0:0:0:0:
397,253,47787,1,8,0:0:0:0:
397,253,47937,6,0,P|346:232|295:248,1,110,0|0,3:0|0:0,0:0:0:0:
248,264,48387,1,2,0:3:0:0:
156,228,48687,2,0,P|140:176|160:126,1,110,0|2,0:0|0:3,0:0:0:0:
260,128,49287,2,0,P|358:129|314:51,1,220,0|0,3:0|0:0,0:0:0:0:
260,128,50187,1,8,3:2:0:0:
340,188,50487,6,0,B|392:172|392:172|447:179,1,110,4|2,3:1|0:3,0:0:0:0:
452,228,50937,2,0,B|396:220|396:220|344:236,1,110,0|0,3:0|0:0,0:0:0:0:
296,252,51387,1,2,3:0:0:0:
220,316,51687,2,0,P|168:331|118:311,1,110,0|2,3:0|0:3,0:0:0:0:
84,276,52137,2,0,L|80:221,1,55,0|0,3:0|0:0,0:0:0:0:
76,124,52587,2,0,L|124:148,1,55,8|0,0:0|3:0,0:0:0:0:
172,168,52887,6,0,P|222:147|274:162,1,110,0|2,3:0|0:3,0:0:0:0:
316,188,53337,2,0,P|366:167|418:182,1,110,0|0,3:0|3:0,0:0:0:0:
460,208,53787,1,2,0:3:0:0:
436,304,54087,2,0,L|328:325,1,110,0|2,3:0|0:3,0:0:0:0:
280,336,54537,1,0,3:0:0:0:
192,292,54837,2,0,P|165:286|137:289,1,55,0|8,3:0|3:2,0:0:0:0:
44,256,55287,6,0,P|23:205|38:153,1,110,0|2,3:0|0:3,0:0:0:0:
72,116,55737,2,0,L|76:61,1,55,0|0,3:0|0:0,0:0:0:0:
172,36,56187,2,0,L|168:91,1,55,2|0,3:0|3:0,0:0:0:0:
180,140,56487,2,0,P|230:160|282:145,1,110,0|2,3:0|0:3,0:0:0:0:
324,120,56937,1,0,3:0:0:0:
408,172,57237,2,0,P|410:199|405:226,1,55,0|8,3:0|0:0,0:0:0:0:
332,296,57687,6,0,B|277:284|277:284|224:295,1,110,0|2,3:0|0:3,0:0:0:0:
184,268,58137,2,0,P|178:241|181:213,1,55,0|0,3:0|0:0,0:0:0:0:
252,144,58587,2,0,P|254:116|249:89,1,55,2|0,0:3|3:0,0:0:0:0:
208,62,58887,2,0,B|154:73|154:73|100:61,1,110,0|2,3:0|0:3,0:0:0:0:
52,52,59337,1,0,3:0:0:0:
12,196,59787,2,0,L|67:192,1,55,8|0,3:2|0:0,0:0:0:0:
116,204,60087,6,0,B|132:256|132:256|125:311,1,110,4|2,3:1|0:3,0:0:0:0:
176,308,60537,2,0,B|184:252|184:252|168:200,1,110,0|0,3:0|0:0,0:0:0:0:
152,152,60987,1,2,3:0:0:0:
204,68,61287,2,0,P|254:48|306:63,1,110,0|2,3:0|0:3,0:0:0:0:
352,80,61737,2,0,L|407:76,1,55,0|0,3:0|0:0,0:0:0:0:
452,164,62187,2,0,L|397:168,1,55,8|0,0:0|3:0,0:0:0:0:
348,180,62487,6,0,P|327:230|343:282,1,110,0|2,3:0|0:3,0:0:0:0:
368,324,62937,2,0,P|317:303|265:319,1,110,0|0,3:0|3:0,0:0:0:0:
228,352,63387,1,2,0:3:0:0:
132,328,63687,2,0,L|111:220,1,110,0|2,3:0|0:3,0:0:0:0:
100,172,64137,1,0,3:0:0:0:
216,80,64587,2,0,L|212:135,1,55,8|0,3:2|0:0,0:0:0:0:
232,180,64887,6,0,P|282:201|334:185,1,110,0|2,3:0|0:3,0:0:0:0:
376,160,65337,2,0,L|431:164,1,55,0|0,3:0|0:0,0:0:0:0:
484,248,65787,2,0,L|453:293,1,55,2|0,3:0|3:0,0:0:0:0:
424,336,66087,2,0,P|372:320|322:341,1,110,0|2,3:0|0:3,0:0:0:0:
276,356,66537,2,0,L|221:352,1,55,0|0,3:0|0:0,0:0:0:0:
124,344,66987,2,0,L|154:298,1,55,8|0,0:0|3:0,0:0:0:0:
184,260,67287,6,0,L|163:152,1,110,8|2,3:0|0:3,0:0:0:0:
200,120,67737,2,0,L|221:228,1,110,8|8,3:0|3:0,0:0:0:0:
232,276,68187,1,2,0:3:0:0:
256,192,68487,12,4,69687,3:1:0:0:
108,168,76887,6,0,L|216:147,1,110,8|2,3:0|0:3,0:0:0:0:
264,136,77337,1,8,3:0:0:0:
308,276,77787,1,2,0:3:0:0:
400,240,78087,2,0,B|452:187|452:187|400:135|400:135|348:186,1,220,0|0,3:0|0:0,0:0:0:0:
308,276,78987,1,8,3:2:0:0:
220,320,79287,6,0,P|165:311|111:320,1,110,4|2,3:1|0:3,0:0:0:0:
64,304,79737,2,0,P|52:279|49:251,1,55,0|0,3:0|0:0,0:0:0:0:
48,152,80187,2,0,P|75:154|100:165,1,55,8|0,3:1|3:0,0:0:0:0:
144,188,80487,2,0,P|198:196|252:188,1,110,0|2,3:0|0:3,0:0:0:0:
300,172,80937,2,0,L|307:117,1,55,0|0,3:0|0:0,0:0:0:0:
404,92,81387,2,0,L|396:146,1,55,8|0,0:1|3:0,0:0:0:0:
423,187,81687,6,0,P|441:239|424:290,1,110,0|2,3:0|0:3,0:0:0:0:
384,320,82137,2,0,P|356:322|331:334,1,55,0|0,3:0|0:0,0:0:0:0:
236,360,82587,2,0,P|208:357|183:345,1,55,8|0,0:1|3:0,0:0:0:0:
135,331,82887,2,0,P|95:339|62:363,2,82.5,0|0|0,3:0|0:0|3:0,0:0:0:0:
172,296,83487,2,0,P|188:244|171:193,1,110,0|8,0:0|3:1,0:0:0:0:
80,152,84087,6,0,L|29:217,2,82.5,0|0|0,3:0|0:0|3:0,0:0:0:0:
119,121,84687,2,0,P|170:103|222:119,1,110,0|8,0:0|3:1,0:0:0:0:
320,140,85287,2,0,P|358:125|399:127,2,82.5,0|0|0,3:0|0:0|3:0,0:0:0:0:
292,180,85887,2,0,L|284:296,1,110,0|8,0:0|0:1,0:0:0:0:
352,364,86487,5,0,3:0:0:0:
440,320,86787,1,2,0:3:0:0:
392,235,87087,2,0,P|340:217|288:233,1,110,0|8,0:0|0:1,0:0:0:0:
196,268,87687,1,0,3:0:0:0:
108,224,87987,1,2,0:3:0:0:
156,139,88287,2,0,P|207:121|259:137,1,110,0|8,0:0|3:1,0:0:0:0:
356,124,88887,6,0,L|364:8,2,110,0|2|0,3:0|0:3|0:0,0:0:0:0:
348,224,89787,1,8,3:1:0:0:
264,276,90087,2,0,P|212:259|160:277,1,110,0|2,3:0|0:3,0:0:0:0:
112,280,90537,2,0,P|82:234|84:180,1,110,0|0,3:0|3:0,0:0:0:0:
112,140,90987,1,8,0:1:0:0:
212,136,91287,6,0,P|263:153|314:136,1,110,0|2,3:0|0:3,0:0:0:0:
360,116,91737,2,0,L|415:123,1,55,0|0,3:0|0:0,0:0:0:0:
492,184,92187,2,0,P|490:212|478:237,1,55,8|0,0:1|3:0,0:0:0:0:
444,272,92487,2,0,P|389:280|335:272,1,110,0|2,3:0|0:3,0:0:0:0:
288,256,92937,2,0,P|236:238|185:255,1,110,0|0,3:0|3:0,0:0:0:0:
144,284,93387,1,8,3:1:0:0:
52,252,93687,6,0,P|34:200|52:149,1,110,0|2,3:0|0:3,0:0:0:0:
92,120,94137,2,0,L|147:127,1,55,0|0,3:0|0:0,0:0:0:0:
244,148,94587,2,0,L|299:141,1,55,8|0,3:1|3:0,0:0:0:0:
338,170,94887,2,0,P|355:221|338:272,1,110,0|2,3:0|0:3,0:0:0:0:
300,304,95337,2,0,P|245:295|191:303,1,110,0|0,3:0|3:0,0:0:0:0:
144,320,95787,1,8,0:1:0:0:
68,256,96087,6,0,L|60:146,1,110,8|2,3:0|0:3,0:0:0:0:
92,108,96537,2,0,P|143:125|194:108,1,110,8|8,3:0|3:0,0:0:0:0:
236,80,96987,1,8,0:1:0:0:
324,128,97287,2,0,P|375:145|426:127,1,110,0|2,3:0|0:3,0:0:0:0:
472,108,97737,2,0,L|464:217,1,110,0|0,3:0|3:0,0:0:0:0:
460,268,98187,1,8,3:1:0:0:
388,336,98487,6,0,P|333:327|279:335,1,110,4|2,3:1|0:3,0:0:0:0:
184,308,99087,2,0,P|166:256|183:205,1,110,0|2,0:0|3:0,0:0:0:0:
204,160,99537,2,0,L|197:105,1,55,0|0,3:0|3:0,0:0:0:0:
284,56,99987,2,0,L|291:111,1,55,2|0,0:3|3:0,0:0:0:0:
384,144,100437,2,0,L|428:110,2,55,0|8|0,3:0|0:0|3:0,0:0:0:0:
360,188,100887,6,0,L|352:297,1,110,0|2,3:0|0:3,0:0:0:0:
264,344,101487,2,0,P|212:326|161:344,1,110,0|2,0:0|0:3,0:0:0:0:
112,344,101937,2,0,P|100:319|98:291,1,55,0|0,3:0|3:0,0:0:0:0:
100,192,102387,2,0,P|127:194|151:206,1,55,2|0,0:3|3:0,0:0:0:0:
248,188,102837,2,0,L|255:133,2,55,0|8|0,3:0|3:2|0:0,0:0:0:0:
241,237,103287,5,0,3:0:0:0:
312,304,103587,1,2,0:3:0:0:
400,260,103887,2,0,P|417:208|399:157,1,110,0|2,0:0|3:0,0:0:0:0:
320,100,104487,1,0,3:0:0:0:
236,152,104787,1,2,0:3:0:0:
152,100,105087,2,0,P|100:82|49:100,1,110,0|8,0:0|0:0,0:0:0:0:
48,200,105687,6,0,P|99:217|150:199,1,110,0|2,3:0|0:3,0:0:0:0:
236,152,106287,2,0,L|228:261,1,110,0|2,0:0|0:3,0:0:0:0:
313,214,106887,2,0,P|364:196|415:213,1,110,0|2,3:0|0:3,0:0:0:0:
464,216,107337,2,0,P|493:170|490:116,1,110,0|0,3:0|3:0,0:0:0:0:
468,72,107787,1,8,3:2:0:0:
372,96,108087,6,0,L|263:88,1,110,0|2,3:0|0:3,0:0:0:0:
216,104,108537,1,0,3:0:0:0:
216,104,108687,2,0,P|198:154|215:206,1,110,0|2,0:0|3:0,0:0:0:0:
256,236,109137,2,0,L|311:229,1,55,0|0,3:0|3:0,0:0:0:0:
444,164,109737,2,0,L|436:273,1,110,0|0,3:0|3:0,0:0:0:0:
432,324,110187,1,8,0:0:0:0:
336,352,110487,6,0,P|285:334|233:351,1,110,0|2,3:0|0:3,0:0:0:0:
184,356,110937,2,0,L|129:349,1,55,0|0,3:0|0:0,0:0:0:0:
100,252,111387,2,0,L|155:259,1,55,2|0,0:3|3:0,0:0:0:0:
204,248,111687,2,0,P|221:197|204:145,1,110,0|2,3:0|0:3,0:0:0:0:
200,96,112137,2,0,L|207:41,1,55,0|0,3:0|0:0,0:0:0:0:
304,12,112587,2,0,L|297:67,1,55,8|0,3:2|0:0,0:0:0:0:
308,116,112887,6,0,P|358:133|410:116,1,110,0|2,3:0|0:3,0:0:0:0:
496,68,113487,2,0,L|488:177,1,110,0|2,0:0|3:0,0:0:0:0:
416,244,114087,2,0,P|365:226|313:243,1,110,0|2,3:0|0:3,0:0:0:0:
264,244,114537,2,0,L|209:237,1,55,0|0,3:0|0:0,0:0:0:0:
112,224,114987,1,8,0:0:0:0:
94,127,115287,5,8,3:0:0:0:
180,79,115587,1,2,0:3:0:0:
252,145,115887,2,0,L|361:137,1,110,0|2,0:0|0:3,0:0:0:0:
454,173,116487,2,0,B|506:226|506:226|454:278|454:278|402:227,1,220,0|0,3:0|0:0,0:0:0:0:
362,137,117387,1,8,3:2:0:0:
304,216,117687,6,0,P|252:233|201:216,1,110,4|2,3:1|0:3,0:0:0:0:
160,188,118137,2,0,P|211:170|262:187,1,110,0|0,3:0|0:0,0:0:0:0:
304,216,118587,1,2,3:0:0:0:
362,137,118887,2,0,L|370:28,1,110,0|2,3:0|0:3,0:0:0:0:
408,56,119337,2,0,L|403:110,1,55,0|0,3:0|0:0,0:0:0:0:
396,208,119787,2,0,L|391:262,1,55,8|0,0:0|3:0,0:0:0:0:
372,308,120087,6,0,P|320:325|269:308,1,110,0|2,3:0|0:3,0:0:0:0:
224,288,120537,2,0,P|172:270|121:288,1,110,0|0,3:0|3:0,0:0:0:0:
80,316,120987,1,2,0:3:0:0:
16,240,121287,2,0,L|8:131,1,110,0|2,3:0|0:3,0:0:0:0:
4,80,121737,1,0,3:0:0:0:
100,96,122037,2,0,P|127:93|151:81,1,55,0|8,3:0|3:2,0:0:0:0:
244,44,122487,6,0,L|236:153,1,110,0|2,3:0|0:3,0:0:0:0:
240,204,122937,2,0,P|264:215|291:218,1,55,0|0,3:0|0:0,0:0:0:0:
380,168,123387,2,0,P|391:143|394:116,1,55,2|0,3:0|3:0,0:0:0:0:
380,68,123687,2,0,P|328:51|277:68,1,110,0|2,3:0|0:3,0:0:0:0:
240,100,124137,1,0,3:0:0:0:
148,136,124437,2,0,L|94:131,1,55,0|8,3:0|0:0,0:0:0:0:
40,216,124887,6,0,L|149:224,1,110,0|2,3:0|0:3,0:0:0:0:
200,232,125337,2,0,P|211:256|214:283,1,55,0|0,3:0|0:0,0:0:0:0:
304,328,125787,2,0,P|331:325|355:313,1,55,2|0,0:3|3:0,0:0:0:0:
388,276,126087,2,0,L|396:167,1,110,0|2,3:0|0:3,0:0:0:0:
400,116,126537,1,0,3:0:0:0:
260,68,126987,2,0,P|235:79|208:82,1,55,8|0,3:2|0:0,0:0:0:0:
160,96,127287,6,0,P|142:147|160:198,1,110,4|2,3:1|0:3,0:0:0:0:
202,225,127737,2,0,P|255:218|295:181,1,110,0|0,3:0|0:0,0:0:0:0:
319,138,128187,1,2,3:0:0:0:
222,147,128487,2,0,L|113:139,1,110,0|2,3:0|0:3,0:0:0:0:
64,148,128937,2,0,P|52:172|49:199,1,55,0|0,3:0|0:0,0:0:0:0:
88,292,129387,2,0,P|112:303|139:306,1,55,8|0,0:0|3:0,0:0:0:0:
188,296,129687,6,0,P|238:278|290:295,1,110,0|2,3:0|0:3,0:0:0:0:
340,296,130137,2,0,P|380:260|390:207,1,110,0|0,3:0|3:0,0:0:0:0:
376,160,130587,1,2,0:3:0:0:
280,140,130887,2,0,P|225:149|171:141,1,110,0|2,3:0|0:3,0:0:0:0:
124,132,131337,1,0,3:0:0:0:
32,248,131787,2,0,L|37:302,1,55,8|0,3:2|0:0,0:0:0:0:
56,348,132087,6,0,P|106:365|158:348,1,110,0|2,3:0|0:3,0:0:0:0:
188,308,132537,2,0,L|183:254,1,55,0|0,3:0|0:0,0:0:0:0:
108,188,132987,2,0,L|113:134,1,55,2|0,3:0|3:0,0:0:0:0:
132,88,133287,2,0,P|182:70|234:87,1,110,0|2,3:0|0:3,0:0:0:0:
264,128,133737,2,0,L|259:182,1,55,0|0,3:0|0:0,0:0:0:0:
332,252,134187,2,0,L|386:247,1,55,8|0,0:0|3:0,0:0:0:0:
432,228,134487,6,0,P|449:177|432:125,1,110,8|2,3:0|0:3,0:0:0:0:
392,96,134937,2,0,L|283:104,1,110,8|8,3:0|3:0,0:0:0:0:
229,108,135387,1,2,0:3:0:0:
269,198,135687,2,0,B|321:249|321:249|373:197|373:197|321:144,1,220,0|0,3:0|0:0,0:0:0:0:
229,108,136587,1,8,3:2:0:0:
172,188,136887,6,0,B|120:172|120:172|65:179,1,110,4|2,3:1|0:3,0:0:0:0:
60,228,137337,2,0,B|116:220|116:220|168:236,1,110,0|0,3:0|0:0,0:0:0:0:
216,252,137787,1,2,3:0:0:0:
292,316,138087,2,0,P|344:331|394:311,1,110,0|2,3:0|0:3,0:0:0:0:
428,276,138537,2,0,L|432:221,1,55,0|0,3:0|0:0,0:0:0:0:
436,124,138987,2,0,L|388:148,1,55,8|0,0:0|3:0,0:0:0:0:
340,168,139287,6,0,P|290:147|238:162,1,110,0|2,3:0|0:3,0:0:0:0:
196,188,139737,2,0,P|146:167|94:182,1,110,0|0,3:0|3:0,0:0:0:0:
52,208,140187,1,2,0:3:0:0:
76,304,140487,2,0,L|184:325,1,110,0|2,3:0|0:3,0:0:0:0:
232,336,140937,1,0,3:0:0:0:
320,292,141237,2,0,P|347:286|375:289,1,55,0|8,3:0|3:2,0:0:0:0:
468,256,141687,6,0,P|489:205|474:153,1,110,0|2,3:0|0:3,0:0:0:0:
440,116,142137,2,0,L|436:61,1,55,0|0,3:0|0:0,0:0:0:0:
340,36,142587,2,0,L|344:91,1,55,2|0,3:0|3:0,0:0:0:0:
332,140,142887,2,0,P|282:160|230:145,1,110,0|2,3:0|0:3,0:0:0:0:
188,120,143337,1,0,3:0:0:0:
104,172,143637,2,0,P|102:199|107:226,1,55,0|8,3:0|0:0,0:0:0:0:
180,296,144087,6,0,B|235:284|235:284|288:295,1,110,0|2,3:0|0:3,0:0:0:0:
328,268,144537,2,0,P|334:241|331:213,1,55,0|0,3:0|0:0,0:0:0:0:
260,144,144987,2,0,P|258:116|263:89,1,55,2|0,0:3|3:0,0:0:0:0:
304,62,145287,2,0,B|358:73|358:73|412:61,1,110,0|2,3:0|0:3,0:0:0:0:
460,52,145737,1,0,3:0:0:0:
500,196,146187,2,0,L|445:192,1,55,8|0,3:2|0:0,0:0:0:0:
396,204,146487,6,0,B|380:256|380:256|387:311,1,110,4|2,3:1|0:3,0:0:0:0:
336,308,146937,2,0,B|328:252|328:252|344:200,1,110,0|0,3:0|0:0,0:0:0:0:
360,152,147387,1,2,3:0:0:0:
308,68,147687,2,0,P|258:48|206:63,1,110,0|2,3:0|0:3,0:0:0:0:
160,80,148137,2,0,L|105:76,1,55,0|0,3:0|0:0,0:0:0:0:
60,164,148587,2,0,L|115:168,1,55,8|0,0:0|3:0,0:0:0:0:
164,180,148887,6,0,P|185:230|169:282,1,110,0|2,3:0|0:3,0:0:0:0:
144,324,149337,2,0,P|195:303|247:319,1,110,0|0,3:0|3:0,0:0:0:0:
284,352,149787,1,2,0:3:0:0:
380,328,150087,2,0,L|401:220,1,110,0|2,3:0|0:3,0:0:0:0:
412,172,150537,1,0,3:0:0:0:
296,80,150987,2,0,L|300:135,1,55,8|0,3:2|0:0,0:0:0:0:
280,180,151287,6,0,P|230:201|178:185,1,110,0|2,3:0|0:3,0:0:0:0:
136,160,151737,2,0,L|81:164,1,55,0|0,3:0|0:0,0:0:0:0:
28,248,152187,2,0,L|59:293,1,55,2|0,3:0|3:0,0:0:0:0:
88,336,152487,2,0,P|140:320|190:341,1,110,0|2,3:0|0:3,0:0:0:0:
236,356,152937,2,0,L|291:352,1,55,0|0,3:0|0:0,0:0:0:0:
388,344,153387,2,0,L|358:298,1,55,8|0,0:0|3:0,0:0:0:0:
328,260,153687,6,0,L|349:152,1,110,8|2,3:0|0:3,0:0:0:0:
312,120,154137,2,0,L|291:228,1,110,8|8,3:0|3:0,0:0:0:0:
280,276,154587,1,2,0:3:0:0:
256,192,154887,12,4,156087,3:1:0:0:
104,64,165687,6,0,P|155:85|207:69,1,110,4|2,3:1|0:3,0:0:0:0:
296,28,166287,2,0,L|288:137,1,110,0|2,0:0|3:0,0:0:0:0:
224,212,166887,2,0,P|196:214|170:208,1,55,0|0,3:0|0:0,0:0:0:0:
76,180,167337,2,0,L|84:289,1,110,0|0,3:0|3:0,0:0:0:0:
88,340,167787,1,8,0:0:0:0:
184,360,168087,6,0,P|235:339|287:355,1,110,0|2,3:0|0:3,0:0:0:0:
336,356,168537,1,0,3:0:0:0:
336,356,168687,2,0,P|363:309|356:256,1,110,0|2,0:0|0:3,0:0:0:0:
280,192,169287,2,0,L|225:188,1,55,0|0,3:0|3:0,0:0:0:0:
128,180,169737,2,0,P|100:133|107:80,1,110,0|0,3:0|3:0,0:0:0:0:
132,36,170187,1,8,3:2:0:0:
232,48,170487,6,0,B|287:55|287:55|339:39,1,110,0|2,3:0|0:3,0:0:0:0:
372,132,171087,2,0,B|319:148|319:148|278:185,1,110,0|2,0:0|3:0,0:0:0:0:
297,284,171687,2,0,P|348:305|400:289,1,110,0|2,3:0|0:3,0:0:0:0:
444,200,172287,1,0,0:0:0:0:
372,132,172587,1,8,0:0:0:0:
352,228,172887,6,0,L|360:337,2,110,8|2|0,3:0|0:3|0:0,0:0:0:0:
372,132,173787,1,2,0:3:0:0:
280,164,174087,2,0,P|228:178|178:157,1,110,0|2,3:0|0:3,0:0:0:0:
84,184,174687,2,0,P|63:233|77:285,1,110,0|8,0:0|3:2,0:0:0:0:
148,356,175287,2,0,B|200:340|256:356|256:356|304:372|332:356|348:336|352:304|345:285|335:267|316:256|296:252|272:256|260:264,1,330,0|0,0:0|0:0,0:0:0:0:
168,244,176487,6,0,P|147:194|161:142,1,110,4|2,3:1|0:3,0:0:0:0:
204,116,176937,2,0,P|258:123|312:114,1,110,0|0,3:0|0:0,0:0:0:0:
360,104,177387,1,2,3:0:0:0:
448,152,177687,2,0,P|461:204|440:253,1,110,0|2,3:0|0:3,0:0:0:0:
404,288,178137,2,0,L|349:284,1,55,0|0,3:0|0:0,0:0:0:0:
252,276,178587,2,0,L|256:221,1,55,8|0,0:0|3:0,0:0:0:0:
236,176,178887,6,0,P|186:155|134:168,1,110,0|2,3:0|0:3,0:0:0:0:
104,208,179337,2,0,L|112:317,1,110,0|0,3:0|3:0,0:0:0:0:
116,368,179787,1,2,0:3:0:0:
208,336,180087,2,0,P|257:315|309:328,1,110,0|2,3:0|0:3,0:0:0:0:
356,348,180537,1,0,3:0:0:0:
452,324,180837,2,0,P|464:299|467:272,1,55,0|8,3:0|3:2,0:0:0:0:
388,212,181287,6,0,P|333:202|279:209,1,110,0|2,3:0|0:3,0:0:0:0:
232,196,181737,2,0,P|221:172|218:145,1,55,0|0,3:0|0:0,0:0:0:0:
216,44,182187,2,0,P|242:46|267:57,1,55,2|0,3:0|3:0,0:0:0:0:
316,76,182487,2,0,P|370:82|424:73,1,110,0|2,3:0|0:3,0:0:0:0:
472,64,182937,1,0,3:0:0:0:
464,164,183237,2,0,L|459:218,1,55,0|8,3:0|0:0,0:0:0:0:
392,292,183687,6,0,P|339:278|289:299,1,110,0|2,3:0|0:3,0:0:0:0:
244,320,184137,2,0,L|190:315,1,55,0|0,3:0|0:0,0:0:0:0:
92,304,184587,2,0,L|97:250,1,55,2|0,0:3|3:0,0:0:0:0:
108,200,184887,2,0,P|157:178|210:192,1,110,0|2,3:0|0:3,0:0:0:0:
252,220,185337,1,0,3:0:0:0:
400,204,185787,2,0,P|412:179|415:152,1,55,8|0,3:2|0:0,0:0:0:0:
404,104,186087,6,0,P|354:82|301:96,1,110,4|2,3:1|0:3,0:0:0:0:
260,120,186537,2,0,P|207:133|157:112,1,110,0|0,3:0|0:0,0:0:0:0:
116,88,186987,1,2,3:0:0:0:
88,184,187287,2,0,L|96:293,1,110,0|2,3:0|0:3,0:0:0:0:
112,340,187737,2,0,P|139:346|167:343,1,55,0|0,3:0|0:0,0:0:0:0:
256,300,188187,2,0,P|283:294|311:297,1,55,8|0,0:0|3:0,0:0:0:0:
360,296,188487,6,0,P|394:253|394:198,1,110,0|2,3:0|0:3,0:0:0:0:
360,164,188937,2,0,L|251:156,1,110,0|0,3:0|3:0,0:0:0:0:
200,152,189387,1,2,0:3:0:0:
104,180,189687,2,0,P|82:230|96:283,1,110,0|2,3:0|0:3,0:0:0:0:
128,320,190137,1,0,3:0:0:0:
276,324,190587,2,0,P|303:318|331:321,1,55,8|0,3:2|0:0,0:0:0:0:
380,320,190887,6,0,P|414:277|414:222,1,110,0|2,3:0|0:3,0:0:0:0:
400,176,191337,2,0,L|405:122,1,55,0|0,3:0|0:0,0:0:0:0:
316,76,191787,2,0,L|311:130,1,55,2|0,3:0|3:0,0:0:0:0:
292,176,192087,2,0,P|242:197|190:184,1,110,0|2,3:0|0:3,0:0:0:0:
140,180,192537,2,0,P|124:202|115:228,1,55,0|0,3:0|0:0,0:0:0:0:
92,324,192987,2,0,P|119:326|145:320,1,55,8|0,0:0|3:0,0:0:0:0:
192,304,193287,6,0,P|246:298|300:307,1,110,8|2,3:0|0:3,0:0:0:0:
348,320,193737,2,0,L|356:211,1,110,8|8,3:0|3:0,0:0:0:0:
360,160,194187,1,2,0:3:0:0:
264,132,194487,2,0,B|218:117|218:117|218:56|218:56|276:38|276:38|304:78,1,220,0|0,3:0|0:0,0:0:0:0:
360,160,195387,1,8,3:2:0:0:
304,240,195687,6,0,P|251:226|201:247,1,110,4|2,3:1|0:3,0:0:0:0:
156,268,196137,2,0,P|103:282|53:261,1,110,0|0,3:0|0:0,0:0:0:0:
16,228,196587,1,2,3:0:0:0:
52,136,196887,2,0,P|102:115|154:129,1,110,0|2,3:0|0:3,0:0:0:0:
204,132,197337,2,0,L|209:78,1,55,0|0,3:0|0:0,0:0:0:0:
308,60,197787,2,0,L|303:114,1,55,8|0,0:0|3:0,0:0:0:0:
312,164,198087,6,0,P|362:184|414:170,1,110,0|2,3:0|0:3,0:0:0:0:
456,144,198537,2,0,L|448:253,1,110,0|0,3:0|3:0,0:0:0:0:
444,304,198987,1,2,0:3:0:0:
356,352,199287,2,0,B|304:336|304:336|249:343,1,110,0|2,3:0|0:3,0:0:0:0:
199,349,199737,1,0,3:0:0:0:
108,308,200037,2,0,P|101:281|103:254,1,55,0|8,3:0|3:2,0:0:0:0:
156,172,200487,6,0,P|206:151|258:166,1,110,0|2,3:0|0:3,0:0:0:0:
304,184,200937,2,0,L|358:179,1,55,0|0,3:0|0:0,0:0:0:0:
456,176,201387,2,0,L|461:230,1,55,2|0,3:0|3:0,0:0:0:0:
452,280,201687,2,0,P|401:300|349:285,1,110,0|2,3:0|0:3,0:0:0:0:
304,268,202137,1,0,3:0:0:0:
220,320,202437,2,0,P|193:326|166:325,1,55,0|8,3:0|0:0,0:0:0:0:
88,264,202887,6,0,L|80:155,1,110,0|2,3:0|0:3,0:0:0:0:
96,108,203337,2,0,P|122:101|149:102,1,55,0|0,3:0|0:0,0:0:0:0:
248,120,203787,2,0,P|274:114|298:101,1,55,2|0,0:3|3:0,0:0:0:0:
340,72,204087,2,0,L|332:181,1,110,0|2,3:0|0:3,0:0:0:0:
336,232,204537,2,0,P|386:252|438:237,1,110,0|0,3:0|3:0,0:0:0:0:
480,212,204987,1,8,3:2:0:0:
439,121,205287,6,0,P|386:106|336:126,1,110,4|2,3:1|0:3,0:0:0:0:
296,156,205737,2,0,P|243:170|193:150,1,110,0|0,3:0|0:0,0:0:0:0:
152,124,206187,1,2,3:0:0:0:
64,168,206487,2,0,P|43:218|58:270,1,110,0|2,3:0|0:3,0:0:0:0:
92,308,206937,2,0,L|146:303,1,55,0|0,3:0|0:0,0:0:0:0:
244,292,207387,2,0,L|239:238,1,55,8|0,0:0|3:0,0:0:0:0:
244,188,207687,6,0,P|294:167|346:182,1,110,0|2,3:0|0:3,0:0:0:0:
396,184,208137,2,0,P|423:137|416:84,1,110,0|0,3:0|3:0,0:0:0:0:
388,44,208587,1,2,0:3:0:0:
292,68,208887,2,0,L|183:60,1,110,0|2,3:0|0:3,0:0:0:0:
132,56,209337,1,0,3:0:0:0:
88,196,209787,2,0,P|114:203|141:202,1,55,8|0,3:2|0:0,0:0:0:0:
192,200,210087,6,0,P|242:179|294:194,1,110,0|2,3:0|0:3,0:0:0:0:
344,196,210537,2,0,L|349:142,1,55,0|0,3:0|0:0,0:0:0:0:
360,44,210987,2,0,L|404:75,1,55,2|0,3:0|3:0,0:0:0:0:
444,104,211287,2,0,L|436:213,1,110,0|2,3:0|0:3,0:0:0:0:
420,260,211737,2,0,P|400:279|377:291,1,55,0|0,3:0|0:0,0:0:0:0:
276,288,212187,2,0,P|250:281|223:282,1,55,8|0,0:0|3:0,0:0:0:0:
172,280,212487,6,0,P|151:230|166:178,1,110,8|2,3:0|0:3,0:0:0:0:
192,136,212937,2,0,P|213:186|198:238,1,110,8|8,3:0|3:0,0:0:0:0:
172,280,213387,1,2,0:3:0:0:
84,236,213687,2,0,B|40:214|40:214|-2:257|-2:257|26:310|26:310|75:302,1,220,0|0,3:0|0:0,0:0:0:0:
172,280,214587,1,8,3:2:0:0:
264,316,214887,6,0,P|315:330|365:309,1,110,4|2,3:1|0:3,0:0:0:0:
404,280,215337,1,0,3:0:0:0:
308,168,215787,2,0,L|303:114,1,55,2|0,3:0|3:0,0:0:0:0:
296,64,216087,1,0,3:0:0:0:
444,64,216537,2,0,P|464:113|450:165,2,110,0|0|0,3:0|3:0|3:0,0:0:0:0:
408,28,217287,5,0,3:0:0:0:
276,92,217737,2,0,L|167:84,1,110,0|0,3:0|3:0,0:0:0:0:
80,132,218337,2,0,L|85:186,1,55,0|0,3:0|3:0,0:0:0:0:
92,236,218637,1,0,3:0:0:0:
92,236,218937,2,0,P|143:221|193:242,1,110,0|0,3:0|3:0,0:0:0:0:
232,272,219387,1,8,3:2:0:0:
332,272,219687,6,0,P|365:229|364:175,1,110,0|2,3:0|0:3,0:0:0:0:
340,132,220137,1,0,3:0:0:0:
192,108,220587,2,0,P|166:115|139:114,1,55,2|0,3:0|3:0,0:0:0:0:
88,104,220887,1,0,3:0:0:0:
28,240,221337,2,0,L|36:349,2,110,0|0|0,3:0|3:0|3:0,0:0:0:0:
24,192,222087,5,0,3:0:0:0:
140,288,222537,2,0,P|191:302|241:281,1,110,0|0,3:0|3:0,0:0:0:0:
324,228,223137,1,0,3:0:0:0:
324,228,223287,2,0,L|433:236,2,110,0|2|0,3:0|0:3|0:0,0:0:0:0:
236,180,224187,1,8,3:2:0:0:
320,128,224487,6,0,P|334:76|313:26,1,110,4|2,3:1|0:3,0:0:0:0:
264,16,224937,2,0,B|212:32|212:32|157:25,1,110,0|0,3:0|0:0,0:0:0:0:
108,16,225387,1,2,3:0:0:0:
16,56,225687,2,0,P|1:107|22:157,1,110,0|2,3:0|0:3,0:0:0:0:
56,192,226137,1,0,3:0:0:0:
152,212,226437,2,0,P|201:191|253:205,1,110,0|0,3:0|3:0,0:0:0:0:
296,232,226887,5,0,3:0:0:0:
416,144,227337,2,0,L|424:35,2,110,0|0|0,3:0|3:0|3:0,0:0:0:0:
420,192,228087,2,0,P|439:211|462:223,1,55,0|0,3:0|3:0,0:0:0:0:
428,316,228537,2,0,P|376:301|326:322,1,110,0|0,3:0|3:0,0:0:0:0:
288,352,228987,1,8,3:2:0:0:
188,344,229287,6,0,L|79:336,1,110,0|2,3:0|0:3,0:0:0:0:
28,332,229737,1,0,3:0:0:0:
4,184,230187,2,0,P|23:164|47:152,1,55,2|0,3:0|3:0,0:0:0:0:
96,148,230487,2,0,P|150:155|204:146,1,110,0|2,3:0|0:3,0:0:0:0:
248,124,230937,2,0,L|253:70,1,55,0|0,3:0|0:0,0:0:0:0:
344,32,231387,2,0,L|339:86,1,55,8|0,0:0|3:0,0:0:0:0:
348,136,231687,6,0,P|397:157|449:144,1,110,8|2,3:0|0:3,0:0:0:0:
496,124,232137,1,8,3:0:0:0:
488,224,232437,2,0,L|483:278,1,55,8|2,3:0|0:3,0:0:0:0:
407,340,232887,2,0,P|406:242|484:286,1,220,0|0,3:0|0:0,0:0:0:0:
407,340,233787,1,8,3:2:0:0:
308,348,234087,1,4,3:1:0:0:
