osu file format v14

[General]
AudioFilename: no.mp3
AudioLeadIn: 0
PreviewTime: 136587
Countdown: 0
SampleSet: Soft
StackLeniency: 0.7
Mode: 0
LetterboxInBreaks: 0
WidescreenStoryboard: 0

[Editor]
DistanceSpacing: 1.1
BeatDivisor: 4
GridSize: 4
TimelineZoom: 1

[Metadata]
Title:No title
TitleUnicode:No title
Artist:Reol
ArtistUnicode:れをる
Creator:Kinomi
Version:EmingK's Easy
Source:
Tags:baldrace cRyo[iceeicee] yf_bmp -Yuzuriha ZZHBOY TT_Mouse Little CloudSplash16 EmingK
BeatmapID:863237
BeatmapSetID:394851

[Difficulty]
HPDrainRate:2
CircleSize:2
OverallDifficulty:2
ApproachRate:2
SliderMultiplier:0.799999999999999
SliderTickRate:1

[Events]
//Background and Video events
0,0,"BG.jpg",0,0
//Break Periods
2,69887,77727
2,156287,164127
//Storyboard Layer 0 (Background)
//Storyboard Layer 1 (Fail)
//Storyboard Layer 2 (Pass)
//Storyboard Layer 3 (Foreground)
//Storyboard Sound Samples

[TimingPoints]
87,300,4,2,0,50,1,0
9687,-100,4,2,20,50,0,0
31287,-100,4,2,20,60,0,0
50487,-100,4,2,20,70,0,1
69687,-100,4,2,20,60,0,0
79287,-100,4,2,20,50,0,0
98487,-100,4,2,20,60,0,0
117687,-100,4,2,20,70,0,1
135687,-100,4,2,20,70,0,0
136887,-100,4,2,20,70,0,1
156087,-100,4,2,20,60,0,0
165687,-100,4,2,20,50,0,0
176487,-100,4,2,20,70,0,1
194487,-100,4,2,20,70,0,0
195687,-100,4,2,20,70,0,1
214887,-100,4,2,20,60,0,0
234687,-100,4,2,20,50,0,0
235287,-100,4,2,20,40,0,0
235887,-100,4,2,20,30,0,0
236487,-100,4,2,20,20,0,0

[Colours]
Combo1 : 250,250,5
Combo2 : 255,128,192
Combo3 : 4,251,202
Combo4 : 249,170,6

[HitObjects]
183,310,2487,6,0,B|214:291|214:291|304:310,1,120,2|0,0:0|0:0,0:0:0:0:
444,145,3687,2,0,B|413:164|413:164|323:145,1,120,2|0,0:0|0:0,0:0:0:0:
117,199,4887,2,0,P|84:128|85:79,1,120,2|0,0:0|0:0,0:0:0:0:
277,190,6087,2,0,P|272:249|243:301,1,120,2|0,0:0|0:0,0:0:0:0:
184,89,7287,6,0,B|269:73|269:73|316:90,1,120,2|0,0:0|0:0,0:0:0:0:
460,235,8487,2,0,B|375:251|375:251|328:234,1,120,2|0,0:0|0:0,0:0:0:0:
138,159,9687,2,0,B|121:112|148:80|133:36,2,120,2|2|2,0:0|0:0|0:0,0:0:0:0:
210,209,10887,2,0,B|289:202|289:202|360:242|360:242|447:235,1,240,0|10,0:0|0:0,0:0:0:0:
485,160,12087,6,0,P|474:106|384:50,1,160,4|0,0:0|0:0,0:0:0:0:
304,42,12987,1,2,0:0:0:0:
233,95,13287,2,0,L|97:116,2,120,0|0|10,0:0|0:0|0:0,0:0:0:0:
313,129,14487,6,0,P|356:195|341:278,1,160
289,340,15387,1,2,0:0:0:0:
214,292,15687,2,0,B|172:288|172:288|52:311,1,160
28,136,16887,6,0,P|109:113|186:159,1,160
236,207,17787,1,2,0:0:0:0:
305,153,18087,2,0,L|324:34,2,120,0|0|10,0:0|0:0|0:0,0:0:0:0:
375,206,19287,6,0,B|431:246|436:307|436:307|393:356|316:351,1,240,0|2,0:0|0:0,0:0:0:0:
254,308,20487,1,0,0:0:0:0:
181,257,20787,2,0,L|159:172,2,79.9999999999999,0|0|10,0:0|0:0|0:0,0:0:0:0:
131,330,21687,6,0,B|100:365|55:353|55:353|11:283|46:197,1,240,0|2,0:0|0:0,0:0:0:0:
99,134,22887,2,0,L|262:113,1,160
326,58,23787,1,10,0:0:0:0:
397,109,24087,6,0,P|444:191|413:339,1,240,0|2,0:0|0:0,0:0:0:0:
335,303,25287,2,0,B|297:291|297:291|178:310,1,160
92,327,26187,1,10,0:0:0:0:
28,265,26487,6,0,L|40:137,2,120,0|0|2,0:0|0:0|0:0,0:0:0:0:
114,246,27687,2,0,B|181:234|181:234|282:254|282:254|358:240,1,240,0|10,0:0|0:0,0:0:0:0:
436,229,28887,6,0,L|424:348,2,120,2|2|2,0:0|0:0|0:0,0:0:0:0:
494,163,30087,2,0,B|478:74|478:74|427:109|380:103|380:103|350:98|330:79,1,240,0|10,0:0|0:0,0:0:0:0:
258,48,31287,6,0,L|135:59,2,120,4|0|2,0:0|0:0|0:0,0:0:0:0:
344,30,32487,2,0,P|299:134|357:245,1,240,0|10,0:0|0:0,0:0:0:0:
439,233,33687,6,0,L|425:353,2,120,0|0|2,0:0|0:0|0:0,0:0:0:0:
398,154,34887,2,0,P|325:119|242:133,1,160
172,174,35787,1,10,0:0:0:0:
88,145,36087,6,0,L|76:23,2,120,0|0|2,0:0|0:0|0:0,0:0:0:0:
33,214,37287,2,0,P|64:308|194:329,1,240,0|10,0:0|0:0,0:0:0:0:
247,262,38487,6,0,L|235:140,2,120,0|0|2,0:0|0:0|0:0,0:0:0:0:
330,288,39687,2,0,L|320:382,2,79.9999999999999
410,252,40587,1,10,0:0:0:0:
388,166,40887,6,0,P|332:126|237:132,1,160,4|0,0:0|0:0,0:0:0:0:
165,169,41787,1,2,0:0:0:0:
87,127,42087,2,0,B|35:101|35:101|-1:153|-1:224|60:278,1,240,0|10,0:0|0:0,0:0:0:0:
119,319,43287,6,0,L|241:312,2,120,0|0|2,0:0|0:0|0:0,0:0:0:0:
129,231,44487,2,0,P|171:213|286:227,1,160
361,263,45387,1,10,0:0:0:0:
435,215,45687,6,0,P|451:146|401:61,1,160
334,26,46587,1,2,0:0:0:0:
264,79,46887,2,0,L|180:74,2,79.9999999999999
328,243,48087,6,0,P|262:274|173:253,1,160,2|0,0:0|0:0,0:0:0:0:
104,210,48987,1,2,0:0:0:0:
24,247,49287,2,0,L|17:330,2,79.9999999999999
33,159,50187,1,10,0:0:0:0:
90,92,50487,6,0,P|187:45|324:76,1,240,4|2,0:0|0:0,0:0:0:0:
375,130,51687,2,0,L|509:116,2,120,0|0|10,0:0|0:0|0:0,0:0:0:0:
312,192,52887,6,0,P|293:267|307:313,2,120,0|0|2,0:0|0:0|0:0,0:0:0:0:
235,147,54087,2,0,P|175:145|57:273,1,240,0|10,0:0|0:0,0:0:0:0:
110,336,55287,6,0,L|275:323,1,160
351,356,56187,1,2,0:0:0:0:
400,283,56487,2,0,P|398:224|375:162,2,120,0|0|10,0:0|0:0|0:0,0:0:0:0:
474,330,57687,6,0,B|501:272|485:163|433:96,1,240,0|2,0:0|0:0,0:0:0:0:
363,54,58887,2,0,L|236:32,2,120,0|0|10,0:0|0:0|0:0,0:0:0:0:
359,142,60087,6,0,P|284:205|137:199,1,240,4|2,0:0|0:0,0:0:0:0:
93,134,61287,2,0,L|115:17,2,120,0|0|10,0:0|0:0|0:0,0:0:0:0:
30,195,62487,6,0,P|23:259|62:311,2,120,0|0|2,0:0|0:0|0:0,0:0:0:0:
107,236,63687,2,0,B|186:224|186:224|254:182|254:182|334:171,1,240,0|10,0:0|0:0,0:0:0:0:
408,125,64887,6,0,P|418:69|401:6,2,120,0|0|2,0:0|0:0|0:0,0:0:0:0:
412,212,66087,2,0,P|408:281|334:342,1,160
257,357,66987,1,10,0:0:0:0:
256,192,67287,12,4,69687,0:0:0:0:
120,327,79287,6,0,P|164:287|278:285,1,160,4|0,0:0|0:0,0:0:0:0:
342,312,80187,1,2,0:0:0:0:
418,267,80487,2,0,P|431:204|397:106,1,160
241,44,81687,6,0,L|80:36,1,160
22,101,82587,1,2,0:0:0:0:
66,177,82887,2,0,P|94:243|61:332,1,160
208,217,84087,6,0,P|275:188|359:217,1,160
433,252,84987,1,2,0:0:0:0:
484,180,85287,2,0,L|454:15,1,160
327,143,86487,6,0,L|314:235,2,79.9999999999999
266,79,87387,1,2,0:0:0:0:
193,128,87687,2,0,P|113:157|29:138,1,160
178,33,88887,6,0,P|291:27|386:126,1,240,4|2,0:0|0:0,0:0:0:0:
352,192,90087,2,0,L|222:208,2,120,0|0|10,0:0|0:0|0:0,0:0:0:0:
418,249,91287,6,0,P|416:307|331:364,1,160
264,316,92187,1,2,0:0:0:0:
181,346,92487,2,0,B|66:361|66:361|22:338,1,160
97,179,93687,6,0,B|212:164|212:164|256:187,1,160
327,227,94587,1,2,0:0:0:0:
402,181,94887,2,0,P|396:113|418:55,2,120,0|0|10,0:0|0:0|0:0,0:0:0:0:
475,229,96087,6,0,B|491:285|466:344|466:344|393:358|345:314,1,240,0|2,0:0|0:0,0:0:0:0:
288,256,97287,2,0,L|277:160,1,79.9999999999999,0|2,0:0|0:0,0:0:0:0:
230,102,97887,2,0,P|193:81|146:79,1,79.9999999999999,0|10,0:0|0:0,0:0:0:0:
93,138,98487,6,0,L|5:149,2,79.9999999999999,4|0|0,0:0|0:0|0:0,0:0:0:0:
157,198,99387,1,2,0:0:0:0:
153,285,99687,2,0,P|111:327|40:336,1,120
245,231,100887,6,0,L|243:146,2,79.9999999999999
302,297,101787,1,2,0:0:0:0:
380,257,102087,2,0,P|425:239|506:258,1,120
442,36,103287,6,0,L|353:25,2,79.9999999999999,0|0|2,0:0|0:0|0:0,0:0:0:0:
297,137,104487,2,0,L|202:147,2,79.9999999999999,0|0|2,0:0|0:0|0:0,0:0:0:0:
202,285,105687,6,0,P|164:286|118:316,2,79.9999999999999
281,321,106587,1,2,0:0:0:0:
342,258,106887,2,0,L|360:127,2,120,0|0|10,0:0|0:0|0:0,0:0:0:0:
401,322,108087,6,0,P|457:279|470:192,1,160,4|0,0:0|0:0,0:0:0:0:
441,111,108987,1,2,0:0:0:0:
396,34,109287,2,0,B|314:51|314:51|271:39,1,120
288,261,110487,6,0,B|240:247|240:247|132:270,1,160
46,290,111387,1,2,0:0:0:0:
20,205,111687,2,0,P|24:136|95:61,1,160
162,36,112587,1,10,0:0:0:0:
232,88,112887,6,0,L|401:72,2,160
170,151,114387,2,0,P|160:197|167:232,1,79.9999999999999
217,300,114987,1,10,0:0:0:0:
300,326,115287,6,0,P|406:308|473:192,1,240,0|2,0:0|0:0,0:0:0:0:
421,129,116487,2,0,L|415:32,2,79.9999999999999
343,171,117387,1,10,0:0:0:0:
278,111,117687,6,0,P|187:48|61:72,1,240,4|2,0:0|0:0,0:0:0:0:
15,141,118887,2,0,L|23:277,2,120,0|0|10,0:0|0:0|0:0,0:0:0:0:
102,148,120087,6,0,P|149:176|218:171,2,120,0|0|2,0:0|0:0|0:0,0:0:0:0:
65,68,121287,2,0,P|180:46|278:111,1,240,0|10,0:0|0:0,0:0:0:0:
313,192,122487,6,0,B|286:301|286:301|336:341,1,160
402,369,123387,1,2,0:0:0:0:
469,313,123687,2,0,B|490:231|490:231|461:200,1,120
254,265,124887,6,0,B|142:304|142:304|94:280,1,160
26,245,125787,1,2,0:0:0:0:
71,169,126087,2,0,L|53:42,2,120,0|0|10,0:0|0:0|0:0,0:0:0:0:
150,206,127287,6,0,P|273:215|339:123,1,240,4|2,0:0|0:0,0:0:0:0:
280,63,128487,2,0,B|237:74|191:45|151:60,2,120,0|0|10,0:0|0:0|0:0,0:0:0:0:
368,48,129687,6,0,B|411:59|457:30|497:45,2,120,0|0|2,0:0|0:0|0:0,0:0:0:0:
339,131,130887,2,0,B|346:209|346:209|412:259|412:259|420:348,1,240,0|2,0:0|0:0,0:0:0:0:
334,363,132087,6,0,P|250:358|193:295,1,160
175,222,132987,1,2,0:0:0:0:
236,158,133287,2,0,L|246:32,2,120,0|0|10,0:0|0:0|0:0,0:0:0:0:
295,223,134487,6,0,P|375:236|451:183,1,160
491,126,135387,1,2,0:0:0:0:
430,61,135687,2,0,B|347:52|347:52|287:91|287:91|201:82,1,240,0|10,0:0|0:0,0:0:0:0:
120,113,136887,6,0,P|65:205|111:329,1,240,4|2,0:0|0:0,0:0:0:0:
184,361,138087,2,0,L|318:366,2,120,0|0|10,0:0|0:0|0:0,0:0:0:0:
177,273,139287,6,0,P|196:196|236:167,2,120,0|0|2,0:0|0:0|0:0,0:0:0:0:
263,253,140487,2,0,B|336:233|395:287|395:287|426:237|391:192,1,240,0|10,0:0|0:0,0:0:0:0:
355,117,141687,6,0,P|302:77|193:72,1,160
127,95,142587,1,2,0:0:0:0:
133,182,142887,2,0,B|141:273|141:273|117:306,1,120
335,357,144087,6,0,P|368:282|342:199,1,160
300,135,144987,1,2,0:0:0:0:
352,64,145287,2,0,L|473:51,2,120,0|0|10,0:0|0:0|0:0,0:0:0:0:
264,54,146487,6,0,P|168:32|64:130,1,240,4|2,0:0|0:0,0:0:0:0:
117,190,147687,2,0,L|251:203,2,120,0|0|10,0:0|0:0|0:0,0:0:0:0:
50,247,148887,6,0,P|26:301|33:369,2,120,0|0|2,0:0|0:0|0:0,0:0:0:0:
132,277,150087,2,0,B|209:301|209:301|376:268,1,240,0|10,0:0|0:0,0:0:0:0:
451,251,151287,6,0,P|478:178|441:96,1,160
396,34,152187,1,2,0:0:0:0:
321,81,152487,2,0,L|199:76,2,120,0|0|10,0:0|0:0|0:0,0:0:0:0:
256,192,153687,12,4,156087,0:0:0:0:
160,269,165687,6,0,L|168:351,2,79.9999999999999,4|0|0,0:0|0:0|0:0,0:0:0:0:
85,222,166587,1,2,0:0:0:0:
124,143,166887,2,0,P|151:79|142:27,1,120,0|2,0:0|0:0,0:0:0:0:
347,114,168087,6,0,L|339:32,2,79.9999999999999
422,161,168987,1,2,0:0:0:0:
383,240,169287,2,0,P|356:304|365:356,1,120,0|2,0:0|0:0,0:0:0:0:
158,272,170487,6,0,L|34:287,2,120,0|0|2,0:0|0:0|0:0,0:0:0:0:
218,207,171687,2,0,P|245:149|222:59,1,160
140,26,172587,1,10,0:0:0:0:
256,192,172887,12,4,175287,0:0:0:0:
145,336,176487,6,0,P|86:256|117:113,1,240,4|2,0:0|0:0,0:0:0:0:
194,142,177687,2,0,L|314:145,2,120,0|0|10,0:0|0:0|0:0,0:0:0:0:
178,55,178887,6,0,P|121:27|61:38,2,120,0|0|2,0:0|0:0|0:0,0:0:0:0:
266,56,180087,2,0,B|405:46|405:46|447:83|435:143,1,240,0|10,0:0|0:0,0:0:0:0:
396,215,181287,6,0,B|385:250|399:294|399:294|371:332|319:328,1,160
253,285,182187,1,2,0:0:0:0:
175,327,182487,2,0,B|91:339|91:339|50:328,1,120
127,121,183687,6,0,P|194:87|283:92,1,160
359,121,184587,1,2,0:0:0:0:
434,166,184887,2,0,P|445:98|407:46,2,120,0|0|10,0:0|0:0|0:0,0:0:0:0:
368,225,186087,6,0,B|289:272|212:166|127:215,1,240,4|2,0:0|0:0,0:0:0:0:
58,250,187287,2,0,P|46:311|75:378,2,120,0|0|10,0:0|0:0|0:0,0:0:0:0:
64,162,188487,6,0,P|76:101|47:34,2,120,0|0|2,0:0|0:0|0:0,0:0:0:0:
137,210,189687,2,0,P|241:197|280:155,1,160
313,80,190587,1,10,0:0:0:0:
386,128,190887,6,0,P|422:166|431:270,1,160
377,338,191787,1,2,0:0:0:0:
299,296,192087,2,0,L|166:286,2,120,0|0|10,0:0|0:0|0:0,0:0:0:0:
355,227,193287,6,0,P|303:179|207:169,1,160
131,188,194187,1,2,0:0:0:0:
71,252,194487,2,0,L|94:335,2,79.9999999999999
43,168,195387,1,10,0:0:0:0:
95,97,195687,6,0,P|165:49|317:80,1,240,4|2,0:0|0:0,0:0:0:0:
376,132,196887,2,0,L|505:111,2,120,0|0|10,0:0|0:0|0:0,0:0:0:0:
333,209,198087,6,0,P|351:267|407:312,2,120,0|0|2,0:0|0:0|0:0,0:0:0:0:
266,151,199287,2,0,P|202:132|115:161,1,160
56,225,200187,1,10,0:0:0:0:
108,295,200487,6,0,L|276:307,1,160
337,359,201387,1,2,0:0:0:0:
409,309,201687,2,0,B|423:216|423:216|410:187,1,120
243,50,202887,6,0,B|226:93|226:93|251:206,1,160
198,275,203787,1,2,0:0:0:0:
146,346,204087,2,0,P|78:345|31:320,2,120,0|0|10,0:0|0:0|0:0,0:0:0:0:
233,355,205287,6,0,P|329:360|411:246,1,240,4|2,0:0|0:0,0:0:0:0:
386,169,206487,2,0,L|402:51,2,120,0|0|10,0:0|0:0|0:0,0:0:0:0:
301,145,207687,6,0,L|309:266,2,120,0|0|2,0:0|0:0|0:0,0:0:0:0:
237,83,208887,2,0,P|162:58|87:82,1,160
19,138,209787,1,10,0:0:0:0:
79,201,210087,6,0,P|154:226|229:202,1,160
293,142,210987,1,2,0:0:0:0:
361,196,211287,2,0,L|371:315,2,120,0|0|10,0:0|0:0|0:0,0:0:0:0:
436,150,212487,6,0,L|452:27,2,120,0|0|2,0:0|0:0|0:0,0:0:0:0:
501,209,213687,1,0,0:0:0:0:
149,201,214887,6,0,B|136:234|136:234|152:326,2,120,4|0|2,0:0|0:0|0:0,0:0:0:0:
217,145,216087,2,0,P|222:83|194:32,1,120,0|2,0:0|0:0,0:0:0:0:
339,200,217287,6,0,L|464:190,2,120,0|0|2,0:0|0:0|0:0,0:0:0:0:
277,263,218487,2,0,P|289:316|343:368,1,120,0|2,0:0|0:0,0:0:0:0:
254,156,219687,6,0,L|263:37,2,120,0|0|2,0:0|0:0|0:0,0:0:0:0:
196,223,220887,2,0,P|131:247|74:227,1,120,0|2,0:0|0:0,0:0:0:0:
295,297,222087,6,0,P|365:276|428:282,2,120,0|0|2,0:0|0:0|0:0,0:0:0:0:
220,344,223287,2,0,L|132:359,1,79.9999999999999,0|2,0:0|0:0,0:0:0:0:
95,282,223887,2,0,L|11:271,1,79.9999999999999,0|10,0:0|0:0,0:0:0:0:
30,184,224487,6,0,B|22:93|22:93|36:67,2,120,4|0|2,0:0|0:0|0:0,0:0:0:0:
116,167,225687,2,0,P|172:159|238:182,1,120,0|2,0:0|0:0,0:0:0:0:
382,338,226887,6,0,P|316:361|263:354,2,120,0|0|2,0:0|0:0|0:0,0:0:0:0:
426,261,228087,2,0,B|412:166|412:166|430:130,1,120,0|2,0:0|0:0,0:0:0:0:
224,49,229287,6,0,P|140:53|100:85,1,120,0|2,0:0|0:0,0:0:0:0:
253,240,230487,2,0,P|337:236|377:204,1,120,0|2,0:0|0:0,0:0:0:0:
147,186,231687,6,0,B|126:217|126:217|140:311,1,120,0|2,0:0|0:0,0:0:0:0:
309,161,232887,2,0,B|330:130|330:130|316:36,2,120,0|2|10,0:0|0:0|0:0,0:0:0:0:
256,192,234087,12,4,236487,0:0:0:0:
