osu file format v14

[General]
AudioFilename: audio.mp3
AudioLeadIn: 0
PreviewTime: 50099
Countdown: 0
SampleSet: Soft
StackLeniency: 0.5
Mode: 2
LetterboxInBreaks: 0
WidescreenStoryboard: 1

[Editor]
Bookmarks: 2399,11999,21599,31199,40799,50399,69599,79199
DistanceSpacing: 2.5
BeatDivisor: 4
GridSize: 32
TimelineZoom: 2.2

[Metadata]
Title:No title (Cut Ver.)
TitleUnicode:No title (Cut Ver.)
Artist:Reol
ArtistUnicode:れをる
Creator:Kegare-
Version:Joni & Kegare's Salad
Source:
Tags:Golo- -Joni- bad_mapper -Aku overranked title+ title- jpop j-pop electronic vocaloid female vocalist japanese れをる Giga-P Giga_P GigaP ギガP okiku お菊
BeatmapID:3872371
BeatmapSetID:1880944

[Difficulty]
HPDrainRate:3
CircleSize:3
OverallDifficulty:7
ApproachRate:7
SliderMultiplier:1.17
SliderTickRate:1

[Events]
//Background and Video events
0,0,"OOOOOOKUNI.png",0,0
//Break Periods
//Storyboard Layer 0 (Background)
//Storyboard Layer 1 (Fail)
//Storyboard Layer 2 (Pass)
//Storyboard Layer 3 (Foreground)
//Storyboard Layer 4 (Overlay)
//Storyboard Sound Samples

[TimingPoints]
2399,300,4,2,1,50,1,0
50399,-100,4,2,1,60,0,1
59849,-100,4,2,1,50,0,0
59999,-100,4,2,1,60,0,1
69599,-100,4,2,1,50,0,0

[Colours]
Combo1 : 255,155,255
Combo2 : 159,255,159
Combo3 : 255,157,157
Combo4 : 157,211,255

[HitObjects]
352,288,2399,6,0,P|403:242|351:147,1,175.5,2|2,3:1|3:1,0:0:0:0:
175,153,3299,1,2,3:1:0:0:
175,223,3449,1,2,0:1:0:0:
246,223,3599,6,0,P|308:162|239:102,1,175.5,2|2,3:1|3:1,0:0:0:0:
132,95,4349,1,2,0:1:0:0:
261,96,4649,1,2,0:1:0:0:
326,95,4799,6,0,L|326:293,1,175.5,2|2,3:1|3:1,0:0:0:0:
198,211,5549,1,2,3:1:0:0:
327,205,5849,1,2,0:1:0:0:
397,205,5999,5,2,3:1:0:0:
327,205,6149,2,0,L|195:205,1,117,2|2,0:1|3:1,0:0:0:0:
339,211,6749,2,0,L|338:129,1,58.5,2|2,0:1|3:1,0:0:0:0:
107,194,7199,6,0,L|107:62,1,117,6|0,3:2|0:0,0:0:0:0:
177,77,7649,2,0,P|211:124|194:190,1,117,2|0,3:1|0:0,0:0:0:0:
130,81,8099,1,2,3:1:0:0:
336,89,8399,6,0,P|370:148|326:188,1,117,2|0,3:1|0:0,0:0:0:0:
276,181,8849,1,2,3:1:0:0:
388,270,9149,1,2,0:1:0:0:
388,270,9299,1,2,1:1:0:0:
150,264,9599,5,4,3:1:0:0:
279,264,9899,1,0,3:1:0:0:
208,264,10049,2,0,P|184:210|228:159,1,117,4|0,3:1|3:1,0:0:0:0:
283,163,10499,1,4,3:1:0:0:
50,253,10799,6,0,L|50:176,1,58.5,8|8,0:1|0:1,0:0:0:0:
120,194,11099,1,8,0:1:0:0:
190,194,11249,2,0,L|63:194,1,117,8|10,0:1|0:1,0:0:0:0:
143,194,11699,1,2,1:2:0:0:
379,213,11999,5,6,3:1:0:0:
426,170,12299,1,2,0:1:0:0:
378,142,12449,2,0,L|239:142,1,117,2|0,3:1|0:0,0:0:0:0:
167,144,12899,1,2,3:1:0:0:
318,142,13199,6,0,P|356:197|338:252,1,117,2|2,3:1|0:1,0:0:0:0:
275,258,13649,1,2,3:1:0:0:
146,258,13949,2,0,L|146:182,1,58.5,2|2,0:1|1:1,0:0:0:0:
383,222,14399,5,2,3:1:0:0:
450,222,14549,1,0,0:0:0:0:
305,165,14849,2,0,P|269:119|319:91,1,117,0|2,3:1|0:1,0:0:0:0:
379,88,15299,1,2,3:1:0:0:
265,51,15599,5,2,3:1:0:0:
174,136,15899,1,2,0:1:0:0:
263,136,16049,2,0,L|134:135,1,117,2|0,3:1|0:1,0:0:0:0:
216,135,16499,1,0,1:1:0:0:
425,149,16799,6,0,L|424:212,1,58.5,6|0,3:1|0:0,0:0:0:0:
309,220,17249,2,0,L|444:220,1,117,2|2,3:1|0:1,0:0:0:0:
355,220,17699,1,2,3:1:0:0:
226,220,17999,6,0,P|170:168|187:115,1,117,2|2,3:1|0:1,0:0:0:0:
245,95,18449,1,2,3:1:0:0:
373,95,18749,2,0,L|373:170,1,58.5,2|2,0:1|1:1,0:0:0:0:
138,196,19199,5,2,3:1:0:0:
138,266,19349,1,0,0:0:0:0:
278,266,19649,2,0,P|315:227|259:180,1,117,2|2,3:1|0:1,0:0:0:0:
214,180,20099,1,2,3:1:0:0:
344,172,20399,5,2,3:1:0:0:
414,172,20549,1,2,0:1:0:0:
344,172,20699,1,2,0:1:0:0:
273,172,20849,2,0,L|412:172,1,117,2|2,3:1|0:1,0:0:0:0:
319,172,21299,1,2,1:1:0:0:
109,172,21599,5,4,3:1:0:0:
250,172,21899,1,2,0:1:0:0:
315,50,22049,2,0,P|363:74|384:144,1,117,2|0,3:1|0:0,0:0:0:0:
319,156,22499,1,2,3:1:0:0:
157,101,22799,6,0,L|156:235,1,117,2|2,3:1|0:1,0:0:0:0:
227,217,23249,1,2,3:1:0:0:
368,217,23549,2,0,L|368:147,1,58.5,0|2,0:1|1:1,0:0:0:0:
158,158,23999,5,0,3:1:0:0:
299,158,24299,1,2,0:1:0:0:
368,158,24449,2,0,P|369:227|316:257,1,117,2|0,3:1|0:0,0:0:0:0:
265,253,24899,1,2,3:1:0:0:
406,253,25199,5,2,3:1:0:0:
477,253,25349,1,2,0:1:0:0:
477,182,25499,1,2,0:1:0:0:
407,182,25649,1,2,3:1:0:0:
267,182,25949,2,0,L|186:183,1,58.5,0|2,0:0|1:1,0:0:0:0:
425,149,26399,6,0,L|426:219,1,58.5,4|2,3:1|0:1,0:0:0:0:
356,207,26699,1,2,0:1:0:0:
286,207,26849,2,0,L|421:207,1,117,2|2,3:1|0:1,0:0:0:0:
332,207,27299,1,2,3:1:0:0:
192,207,27599,6,0,P|161:143|204:98,1,117,2|2,3:1|0:1,0:0:0:0:
253,109,28049,1,0,3:1:0:0:
394,109,28349,2,0,L|394:184,1,58.5,2|2,0:1|1:1,0:0:0:0:
184,167,28799,5,4,3:1:0:0:
325,167,29099,1,0,3:1:0:0:
255,167,29249,2,0,L|256:292,1,117,4|0,3:1|3:1,0:0:0:0:
327,283,29699,1,4,3:1:0:0:
187,283,29999,5,8,0:1:0:0:
187,212,30149,1,8,0:1:0:0:
258,212,30299,1,8,0:1:0:0:
187,212,30449,2,0,L|45:213,1,117,8|10,0:1|0:1,0:0:0:0:
139,214,30899,1,2,1:2:0:0:
306,207,31049,6,0,P|325:163|274:113,1,117,10|2,0:1|0:1,0:0:0:0:
212,141,31499,1,2,0:1:0:0:
142,141,31649,2,0,P|107:161|149:214,1,117,2|2,3:1|0:1,0:0:0:0:
387,138,32249,6,0,L|250:138,1,117,2|2,0:1|0:1,0:0:0:0:
410,138,32849,2,0,P|411:193|357:229,1,117,2|2,3:1|0:1,0:0:0:0:
129,224,33449,6,0,P|128:168|177:129,1,117,2|2,3:1|0:1,0:0:0:0:
242,132,33899,1,2,0:1:0:0:
312,132,34049,2,0,L|189:131,1,117,2|0,3:1|0:0,0:0:0:0:
430,135,34649,1,2,0:1:0:0:
300,136,34949,5,2,0:1:0:0:
230,138,35099,1,2,0:1:0:0:
113,138,35399,2,0,L|247:138,1,117,2|2,0:1|1:1,0:0:0:0:
377,223,35849,6,0,P|410:271|356:309,1,117,2|2,3:1|0:1,0:0:0:0:
235,309,36449,2,0,L|378:310,1,117,2|0,3:1|0:0,0:0:0:0:
351,309,36899,1,2,3:1:0:0:
186,313,37049,6,0,L|61:313,1,117,2|2,0:1|0:1,0:0:0:0:
139,263,37499,1,2,0:1:0:0:
279,263,37799,2,0,P|312:224|266:173,1,117,2|2,0:1|1:1,0:0:0:0:
132,103,38249,6,0,P|98:158|144:196,1,117,2|2,3:1|0:1,0:0:0:0:
196,192,38699,2,0,L|123:191,1,58.5,2|2,0:1|3:1,0:0:0:0:
66,191,38999,1,2,0:1:0:0:
196,192,39299,1,2,3:1:0:0:
325,185,39599,5,2,3:2:0:0:
254,185,39749,1,0,0:0:0:0:
183,185,39899,2,0,L|316:185,1,117,2|2,0:1|0:1,0:0:0:0:
370,185,40349,1,0,0:0:0:0:
160,185,40649,5,2,3:1:0:0:
300,185,40949,1,2,0:1:0:0:
230,185,41099,2,0,L|100:185,1,117,2|2,0:1|0:1,0:0:0:0:
184,185,41549,1,0,0:0:0:0:
419,184,41849,6,0,P|448:226|390:268,1,117,2|2,0:1|0:1,0:0:0:0:
340,269,42299,1,0,0:0:0:0:
270,269,42449,2,0,L|409:272,1,117,0|0,3:0|0:0,0:0:0:0:
153,271,43049,6,0,P|116:233|161:198,1,117,2|2,3:1|0:1,0:0:0:0:
226,271,43499,1,0,0:0:0:0:
225,198,43649,1,2,3:1:0:0:
85,198,43949,2,0,L|85:119,1,58.5,2|2,0:1|3:1,0:0:0:0:
319,139,44399,5,2,3:2:0:0:
390,139,44549,1,2,0:1:0:0:
320,139,44699,1,0,0:0:0:0:
249,139,44849,2,0,L|111:139,1,117,2|0,3:1|0:0,0:0:0:0:
366,139,45449,6,0,P|399:187|345:225,1,117,2|2,3:1|0:1,0:0:0:0:
224,225,46049,2,0,L|367:226,1,117,2|0,3:1|0:0,0:0:0:0:
286,172,46499,1,2,3:1:0:0:
133,182,46799,6,0,P|175:124|239:114,1,117,2|2,3:1|0:1,0:0:0:0:
86,125,47399,2,0,L|86:249,1,117,2|2,0:1|1:1,0:0:0:0:
157,242,47849,1,2,3:1:0:0:
333,242,47999,5,4,3:1:0:0:
216,239,48299,1,0,3:1:0:0:
146,239,48449,2,0,L|289:239,1,117,4|0,3:1|3:1,0:0:0:0:
334,239,48899,1,4,3:1:0:0:
194,239,49199,5,8,0:1:0:0:
194,168,49349,1,8,0:1:0:0:
265,168,49499,2,0,L|125:169,1,117,8|8,0:1|0:1,0:0:0:0:
77,168,49949,1,8,0:1:0:0:
77,97,50099,1,0,1:2:0:0:
312,256,50399,6,0,P|346:220|311:160,1,117,4|2,3:1|0:1,0:0:0:0:
249,170,50849,2,0,L|123:170,1,117,2|2,3:1|0:1,0:0:0:0:
203,171,51299,1,2,3:1:0:0:
436,171,51599,6,0,L|297:171,1,117,2|2,3:1|0:1,0:0:0:0:
176,100,52199,1,0,0:0:0:0:
104,101,52349,1,2,0:1:0:0:
176,100,52649,1,0,3:1:0:0:
347,115,52799,6,0,P|385:158|331:177,1,117,2|2,3:1|0:1,0:0:0:0:
276,186,53249,2,0,L|409:187,1,117,2|2,3:1|0:1,0:0:0:0:
392,186,53699,1,2,3:2:0:0:
165,331,53999,6,0,L|82:332,1,58.5,2|2,3:1|0:1,0:0:0:0:
226,244,54449,2,0,P|271:209|250:138,1,117,2|2,3:1|0:1,0:0:0:0:
195,154,54899,1,2,1:1:0:0:
194,96,55049,1,0,3:1:0:0:
325,119,55199,6,0,P|371:137|318:164,1,117,4|2,3:1|0:1,0:0:0:0:
254,177,55649,2,0,B|322:177|322:177|396:176,1,117,2|2,3:1|0:1,0:0:0:0:
448,181,56099,1,2,3:1:0:0:
155,181,56399,6,0,L|155:259,1,58.5,2|0,3:1|0:0,0:0:0:0:
295,239,56849,2,0,L|166:238,1,117,2|2,3:1|0:1,0:0:0:0:
215,82,57449,1,0,3:1:0:0:
398,167,57599,6,0,P|415:202|364:261,1,117,2|2,3:1|0:1,0:0:0:0:
303,259,58049,2,0,L|430:259,1,117,2|2,3:1|0:1,0:0:0:0:
278,259,58649,1,0,0:0:0:0:
116,281,58799,6,0,L|116:352,1,58.5,2|2,3:1|0:1,0:0:0:0:
294,259,59249,2,0,P|309:211|245:155,1,117,2|2,3:1|0:1,0:0:0:0:
199,165,59699,1,2,1:1:0:0:
199,165,59849,1,0,3:1:0:0:
374,165,59999,6,0,P|411:138|366:89,1,117,4|2,3:1|0:1,0:0:0:0:
308,164,60449,2,0,P|273:229|308:279,1,117,2|2,3:1|0:1,0:0:0:0:
360,268,60899,1,2,3:1:0:0:
127,267,61199,6,0,P|127:219|189:176,1,117,2|2,3:1|0:1,0:0:0:0:
317,177,61799,2,0,L|395:178,1,58.5,0|2,0:0|0:1,0:0:0:0:
317,177,62249,1,0,3:1:0:0:
140,173,62399,6,0,P|113:237|164:270,1,117,2|2,3:1|0:1,0:0:0:0:
210,265,62849,2,0,L|79:267,1,117,2|2,3:1|0:1,0:0:0:0:
163,266,63299,1,2,3:2:0:0:
397,266,63599,6,0,L|272:267,1,117,2|2,3:1|0:1,0:0:0:0:
209,266,64049,2,0,P|181:210|221:176,1,117,2|2,3:1|0:1,0:0:0:0:
284,177,64499,1,2,1:1:0:0:
284,106,64649,1,0,3:1:0:0:
108,106,64799,6,0,P|66:167|102:207,1,117,4|2,3:1|0:1,0:0:0:0:
153,196,65249,2,0,P|188:234|147:275,1,117,2|2,3:1|0:1,0:0:0:0:
80,274,65699,1,2,3:1:0:0:
321,270,65999,6,0,L|406:270,1,58.5,2|0,3:1|0:0,0:0:0:0:
239,270,66449,2,0,P|197:217|248:187,1,117,2|2,3:1|0:1,0:0:0:0:
358,94,67049,1,0,3:1:0:0:
182,94,67199,6,0,P|150:148|198:187,1,117,2|2,3:1|0:1,0:0:0:0:
249,183,67649,2,0,L|109:183,1,117,2|2,3:1|0:1,0:0:0:0:
202,191,68099,1,2,3:1:0:0:
436,198,68399,5,8,0:1:0:0:
436,268,68549,1,8,0:1:0:0:
365,268,68699,1,8,0:1:0:0:
294,268,68849,2,0,L|434:267,1,117,8|8,0:1|0:1,0:0:0:0:
481,267,69299,1,0,1:2:0:0:
410,308,69449,1,8,0:1:0:0:
223,159,69599,6,0,P|166:197|215:284,1,175.5,4|2,3:1|3:1,0:0:0:0:
355,291,70349,2,0,L|374:362,1,58.5,0|0,0:0|3:1,0:0:0:0:
263,111,70799,2,0,B|166:113|166:113|175:206,1,175.5,2|2,3:1|3:1,0:0:0:0:
338,214,71549,2,0,L|327:286,1,58.5,0|0,0:0|1:1,0:0:0:0:
100,286,71999,6,0,P|68:217|137:153,1,175.5,2|2,3:1|3:1,0:0:0:0:
271,153,72749,2,0,L|272:217,1,58.5,0|0,0:0|3:1,0:0:0:0:
131,211,73199,6,0,L|328:210,1,175.5,2|2,3:1|3:1,0:0:0:0:
189,210,73949,2,0,L|211:135,1,58.5,0|2,0:0|1:1,0:0:0:0:
446,161,74399,6,0,P|434:226|339:276,1,175.5,2|2,3:1|3:1,0:0:0:0:
224,233,75149,2,0,L|138:233,1,58.5,0|0,0:0|3:1,0:0:0:0:
294,233,75599,6,0,P|353:171|289:111,1,175.5,2|2,3:1|3:1,0:0:0:0:
236,112,76199,1,0,0:0:0:0:
166,112,76349,1,0,0:0:0:0:
166,182,76499,1,0,1:1:0:0:
237,182,76649,1,0,3:1:0:0:
384,182,76799,5,4,3:1:0:0:
255,182,77099,1,0,3:1:0:0:
319,182,77249,2,0,L|186:184,1,117,4|0,3:1|3:1,0:0:0:0:
137,183,77699,1,4,3:1:0:0:
208,183,77849,1,0,3:1:0:0:
354,183,77999,6,0,L|414:183,1,58.5,8|8,0:1|0:1,0:0:0:0:
412,112,78299,2,0,L|348:113,1,58.5,8|8,0:1|0:1,0:0:0:0:
207,112,78599,6,0,L|141:113,1,58.5,8|8,0:1|0:1,0:0:0:0:
90,112,78899,2,0,L|162:112,1,58.5,0|8,1:2|0:1,0:0:0:0:
296,117,79199,5,4,3:1:0:0:
