osu file format v14

[General]
AudioFilename: audio.mp3
AudioLeadIn: 0
PreviewTime: 83367
Countdown: 0
SampleSet: Soft
StackLeniency: 0.7
Mode: 0
LetterboxInBreaks: 0
WidescreenStoryboard: 1

[Editor]
Bookmarks: 39830,49430
DistanceSpacing: 0.8
BeatDivisor: 4
GridSize: 4
TimelineZoom: 1.6

[Metadata]
Title:Netoge Haijin Sprechchor
TitleUnicode:ネトゲ廃人シュプレヒコール
Artist:Reol
ArtistUnicode:Reol
Creator:WORSTPOLACKEU
Version:Gamer
Source:
Tags:The MMORPG ADDICTS ANTHEM Hatsune Miku Kyshiro Bearzim Natsu Utaite Vocaloid Gaming
BeatmapID:928092
BeatmapSetID:430222

[Difficulty]
HPDrainRate:6
CircleSize:4
OverallDifficulty:8.7
ApproachRate:9.2
SliderMultiplier:1.8
SliderTickRate:1

[Events]
//Background and Video events
0,0,"bgbgbgbg.jpg",0,0
//Break Periods
2,40024,48854
//Storyboard Layer 0 (Background)
//Storyboard Layer 1 (Fail)
//Storyboard Layer 2 (Pass)
//Storyboard Layer 3 (Foreground)
//Storyboard Sound Samples

[TimingPoints]
4167,342.857142857143,4,2,1,80,1,0
13081,-66.6666666666667,4,2,1,80,0,0
13762,-100,4,2,1,80,0,0
16509,-83.3333333333333,4,2,1,80,0,1
38452,-200,4,2,1,80,0,1
39138,-66.6666666666667,4,2,1,80,0,1
39824,-100,4,2,1,80,0,0
55081,-80,4,2,1,80,0,0
55424,-100,4,2,1,80,0,0
61767,-125,4,2,1,80,0,0
64852,-100,4,2,1,80,0,0
65024,-100,4,2,1,5,0,0
65195,-100,4,2,1,80,0,0
65367,-100,4,2,1,5,0,0
65538,-100,4,2,1,80,0,0
65709,-100,4,2,1,5,0,0
65881,-83.3333333333333,4,2,1,80,0,0
65967,-83.3333333333333,4,2,1,5,0,0
66052,-66.6666666666667,4,2,1,80,0,0
66138,-66.6666666666667,4,2,1,5,0,0
66224,-50,4,2,1,80,0,0
66309,-50,4,2,1,5,0,0
66395,-500,4,2,1,80,0,0
66652,-200,4,2,1,5,0,0
66738,-66.6666666666667,4,2,1,80,0,0
66909,-50,4,2,1,80,0,0
66995,-66.6666666666667,4,2,1,5,0,0
67252,-100,4,2,1,80,0,0
69995,-90.9090909090909,4,2,1,80,0,0
70509,-83.3333333333333,4,2,1,80,0,0
71195,-66.6666666666667,4,2,1,80,0,0
72052,-71.4285714285714,4,2,1,80,0,0
72738,-100,4,2,1,80,0,0
75481,-83.3333333333333,4,2,1,80,0,0
75567,-83.3333333333333,4,2,1,5,0,0
75652,-83.3333333333333,4,2,1,80,0,0
75738,-83.3333333333333,4,2,1,5,0,0
75824,-83.3333333333333,4,2,1,80,0,0
75909,-83.3333333333333,4,2,1,5,0,0
76167,-83.3333333333333,4,2,1,80,0,0
76424,-83.3333333333333,4,2,1,5,0,0
76509,-83.3333333333333,4,2,1,80,0,0
76681,-83.3333333333333,4,2,1,5,0,0
76852,-83.3333333333333,4,2,1,80,0,0
76938,-83.3333333333333,4,2,1,5,0,0
77024,-66.6666666666667,4,2,1,80,0,0
77109,-66.6666666666667,4,2,1,5,0,0
77195,-50,4,2,1,80,0,0
77281,-50,4,2,1,5,0,0
77367,-500,4,2,1,80,0,0
77624,-500,4,2,1,5,0,0
77709,-50,4,2,1,80,0,0
77795,-50,4,2,1,5,0,0
77881,-50,4,2,1,80,0,0
78224,-66.6666666666667,4,2,1,80,0,0
78567,-100,4,2,1,80,0,0
80967,-86.9565217391304,4,2,1,80,0,0
81652,-74.0740740740741,4,2,1,80,0,0
82338,-58.8235294117647,4,2,1,80,0,0
82595,-58.8235294117647,4,2,1,5,0,0
82681,-58.8235294117647,4,2,1,80,0,0
83709,-83.3333333333333,4,2,1,80,0,1
105652,-1000,4,2,1,80,0,1
106252,-1000,4,2,1,5,0,1
106338,-66.6666666666667,4,2,1,80,0,1
107024,-83.3333333333333,4,2,1,80,0,0

[Colours]
Combo1 : 230,183,247
Combo2 : 172,238,218
Combo3 : 157,201,255
Combo4 : 250,160,174

[HitObjects]
288,208,4166,6,0,P|239:213|199:206,1,90,2|0,0:0|0:0,0:0:0:0:
135,144,4424,1,0,0:0:0:0:
135,144,4509,2,0,L|220:124,1,45,8|0,0:0|0:0,0:0:0:0:
380,92,4681,1,2,0:0:0:0:
396,340,4852,2,0,L|353:354,1,45,0|0,0:0|0:0,0:0:0:0:
280,316,5024,2,0,L|249:309,4,22.5,2|0|0|0|8,0:0|0:0|0:0|0:0|0:0,0:0:0:0:
488,236,5367,1,0,0:0:0:0:
208,384,5538,6,0,P|180:308|216:236,1,135,6|0,0:0|0:0,0:0:0:0:
280,316,5881,1,8,0:0:0:0:
352,92,6052,1,0,0:0:0:0:
280,316,6224,2,0,L|371:302,1,90,0|2,0:0|0:0,0:0:0:0:
452,156,6567,1,8,0:0:0:0:
244,52,6739,2,0,P|240:100|252:142,1,90,0|0,0:0|0:0,0:0:0:0:
380,216,7081,6,0,L|309:228,1,45,0|0,0:0|0:0,0:0:0:0:
200,244,7252,2,0,B|104:256,1,90,8|0,0:0|0:0,0:0:0:0:
456,288,7595,2,0,L|385:300,1,45
280,316,7766,2,0,B|199:327,1,45,2|2,0:0|0:0,0:0:0:0:
104,340,7938,1,8,0:0:0:0:
128,56,8281,6,0,P|72:48|116:116,1,180,2|8,0:0|0:0,0:0:0:0:
380,130,8795,2,0,P|421:145|393:174,1,90,0|0,0:0|0:0,0:0:0:0:
232,212,9138,2,0,P|190:227|219:256,1,90,2|8,0:0|0:0,0:0:0:0:
464,292,9481,1,0,0:0:0:0:
464,292,9567,1,0,0:0:0:0:
464,292,9652,5,2,0:0:0:0:
484,176,9824,1,2,0:0:0:0:
232,212,9995,1,8,0:0:0:0:
212,328,10167,1,2,0:0:0:0:
363,209,10339,1,0,0:0:0:0:
370,164,10424,1,0,0:0:0:0:
378,120,10509,2,0,L|391:45,1,45,2|2,0:0|0:0,0:0:0:0:
264,20,10681,2,0,L|248:116,1,90,8|0,0:0|0:0,0:0:0:0:
212,328,11024,6,0,P|195:286|164:254,1,90,6|0,0:0|0:0,0:0:0:0:
44,144,11367,2,0,P|88:150|131:139,1,90,8|0,0:0|0:0,0:0:0:0:
328,288,11709,1,0,0:0:0:0:
284,76,11881,1,2,0:0:0:0:
328,288,12052,1,8,0:0:0:0:
253,43,12224,6,0,B|265:132,1,90,0|2,0:0|0:0,0:0:0:0:
72,288,12567,2,0,L|65:236,1,45
52,136,12738,2,0,L|45:84,2,45,8|0|0,0:0|0:0|0:0,0:0:0:0:
208,364,13081,2,0,L|200:284,1,67.5000025749208
192,188,13252,2,0,L|185:120,1,67.5000025749208,2|2,0:0|0:0,0:0:0:0:
176,12,13424,1,8,0:0:0:0:
438,14,13767,5,2,0:0:0:0:
438,14,13852,1,0,0:0:0:0:
438,14,13938,1,0,0:0:0:0:
438,14,14024,1,0,0:0:0:0:
438,14,14109,5,8,0:0:0:0:
408,56,14195,1,0,0:0:0:0:
387,96,14280,1,0,0:0:0:0:
380,140,14366,1,0,0:0:0:0:
336,124,14452,5,2,0:0:0:0:
326,168,14537,1,0,0:0:0:0:
330,212,14623,1,2,0:0:0:0:
349,252,14709,1,0,0:0:0:0:
387,284,14795,5,8,0:0:0:0:
342,273,14881,1,0,0:0:0:0:
298,277,14966,1,2,0:0:0:0:
258,297,15052,1,2,0:0:0:0:
277,340,15138,6,0,L|214:347,1,45
75,259,15309,1,2,0:0:0:0:
75,259,15395,1,2,0:0:0:0:
75,259,15481,2,0,L|13:250,1,45,8|0,0:0|0:0,0:0:0:0:
247,161,15652,1,2,0:0:0:0:
247,161,15738,1,0,0:0:0:0:
247,161,15824,6,0,L|259:89,1,45,0|8,0:0|0:0,0:0:0:0:
96,60,15995,2,0,L|103:104,1,45,2|0,0:0|0:0,0:0:0:0:
168,296,16167,1,8,0:0:0:0:
212,304,16252,1,0,0:0:0:0:
256,296,16338,2,0,L|304:288,1,45,2|0,0:0|0:0,0:0:0:0:
500,168,16509,6,0,P|436:136|340:148,1,161.999995056153,6|0,0:0|0:0,0:0:0:0:
312,212,16852,2,0,L|164:236,1,107.999996704102,8|0,0:0|0:0,0:0:0:0:
205,229,17109,1,0,0:0:0:0:
205,229,17195,1,0,0:0:0:0:
40,96,17367,1,2,0:0:0:0:
88,292,17538,2,0,P|156:304|204:336,1,107.999996704102,8|0,0:0|0:0,0:0:0:0:
423,92,17881,6,0,P|370:85|322:60,2,107.999996704102,2|0|8,0:0|0:0|0:0,0:0:0:0:
476,224,18395,2,0,P|464:276|460:332,1,107.999996704102,0|0,0:0|0:0,0:0:0:0:
216,288,18738,1,2,0:0:0:0:
216,288,18824,1,2,0:0:0:0:
216,288,18909,1,8,0:0:0:0:
340,200,19081,1,0,0:0:0:0:
56,96,19252,6,0,P|109:88|160:106,1,107.999996704102,2|0,0:0|0:0,0:0:0:0:
265,222,19595,1,8,0:0:0:0:
164,364,19767,2,0,P|130:322|120:269,1,107.999996704102,0|0,0:0|0:0,0:0:0:0:
231,15,20109,1,2,0:0:0:0:
236,52,20195,1,0,0:0:0:0:
242,90,20281,1,8,0:0:0:0:
397,239,20452,1,0,0:0:0:0:
192,180,20624,5,2,0:0:0:0:
456,142,20795,2,0,P|455:89|447:35,1,107.999996704102,2|8,0:0|0:0,0:0:0:0:
396,239,21138,2,0,P|397:292|405:346,1,107.999996704102,2|0,0:0|0:0,0:0:0:0:
316,116,21481,1,2,0:0:0:0:
316,116,21567,1,2,0:0:0:0:
316,116,21652,1,8,0:0:0:0:
228,284,21824,1,0,0:0:0:0:
44,96,21995,5,2,0:0:0:0:
144,202,22167,1,0,0:0:0:0:
190,63,22338,1,8,0:0:0:0:
36,200,22509,1,0,0:0:0:0:
316,116,22681,1,0,0:0:0:0:
44,96,22852,1,2,0:0:0:0:
44,96,22938,1,0,0:0:0:0:
44,96,23024,1,8,0:0:0:0:
160,276,23195,1,0,0:0:0:0:
108,34,23367,5,2,0:0:0:0:
128,330,23538,2,0,P|200:314|256:318,1,107.999996704102,0|8,0:0|0:0,0:0:0:0:
444,348,23881,2,0,P|392:362|339:364,1,107.999996704102,0|0,0:0|0:0,0:0:0:0:
400,24,24224,1,2,0:0:0:0:
400,24,24309,1,2,0:0:0:0:
400,24,24395,1,8,0:0:0:0:
240,176,24567,1,0,0:0:0:0:
400,24,24738,5,2,0:0:0:0:
396,67,24823,1,0,0:0:0:0:
392,110,24909,1,0,0:0:0:0:
389,153,24995,1,0,0:0:0:0:
384,192,25081,2,0,L|388:245,1,53.9999983520508,8|0,0:0|0:0,0:0:0:0:
508,160,25252,2,0,L|503:106,1,53.9999983520508,2|0,0:0|0:0,0:0:0:0:
476,272,25424,5,2,0:0:0:0:
456,312,25509,1,0,0:0:0:0:
416,332,25595,1,2,0:0:0:0:
372,332,25680,1,0,0:0:0:0:
332,316,25767,2,0,L|278:312,1,53.9999983520508,8|0,0:0|0:0,0:0:0:0:
56,216,25938,2,0,L|110:212,1,53.9999983520508,2|2,0:0|0:0,0:0:0:0:
284,112,26109,5,8,0:0:0:0:
152,356,26281,1,2,0:0:0:0:
152,356,26367,1,2,0:0:0:0:
152,356,26452,1,8,0:0:0:0:
284,112,26624,1,0,0:0:0:0:
284,112,26709,1,0,0:0:0:0:
284,112,26795,6,0,L|289:27,1,53.9999983520508,2|8,0:0|0:0,0:0:0:0:
255,288,26967,2,0,L|163:280,1,53.9999983520508,2|0,0:0|0:0,0:0:0:0:
21,78,27138,1,8,0:0:0:0:
65,66,27224,1,0,0:0:0:0:
108,68,27309,2,0,P|144:72|168:88,1,53.9999983520508,2|0,0:0|0:0,0:0:0:0:
268,188,27481,6,0,L|280:24,1,161.999995056153,6|0,0:0|0:0,0:0:0:0:
344,68,27824,2,0,P|280:104|220:68,1,107.999996704102,8|0,0:0|0:0,0:0:0:0:
96,112,28167,1,0,0:0:0:0:
279,26,28338,1,2,0:0:0:0:
60,80,28509,2,0,L|72:204,1,107.999996704102,8|0,0:0|0:0,0:0:0:0:
288,352,28852,6,0,P|248:300|242:242,1,107.999996704102,2|0,0:0|0:0,0:0:0:0:
416,116,29195,1,8,0:0:0:0:
176,324,29367,1,0,0:0:0:0:
176,324,29452,1,0,0:0:0:0:
176,324,29538,1,0,0:0:0:0:
142,65,29709,2,0,L|136:118,1,53.9999983520508,2|2,0:0|0:0,0:0:0:0:
120,252,29881,1,8,0:0:0:0:
348,148,30052,1,0,0:0:0:0:
142,65,30224,6,0,P|93:87|40:96,1,107.999996704102,2|0,0:0|0:0,0:0:0:0:
264,8,30566,1,8,0:0:0:0:
320,228,30738,2,0,L|309:116,1,107.999996704102,0|0,0:0|0:0,0:0:0:0:
142,65,31081,1,2,0:0:0:0:
137,107,31167,1,0,0:0:0:0:
132,150,31252,1,8,0:0:0:0:
220,352,31424,1,0,0:0:0:0:
312,160,31595,6,0,L|244:176,1,53.9999983520508,2|0,0:0|0:0,0:0:0:0:
84,320,31767,2,0,L|152:304,1,53.9999983520508,2|0,0:0|0:0,0:0:0:0:
308,248,31938,1,8,0:0:0:0:
52,77,32109,2,0,P|41:129|60:180,1,107.999996704102,2|0,0:0|0:0,0:0:0:0:
272,93,32452,2,0,L|280:29,1,53.9999983520508,2|2,0:0|0:0,0:0:0:0:
336,145,32624,2,0,L|353:288,1,107.999996704102,8|0,0:0|0:0,0:0:0:0:
127,133,32967,5,6,0:0:0:0:
419,188,33138,1,0,0:0:0:0:
419,188,33224,1,0,0:0:0:0:
419,188,33309,1,8,0:0:0:0:
149,316,33481,1,0,0:0:0:0:
288,53,33652,1,0,0:0:0:0:
149,316,33824,1,2,0:0:0:0:
419,188,33995,2,0,B|375:168|375:168|287:172,1,107.999996704102,8|2,0:0|0:0,0:0:0:0:
149,316,34338,5,6,0:0:0:0:
453,260,34509,2,0,P|491:222|491:154,1,107.999996704102,0|8,0:0|0:0,0:0:0:0:
264,264,34852,2,0,P|270:316|308:354,1,107.999996704102
440,100,35195,2,0,L|386:106,1,53.9999983520508,2|2,0:0|0:0,0:0:0:0:
266,157,35367,1,8,0:0:0:0:
336,16,35538,1,0,0:0:0:0:
356,228,35709,5,2,0:0:0:0:
317,246,35794,1,0,0:0:0:0:
274,253,35880,1,0,0:0:0:0:
232,248,35966,1,0,0:0:0:0:
192,231,36052,2,0,L|124:216,1,53.9999983520508,8|0,0:0|0:0,0:0:0:0:
266,157,36224,2,0,L|334:142,1,53.9999983520508,2|0,0:0|0:0,0:0:0:0:
112,140,36395,5,2,0:0:0:0:
68,172,36481,1,0,0:0:0:0:
60,224,36567,1,2,0:0:0:0:
80,276,36653,1,0,0:0:0:0:
128,304,36738,2,0,L|200:320,1,53.9999983520508,8|0,0:0|0:0,0:0:0:0:
302,65,36909,2,0,L|249:76,1,53.9999983520508,2|0,0:0|0:0,0:0:0:0:
273,301,37081,6,0,B|279:236|293:208|293:208|258:233|255:260,1,161.999995056153
235,369,37424,1,8,0:0:0:0:
436,256,37595,1,0,0:0:0:0:
152,212,37767,1,0,0:0:0:0:
380,336,37938,1,2,0:0:0:0:
380,336,38024,1,2,0:0:0:0:
380,336,38109,1,2,0:0:0:0:
100,272,38280,1,0,0:0:0:0:
376,120,38452,6,0,P|428:112|396:164,1,135
184,104,39138,1,8,0:0:0:0:
184,104,39224,1,8,0:0:0:0:
184,104,39309,1,0,0:0:0:0:
389,244,39481,6,0,P|423:246|452:230,1,67.5000025749208,8|0,0:0|0:0,0:0:0:0:
484,57,39652,2,0,P|458:34|426:28,1,67.5000025749208,10|0,0:0|0:0,0:0:0:0:
339,326,39824,5,6,0:0:0:0:
60,324,49424,5,2,0:0:0:0:
152,120,49595,1,0,0:0:0:0:
148,88,49681,1,0,0:0:0:0:
144,56,49767,1,8,0:0:0:0:
288,144,49938,5,0,0:0:0:0:
324,117,50023,1,8,0:0:0:0:
367,104,50109,1,2,0:0:0:0:
411,105,50195,1,0,0:0:0:0:
452,120,50281,1,10,0:0:0:0:
400,288,50452,5,8,0:0:0:0:
404,320,50538,1,2,0:0:0:0:
280,172,50709,1,10,0:0:0:0:
288,144,50795,6,0,P|302:202|296:239,1,90,4|0,0:0|0:0,0:0:0:0:
168,116,51138,2,0,L|152:-8,1,90,8|0,0:0|0:0,0:0:0:0:
384,88,51481,1,0,0:0:0:0:
296,256,51652,1,2,0:0:0:0:
296,256,51738,1,0,0:0:0:0:
296,256,51824,2,0,L|312:380,1,90,8|0,0:0|0:0,0:0:0:0:
32,284,52167,6,0,B|92:288|136:309|136:309|120:268,1,135,2|0,0:0|0:0,0:0:0:0:
96,204,52509,1,8,0:0:0:0:
256,340,52681,1,0,0:0:0:0:
256,340,52767,1,0,0:0:0:0:
256,340,52852,1,0,0:0:0:0:
356,80,53024,2,0,L|364:152,1,45,2|2,0:0|0:0,0:0:0:0:
368,256,53195,1,8,0:0:0:0:
215,154,53367,1,0,0:0:0:0:
76,356,53538,6,0,P|75:266|49:180,1,180,2|8,0:0|0:0,0:0:0:0:
208,68,54052,2,0,P|201:110|233:175,1,90,0|0,0:0|0:0,0:0:0:0:
332,224,54395,1,2,0:0:0:0:
156,280,54567,1,8,0:0:0:0:
374,290,54738,2,0,L|368:380,1,90,0|2,0:0|0:0,0:0:0:0:
370,97,55081,2,0,P|418:53|394:141,1,225,2|0,0:0|0:0,0:0:0:0:
252,240,55595,1,0,0:0:0:0:
168,24,55767,1,2,0:0:0:0:
168,24,55852,1,2,0:0:0:0:
168,24,55938,1,8,0:0:0:0:
292,48,56109,1,0,0:0:0:0:
56,84,56281,6,0,L|44:208,2,90,2|0|8,0:0|0:0|0:0,0:0:0:0:
224,136,56795,1,0,0:0:0:0:
124,348,56967,5,0,0:0:0:0:
160,132,57138,2,0,P|208:116|260:120,1,90,2|8,0:0|0:0,0:0:0:0:
88,304,57481,5,0,0:0:0:0:
178,103,57652,2,0,P|228:99|277:117,1,90,2|0,0:0|0:0,0:0:0:0:
68,252,57995,5,8,0:0:0:0:
203,75,58167,2,0,P|252:85|295:114,1,90,0|0,0:0|0:0,0:0:0:0:
332,296,58509,6,0,P|336:264|328:228,1,45,2|2,0:0|0:0,0:0:0:0:
304,100,58680,2,0,P|272:68|231:49,1,90,8|0,0:0|0:0,0:0:0:0:
424,172,59024,6,0,B|424:224|424:224|448:304|448:304|448:392,1,180,2|8,0:0|0:0,0:0:0:0:
508,220,59538,1,0,0:0:0:0:
360,320,59709,2,0,L|248:328,1,90,0|2,0:0|0:0,0:0:0:0:
76,220,60052,1,0,0:0:0:0:
232,256,60224,1,0,0:0:0:0:
52,300,60395,5,8,0:0:0:0:
276,188,60567,1,0,0:0:0:0:
276,188,60652,1,0,0:0:0:0:
276,188,60738,1,8,0:0:0:0:
0,146,60909,5,0,0:0:0:0:
39,121,60994,1,0,0:0:0:0:
83,113,61081,2,0,L|147:125,1,45,0|8,0:0|0:0,0:0:0:0:
276,188,61252,2,0,L|320:179,1,45,2|0,0:0|0:0,0:0:0:0:
440,51,61424,5,8,0:0:0:0:
396,43,61509,1,0,0:0:0:0:
356,63,61595,2,0,L|279:77,1,45,2|0,0:0|0:0,0:0:0:0:
132,36,61767,1,4,0:0:0:0:
352,292,62109,5,8,0:0:0:0:
68,248,62281,1,0,0:0:0:0:
339,217,62452,2,0,L|415:189,1,72
208,336,62795,1,8,0:0:0:0:
132,212,62967,1,0,0:0:0:0:
352,292,63138,5,2,0:0:0:0:
68,248,63309,1,0,0:0:0:0:
288,339,63481,1,8,0:0:0:0:
68,248,63652,2,0,L|32:336,1,72,0|0,0:0|0:0,0:0:0:0:
96,92,63995,1,2,0:0:0:0:
80,124,64081,1,2,0:0:0:0:
64,156,64167,1,8,0:0:0:0:
68,12,64338,1,0,0:0:0:0:
68,248,64509,6,0,L|108:328,1,72,2|0,0:0|0:0,0:0:0:0:
344,268,64852,6,0,B|348:247|348:247|326:241|326:241|306:256|306:256|321:282|321:282,1,90,8|0,0:0|0:0,0:0:0:0:
172,176,65195,2,0,B|169:155|169:155|191:149|191:149|211:164|211:164|196:190|196:190,1,90,0|2,0:0|0:0,0:0:0:0:
345,65,65538,2,0,B|349:44|349:44|327:38|327:38|307:53|307:53|322:79|322:79,1,90,8|0,0:0|0:0,0:0:0:0:
56,260,65881,6,0,P|84:260|108:240,1,53.9999983520508,2|0,0:0|0:0,0:0:0:0:
191,284,66052,2,0,P|176:313|148:331,1,67.5000025749208,2|0,0:0|0:0,0:0:0:0:
268,368,66224,2,0,P|296:326|296:271,1,90,8|0,0:0|0:0,0:0:0:0:
258,115,66395,6,0,P|242:104|229:101,1,27,2|0,0:0|0:0,0:0:0:0:
205,166,66738,6,0,P|239:185|299:177,1,67.5000025749208,2|2,0:0|0:0,0:0:0:0:
456,116,66909,2,0,P|372:56|416:148,1,270,8|0,0:0|0:0,0:0:0:0:
456,116,67252,6,0,B|464:192|464:192|439:239|439:239|446:288,1,180,2|8,0:0|0:0,0:0:0:0:
272,240,67767,1,0,0:0:0:0:
342,79,67938,2,0,L|352:176,1,90,0|2,0:0|0:0,0:0:0:0:
176,360,68281,2,0,L|184:260,1,90,8|0,0:0|0:0,0:0:0:0:
192,40,68624,5,2,0:0:0:0:
112,260,68795,1,0,0:0:0:0:
44,80,68967,1,8,0:0:0:0:
288,160,69138,2,0,P|342:161|388:148,1,90,0|0,0:0|0:0,0:0:0:0:
424,328,69481,1,2,0:0:0:0:
424,328,69567,1,2,0:0:0:0:
424,328,69652,1,8,0:0:0:0:
476,40,69824,1,0,0:0:0:0:
472,220,69995,6,0,L|260:244,1,198.000006042481,2|8,0:0|0:0,0:0:0:0:
397,177,70509,1,0,0:0:0:0:
320,312,70681,6,0,P|224:280|108:308,1,215.999993408203,0|8,0:0|0:0,0:0:0:0:
275,242,71195,1,0,0:0:0:0:
60,352,71367,6,0,B|88:316|114:303|114:303|80:284|68:248|68:248|96:208|96:208|64:176|88:108,1,270.000010299683,8|8,0:0|0:0,0:0:0:0:
146,384,71881,1,2,0:0:0:0:
205,76,72052,6,0,P|201:108|198:139,1,62.9999980773926,2|8,0:0|0:0,0:0:0:0:
305,269,72224,2,0,L|299:206,1,62.9999980773926,2|2,0:0|0:0,0:0:0:0:
421,29,72395,5,8,0:0:0:0:
417,72,72480,1,2,0:0:0:0:
413,116,72566,1,2,0:0:0:0:
410,160,72652,1,2,0:0:0:0:
441,209,72737,5,6,0:0:0:0:
184,76,73081,5,8,0:0:0:0:
24,136,73252,1,0,0:0:0:0:
272,88,73424,2,0,L|282:197,1,90,0|2,0:0|0:0,0:0:0:0:
112,24,73767,1,8,0:0:0:0:
232,244,73938,1,0,0:0:0:0:
420,208,74109,6,0,L|408:118,1,90,2|0,0:0|0:0,0:0:0:0:
196,168,74452,1,8,0:0:0:0:
366,157,74623,2,0,L|379:61,1,90,0|0,0:0|0:0,0:0:0:0:
435,295,74967,1,2,0:0:0:0:
427,251,75052,1,2,0:0:0:0:
419,207,75138,2,0,L|403:119,1,90,8|0,0:0|0:0,0:0:0:0:
144,244,75481,6,0,P|167:253|192:284,1,53.9999983520508,2|0,0:0|0:0,0:0:0:0:
240,224,75652,2,0,P|255:243|261:282,1,53.9999983520508
336,256,75824,2,0,P|324:312|276:348,1,107.999996704102,8|0,0:0|0:0,0:0:0:0:
80,204,76167,6,0,B|60:121|60:121|109:112|124:172,1,161.999995056153,0|0,0:0|0:0,0:0:0:0:
144,244,76509,2,0,B|144:268|144:268|152:280|144:304|144:304|164:320|164:356,1,107.999996704102,8|0,0:0|0:0,0:0:0:0:
408,68,76852,6,0,P|384:77|360:108,1,53.9999983520508,2|0,0:0|0:0,0:0:0:0:
272,96,77024,2,0,P|277:62|297:35,1,67.5000025749208,2|0,0:0|0:0,0:0:0:0:
180,88,77195,2,0,P|184:136|228:176,1,90,8|0,0:0|0:0,0:0:0:0:
356,265,77367,6,0,P|374:271|387:271,1,27,2|0,0:0|0:0,0:0:0:0:
393,202,77710,6,0,P|355:192|300:217,1,90,0|2,0:0|0:0,0:0:0:0:
156,335,77881,2,0,B|103:340|103:340|48:320|48:320|72:284|68:207|68:207|88:271,1,270,10|0,0:0|0:0,0:0:0:0:
98,262,78224,6,0,B|168:256|168:256|260:280,1,135.000005149842,2|0,0:0|0:0,0:0:0:0:
428,72,78567,6,0,P|348:64|320:88,1,90,8|0,0:0|0:0,0:0:0:0:
230,272,78909,1,0,0:0:0:0:
32,152,79081,1,2,0:0:0:0:
230,272,79252,1,8,0:0:0:0:
247,39,79424,1,0,0:0:0:0:
96,260,79595,5,2,0:0:0:0:
247,39,79767,1,0,0:0:0:0:
328,312,79938,1,8,0:0:0:0:
460,132,80109,2,0,P|392:116|340:132,1,90,0|0,0:0|0:0,0:0:0:0:
200,268,80452,1,2,0:0:0:0:
195,312,80537,1,2,0:0:0:0:
191,357,80623,1,8,0:0:0:0:
304,160,80796,1,0,0:0:0:0:
168,336,80967,6,0,B|164:268|164:268|140:200|140:200|136:120,1,207.000003948212,2|8,0:0|0:0,0:0:0:0:
87,286,81481,1,0,0:0:0:0:
100,92,81652,6,0,P|152:120|336:100,1,243.000000926971,0|8,0:0|0:0,0:0:0:0:
136,133,82167,1,2,0:0:0:0:
372,4,82338,6,0,B|344:36|344:36|360:80|360:80|328:104|328:104|368:144|376:160|360:184|372:240,1,229.500004377365,2|8,0:0|0:0,0:0:0:0:
388,348,82681,2,0,P|392:314|388:260,1,76.5000014591217,10|0,0:0|0:0,0:0:0:0:
329,104,82852,1,0,0:0:0:0:
397,353,83024,2,0,P|401:319|397:265,1,76.5000014591217
214,214,83195,2,2,P|240:232|332:224,1,76.5000014591217,10|2,0:0|0:0,0:0:0:0:
480,208,83367,5,8,0:0:0:0:
412,180,83452,1,0,0:0:0:0:
340,192,83538,1,0,0:0:0:0:
284,240,83624,1,0,0:0:0:0:
256,308,83709,6,0,P|188:324|136:300,1,107.999996704102,6|0,0:0|0:0,0:0:0:0:
48,184,84052,2,0,P|116:168|168:192,1,107.999996704102,8|0,0:0|0:0,0:0:0:0:
0,48,84395,1,0,0:0:0:0:
104,244,84567,1,2,0:0:0:0:
324,152,84738,2,0,L|392:144,1,53.9999983520508,8|0,0:0|0:0,0:0:0:0:
449,280,84909,1,0,0:0:0:0:
449,280,84995,1,0,0:0:0:0:
449,280,85081,6,0,P|377:248|309:264,1,107.999996704102,2|0,0:0|0:0,0:0:0:0:
185,332,85424,1,8,0:0:0:0:
49,99,85595,6,0,P|121:67|189:83,1,107.999996704102,2|0,0:0|0:0,0:0:0:0:
348,128,85938,2,0,L|420:116,1,53.9999983520508,2|2,0:0|0:0,0:0:0:0:
241,40,86109,1,8,0:0:0:0:
252,276,86281,1,0,0:0:0:0:
440,312,86452,6,0,L|456:200,1,107.999996704102,2|0,0:0|0:0,0:0:0:0:
204,184,86795,1,8,0:0:0:0:
396,120,86967,2,0,L|412:8,1,107.999996704102,0|0,0:0|0:0,0:0:0:0:
360,308,87309,2,0,P|364:344|388:368,1,53.9999983520508,2|2,0:0|0:0,0:0:0:0:
452,244,87481,2,0,L|436:132,1,107.999996704102,8|0,0:0|0:0,0:0:0:0:
104,144,87824,5,2,0:0:0:0:
268,332,87995,1,2,0:0:0:0:
304,36,88167,1,8,0:0:0:0:
144,272,88338,1,2,0:0:0:0:
392,248,88509,2,0,P|348:240|324:248,1,53.9999983520508
169,375,88681,1,0,0:0:0:0:
169,375,88767,1,0,0:0:0:0:
169,375,88852,2,0,P|165:323|141:267,1,107.999996704102,8|0,0:0|0:0,0:0:0:0:
16,4,89195,5,2,0:0:0:0:
52,212,89367,1,0,0:0:0:0:
248,112,89538,1,8,0:0:0:0:
216,296,89710,1,0,0:0:0:0:
296,32,89881,1,0,0:0:0:0:
20,96,90052,1,2,0:0:0:0:
245,222,90224,2,0,P|189:222|148:256,1,107.999996704102,8|0,0:0|0:0,0:0:0:0:
352,286,90567,6,0,L|460:276,1,107.999996704102,2|0,0:0|0:0,0:0:0:0:
360,80,90909,1,8,0:0:0:0:
288,364,91081,2,0,L|160:376,1,107.999996704102,0|0,0:0|0:0,0:0:0:0:
66,172,91424,2,0,L|59:262,1,53.9999983520508,2|2,0:0|0:0,0:0:0:0:
81,363,91595,1,8,0:0:0:0:
238,120,91767,1,0,0:0:0:0:
57,26,91938,5,2,0:0:0:0:
33,74,92024,1,0,0:0:0:0:
37,127,92110,1,0,0:0:0:0:
66,172,92196,1,0,0:0:0:0:
113,196,92281,1,8,0:0:0:0:
166,194,92367,1,0,0:0:0:0:
212,166,92453,1,0,0:0:0:0:
238,120,92538,1,0,0:0:0:0:
244,68,92624,6,0,L|248:8,1,53.9999983520508,2|0,0:0|0:0,0:0:0:0:
66,172,92795,2,0,L|70:108,1,53.9999983520508,2|0,0:0|0:0,0:0:0:0:
316,216,92967,2,0,L|320:156,1,53.9999983520508,8|0,0:0|0:0,0:0:0:0:
138,320,93138,2,0,L|142:256,1,53.9999983520508,2|2,0:0|0:0,0:0:0:0:
376,348,93309,5,8,0:0:0:0:
52,261,93481,1,2,0:0:0:0:
52,261,93567,1,2,0:0:0:0:
52,261,93652,1,8,0:0:0:0:
283,108,93824,1,2,0:0:0:0:
283,108,93910,1,2,0:0:0:0:
283,108,93995,2,0,P|315:103|370:127,1,53.9999983520508,2|8,0:0|0:0,0:0:0:0:
291,327,94167,2,0,P|264:330|237:325,1,53.9999983520508,2|0,0:0|0:0,0:0:0:0:
52,261,94338,2,0,L|60:184,1,53.9999983520508,8|0,0:0|0:0,0:0:0:0:
124,20,94509,1,2,0:0:0:0:
124,20,94595,1,2,0:0:0:0:
124,20,94681,6,0,P|140:76|128:140,1,107.999996704102,6|0,0:0|0:0,0:0:0:0:
152,368,95024,2,0,P|146:314|161:263,1,107.999996704102,8|0,0:0|0:0,0:0:0:0:
480,216,95367,1,0,0:0:0:0:
176,184,95538,1,2,0:0:0:0:
416,32,95709,2,0,L|432:156,1,107.999996704102,8|0,0:0|0:0,0:0:0:0:
176,184,96052,6,0,P|228:220|292:204,1,107.999996704102,2|0,0:0|0:0,0:0:0:0:
332,56,96395,1,8,0:0:0:0:
344,320,96567,2,0,P|284:344|228:340,1,107.999996704102,0|0,0:0|0:0,0:0:0:0:
43,213,96909,2,0,L|34:266,1,53.9999983520508,2|2,0:0|0:0,0:0:0:0:
121,350,97081,1,8,0:0:0:0:
70,88,97252,1,0,0:0:0:0:
252,88,97424,6,0,P|220:136|228:200,1,107.999996704102,2|0,0:0|0:0,0:0:0:0:
84,64,97767,1,8,0:0:0:0:
304,160,97938,2,0,P|368:160|412:128,1,107.999996704102,0|0,0:0|0:0,0:0:0:0:
256,308,98281,2,0,L|276:244,1,53.9999983520508,2|2,0:0|0:0,0:0:0:0:
336,76,98452,2,0,P|308:24|249:2,1,107.999996704102,8|0,0:0|0:0,0:0:0:0:
12,165,98795,5,2,0:0:0:0:
244,90,98967,1,2,0:0:0:0:
105,300,99138,1,8,0:0:0:0:
265,3,99309,2,0,P|312:28|336:76,1,107.999996704102,2|0,0:0|0:0,0:0:0:0:
269,338,99652,1,2,0:0:0:0:
312,348,99738,1,2,0:0:0:0:
355,342,99824,2,0,B|407:318|471:310|471:310|446:311|427:298,1,161.999995056153,8|0,0:0|0:0,0:0:0:0:
356,244,100167,6,0,L|464:232,1,107.999996704102,2|0,0:0|0:0,0:0:0:0:
217,54,100509,1,8,0:0:0:0:
432,24,100680,1,0,0:0:0:0:
478,339,100852,1,0,0:0:0:0:
448,124,101024,1,2,0:0:0:0:
231,161,101196,1,8,0:0:0:0:
263,369,101367,1,0,0:0:0:0:
448,124,101538,6,0,L|328:144,1,107.999996704102,2|0,0:0|0:0,0:0:0:0:
248,264,101881,1,8,0:0:0:0:
8,252,102052,2,0,P|44:228|116:220,1,107.999996704102,0|0,0:0|0:0,0:0:0:0:
303,337,102395,2,0,L|355:325,1,53.9999983520508,2|2,0:0|0:0,0:0:0:0:
166,283,102567,1,8,0:0:0:0:
500,176,102738,1,0,0:0:0:0:
215,346,102909,5,2,0:0:0:0:
255,311,102994,1,0,0:0:0:0:
308,304,103080,1,0,0:0:0:0:
356,326,103166,1,0,0:0:0:0:
383,362,103252,5,8,0:0:0:0:
359,311,103337,1,0,0:0:0:0:
314,283,103423,1,0,0:0:0:0:
262,282,103509,1,0,0:0:0:0:
223,298,103595,6,0,L|232:232,1,53.9999983520508,2|0,0:0|0:0,0:0:0:0:
23,176,103767,2,0,L|15:229,1,53.9999983520508,2|0,0:0|0:0,0:0:0:0:
84,337,103938,5,8,0:0:0:0:
123,270,104024,1,0,0:0:0:0:
139,198,104109,1,2,0:0:0:0:
123,122,104195,1,0,0:0:0:0:
79,54,104281,2,0,B|72:28|44:16|44:16|72:24|104:20,1,107.999996704102
314,283,104624,5,8,0:0:0:0:
123,122,104795,1,2,0:0:0:0:
84,337,104967,1,8,0:0:0:0:
429,167,105138,1,2,0:0:0:0:
429,167,105224,1,2,0:0:0:0:
429,167,105309,1,2,0:0:0:0:
42,267,105481,1,8,0:0:0:0:
452,328,105652,6,0,L|483:331,1,31.5
437,252,106338,6,0,P|468:239|501:234,2,67.5000025749208,8|8|0,0:0|0:0|0:0,0:0:0:0:
341,356,106681,6,0,P|314:335|293:308,1,67.5000025749208,8|0,0:0|0:0,0:0:0:0:
292,15,106852,2,0,P|296:48|292:82,1,67.5000025749208,2|0,0:0|0:0,0:0:0:0:
52,220,107024,5,6,0:0:0:0:
