osu file format v14

[General]
AudioFilename: Netoge Haijin Sprechchor.mp3
AudioLeadIn: 0
PreviewTime: 16511
Countdown: 0
SampleSet: None
StackLeniency: 0.7
Mode: 0
LetterboxInBreaks: 0
WidescreenStoryboard: 0

[Editor]
Bookmarks: 49426,61769
DistanceSpacing: 1
BeatDivisor: 4
GridSize: 4
TimelineZoom: 1.5

[Metadata]
Title:Netoge Haijin Sprechchor
TitleUnicode:ネトゲ廃人シュプレヒコール
Artist:Reol
ArtistUnicode:れをる
Creator:Deppyforce
Version:Normal
Source:
Tags:さつき が てんこもり satsuki ga tenkomori 初音ミク hatsune miku online game addict ギガ giga drum and bass dnb eeezzzeee
BeatmapID:921398
BeatmapSetID:426763

[Difficulty]
HPDrainRate:4
CircleSize:3.5
OverallDifficulty:4
ApproachRate:5
SliderMultiplier:1.1
SliderTickRate:1

[Events]
//Background and Video events
0,0,"ok.jpg",0,0
//Break Periods
//Storyboard Layer 0 (Background)
//Storyboard Layer 1 (Fail)
//Storyboard Layer 2 (Pass)
//Storyboard Layer 3 (Foreground)
//Storyboard Sound Samples

[TimingPoints]
4169,342.857142857143,4,1,0,50,1,0
5540,-100,4,1,1,60,0,0
16511,-100,4,1,1,60,0,1
26111,-100,4,1,1,60,0,0
27483,-100,4,1,1,60,0,1
37426,-100,4,1,0,60,0,1
37511,-100,4,1,1,60,0,1
38454,-100,4,1,0,40,0,0
39826,-100,4,1,1,50,0,0
49426,-100,4,3,1,50,0,0
50797,-100,4,1,1,60,0,0
82340,-100,4,1,0,50,0,0
83711,-100,4,1,1,60,0,1
93311,-100,4,1,1,60,0,0
94683,-100,4,1,1,60,0,1
104626,-100,4,1,0,60,0,1
104711,-100,4,1,1,60,0,1
105140,-100,4,1,1,60,0,1
105654,-100,4,1,0,40,0,0
107026,-100,4,2,1,50,0,0
117997,-100,4,2,1,5,0,0

[Colours]
Combo1 : 239,135,180
Combo2 : 217,164,249
Combo3 : 152,221,248
Combo4 : 114,239,176

[HitObjects]
256,100,4168,6,0,B|204:120|204:120|152:100,1,110,0|8,0:0|0:0,0:0:0:0:
101,82,4683,1,0,0:0:0:0:
61,184,5026,2,0,L|43:235,1,55,0|8,0:0|0:0,0:0:0:0:
22,287,5369,1,0,0:0:0:0:
4,338,5540,6,0,P|59:342|111:321,1,110,4|8,0:0|0:0,0:0:0:0:
204,263,6226,1,0,0:0:0:0:
204,263,6397,2,0,L|264:258,1,55,0|8,0:0|0:0,0:0:0:0:
314,252,6740,2,0,P|364:271|419:267,1,110,0|0,0:0|0:0,0:0:0:0:
466,238,7254,2,0,L|481:130,1,110,8|0,0:0|0:0,0:0:0:0:
489,74,7769,2,0,L|435:66,1,55,0|8,0:0|0:0,0:0:0:0:
325,51,8283,6,0,P|274:70|219:66,1,110,0|8,0:0|0:0,0:0:0:0:
171,40,8797,1,0,0:0:0:0:
65,12,9140,1,0,0:0:0:0:
62,67,9311,2,0,P|71:91|87:115,1,55,8|0,0:0|0:0,0:0:0:0:
136,144,9654,2,0,P|139:170|136:199,1,55,0|0,0:0|0:0,0:0:0:0:
111,247,9997,2,0,P|166:239|216:258,1,110,8|0,0:0|0:0,0:0:0:0:
251,299,10511,2,0,L|256:359,1,55,0|8,0:0|0:0,0:0:0:0:
360,316,11026,6,0,L|350:206,1,110,0|8,0:0|0:0,0:0:0:0:
285,117,11711,1,0,0:0:0:0:
340,112,11883,2,0,L|394:107,1,55,0|8,0:0|0:0,0:0:0:0:
450,102,12226,2,0,P|442:157|462:206,1,110,0|0,0:0|0:0,0:0:0:0:
500,246,12740,2,0,P|446:249|396:280,1,110,8|0,0:0|0:0,0:0:0:0:
360,316,13254,1,0,0:0:0:0:
350,371,13426,1,8,0:0:0:0:
256,192,13769,12,0,15140,0:0:0:0:
61,235,16511,6,0,P|116:225|165:245,1,110,4|8,0:0|0:0,0:0:0:0:
232,332,17197,1,0,0:0:0:0:
232,332,17369,2,0,P|287:342|336:322,1,110,0|0,0:0|0:0,0:0:0:0:
373,281,17883,1,0,0:0:0:0:
391,229,18054,2,0,L|395:119,1,110,0|0,0:0|0:0,0:0:0:0:
454,26,18740,2,0,L|399:24,1,55,0|8,0:0|0:0,0:0:0:0:
344,22,19083,1,0,0:0:0:0:
289,20,19254,6,0,P|254:63|201:77,1,110,0|8,0:0|0:0,0:0:0:0:
147,80,19769,2,0,P|190:115|204:168,1,110,0|0,0:0|0:0,0:0:0:0:
203,221,20283,1,8,0:0:0:0:
196,331,20626,2,0,L|139:328,1,55,0|0,0:0|0:0,0:0:0:0:
86,322,20969,1,8,0:0:0:0:
31,316,21140,2,0,L|37:202,1,110,0|0,0:0|0:0,0:0:0:0:
40,151,21654,1,8,0:0:0:0:
13,43,21997,6,0,P|69:45|121:77,1,110,0|8,0:0|0:0,0:0:0:0:
168,57,22511,1,0,0:0:0:0:
221,43,22683,2,0,P|277:45|329:77,1,110,0|8,0:0|0:0,0:0:0:0:
376,57,23197,1,0,0:0:0:0:
429,43,23369,2,0,L|457:149,1,110,0|8,0:0|0:0,0:0:0:0:
473,203,23883,1,0,0:0:0:0:
366,234,24226,2,0,L|352:181,1,55,0|8,0:0|0:0,0:0:0:0:
337,127,24569,1,0,0:0:0:0:
256,192,24740,12,0,26111,0:0:0:0:
213,307,27483,6,0,L|101:298,1,110,4|8,0:0|0:0,0:0:0:0:
2,349,28169,1,0,0:0:0:0:
2,349,28340,2,0,L|10:239,1,110,0|0,0:0|0:0,0:0:0:0:
14,184,28854,1,0,0:0:0:0:
19,129,29026,2,0,L|128:137,1,110,0|0,0:0|0:0,0:0:0:0:
235,154,29711,2,0,P|235:128|229:100,1,55,0|8,0:0|0:0,0:0:0:0:
200,54,30054,6,0,P|256:49|303:26,1,110,0|0,0:0|0:0,0:0:0:0:
333,72,30569,1,8,0:0:0:0:
363,119,30740,2,0,P|419:114|466:91,1,110,0|0,0:0|0:0,0:0:0:0:
496,137,31254,1,8,0:0:0:0:
493,247,31597,2,0,P|465:244|441:233,1,55,0|0,0:0|0:0,0:0:0:0:
395,263,31940,1,8,0:0:0:0:
349,294,32111,2,0,P|293:289|246:266,1,110,0|0,0:0|0:0,0:0:0:0:
199,295,32626,1,8,0:0:0:0:
101,348,32969,6,0,P|89:295|101:242,1,110,0|8,0:0|0:0,0:0:0:0:
139,202,33483,1,0,0:0:0:0:
191,185,33654,2,0,P|203:132|191:79,1,110,0|8,0:0|0:0,0:0:0:0:
229,39,34169,1,0,0:0:0:0:
283,32,34340,2,0,L|392:20,1,110,0|8,0:0|0:0,0:0:0:0:
447,13,34854,1,0,0:0:0:0:
401,113,35197,2,0,P|403:140|410:169,1,55,0|8,0:0|0:0,0:0:0:0:
438,214,35540,1,0,0:0:0:0:
486,240,35711,6,0,L|481:349,1,110,0|8,0:0|0:0,0:0:0:0:
425,349,36226,1,0,0:0:0:0:
369,349,36397,2,0,L|364:240,1,110,0|8,0:0|0:0,0:0:0:0:
308,240,36911,1,0,0:0:0:0:
253,241,37083,1,0,0:0:0:0:
159,295,37426,6,0,P|143:241|159:185,1,110,8|8,0:0|0:0,0:0:0:0:
192,149,37940,2,0,L|149:114,1,55,0|0,0:0|0:0,0:0:0:0:
106,79,38283,1,8,0:0:0:0:
64,45,38454,1,2,2:0:0:0:
282,1,39140,6,0,L|368:71,1,110,0|8,0:0|0:0,0:0:0:0:
408,108,39654,1,0,0:0:0:0:
449,146,39826,6,0,P|459:200|449:255,1,110,4|8,0:0|0:0,0:0:0:0:
417,298,40340,2,0,P|468:316|506:355,2,110,0|0|0,0:0|0:0|0:0,0:0:0:0:
363,310,41197,1,0,0:0:0:0:
256,283,41540,2,0,L|201:278,1,55,8|0,0:0|0:0,0:0:0:0:
149,296,41883,2,0,L|94:291,1,55,0|0,0:0|0:0,0:0:0:0:
42,309,42226,1,8,0:0:0:0:
67,201,42569,6,0,B|113:192|113:192|129:196|129:196|174:188,1,110,0|8,0:0|0:0,0:0:0:0:
229,175,43083,2,0,B|273:167|273:167|289:170|289:170|336:162,1,110,0|0,0:0|0:0,0:0:0:0:
391,149,43597,1,8,0:0:0:0:
445,136,43769,2,0,P|447:192|469:241,1,110,0|0,0:0|0:0,0:0:0:0:
507,280,44283,2,0,P|451:282|402:304,1,110,8|0,0:0|0:0,0:0:0:0:
356,334,44797,2,0,P|329:341|301:342,1,55,0|8,0:0|0:0,0:0:0:0:
202,293,45311,6,0,L|193:182,1,110,0|8,0:0|0:0,0:0:0:0:
188,128,45826,2,0,P|236:99|293:99,2,110
149,88,46683,1,0,0:0:0:0:
49,41,47026,2,0,L|35:101,1,55,8|0,0:0|0:0,0:0:0:0:
55,146,47369,2,0,L|41:206,1,55,0|0,0:0|0:0,0:0:0:0:
61,251,47711,2,0,L|47:311,1,55,8|0,0:0|0:0,0:0:0:0:
29,356,48054,6,0,B|86:367|86:367|137:351,1,110,0|8,0:0|0:0,0:0:0:0:
186,329,48569,2,0,B|235:313|235:313|292:324,1,110,0|0,0:0|0:0,0:0:0:0:
345,340,49083,1,8,0:0:0:0:
398,326,49254,1,0,0:0:0:0:
451,312,49426,6,0,P|466:258|451:208,1,110,0|8,0:0|0:0,0:0:0:0:
506,111,50112,1,0,0:0:0:0:
451,107,50283,2,0,L|338:100,1,110,8|0,0:0|0:0,0:0:0:0:
296,68,50797,6,0,L|186:74,1,110,4|8,0:0|0:0,0:0:0:0:
131,78,51311,1,0,0:0:0:0:
76,82,51483,2,0,P|91:132|76:188,1,110,0|8,0:0|0:0,0:0:0:0:
42,229,51997,2,0,P|92:214|148:229,1,110,0|0,0:0|0:0,0:0:0:0:
184,268,52511,1,8,0:0:0:0:
245,176,52854,1,0,0:0:0:0:
283,216,53026,2,0,L|341:220,1,55,0|8,0:0|0:0,0:0:0:0:
405,306,53540,5,0,0:0:0:0:
446,203,53883,2,0,P|475:157|475:102,1,110,8|0,0:0|0:0,0:0:0:0:
455,51,54397,1,0,0:0:0:0:
409,19,54569,1,8,0:0:0:0:
300,45,54911,2,0,L|239:40,1,55,0|0,0:0|0:0,0:0:0:0:
197,67,55254,2,0,L|136:62,1,55,8|0,0:0|0:0,0:0:0:0:
94,89,55597,2,0,L|-18:79,1,110,0|8,0:0|0:0,0:0:0:0:
30,179,56283,6,0,P|37:233|21:288,1,110,0|8,0:0|0:0,0:0:0:0:
29,340,56797,1,0,0:0:0:0:
77,366,56969,1,0,0:0:0:0:
132,368,57140,2,0,L|241:358,1,110
281,320,57654,2,0,P|334:307|388:315,1,110,0|8,0:0|0:0,0:0:0:0:
436,342,58169,2,0,P|423:289|431:235,1,110,0|0,0:0|0:0,0:0:0:0:
458,187,58683,1,8,0:0:0:0:
409,88,59026,5,0,0:0:0:0:
309,39,59369,2,0,B|256:58|256:58|205:42,1,110,8|0,0:0|0:0,0:0:0:0:
156,68,59883,1,0,0:0:0:0:
101,67,60054,1,8,0:0:0:0:
146,168,60397,2,0,L|138:225,1,55,8|0,0:0|0:0,0:0:0:0:
188,246,60740,2,0,L|180:303,1,55,8|0,0:0|0:0,0:0:0:0:
230,324,61083,2,0,L|222:381,2,55,0|0|8,0:0|0:0|0:0,0:0:0:0:
297,236,61769,5,4,0:0:0:0:
339,337,62111,1,8,0:0:0:0:
339,337,62283,2,0,P|393:346|443:323,1,110,0|0,0:0|0:0,0:0:0:0:
470,276,62797,2,0,L|474:215,1,55,8|0,0:0|0:0,0:0:0:0:
496,170,63140,2,0,L|500:109,1,55,0|0,0:0|0:0,0:0:0:0:
504,60,63483,1,8,0:0:0:0:
507,5,63654,2,0,P|455:24|401:24,1,110,0|0,0:0|0:0,0:0:0:0:
348,7,64169,1,8,0:0:0:0:
256,67,64511,5,0,0:0:0:0:
164,7,64854,2,0,P|112:26|58:26,2,110,8|0|8,0:0|0:0|0:0,0:0:0:0:
129,111,65883,1,0,0:0:0:0:
126,165,66054,2,0,L|122:233,1,55,0|8,0:0|0:0,0:0:0:0:
119,273,66397,2,0,P|173:289|226:278,1,110,0|0,0:0|0:0,0:0:0:0:
265,242,66911,1,8,0:0:0:0:
359,299,67254,5,0,0:0:0:0:
462,263,67597,2,0,L|469:205,1,55,8|0,0:0|0:0,0:0:0:0:
476,153,67940,2,0,P|421:148|377:115,1,110,0|8,0:0|0:0,0:0:0:0:
325,131,68454,1,0,0:0:0:0:
272,146,68626,2,0,P|217:141|173:108,1,110,0|8,0:0|0:0,0:0:0:0:
138,67,69140,2,0,P|133:122|100:166,1,110,0|0,0:0|0:0,0:0:0:0:
53,192,69654,1,8,0:0:0:0:
73,300,69997,6,0,L|181:283,1,110,0|8,0:0|0:0,0:0:0:0:
280,332,70683,2,0,L|388:349,1,110,0|8,0:0|0:0,0:0:0:0:
431,314,71197,1,0,0:0:0:0:
484,298,71369,2,0,P|498:245|485:193,1,110,8|8,0:0|0:0,0:0:0:0:
446,153,71883,1,0,0:0:0:0:
398,126,72054,2,0,P|346:108|317:64,1,110,0|8,0:0|0:0,0:0:0:0:
215,105,72740,6,0,P|167:130|113:124,1,110,0|8,0:0|0:0,0:0:0:0:
92,174,73254,1,0,0:0:0:0:
71,224,73426,2,0,P|124:217|172:243,1,110,0|8,0:0|0:0,0:0:0:0:
196,292,73940,1,0,0:0:0:0:
198,346,74111,2,0,L|311:349,1,110,0|8,0:0|0:0,0:0:0:0:
349,311,74626,2,0,L|462:314,1,110,0|0,0:0|0:0,0:0:0:0:
502,279,75140,1,8,0:0:0:0:
450,181,75483,5,0,0:0:0:0:
450,181,75654,1,0,0:0:0:0:
450,181,75826,2,0,P|436:127|450:75,2,110,8|0|8,0:0|0:0|0:0,0:0:0:0:
353,128,76854,2,0,L|293:123,1,55,0|0,0:0|0:0,0:0:0:0:
250,151,77197,1,8,0:0:0:0:
194,146,77369,2,0,L|134:141,1,55,0|0,0:0|0:0,0:0:0:0:
91,167,77711,2,0,L|31:162,1,55,0|8,0:0|0:0,0:0:0:0:
55,271,78226,5,0,0:0:0:0:
128,353,78569,2,0,P|159:306|164:252,1,110,8|0,0:0|0:0,0:0:0:0:
217,265,79083,1,0,0:0:0:0:
270,276,79254,2,0,L|328:273,1,55,8|0,0:0|0:0,0:0:0:0:
378,284,79597,2,0,L|372:174,1,110,0|8,0:0|0:0,0:0:0:0:
383,120,80111,2,0,L|273:125,1,110,0|0,0:0|0:0,0:0:0:0:
217,130,80626,1,8,0:0:0:0:
126,66,80969,6,0,P|106:118|114:172,1,110,0|8,0:0|0:0,0:0:0:0:
50,261,81654,2,0,P|101:280|155:273,1,110,0|8,0:0|0:0,0:0:0:0:
203,246,82169,1,0,0:0:0:0:
257,248,82340,2,0,P|309:229|363:237,1,110,0|8,0:0|0:0,0:0:0:0:
427,325,83026,2,0,P|447:306|462:284,1,55
472,229,83369,1,8,0:0:0:0:
478,119,83711,6,0,P|423:129|374:109,1,110,4|8,0:0|0:0,0:0:0:0:
280,52,84397,1,0,0:0:0:0:
280,52,84569,2,0,P|225:42|176:62,1,110
139,103,85083,1,0,0:0:0:0:
121,155,85254,2,0,L|117:265,1,110,0|0,0:0|0:0,0:0:0:0:
58,358,85940,2,0,L|113:360,1,55,0|8,0:0|0:0,0:0:0:0:
168,362,86283,1,0,0:0:0:0:
223,364,86454,6,0,P|258:321|311:307,1,110,0|8,0:0|0:0,0:0:0:0:
365,304,86969,2,0,P|322:269|308:216,1,110,0|0,0:0|0:0,0:0:0:0:
309,163,87483,1,8,0:0:0:0:
316,53,87826,2,0,L|373:56,1,55,0|0,0:0|0:0,0:0:0:0:
426,62,88169,1,8,0:0:0:0:
481,68,88340,2,0,L|475:182,1,110,0|0,0:0|0:0,0:0:0:0:
472,233,88854,1,8,0:0:0:0:
499,341,89197,6,0,P|443:339|391:307,1,110,0|8,0:0|0:0,0:0:0:0:
344,327,89711,1,0,0:0:0:0:
291,341,89883,2,0,P|235:339|183:307,1,110,0|8,0:0|0:0,0:0:0:0:
136,327,90397,1,0,0:0:0:0:
83,341,90569,2,0,L|55:235,1,110,0|8,0:0|0:0,0:0:0:0:
39,181,91083,1,0,0:0:0:0:
146,150,91426,2,0,L|160:203,1,55,0|8,0:0|0:0,0:0:0:0:
175,257,91769,1,0,0:0:0:0:
256,192,91940,12,0,93311,0:0:0:0:
213,77,94683,6,0,L|101:86,1,110,4|8,0:0|0:0,0:0:0:0:
2,35,95369,1,0,0:0:0:0:
2,35,95540,2,0,L|10:145,1,110,0|0,0:0|0:0,0:0:0:0:
14,200,96054,1,0,0:0:0:0:
19,255,96226,2,0,L|128:247,1,110,0|0,0:0|0:0,0:0:0:0:
238,231,96911,2,0,P|238:257|232:286,1,55,0|8,0:0|0:0,0:0:0:0:
200,330,97254,6,0,P|249:353|303:358,1,110
333,312,97769,1,8,0:0:0:0:
363,265,97940,2,0,P|412:288|466:293,1,110
496,247,98454,1,8,0:0:0:0:
493,137,98797,2,0,P|468:148|440:151,1,55
395,121,99140,1,8,0:0:0:0:
349,90,99311,2,0,P|299:113|245:118,1,110
199,89,99826,1,8,0:0:0:0:
101,36,100169,6,0,P|89:89|101:142,1,110,0|8,0:0|0:0,0:0:0:0:
139,182,100683,1,0,0:0:0:0:
191,199,100854,2,0,P|203:252|191:305,1,110,0|8,0:0|0:0,0:0:0:0:
229,345,101369,1,0,0:0:0:0:
283,352,101540,2,0,L|392:364,1,110,0|8,0:0|0:0,0:0:0:0:
447,371,102054,1,0,0:0:0:0:
401,271,102397,2,0,P|403:244|410:215,1,55,0|8,0:0|0:0,0:0:0:0:
438,170,102740,1,0,0:0:0:0:
486,144,102911,6,0,L|481:35,1,110,0|8,0:0|0:0,0:0:0:0:
425,35,103426,1,0,0:0:0:0:
369,35,103597,2,0,L|364:144,1,110,0|8,0:0|0:0,0:0:0:0:
308,144,104111,1,0,0:0:0:0:
253,143,104283,1,0,0:0:0:0:
159,89,104626,6,0,P|143:143|159:199,1,110,8|8,0:0|0:0,0:0:0:0:
192,235,105140,1,0,0:0:0:0:
150,274,105311,2,0,L|107:309,1,55,0|8,0:0|0:0,0:0:0:0:
65,343,105654,1,2,2:0:0:0:
281,372,106340,6,0,L|367:302,1,110,0|8,0:0|0:0,0:0:0:0:
407,265,106854,1,0,0:0:0:0:
448,227,107026,6,0,P|458:173|448:118,1,110,4|8,0:0|0:0,0:0:0:0:
416,75,107540,2,0,P|467:57|505:18,2,110,0|0|0,0:0|0:0|0:0,0:0:0:0:
251,63,108740,2,0,L|142:53,1,110,8|0,0:0|0:0,0:0:0:0:
86,46,109254,2,0,P|81:73|81:106,1,55,0|8,0:0|0:0,0:0:0:0:
45,204,109769,6,0,B|91:213|91:213|107:209|107:209|152:217,1,110,0|8,0:0|0:0,0:0:0:0:
207,230,110283,2,0,B|251:238|251:238|267:235|267:235|314:243,1,110,0|0,0:0|0:0,0:0:0:0:
369,256,110797,1,8,0:0:0:0:
423,269,110969,2,0,P|425:213|447:164,1,110,0|0,0:0|0:0,0:0:0:0:
485,125,111483,2,0,P|429:123|380:101,1,110,8|0,0:0|0:0,0:0:0:0:
334,71,111997,2,0,P|278:66|223:83,1,110,0|8,0:0|0:0,0:0:0:0:
180,112,112511,6,0,L|171:223,1,110,0|8,0:0|0:0,0:0:0:0:
166,277,113026,2,0,P|214:306|271:306,2,110,0|0|0,0:0|0:0|0:0,0:0:0:0:
27,364,114226,2,0,L|13:304,1,55,8|0,0:0|0:0,0:0:0:0:
33,259,114569,2,0,L|19:199,1,55,0|0,0:0|0:0,0:0:0:0:
39,154,114911,2,0,L|25:94,1,55,8|0,0:0|0:0,0:0:0:0:
7,49,115254,6,0,B|64:38|64:38|115:54,1,110,0|8,0:0|0:0,0:0:0:0:
164,76,115769,1,0,0:0:0:0:
267,39,116111,2,0,P|293:35|331:40,1,55,0|8,0:0|0:0,0:0:0:0:
374,55,116454,1,0,0:0:0:0:
256,192,116626,12,0,117997,0:0:0:0:
