osu file format v14

[General]
AudioFilename: Netoge Haijin Sprechchor.mp3
AudioLeadIn: 0
PreviewTime: 16511
Countdown: 0
SampleSet: Normal
StackLeniency: 0.7
Mode: 0
LetterboxInBreaks: 0
WidescreenStoryboard: 0

[Editor]
Bookmarks: 61769
DistanceSpacing: 0.9
BeatDivisor: 4
GridSize: 4
TimelineZoom: 1.5

[Metadata]
Title:Netoge Haijin Sprechchor
TitleUnicode:ネトゲ廃人シュプレヒコール
Artist:Reol
ArtistUnicode:れをる
Creator:Deppyforce
Version:Easy
Source:
Tags:さつき が てんこもり satsuki ga tenkomori 初音ミク hatsune miku online game addict ギガ giga drum and bass dnb eeezzzeee
BeatmapID:921397
BeatmapSetID:426763

[Difficulty]
HPDrainRate:2
CircleSize:3
OverallDifficulty:2
ApproachRate:3
SliderMultiplier:0.9
SliderTickRate:1

[Events]
//Background and Video events
0,0,"ok.jpg",0,0
//Break Periods
//Storyboard Layer 0 (Background)
//Storyboard Layer 1 (Fail)
//Storyboard Layer 2 (Pass)
//Storyboard Layer 3 (Foreground)
//Storyboard Sound Samples

[TimingPoints]
4169,342.857142857143,4,1,0,50,1,0
5540,-100,4,1,1,60,0,0
8626,-100,4,1,2,50,0,0
8711,-100,4,1,1,60,0,0
16511,-100,4,1,1,60,0,1
18226,-100,4,1,2,50,0,1
18311,-100,4,1,1,60,0,1
23711,-100,4,1,2,50,0,1
23797,-100,4,1,1,60,0,1
26111,-100,4,1,1,60,0,0
27483,-100,4,1,1,60,0,1
29197,-100,4,1,2,50,0,1
29283,-100,4,1,1,60,0,1
34683,-100,4,1,2,50,0,1
34769,-100,4,1,1,60,0,1
37426,-100,4,1,0,60,0,1
37511,-100,4,1,1,60,0,1
38454,-100,4,1,0,40,0,0
39826,-100,4,1,1,50,0,0
40169,-100,4,1,2,40,0,0
40254,-100,4,1,1,50,0,0
42911,-100,4,1,2,40,0,0
42997,-100,4,1,1,50,0,0
45654,-100,4,1,2,40,0,0
45740,-100,4,1,1,50,0,0
48397,-100,4,1,2,40,0,0
48483,-100,4,1,1,50,0,0
50797,-100,4,1,1,60,0,0
54569,-100,4,1,2,50,0,0
54654,-100,4,1,1,60,0,0
56626,-100,4,1,2,50,0,0
56711,-100,4,1,1,60,0,0
57997,-100,4,1,2,50,0,0
58083,-100,4,1,1,60,0,0
60740,-100,4,1,2,50,0,0
60826,-100,4,1,1,60,0,0
63483,-100,4,1,2,50,0,0
63569,-100,4,1,1,60,0,0
68969,-100,4,1,2,50,0,0
69054,-100,4,1,1,60,0,0
74454,-100,4,1,2,50,0,0
74540,-100,4,1,1,60,0,0
79940,-100,4,1,2,50,0,0
80026,-100,4,1,1,60,0,0
82340,-100,4,1,0,50,0,0
83711,-100,4,1,1,60,0,1
85426,-100,4,1,2,50,0,1
85511,-100,4,1,1,60,0,1
90911,-100,4,1,2,50,0,1
90997,-100,4,1,1,60,0,1
93311,-100,4,1,1,60,0,0
94683,-100,4,1,1,60,0,1
96397,-100,4,1,2,50,0,1
96483,-100,4,1,1,60,0,1
101883,-100,4,1,2,50,0,1
101969,-100,4,1,1,60,0,1
104626,-100,4,1,0,60,0,1
104711,-100,4,1,1,60,0,1
105654,-100,4,1,0,40,0,0
107026,-100,4,2,1,50,0,0
107369,-100,4,2,2,40,0,0
107454,-100,4,2,1,50,0,0
110111,-100,4,2,2,40,0,0
110197,-100,4,2,1,50,0,0
112854,-100,4,2,2,40,0,0
112940,-100,4,2,1,50,0,0
115597,-100,4,2,2,40,0,0
115683,-100,4,2,1,50,0,0
117997,-100,4,2,1,5,0,0

[Colours]
Combo1 : 239,135,180
Combo2 : 217,164,249
Combo3 : 152,221,248
Combo4 : 114,239,176

[HitObjects]
119,205,4168,5,0,0:0:0:0:
168,139,4511,1,8,0:0:0:0:
166,57,4854,2,0,L|256:51,1,90,0|8,0:0|0:0,0:0:0:0:
326,94,5540,5,4,0:0:0:0:
406,100,5883,1,8,0:0:0:0:
486,106,6226,2,0,P|496:150|486:192,1,90,0|8,0:0|0:0,0:0:0:0:
433,254,6911,2,0,P|389:243|346:254,1,90,0|8,0:0|0:0,0:0:0:0:
284,307,7597,1,0,0:0:0:0:
231,245,7940,1,8,0:0:0:0:
172,301,8283,6,0,B|132:328|132:328|45:338,1,135
9,265,9140,2,0,P|-7:198|11:134,1,135
17,56,9997,2,0,B|64:46|98:20|98:20|137:41|184:44,1,180,8|8,0:0|0:0,0:0:0:0:
256,7,11026,5,0,0:0:0:0:
307,70,11369,1,8,0:0:0:0:
377,29,11711,2,0,P|414:52|460:59,1,90,0|8,0:0|0:0,0:0:0:0:
502,128,12397,2,0,P|479:165|472:211,1,90,0|8,0:0|0:0,0:0:0:0:
403,253,13083,2,0,P|366:230|320:223,1,90,0|8,0:0|0:0,0:0:0:0:
256,192,13769,12,0,15140,0:0:0:0:
226,214,16511,5,4,0:0:0:0:
241,134,16854,1,8,0:0:0:0:
256,54,17197,2,0,L|350:48,1,90,0|8,0:0|0:0,0:0:0:0:
427,42,17883,2,0,P|435:107|487:154,2,135,0|0|8,0:0|0:0|0:0,0:0:0:0:
345,48,19254,6,0,L|256:54,1,90,0|8,0:0|0:0,0:0:0:0:
186,11,19940,2,0,P|175:54|186:97,1,90,0|8,0:0|0:0,0:0:0:0:
258,135,20626,1,0,0:0:0:0:
256,216,20969,1,8,0:0:0:0:
184,253,21311,2,0,P|172:298|184:340,1,90,0|8,0:0|0:0,0:0:0:0:
253,296,21997,6,0,L|343:302,1,90,0|8,0:0|0:0,0:0:0:0:
412,350,22683,2,0,P|426:305|417:260,1,90,0|8,0:0|0:0,0:0:0:0:
376,190,23369,2,0,B|285:184|285:184|242:165,2,135,0|0|8,0:0|0:0|0:0,0:0:0:0:
256,192,24740,12,0,26111,0:0:0:0:
65,58,27483,5,4,0:0:0:0:
80,138,27826,1,8,0:0:0:0:
141,192,28169,2,0,P|184:209|227:206,1,90,0|8,0:0|0:0,0:0:0:0:
300,172,28854,2,0,B|381:172|352:197|431:197,2,135,0|0|8,0:0|0:0|0:0,0:0:0:0:
226,207,30226,6,0,P|182:209|141:192,1,90,0|8,0:0|0:0,0:0:0:0:
80,138,30911,2,0,P|82:182|64:223,1,90,0|8,0:0|0:0,0:0:0:0:
1,274,31597,1,0,0:0:0:0:
76,303,31940,1,8,0:0:0:0:
126,366,32283,2,0,B|171:372|171:372|215:366,1,90,0|8,0:0|0:0,0:0:0:0:
297,366,32969,6,0,B|341:360|341:360|386:366,1,90,0|8,0:0|0:0,0:0:0:0:
460,333,33654,2,0,P|469:290|460:246,1,90,0|8,0:0|0:0,0:0:0:0:
386,211,34340,2,0,P|449:189|483:130,2,135,0|0|8,0:0|0:0|0:0,0:0:0:0:
304,211,35711,6,0,L|207:208,1,90,0|8,0:0|0:0,0:0:0:0:
177,135,36397,2,0,L|87:137,1,90,0|8,0:0|0:0,0:0:0:0:
6,143,37083,1,0,0:0:0:0:
51,210,37426,2,0,B|51:258|63:252|63:298,2,90,8|8|0,0:0|0:0|0:0,0:0:0:0:
87,136,38454,1,2,2:0:0:0:
298,374,39826,6,0,P|365:379|432:361,1,135,4|0,0:0|0:0,0:0:0:0:
475,296,40683,2,0,L|480:207,1,90
374,143,41540,2,0,L|369:232,2,90,8|0|8,0:0|0:0|0:0,0:0:0:0:
299,109,42569,6,0,P|256:120|176:79,1,135
143,9,43426,1,0,0:0:0:0:
76,55,43769,2,0,B|42:96|42:96|33:122|33:122|-2:168,2,135,0|8|0,0:0|0:0|0:0,0:0:0:0:
153,148,45311,6,0,P|173:200|158:281,1,135
213,338,46169,2,0,B|256:322|256:322|302:333,1,90
409,281,47026,2,0,P|418:236|409:192,1,90,8|0,0:0|0:0,0:0:0:0:
351,136,47711,1,8,0:0:0:0:
306,68,48054,6,0,B|260:79|260:79|169:62,1,135
95,40,48911,1,0,0:0:0:0:
24,81,49254,1,0,0:0:0:0:
256,361,50797,5,4,0:0:0:0:
319,307,51140,1,8,0:0:0:0:
359,236,51483,2,0,L|365:147,1,90,0|8,0:0|0:0,0:0:0:0:
408,76,52169,2,0,P|365:65|322:76,1,90,0|8,0:0|0:0,0:0:0:0:
256,126,52854,2,0,P|213:137|170:126,1,90,0|8,0:0|0:0,0:0:0:0:
112,67,53540,5,0,0:0:0:0:
54,124,53883,1,8,0:0:0:0:
111,182,54226,2,0,P|118:248|85:308,1,135
24,359,55083,2,0,L|171:346,1,135
214,288,55940,1,8,0:0:0:0:
269,346,56283,6,0,P|355:346|401:271,1,180
372,196,57311,1,8,0:0:0:0:
401,120,57654,2,0,B|491:104|491:104|537:119,2,135,0|0|8,0:0|0:0|0:0,0:0:0:0:
322,99,59026,5,0,0:0:0:0:
243,119,59369,2,0,B|155:103|155:103|66:132,1,180,8|8,0:0|0:0,0:0:0:0:
96,207,60397,2,0,P|162:222|223:198,2,135,8|0|8,0:0|0:0|0:0,0:0:0:0:
68,131,61769,5,4,0:0:0:0:
16,193,62111,1,8,0:0:0:0:
44,268,62454,2,0,P|44:313|28:362,1,90,0|8,0:0|0:0,0:0:0:0:
110,372,63140,2,0,B|200:365|200:365|243:347,1,135
309,303,63997,2,0,B|399:310|399:310|440:327,1,135
503,276,64854,6,0,P|520:315|514:361,2,90,8|0|8,0:0|0:0|0:0,0:0:0:0:
452,213,65883,2,0,P|459:188|459:163,1,45
430,93,66397,2,0,P|365:106|301:83,1,135,0|8,0:0|0:0,0:0:0:0:
256,16,67254,5,0,0:0:0:0:
210,83,67597,1,8,0:0:0:0:
164,150,67940,2,0,P|121:158|78:143,1,90,0|8,0:0|0:0,0:0:0:0:
27,207,68626,2,0,L|40:61,2,135,0|0|8,0:0|0:0|0:0,0:0:0:0:
19,287,69997,6,0,P|63:299|106:291,1,90,0|8,0:0|0:0,0:0:0:0:
164,236,70683,2,0,P|174:192|164:150,1,90,0|8,0:0|0:0,0:0:0:0:
119,78,71369,2,0,P|162:67|205:77,1,90,8|8,0:0|0:0,0:0:0:0:
248,7,72054,2,0,L|338:7,1,90,0|8,0:0|0:0,0:0:0:0:
420,7,72740,5,0,0:0:0:0:
480,61,73083,1,8,0:0:0:0:
467,141,73426,2,0,P|478:184|471:227,1,90,0|8,0:0|0:0,0:0:0:0:
420,291,74111,2,0,P|482:300|519:361,2,135,0|0|8,0:0|0:0|0:0,0:0:0:0:
344,322,75483,5,0,0:0:0:0:
269,288,75826,1,8,0:0:0:0:
195,322,76169,2,0,L|106:330,1,90,0|8,0:0|0:0,0:0:0:0:
25,314,76854,2,0,P|24:290|29:265,1,45
106,244,77369,2,0,P|192:227|230:189,1,135,0|8,0:0|0:0,0:0:0:0:
256,120,78226,5,0,0:0:0:0:
252,38,78569,2,0,L|344:33,2,90,8|0|8,0:0|0:0|0:0,0:0:0:0:
170,42,79597,2,0,P|146:82|67:118,2,135,0|0|8,0:0|0:0|0:0,0:0:0:0:
252,38,80969,5,0,0:0:0:0:
334,34,81311,1,8,0:0:0:0:
416,30,81654,2,0,L|425:122,1,90,0|8,0:0|0:0,0:0:0:0:
476,184,82340,2,0,P|436:203|392:197,1,90,0|8,0:0|0:0,0:0:0:0:
324,151,83026,2,0,P|311:194|321:237,1,90,0|8,0:0|0:0,0:0:0:0:
258,290,83711,5,4,0:0:0:0:
186,251,84054,1,8,0:0:0:0:
187,332,84397,2,0,P|145:344|102:334,1,90,0|8,0:0|0:0,0:0:0:0:
40,282,85083,2,0,B|19:244|19:244|10:150,2,135,0|0|8,0:0|0:0|0:0,0:0:0:0:
102,334,86454,6,0,P|145:344|187:332,1,90,0|8,0:0|0:0,0:0:0:0:
258,290,87140,2,0,B|302:284|302:284|347:290,1,90,0|8,0:0|0:0,0:0:0:0:
426,311,87826,1,0,0:0:0:0:
447,232,88169,1,8,0:0:0:0:
368,211,88511,2,0,P|344:173|338:128,1,90,0|8,0:0|0:0,0:0:0:0:
391,67,89197,6,0,L|300:56,1,90,0|8,0:0|0:0,0:0:0:0:
256,123,89883,2,0,L|166:133,1,90,0|8,0:0|0:0,0:0:0:0:
87,149,90569,2,0,P|127:205|190:210,2,135,0|0|8,0:0|0:0|0:0,0:0:0:0:
256,192,91940,12,0,93311,0:0:0:0:
256,270,94683,5,4,0:0:0:0:
335,254,95026,1,8,0:0:0:0:
403,210,95369,2,0,L|410:120,1,90,0|8,0:0|0:0,0:0:0:0:
349,64,96054,2,0,P|410:39|473:64,2,135,0|0|8,0:0|0:0|0:0,0:0:0:0:
299,128,97426,6,0,B|256:140|256:140|212:128,1,90,0|8,0:0|0:0,0:0:0:0:
137,97,98111,2,0,B|94:85|94:85|50:97,1,90,0|8,0:0|0:0,0:0:0:0:
94,167,98797,1,0,0:0:0:0:
54,237,99140,1,8,0:0:0:0:
93,308,99483,2,0,P|137:315|186:298,1,90,0|8,0:0|0:0,0:0:0:0:
227,236,100169,6,0,L|233:141,1,90,0|8,0:0|0:0,0:0:0:0:
313,150,100854,2,0,L|307:239,1,90,0|8,0:0|0:0,0:0:0:0:
302,320,101540,2,0,P|363:297|387:234,2,135,0|0|8,0:0|0:0|0:0,0:0:0:0:
222,317,102911,6,0,L|132:311,1,90,0|8,0:0|0:0,0:0:0:0:
62,352,103597,2,0,L|68:262,1,90,0|8,0:0|0:0,0:0:0:0:
74,181,104283,1,0,0:0:0:0:
81,99,104626,2,0,P|37:107|4:137,2,90,8|8|0,0:0|0:0|0:0,0:0:0:0:
147,147,105654,1,2,2:0:0:0:
457,53,107026,6,0,B|475:141|475:141|466:195,1,135,4|0,0:0|0:0,0:0:0:0:
420,251,107883,2,0,P|377:263|335:251,1,90
227,192,108740,2,0,L|224:100,2,90,8|0|8,0:0|0:0|0:0,0:0:0:0:
232,273,109769,2,0,P|168:295|102:285,1,135
19,287,110626,1,0,0:0:0:0:
60,215,110969,6,0,B|60:161|60:161|46:137|46:137|46:83,2,135
86,334,112511,6,0,B|176:347|176:347|221:337,1,135
293,304,113369,2,0,P|337:297|381:304,1,90
482,236,114226,2,0,P|489:192|482:148,1,90,8|0,0:0|0:0,0:0:0:0:
430,85,114911,1,8,0:0:0:0:
357,49,115254,6,0,P|316:86|240:86,1,135
172,39,116111,2,0,L|169:135,1,90
256,192,116626,12,0,117997,0:0:0:0:
