osu file format v14

[General]
AudioFilename: Netoge Haijin Sprechchor.mp3
AudioLeadIn: 0
PreviewTime: 83712
Countdown: 0
SampleSet: Normal
StackLeniency: 0.7
Mode: 1
LetterboxInBreaks: 0
WidescreenStoryboard: 0

[Editor]
DistanceSpacing: 0.1
BeatDivisor: 4
GridSize: 4
TimelineZoom: 2.1

[Metadata]
Title:Netoge Haijin Sprechchor
TitleUnicode:ネトゲ廃人シュプレヒコール
Artist:Reol
ArtistUnicode:れをる
Creator:A r M i N
Version:Yora's Muzukashii
Source:
Tags:Armin Hatsune Miku Niko Douga SnowNiNo_ NiNo MadaoX OzzyOzrock Ozzy Yora Yoratama Razakisu Squirrel Chocola Choco Prophecy Volta
BeatmapID:916110
BeatmapSetID:413183

[Difficulty]
HPDrainRate:5
CircleSize:5
OverallDifficulty:4.7
ApproachRate:7
SliderMultiplier:1.39506099262182
SliderTickRate:1

[Events]
//Background and Video events
0,0,"netoge haijin lolol.jpg",0,0
//Break Periods
//Storyboard Layer 0 (Background)
//Storyboard Layer 1 (Fail)
//Storyboard Layer 2 (Pass)
//Storyboard Layer 3 (Foreground)
//Storyboard Sound Samples

[TimingPoints]
4170,342.857142857143,4,1,0,90,1,0
16512,-100,4,1,0,100,0,1
37084,-111.111111111111,4,1,0,90,0,1
37427,-125,4,1,0,80,0,1
38455,-125,4,1,0,70,0,0
38798,-125,4,2,0,70,0,0
39827,-100,4,1,0,90,0,0
49427,-100,4,2,0,20,0,0
49770,-100,4,2,0,40,0,0
50112,-100,4,2,0,60,0,0
50455,-100,4,2,0,80,0,0
50798,-100,4,1,0,90,0,0
82341,-100,4,2,0,20,0,0
82684,-100,4,2,0,40,0,0
83027,-100,4,2,0,60,0,0
83370,-100,4,2,0,80,0,0
83712,-100,4,1,0,100,0,1
104284,-111.111111111111,4,1,0,90,0,1
104627,-125,4,1,0,80,0,1
105655,-125,4,1,0,70,0,0
105998,-125,4,2,0,70,0,0
106684,-133.333333333333,4,2,0,60,0,0

[HitObjects]
256,192,1941,12,0,3827,3:0:0:0:
308,108,4169,5,0,0:0:0:0:
308,108,4512,1,8,0:0:0:0:
308,108,4684,1,0,0:0:0:0:
308,108,5027,1,0,0:0:0:0:
308,108,5198,1,8,0:0:0:0:
312,108,5541,5,4,0:0:0:0:
328,100,5884,1,8,0:0:0:0:
328,100,6398,1,0,0:0:0:0:
328,100,6570,1,8,0:0:0:0:
328,100,6912,1,0,0:0:0:0:
328,100,7255,1,8,0:0:0:0:
328,100,7427,1,0,0:0:0:0:
328,100,7770,1,0,0:0:0:0:
328,100,7855,1,0,0:0:0:0:
328,100,7941,1,8,0:0:0:0:
332,104,8284,5,0,0:0:0:0:
332,104,8627,1,8,0:0:0:0:
332,104,9141,1,0,0:0:0:0:
332,104,9312,1,8,0:0:0:0:
332,104,9655,1,0,0:0:0:0:
332,104,9827,1,0,0:0:0:0:
332,104,9998,1,8,0:0:0:0:
332,104,10170,1,0,0:0:0:0:
332,104,10512,1,8,0:0:0:0:
332,104,10598,1,8,0:0:0:0:
332,104,10684,1,8,0:0:0:0:
332,104,11027,5,0,0:0:0:0:
332,104,11370,1,8,0:0:0:0:
332,104,11884,1,0,0:0:0:0:
332,104,12055,1,8,0:0:0:0:
332,104,12398,1,0,0:0:0:0:
332,104,12741,1,8,0:0:0:0:
332,104,12912,1,0,0:0:0:0:
332,104,13255,1,0,0:0:0:0:
332,104,13341,1,0,0:0:0:0:
332,104,13427,1,8,0:0:0:0:
332,104,13770,5,0,0:0:0:0:
256,40,14112,1,8,0:0:0:0:
256,40,14627,1,0,0:0:0:0:
256,40,14798,1,8,0:0:0:0:
256,40,15141,1,8,0:0:0:0:
256,40,15312,1,0,0:0:0:0:
256,40,15398,1,0,0:0:0:0:
256,40,15484,1,8,0:0:0:0:
256,40,15655,1,0,0:0:0:0:
256,40,15827,1,8,0:0:0:0:
256,40,15998,1,0,0:0:0:0:
260,40,16169,1,8,0:0:0:0:
256,40,16512,5,4,0:0:0:0:
244,176,16855,1,8,0:0:0:0:
244,176,17198,1,0,0:0:0:0:
244,176,17370,1,0,0:0:0:0:
244,176,17541,1,8,0:0:0:0:
244,176,17712,1,0,0:0:0:0:
244,176,17884,1,0,0:0:0:0:
244,176,18227,1,8,0:0:0:0:
244,176,18398,1,0,0:0:0:0:
244,176,18741,1,0,0:0:0:0:
244,176,18827,1,0,0:0:0:0:
244,176,18912,1,8,0:0:0:0:
244,176,19255,5,0,0:0:0:0:
244,176,19598,1,8,0:0:0:0:
244,176,19770,1,0,0:0:0:0:
244,176,20112,1,0,0:0:0:0:
244,176,20284,1,8,0:0:0:0:
244,176,20627,1,0,0:0:0:0:
244,176,20798,1,0,0:0:0:0:
244,176,20970,1,8,0:0:0:0:
244,176,21141,1,0,0:0:0:0:
244,176,21484,1,0,0:0:0:0:
244,176,21570,1,0,0:0:0:0:
244,176,21655,1,8,0:0:0:0:
244,176,21998,5,0,0:0:0:0:
240,184,22170,1,0,0:0:0:0:
244,176,22341,1,8,0:0:0:0:
244,176,22512,1,0,0:0:0:0:
236,188,22684,1,0,0:0:0:0:
244,176,22855,1,0,0:0:0:0:
244,176,23027,1,8,0:0:0:0:
244,176,23370,1,0,0:0:0:0:
244,176,23541,1,0,0:0:0:0:
244,176,23712,1,8,0:0:0:0:
244,176,23884,1,8,0:0:0:0:
244,176,24227,1,8,0:0:0:0:
244,176,24312,1,8,0:0:0:0:
244,176,24398,1,8,0:0:0:0:
148,104,24741,5,0,0:0:0:0:
148,104,24912,1,0,0:0:0:0:
148,104,25084,1,8,0:0:0:0:
152,108,25255,1,0,0:0:0:0:
148,104,25427,1,8,0:0:0:0:
148,104,25598,1,0,0:0:0:0:
148,104,25770,1,8,0:0:0:0:
148,104,26112,1,8,0:0:0:0:
148,104,26455,1,8,0:0:0:0:
148,104,26627,1,0,0:0:0:0:
148,104,26712,1,0,0:0:0:0:
148,104,26798,1,0,0:0:0:0:
148,104,26970,1,0,0:0:0:0:
148,104,27141,1,8,0:0:0:0:
148,104,27484,5,4,0:0:0:0:
100,176,27827,1,8,0:0:0:0:
100,176,28170,1,0,0:0:0:0:
100,176,28341,1,0,0:0:0:0:
100,176,28512,1,8,0:0:0:0:
100,176,28684,1,0,0:0:0:0:
100,176,28855,1,0,0:0:0:0:
100,176,29198,1,8,0:0:0:0:
100,176,29370,1,0,0:0:0:0:
100,176,29712,1,0,0:0:0:0:
100,176,29798,1,0,0:0:0:0:
100,176,29884,1,8,0:0:0:0:
100,176,30227,5,0,0:0:0:0:
100,176,30570,1,8,0:0:0:0:
88,176,30741,1,0,0:0:0:0:
88,172,30912,1,0,0:0:0:0:
84,172,31084,1,0,0:0:0:0:
84,172,31255,1,8,0:0:0:0:
84,172,31598,1,0,0:0:0:0:
84,172,31770,1,0,0:0:0:0:
84,172,31941,1,8,0:0:0:0:
84,172,32112,1,0,0:0:0:0:
84,172,32455,1,0,0:0:0:0:
84,172,32541,1,0,0:0:0:0:
84,172,32627,1,8,0:0:0:0:
84,172,32970,5,0,0:0:0:0:
84,172,33141,1,0,0:0:0:0:
84,172,33312,1,8,0:0:0:0:
84,172,33484,1,0,0:0:0:0:
84,172,33655,1,0,0:0:0:0:
84,172,33827,1,0,0:0:0:0:
84,172,33998,1,8,0:0:0:0:
84,172,34341,1,0,0:0:0:0:
84,172,34512,1,0,0:0:0:0:
88,168,34684,1,8,0:0:0:0:
88,168,34855,1,8,0:0:0:0:
88,168,35198,1,8,0:0:0:0:
88,168,35284,1,8,0:0:0:0:
88,168,35370,1,8,0:0:0:0:
88,168,35712,5,0,0:0:0:0:
88,168,35884,1,0,0:0:0:0:
88,168,36055,1,8,0:0:0:0:
84,168,36227,1,0,0:0:0:0:
88,168,36398,1,8,0:0:0:0:
88,168,36570,1,0,0:0:0:0:
88,168,36741,1,8,0:0:0:0:
88,72,36912,1,0,0:0:0:0:
88,88,37427,5,8,0:0:0:0:
88,88,37770,1,8,0:0:0:0:
88,88,37941,1,0,0:0:0:0:
88,88,38027,1,0,0:0:0:0:
88,88,38112,1,0,0:0:0:0:
92,92,38284,1,8,0:0:0:0:
172,152,38455,1,0,0:0:0:0:
172,152,38798,1,8,0:0:0:0:
172,152,39141,1,8,0:0:0:0:
172,152,39484,1,8,0:0:0:0:
312,108,39827,5,4,0:0:0:0:
328,100,40170,1,8,0:0:0:0:
328,100,40684,1,0,0:0:0:0:
328,100,40856,1,8,0:0:0:0:
328,100,41198,1,0,0:0:0:0:
328,100,41541,1,8,0:0:0:0:
328,100,41713,1,0,0:0:0:0:
328,100,42056,1,0,0:0:0:0:
328,100,42141,1,0,0:0:0:0:
328,100,42227,1,8,0:0:0:0:
332,104,42570,5,0,0:0:0:0:
332,104,42913,1,8,0:0:0:0:
332,104,43427,1,0,0:0:0:0:
332,104,43598,1,8,0:0:0:0:
332,104,43941,1,0,0:0:0:0:
332,104,44113,1,0,0:0:0:0:
332,104,44284,1,8,0:0:0:0:
332,104,44456,1,0,0:0:0:0:
332,104,44798,1,8,0:0:0:0:
332,104,44884,1,8,0:0:0:0:
332,104,44970,1,8,0:0:0:0:
332,104,45313,5,0,0:0:0:0:
332,104,45656,1,8,0:0:0:0:
332,104,46170,1,0,0:0:0:0:
332,104,46341,1,8,0:0:0:0:
332,104,46684,1,0,0:0:0:0:
332,104,47027,1,8,0:0:0:0:
332,104,47198,1,0,0:0:0:0:
332,104,47541,1,0,0:0:0:0:
332,104,47627,1,0,0:0:0:0:
332,104,47713,1,8,0:0:0:0:
332,104,48056,5,0,0:0:0:0:
256,40,48398,1,8,0:0:0:0:
256,40,48913,5,0,0:0:0:0:
256,40,49084,1,8,0:0:0:0:
256,192,49255,1,0,0:0:0:0:
256,192,49427,12,0,50627,0:0:0:0:
176,192,50798,5,4,0:0:0:0:
176,192,51141,1,8,0:0:0:0:
176,192,51484,1,0,0:0:0:0:
176,192,51655,1,0,0:0:0:0:
176,192,51827,1,8,0:0:0:0:
176,192,51998,1,0,0:0:0:0:
188,196,52341,1,0,0:0:0:0:
176,192,52512,1,8,0:0:0:0:
176,192,52684,1,0,0:0:0:0:
176,192,53027,1,0,0:0:0:0:
176,192,53112,1,0,0:0:0:0:
176,192,53198,1,8,0:0:0:0:
176,192,53541,5,0,0:0:0:0:
176,192,53884,1,8,0:0:0:0:
184,204,54227,1,0,0:0:0:0:
184,204,54398,1,0,0:0:0:0:
184,204,54570,1,8,0:0:0:0:
184,204,54741,1,0,0:0:0:0:
184,204,55084,1,0,0:0:0:0:
184,204,55255,1,8,0:0:0:0:
184,204,55427,1,0,0:0:0:0:
184,204,55770,1,8,0:0:0:0:
184,204,55855,1,8,0:0:0:0:
184,204,55941,1,8,0:0:0:0:
248,24,56284,5,0,0:0:0:0:
248,24,56627,1,8,0:0:0:0:
244,24,56970,1,0,0:0:0:0:
244,24,57141,1,0,0:0:0:0:
244,24,57312,1,8,0:0:0:0:
244,24,57484,1,0,0:0:0:0:
244,24,57655,1,0,0:0:0:0:
244,24,57998,1,8,0:0:0:0:
232,24,58170,1,0,0:0:0:0:
232,24,58512,1,0,0:0:0:0:
232,24,58598,1,0,0:0:0:0:
232,24,58684,1,8,0:0:0:0:
152,80,59027,5,0,0:0:0:0:
152,80,59370,1,8,0:0:0:0:
152,80,59712,1,0,0:0:0:0:
156,88,59884,1,0,0:0:0:0:
272,276,60055,5,8,0:0:0:0:
272,276,60398,1,8,0:0:0:0:
272,276,60570,1,0,0:0:0:0:
272,276,60655,1,0,0:0:0:0:
272,276,60741,1,8,0:0:0:0:
272,276,60912,1,0,0:0:0:0:
272,276,61084,1,8,0:0:0:0:
272,276,61255,1,0,0:0:0:0:
272,276,61427,1,8,0:0:0:0:
272,276,61770,5,4,0:0:0:0:
416,196,62112,1,8,0:0:0:0:
416,196,62284,1,0,0:0:0:0:
416,200,62455,1,0,0:0:0:0:
416,200,62798,1,8,0:0:0:0:
416,200,62970,1,0,0:0:0:0:
416,200,63141,1,0,0:0:0:0:
424,200,63312,1,0,0:0:0:0:
424,200,63484,1,8,0:0:0:0:
424,200,63655,1,0,0:0:0:0:
248,176,63998,1,0,0:0:0:0:
424,200,64084,1,0,0:0:0:0:
248,176,64170,1,8,0:0:0:0:
248,176,64512,5,0,0:0:0:0:
248,176,64855,1,8,0:0:0:0:
252,184,65027,1,0,0:0:0:0:
252,184,65198,1,0,0:0:0:0:
252,192,65370,1,0,0:0:0:0:
252,192,65541,1,8,0:0:0:0:
252,192,65884,1,0,0:0:0:0:
252,192,66055,1,0,0:0:0:0:
252,192,66227,1,8,0:0:0:0:
252,192,66398,1,8,0:0:0:0:
252,192,66741,1,8,0:0:0:0:
252,192,66827,1,8,0:0:0:0:
252,192,66912,1,8,0:0:0:0:
272,276,67255,5,0,0:0:0:0:
272,276,67598,1,8,0:0:0:0:
288,276,67941,1,0,0:0:0:0:
272,276,68284,1,8,0:0:0:0:
272,276,68455,1,0,0:0:0:0:
272,276,68627,1,0,0:0:0:0:
272,276,68798,1,0,0:0:0:0:
272,276,68970,1,8,0:0:0:0:
272,276,69141,1,8,0:0:0:0:
272,276,69484,1,8,0:0:0:0:
272,276,69570,1,8,0:0:0:0:
272,276,69655,1,8,0:0:0:0:
272,276,69998,5,0,0:0:0:0:
272,276,70341,1,8,0:0:0:0:
172,280,70855,1,0,0:0:0:0:
172,280,71027,1,8,0:0:0:0:
172,280,71370,1,8,0:0:0:0:
172,280,71541,1,0,0:0:0:0:
172,280,71627,1,0,0:0:0:0:
172,280,71712,1,0,0:0:0:0:
172,280,71884,1,0,0:0:0:0:
172,280,72055,1,8,0:0:0:0:
172,280,72227,1,0,0:0:0:0:
172,280,72398,1,8,0:0:0:0:
164,192,72741,5,4,0:0:0:0:
416,196,73084,1,8,0:0:0:0:
416,196,73256,1,0,0:0:0:0:
416,200,73427,1,0,0:0:0:0:
416,200,73770,1,8,0:0:0:0:
416,200,73942,1,0,0:0:0:0:
416,200,74113,1,0,0:0:0:0:
424,200,74284,1,0,0:0:0:0:
424,200,74456,1,8,0:0:0:0:
424,200,74627,1,0,0:0:0:0:
248,176,74970,1,0,0:0:0:0:
424,200,75056,1,0,0:0:0:0:
248,176,75142,1,8,0:0:0:0:
248,176,75484,5,0,0:0:0:0:
248,176,75827,1,8,0:0:0:0:
252,184,75999,1,0,0:0:0:0:
252,184,76170,1,0,0:0:0:0:
252,192,76342,1,0,0:0:0:0:
252,192,76513,1,8,0:0:0:0:
252,192,76856,1,0,0:0:0:0:
252,192,77027,1,0,0:0:0:0:
252,192,77199,1,8,0:0:0:0:
252,192,77370,1,8,0:0:0:0:
252,192,77713,1,8,0:0:0:0:
252,192,77799,1,8,0:0:0:0:
252,192,77884,1,8,0:0:0:0:
272,276,78227,5,0,0:0:0:0:
272,276,78570,1,8,0:0:0:0:
288,276,78913,1,0,0:0:0:0:
272,276,79256,1,8,0:0:0:0:
272,276,79427,1,0,0:0:0:0:
272,276,79599,1,0,0:0:0:0:
272,276,79770,1,0,0:0:0:0:
272,276,79942,1,8,0:0:0:0:
272,276,80113,1,8,0:0:0:0:
272,276,80456,1,8,0:0:0:0:
272,276,80542,1,8,0:0:0:0:
272,276,80627,1,8,0:0:0:0:
272,276,80970,5,0,0:0:0:0:
272,276,81313,1,8,0:0:0:0:
172,280,81827,5,0,0:0:0:0:
172,280,81999,1,8,0:0:0:0:
172,280,82170,1,0,0:0:0:0:
256,192,82341,12,0,83370,0:0:0:0:
256,40,83712,5,4,0:0:0:0:
244,176,84055,1,8,0:0:0:0:
244,176,84398,1,0,0:0:0:0:
244,176,84570,1,0,0:0:0:0:
244,176,84741,1,8,0:0:0:0:
244,176,84912,1,0,0:0:0:0:
244,176,85084,1,0,0:0:0:0:
244,176,85427,1,8,0:0:0:0:
244,176,85598,1,0,0:0:0:0:
244,176,85941,1,0,0:0:0:0:
244,176,86027,1,0,0:0:0:0:
244,176,86112,1,8,0:0:0:0:
244,176,86455,5,0,0:0:0:0:
244,176,86798,1,8,0:0:0:0:
244,176,86970,1,0,0:0:0:0:
244,176,87312,1,0,0:0:0:0:
244,176,87484,1,8,0:0:0:0:
244,176,87827,1,0,0:0:0:0:
244,176,87998,1,0,0:0:0:0:
244,176,88170,1,8,0:0:0:0:
244,176,88341,1,0,0:0:0:0:
244,176,88684,1,0,0:0:0:0:
244,176,88770,1,0,0:0:0:0:
244,176,88855,1,8,0:0:0:0:
244,176,89198,5,0,0:0:0:0:
240,184,89370,1,0,0:0:0:0:
244,176,89541,1,8,0:0:0:0:
244,176,89712,1,0,0:0:0:0:
236,188,89884,1,0,0:0:0:0:
244,176,90055,1,0,0:0:0:0:
244,176,90227,1,8,0:0:0:0:
244,176,90570,1,0,0:0:0:0:
244,176,90741,1,0,0:0:0:0:
244,176,90912,1,8,0:0:0:0:
244,176,91084,1,8,0:0:0:0:
244,176,91427,1,8,0:0:0:0:
244,176,91512,1,8,0:0:0:0:
244,176,91598,1,8,0:0:0:0:
148,104,91941,5,0,0:0:0:0:
148,104,92112,1,0,0:0:0:0:
148,104,92284,1,8,0:0:0:0:
152,108,92455,1,0,0:0:0:0:
148,104,92627,1,8,0:0:0:0:
148,104,92798,1,0,0:0:0:0:
148,104,92970,1,8,0:0:0:0:
148,104,93312,1,8,0:0:0:0:
148,104,93655,1,8,0:0:0:0:
148,104,93827,1,0,0:0:0:0:
148,104,93912,1,0,0:0:0:0:
148,104,93998,1,0,0:0:0:0:
148,104,94170,1,0,0:0:0:0:
148,104,94341,1,8,0:0:0:0:
148,104,94684,5,4,0:0:0:0:
100,176,95027,1,8,0:0:0:0:
100,176,95370,1,0,0:0:0:0:
100,176,95541,1,0,0:0:0:0:
100,176,95712,1,8,0:0:0:0:
100,176,95884,1,0,0:0:0:0:
100,176,96055,1,0,0:0:0:0:
100,176,96398,1,8,0:0:0:0:
100,176,96570,1,0,0:0:0:0:
100,176,96912,1,0,0:0:0:0:
100,176,96998,1,0,0:0:0:0:
100,176,97084,1,8,0:0:0:0:
100,176,97427,5,0,0:0:0:0:
100,176,97770,1,8,0:0:0:0:
88,176,97941,1,0,0:0:0:0:
88,172,98112,1,0,0:0:0:0:
84,172,98284,1,0,0:0:0:0:
84,172,98455,1,8,0:0:0:0:
84,172,98798,1,0,0:0:0:0:
84,172,98970,1,0,0:0:0:0:
84,172,99141,1,8,0:0:0:0:
84,172,99312,1,0,0:0:0:0:
84,172,99655,1,0,0:0:0:0:
84,172,99741,1,0,0:0:0:0:
84,172,99827,1,8,0:0:0:0:
84,172,100170,5,0,0:0:0:0:
84,172,100341,1,0,0:0:0:0:
84,172,100512,1,8,0:0:0:0:
84,172,100684,1,0,0:0:0:0:
84,172,100855,1,0,0:0:0:0:
84,172,101027,1,0,0:0:0:0:
84,172,101198,1,8,0:0:0:0:
84,172,101541,1,0,0:0:0:0:
84,172,101712,1,0,0:0:0:0:
88,168,101884,1,8,0:0:0:0:
88,168,102055,1,8,0:0:0:0:
88,168,102398,1,8,0:0:0:0:
88,168,102484,1,8,0:0:0:0:
88,168,102570,1,8,0:0:0:0:
88,168,102912,5,0,0:0:0:0:
88,168,103084,1,0,0:0:0:0:
88,168,103255,1,8,0:0:0:0:
84,168,103427,1,0,0:0:0:0:
88,168,103598,1,8,0:0:0:0:
88,168,103770,1,0,0:0:0:0:
88,168,103941,1,8,0:0:0:0:
88,72,104112,1,0,0:0:0:0:
88,88,104627,5,8,0:0:0:0:
88,88,104970,1,8,0:0:0:0:
88,88,105141,1,0,0:0:0:0:
88,88,105227,1,0,0:0:0:0:
88,88,105312,1,0,0:0:0:0:
172,152,105484,1,8,0:0:0:0:
172,152,105655,1,0,0:0:0:0:
124,104,106684,5,8,0:0:0:0:
100,148,107027,1,6,0:0:0:0:
100,144,107370,1,8,0:0:0:0:
100,144,107541,1,0,0:0:0:0:
100,144,107884,1,0,0:0:0:0:
100,144,108055,1,8,0:0:0:0:
100,144,108227,1,0,0:0:0:0:
100,144,108570,5,0,0:0:0:0:
100,144,108741,1,8,0:0:0:0:
100,144,108912,1,0,0:0:0:0:
100,144,108998,1,0,0:0:0:0:
100,144,109084,1,0,0:0:0:0:
100,144,109255,1,0,0:0:0:0:
100,144,109427,1,8,0:0:0:0:
100,144,109598,1,0,0:0:0:0:
100,144,109770,5,0,0:0:0:0:
100,144,110112,1,8,0:0:0:0:
100,144,110284,1,0,0:0:0:0:
100,144,110627,1,0,0:0:0:0:
100,144,110798,1,8,0:0:0:0:
100,144,110970,1,0,0:0:0:0:
100,144,111312,5,0,0:0:0:0:
100,144,111484,1,8,0:0:0:0:
100,144,111655,1,0,0:0:0:0:
100,144,111827,1,0,0:0:0:0:
100,144,111998,1,0,0:0:0:0:
100,144,112170,1,8,0:0:0:0:
100,144,112341,1,0,0:0:0:0:
100,144,112512,5,0,0:0:0:0:
100,144,112855,1,8,0:0:0:0:
100,144,113027,1,0,0:0:0:0:
100,144,113370,1,0,0:0:0:0:
100,144,113541,1,8,0:0:0:0:
100,144,113712,1,0,0:0:0:0:
100,144,114055,5,0,0:0:0:0:
100,144,114227,1,8,0:0:0:0:
100,144,114398,1,0,0:0:0:0:
100,144,114484,1,0,0:0:0:0:
100,144,114570,1,0,0:0:0:0:
100,144,114741,1,0,0:0:0:0:
100,144,114913,1,8,0:0:0:0:
100,144,115084,1,0,0:0:0:0:
100,144,115255,5,0,0:0:0:0:
96,144,115598,1,8,0:0:0:0:
96,144,115770,1,0,0:0:0:0:
96,144,116112,1,0,0:0:0:0:
96,136,116284,1,8,0:0:0:0:
256,192,116455,12,0,117998,0:0:0:0:
