osu file format v14

[General]
AudioFilename: Netoge Haijin Sprechchor.mp3
AudioLeadIn: 0
PreviewTime: 83712
Countdown: 0
SampleSet: Normal
StackLeniency: 0.7
Mode: 1
LetterboxInBreaks: 0
WidescreenStoryboard: 1

[Editor]
Bookmarks: 4169,16512,27484,38455,50798,61770,72741,94684
DistanceSpacing: 1.1
BeatDivisor: 2
GridSize: 4
TimelineZoom: 1.3

[Metadata]
Title:Netoge Haijin Sprechchor
TitleUnicode:ネトゲ廃人シュプレヒコール
Artist:Reol
ArtistUnicode:れをる
Creator:A r M i N
Version:Volt's Kantan
Source:
Tags:Armin Hatsune Miku Niko Douga SnowNiNo_ NiNo MadaoX OzzyOzrock Ozzy Yora Yoratama Razakisu Squirrel Chocola Choco Prophecy Volta
BeatmapID:950641
BeatmapSetID:413183

[Difficulty]
HPDrainRate:6
CircleSize:5
OverallDifficulty:3
ApproachRate:7
SliderMultiplier:1.4
SliderTickRate:2

[Events]
//Background and Video events
0,0,"netoge haijin lolol.jpg",0,0
//Break Periods
//Storyboard Layer 0 (Background)
//Storyboard Layer 1 (Fail)
//Storyboard Layer 2 (Pass)
//Storyboard Layer 3 (Foreground)
//Storyboard Sound Samples

[TimingPoints]
4170,342.857142857143,4,1,0,90,1,0
16512,-100,4,1,0,90,0,1
38455,-100,4,1,0,90,0,0
83712,-100,4,1,0,90,0,1
105655,-100,4,1,0,90,0,0

[HitObjects]
180,196,4169,5,0,0:0:0:0:
188,132,4512,1,8,0:0:0:0:
188,132,5198,1,8,0:0:0:0:
192,200,5541,1,0,0:0:0:0:
192,200,6227,1,8,0:0:0:0:
192,200,6912,1,0,0:0:0:0:
192,200,7255,1,8,0:0:0:0:
192,200,7598,1,8,0:0:0:0:
156,176,8284,1,0,0:0:0:0:
196,208,8970,1,8,0:0:0:0:
196,208,9655,1,8,0:0:0:0:
196,208,9998,1,0,0:0:0:0:
196,208,10341,1,8,0:0:0:0:
232,184,11027,1,0,0:0:0:0:
56,216,11712,1,0,0:0:0:0:
216,188,12398,1,8,0:0:0:0:
252,240,12741,1,8,0:0:0:0:
216,188,13084,1,8,0:0:0:0:
216,188,13770,1,0,0:0:0:0:
216,188,14455,1,0,0:0:0:0:
144,172,14798,1,0,0:0:0:0:
196,188,15141,5,8,0:0:0:0:
196,188,16512,1,4,0:0:0:0:
176,204,17198,1,0,0:0:0:0:
132,184,17884,1,8,0:0:0:0:
176,204,18227,1,8,0:0:0:0:
180,156,18570,1,0,0:0:0:0:
180,156,19255,1,8,0:0:0:0:
180,156,19941,1,0,0:0:0:0:
180,156,20627,1,8,0:0:0:0:
200,148,20970,1,8,0:0:0:0:
200,148,21312,1,8,0:0:0:0:
180,156,21998,1,0,0:0:0:0:
180,156,22684,1,8,0:0:0:0:
180,156,23370,1,0,0:0:0:0:
180,156,23712,1,8,0:0:0:0:
180,156,24055,1,0,0:0:0:0:
180,156,24741,1,8,0:0:0:0:
180,156,25427,1,0,0:0:0:0:
180,156,26112,1,8,0:0:0:0:
196,188,27484,1,4,0:0:0:0:
176,204,28170,1,0,0:0:0:0:
132,184,28856,1,8,0:0:0:0:
176,204,29199,1,8,0:0:0:0:
180,156,29542,1,0,0:0:0:0:
180,156,30227,1,8,0:0:0:0:
180,156,30913,1,0,0:0:0:0:
180,156,31599,1,8,0:0:0:0:
200,148,31942,1,8,0:0:0:0:
200,148,32284,1,8,0:0:0:0:
180,156,32970,1,0,0:0:0:0:
180,156,33656,1,8,0:0:0:0:
180,156,34342,1,0,0:0:0:0:
180,156,34684,1,8,0:0:0:0:
180,156,35027,1,0,0:0:0:0:
180,156,35713,1,8,0:0:0:0:
180,156,36399,1,8,0:0:0:0:
180,156,37084,1,0,0:0:0:0:
228,196,37770,1,0,0:0:0:0:
228,196,38112,1,0,0:0:0:0:
228,196,38455,1,8,0:0:0:0:
228,200,39827,1,8,0:0:0:0:
228,200,40512,1,0,0:0:0:0:
240,84,41198,1,8,0:0:0:0:
152,176,42570,1,8,0:0:0:0:
160,184,43255,1,8,0:0:0:0:
160,184,43941,1,8,0:0:0:0:
160,184,45312,1,8,0:0:0:0:
160,184,45998,1,0,0:0:0:0:
160,184,46684,1,8,0:0:0:0:
64,176,48055,1,8,0:0:0:0:
64,176,48741,1,8,0:0:0:0:
64,176,49427,1,0,0:0:0:0:
176,188,50798,1,0,0:0:0:0:
176,188,51827,1,8,0:0:0:0:
44,168,52170,1,0,0:0:0:0:
76,192,52855,1,0,0:0:0:0:
76,192,53541,1,8,0:0:0:0:
76,192,54570,1,8,0:0:0:0:
68,172,54912,1,0,0:0:0:0:
28,172,55598,1,8,0:0:0:0:
28,172,56284,1,0,0:0:0:0:
124,160,57312,1,8,0:0:0:0:
124,160,57655,1,0,0:0:0:0:
156,172,58341,1,0,0:0:0:0:
156,172,59027,1,0,0:0:0:0:
156,172,60055,1,8,0:0:0:0:
240,200,60398,1,8,0:0:0:0:
240,200,61084,1,8,0:0:0:0:
240,200,61427,1,8,0:0:0:0:
240,200,61770,1,0,0:0:0:0:
240,208,62798,1,8,0:0:0:0:
240,208,63141,1,0,0:0:0:0:
240,208,63827,1,0,0:0:0:0:
240,208,64512,1,8,0:0:0:0:
168,152,65198,1,8,0:0:0:0:
168,152,65541,1,8,0:0:0:0:
168,152,66227,1,8,0:0:0:0:
168,152,66912,1,8,0:0:0:0:
236,208,67255,1,0,0:0:0:0:
184,116,68284,1,8,0:0:0:0:
184,116,68627,1,0,0:0:0:0:
184,116,69312,1,0,0:0:0:0:
184,116,69998,1,8,0:0:0:0:
184,116,70684,1,8,0:0:0:0:
184,116,71370,1,0,0:0:0:0:
184,116,72741,1,0,0:0:0:0:
256,192,73770,1,8,0:0:0:0:
256,192,74112,1,0,0:0:0:0:
256,192,74798,1,0,0:0:0:0:
256,192,75484,1,8,0:0:0:0:
256,192,76170,1,8,0:0:0:0:
256,192,76512,1,8,0:0:0:0:
256,192,77198,1,8,0:0:0:0:
256,192,77884,1,8,0:0:0:0:
256,192,78227,1,0,0:0:0:0:
256,192,79255,1,8,0:0:0:0:
256,192,79598,1,0,0:0:0:0:
256,192,80284,1,0,0:0:0:0:
256,192,80970,1,8,0:0:0:0:
256,192,81655,1,0,0:0:0:0:
256,192,82341,1,8,0:0:0:0:
196,188,83712,1,4,0:0:0:0:
176,204,84398,1,0,0:0:0:0:
132,184,85084,1,8,0:0:0:0:
176,204,85427,1,8,0:0:0:0:
180,156,85770,1,0,0:0:0:0:
180,156,86455,1,8,0:0:0:0:
180,156,87141,1,0,0:0:0:0:
180,156,87827,1,8,0:0:0:0:
200,148,88170,1,8,0:0:0:0:
200,148,88512,1,8,0:0:0:0:
180,156,89198,1,0,0:0:0:0:
180,156,89884,1,8,0:0:0:0:
180,156,90570,1,0,0:0:0:0:
180,156,90912,1,8,0:0:0:0:
180,156,91255,1,0,0:0:0:0:
180,156,91941,1,8,0:0:0:0:
180,156,92627,1,0,0:0:0:0:
180,156,93312,1,8,0:0:0:0:
196,188,94684,1,4,0:0:0:0:
176,204,95370,1,0,0:0:0:0:
132,184,96056,1,8,0:0:0:0:
176,204,96399,1,8,0:0:0:0:
180,156,96742,1,0,0:0:0:0:
180,156,97427,1,8,0:0:0:0:
180,156,98113,1,0,0:0:0:0:
180,156,98799,1,8,0:0:0:0:
200,148,99142,1,8,0:0:0:0:
200,148,99484,1,8,0:0:0:0:
180,156,100170,1,0,0:0:0:0:
180,156,100856,1,8,0:0:0:0:
180,156,101542,1,0,0:0:0:0:
180,156,101884,1,8,0:0:0:0:
180,156,102227,1,0,0:0:0:0:
180,156,102913,1,8,0:0:0:0:
180,156,103599,1,8,0:0:0:0:
180,156,104284,1,0,0:0:0:0:
228,196,104970,1,0,0:0:0:0:
228,196,105312,1,0,0:0:0:0:
228,196,105655,1,8,0:0:0:0:
292,164,107027,1,8,0:0:0:0:
292,164,108398,1,8,0:0:0:0:
292,164,109084,1,0,0:0:0:0:
292,164,109770,1,8,0:0:0:0:
292,164,111141,1,8,0:0:0:0:
292,164,111827,1,8,0:0:0:0:
292,164,112512,1,8,0:0:0:0:
292,164,113884,1,8,0:0:0:0:
276,168,114570,1,8,0:0:0:0:
276,168,115255,1,0,0:0:0:0:
256,192,116455,12,0,117998,0:0:0:0:
