osu file format v14

[General]
AudioFilename: Netoge Haijin Sprechchor.mp3
AudioLeadIn: 0
PreviewTime: 83712
Countdown: 0
SampleSet: Normal
StackLeniency: 0.7
Mode: 1
LetterboxInBreaks: 0
WidescreenStoryboard: 0

[Editor]
DistanceSpacing: 1.1
BeatDivisor: 4
GridSize: 4
TimelineZoom: 1.6

[Metadata]
Title:Netoge Haijin Sprechchor
TitleUnicode:ネトゲ廃人シュプレヒコール
Artist:Reol
ArtistUnicode:れをる
Creator:A r M i N
Version:Ozzy's Oni
Source:
Tags:Armin Hatsune Miku Niko Douga SnowNiNo_ NiNo MadaoX OzzyOzrock Ozzy Yora Yoratama Razakisu Squirrel Chocola Choco Prophecy Volta
BeatmapID:919704
BeatmapSetID:413183

[Difficulty]
HPDrainRate:5
CircleSize:5
OverallDifficulty:6
ApproachRate:7
SliderMultiplier:1.39506099262182
SliderTickRate:2

[Events]
//Background and Video events
0,0,"netoge haijin lolol.jpg",0,0
//Break Periods
//Storyboard Layer 0 (Background)
//Storyboard Layer 1 (Fail)
//Storyboard Layer 2 (Pass)
//Storyboard Layer 3 (Foreground)
//Storyboard Sound Samples

[TimingPoints]
4170,342.857142857143,4,1,0,90,1,0
16512,-100,4,1,0,90,0,1
38455,-100,4,1,0,90,0,0
83712,-100,4,1,0,90,0,1
105655,-100,4,1,0,90,0,0

[HitObjects]
88,276,4169,5,0,0:0:0:0:
92,280,4427,1,0,0:0:0:0:
280,276,4512,1,8,0:0:0:0:
148,280,4684,1,0,0:0:0:0:
136,272,4855,1,0,0:0:0:0:
288,264,4941,1,8,0:0:0:0:
148,272,5027,1,0,0:0:0:0:
148,272,5084,1,0,0:0:0:0:
148,272,5141,1,0,0:0:0:0:
316,264,5198,1,8,0:0:0:0:
312,264,5370,1,8,0:0:0:0:
112,112,5541,1,4,0:0:0:0:
324,284,5884,1,8,0:0:0:0:
148,280,6055,1,0,0:0:0:0:
320,260,6227,1,8,0:0:0:0:
320,260,6312,1,8,0:0:0:0:
172,280,6398,1,0,0:0:0:0:
164,280,6570,1,0,0:0:0:0:
348,272,6741,1,8,0:0:0:0:
160,276,6912,1,0,0:0:0:0:
340,256,7084,1,8,0:0:0:0:
340,256,7170,1,8,0:0:0:0:
340,256,7256,1,8,0:0:0:0:
156,272,7427,1,0,0:0:0:0:
324,248,7599,1,8,0:0:0:0:
324,248,7684,1,8,0:0:0:0:
192,264,7770,1,0,0:0:0:0:
184,256,7855,1,0,0:0:0:0:
316,244,7942,1,8,0:0:0:0:
164,256,8113,1,0,0:0:0:0:
312,240,8284,1,8,0:0:0:0:
148,268,8627,1,0,0:0:0:0:
312,240,8799,1,8,0:0:0:0:
148,256,8884,1,8,0:0:0:0:
148,256,8970,1,0,0:0:0:0:
308,248,9141,1,8,0:0:0:0:
144,256,9312,1,0,0:0:0:0:
392,284,9484,1,8,0:0:0:0:
152,280,9655,1,0,0:0:0:0:
176,292,9741,1,0,0:0:0:0:
152,280,9827,1,0,0:0:0:0:
388,248,9998,1,8,0:0:0:0:
156,256,10170,1,0,0:0:0:0:
328,236,10341,1,8,0:0:0:0:
180,280,10512,1,0,0:0:0:0:
180,280,10598,1,0,0:0:0:0:
428,256,10684,1,8,0:0:0:0:
412,244,10855,1,8,0:0:0:0:
196,300,11027,1,0,0:0:0:0:
324,284,11370,1,8,0:0:0:0:
148,280,11541,1,0,0:0:0:0:
320,260,11713,1,8,0:0:0:0:
320,260,11798,1,8,0:0:0:0:
328,284,11884,1,8,0:0:0:0:
164,280,12056,1,0,0:0:0:0:
348,272,12227,1,8,0:0:0:0:
160,276,12398,1,0,0:0:0:0:
340,256,12570,1,8,0:0:0:0:
340,256,12656,1,8,0:0:0:0:
340,256,12742,1,8,0:0:0:0:
156,272,12913,1,0,0:0:0:0:
324,248,13085,1,8,0:0:0:0:
324,248,13170,1,8,0:0:0:0:
192,264,13256,1,0,0:0:0:0:
184,256,13341,1,0,0:0:0:0:
316,244,13428,1,8,0:0:0:0:
312,240,13770,1,8,0:0:0:0:
320,240,13855,1,8,0:0:0:0:
320,240,13941,1,8,0:0:0:0:
68,292,14112,1,0,0:0:0:0:
68,292,14198,1,0,0:0:0:0:
68,292,14284,1,0,0:0:0:0:
356,288,14455,1,8,0:0:0:0:
356,288,14541,1,8,0:0:0:0:
356,288,14627,1,8,0:0:0:0:
160,264,14798,1,0,0:0:0:0:
160,264,14884,1,0,0:0:0:0:
160,264,14970,1,0,0:0:0:0:
316,264,15141,1,8,0:0:0:0:
128,260,15312,1,0,0:0:0:0:
128,260,15398,1,0,0:0:0:0:
296,244,15484,1,8,0:0:0:0:
96,284,15655,1,0,0:0:0:0:
96,284,15741,1,0,0:0:0:0:
96,284,15827,1,0,0:0:0:0:
268,248,15912,1,8,0:0:0:0:
176,264,16084,1,0,0:0:0:0:
328,244,16170,1,8,0:0:0:0:
368,248,16512,1,8,0:0:0:0:
88,280,16684,1,0,0:0:0:0:
88,280,16770,1,0,0:0:0:0:
304,236,16855,1,8,0:0:0:0:
100,272,17027,1,0,0:0:0:0:
316,248,17198,1,8,0:0:0:0:
316,248,17370,1,8,0:0:0:0:
72,288,17541,1,0,0:0:0:0:
296,256,17712,1,8,0:0:0:0:
348,276,17884,1,8,0:0:0:0:
368,264,17970,1,8,0:0:0:0:
348,276,18055,1,8,0:0:0:0:
56,292,18227,1,0,0:0:0:0:
344,264,18398,1,8,0:0:0:0:
144,264,18570,1,0,0:0:0:0:
144,256,18741,1,0,0:0:0:0:
144,256,18827,1,0,0:0:0:0:
316,248,18912,1,8,0:0:0:0:
304,288,19084,1,8,0:0:0:0:
56,280,19427,1,0,0:0:0:0:
388,288,19598,1,8,0:0:0:0:
128,272,19770,1,0,0:0:0:0:
128,272,19855,1,0,0:0:0:0:
260,264,19941,1,8,0:0:0:0:
144,264,20112,1,0,0:0:0:0:
356,264,20284,1,8,0:0:0:0:
140,264,20455,1,0,0:0:0:0:
320,248,20627,1,8,0:0:0:0:
320,248,20712,1,8,0:0:0:0:
108,256,20798,1,0,0:0:0:0:
108,256,20970,1,0,0:0:0:0:
304,240,21141,1,8,0:0:0:0:
104,268,21312,1,0,0:0:0:0:
360,264,21484,1,8,0:0:0:0:
360,264,21570,1,8,0:0:0:0:
360,264,21655,1,8,0:0:0:0:
88,244,21998,1,0,0:0:0:0:
364,256,22170,1,8,0:0:0:0:
400,260,22255,1,8,0:0:0:0:
364,256,22341,1,8,0:0:0:0:
100,264,22512,1,0,0:0:0:0:
388,268,22684,1,8,0:0:0:0:
128,284,22855,1,0,0:0:0:0:
128,284,22941,1,0,0:0:0:0:
128,244,23027,1,0,0:0:0:0:
360,264,23198,1,8,0:0:0:0:
124,244,23370,1,0,0:0:0:0:
372,244,23541,1,8,0:0:0:0:
352,268,23627,1,8,0:0:0:0:
168,256,23712,1,0,0:0:0:0:
312,240,23884,1,8,0:0:0:0:
128,244,24055,1,0,0:0:0:0:
100,264,24227,1,0,0:0:0:0:
100,264,24312,1,0,0:0:0:0:
304,244,24398,1,8,0:0:0:0:
388,328,24741,1,8,0:0:0:0:
388,328,24827,1,8,0:0:0:0:
388,328,24912,1,8,0:0:0:0:
212,272,25084,1,0,0:0:0:0:
212,272,25170,1,0,0:0:0:0:
212,272,25255,1,0,0:0:0:0:
372,272,25427,1,8,0:0:0:0:
372,272,25512,1,8,0:0:0:0:
372,272,25598,1,8,0:0:0:0:
112,240,25770,1,0,0:0:0:0:
112,240,25855,1,0,0:0:0:0:
112,240,25941,1,0,0:0:0:0:
352,268,26112,1,8,0:0:0:0:
192,272,26284,1,0,0:0:0:0:
192,272,26370,1,0,0:0:0:0:
384,268,26455,1,8,0:0:0:0:
184,268,26627,1,0,0:0:0:0:
184,268,26712,1,0,0:0:0:0:
184,268,26798,1,0,0:0:0:0:
384,272,26884,1,8,0:0:0:0:
144,268,27055,1,0,0:0:0:0:
356,268,27141,1,8,0:0:0:0:
368,248,27484,1,8,0:0:0:0:
88,280,27656,1,0,0:0:0:0:
88,280,27742,1,0,0:0:0:0:
304,236,27827,1,8,0:0:0:0:
100,272,27999,1,0,0:0:0:0:
316,248,28170,1,8,0:0:0:0:
316,248,28342,1,8,0:0:0:0:
72,288,28513,1,0,0:0:0:0:
296,256,28684,1,8,0:0:0:0:
348,276,28856,1,8,0:0:0:0:
368,264,28942,1,8,0:0:0:0:
348,276,29027,1,8,0:0:0:0:
56,292,29199,1,0,0:0:0:0:
344,264,29370,1,8,0:0:0:0:
144,264,29542,1,0,0:0:0:0:
144,256,29713,1,0,0:0:0:0:
144,256,29799,1,0,0:0:0:0:
316,248,29884,1,8,0:0:0:0:
304,288,30056,1,8,0:0:0:0:
56,280,30399,1,0,0:0:0:0:
388,288,30570,1,8,0:0:0:0:
128,272,30742,1,0,0:0:0:0:
128,272,30827,1,0,0:0:0:0:
260,264,30913,1,8,0:0:0:0:
144,264,31084,1,0,0:0:0:0:
356,264,31256,1,8,0:0:0:0:
140,264,31427,1,0,0:0:0:0:
320,248,31599,1,8,0:0:0:0:
320,248,31684,1,8,0:0:0:0:
108,256,31770,1,0,0:0:0:0:
108,256,31942,1,0,0:0:0:0:
304,240,32113,1,8,0:0:0:0:
104,268,32284,1,0,0:0:0:0:
360,264,32456,1,8,0:0:0:0:
360,264,32542,1,8,0:0:0:0:
360,264,32627,1,8,0:0:0:0:
88,244,32970,1,0,0:0:0:0:
364,256,33142,1,8,0:0:0:0:
400,260,33227,1,8,0:0:0:0:
364,256,33313,1,8,0:0:0:0:
100,264,33484,1,0,0:0:0:0:
388,268,33656,1,8,0:0:0:0:
128,284,33827,1,0,0:0:0:0:
128,284,33913,1,0,0:0:0:0:
128,244,33999,1,0,0:0:0:0:
360,264,34170,1,8,0:0:0:0:
124,244,34342,1,0,0:0:0:0:
372,244,34513,1,8,0:0:0:0:
352,268,34599,1,8,0:0:0:0:
168,256,34684,1,0,0:0:0:0:
312,240,34856,1,8,0:0:0:0:
128,244,35027,1,0,0:0:0:0:
100,264,35199,1,0,0:0:0:0:
100,264,35284,1,0,0:0:0:0:
304,244,35370,1,8,0:0:0:0:
388,328,35713,1,8,0:0:0:0:
388,328,35799,1,8,0:0:0:0:
388,328,35884,1,8,0:0:0:0:
212,272,36056,1,0,0:0:0:0:
212,272,36142,1,0,0:0:0:0:
212,272,36227,1,0,0:0:0:0:
372,272,36399,1,8,0:0:0:0:
372,272,36484,1,8,0:0:0:0:
372,272,36570,1,8,0:0:0:0:
112,240,36742,1,0,0:0:0:0:
112,240,36827,1,0,0:0:0:0:
112,240,36913,1,0,0:0:0:0:
64,260,37084,1,0,0:0:0:0:
384,252,37427,1,8,0:0:0:0:
112,272,37598,1,0,0:0:0:0:
336,256,37770,1,8,0:0:0:0:
104,264,37941,1,0,0:0:0:0:
104,264,38027,1,0,0:0:0:0:
104,264,38112,1,0,0:0:0:0:
324,244,38284,1,8,0:0:0:0:
280,232,39141,1,8,0:0:0:0:
280,232,39227,1,8,0:0:0:0:
280,232,39312,1,8,0:0:0:0:
308,248,39484,1,8,0:0:0:0:
308,248,39655,1,8,0:0:0:0:
144,96,39827,1,4,0:0:0:0:
404,304,40170,1,8,0:0:0:0:
136,304,40341,1,0,0:0:0:0:
140,276,40684,1,0,0:0:0:0:
396,272,40855,1,8,0:0:0:0:
200,292,41027,1,0,0:0:0:0:
112,264,41198,1,0,0:0:0:0:
424,284,41541,1,8,0:0:0:0:
416,288,41627,1,8,0:0:0:0:
416,288,41712,1,8,0:0:0:0:
416,288,41798,1,8,0:0:0:0:
416,288,41884,1,8,0:0:0:0:
96,300,42055,1,0,0:0:0:0:
96,300,42141,1,0,0:0:0:0:
312,280,42227,1,8,0:0:0:0:
64,296,42570,1,0,0:0:0:0:
356,264,42912,1,8,0:0:0:0:
180,308,43084,1,0,0:0:0:0:
168,300,43427,1,0,0:0:0:0:
328,264,43598,1,8,0:0:0:0:
160,284,43941,1,0,0:0:0:0:
184,272,44112,1,0,0:0:0:0:
376,264,44284,1,8,0:0:0:0:
168,284,44455,1,0,0:0:0:0:
168,284,44798,1,0,0:0:0:0:
168,284,44884,1,0,0:0:0:0:
348,264,44970,1,8,0:0:0:0:
112,312,45312,1,0,0:0:0:0:
404,304,45655,1,8,0:0:0:0:
136,304,45826,1,0,0:0:0:0:
140,276,46169,1,0,0:0:0:0:
396,272,46340,1,8,0:0:0:0:
200,292,46512,1,0,0:0:0:0:
112,264,46683,1,0,0:0:0:0:
424,284,47026,1,8,0:0:0:0:
416,288,47112,1,8,0:0:0:0:
416,288,47197,1,8,0:0:0:0:
416,288,47283,1,8,0:0:0:0:
416,288,47369,1,8,0:0:0:0:
96,300,47540,1,0,0:0:0:0:
96,300,47626,1,0,0:0:0:0:
312,280,47712,1,8,0:0:0:0:
40,280,47884,1,0,0:0:0:0:
96,304,48055,1,0,0:0:0:0:
404,304,48398,1,8,0:0:0:0:
136,304,48569,1,0,0:0:0:0:
140,276,48912,1,0,0:0:0:0:
396,272,49083,1,8,0:0:0:0:
200,292,49255,1,0,0:0:0:0:
112,264,49426,1,0,0:0:0:0:
360,244,49770,1,8,0:0:0:0:
112,280,50027,1,0,0:0:0:0:
136,288,50112,1,0,0:0:0:0:
100,272,50198,1,0,0:0:0:0:
316,248,50284,1,8,0:0:0:0:
352,244,50541,1,8,0:0:0:0:
128,124,50798,1,4,0:0:0:0:
332,240,51141,1,8,0:0:0:0:
116,288,51312,1,0,0:0:0:0:
116,288,51484,1,0,0:0:0:0:
116,288,51570,1,0,0:0:0:0:
116,288,51655,1,0,0:0:0:0:
352,244,51827,1,8,0:0:0:0:
112,284,51998,1,0,0:0:0:0:
88,276,52341,1,0,0:0:0:0:
308,240,52512,1,8,0:0:0:0:
120,276,52684,1,0,0:0:0:0:
320,256,52855,1,8,0:0:0:0:
320,256,52941,1,8,0:0:0:0:
100,288,53027,1,0,0:0:0:0:
56,280,53112,1,0,0:0:0:0:
296,256,53198,1,8,0:0:0:0:
56,252,53541,1,0,0:0:0:0:
332,240,53884,1,8,0:0:0:0:
116,288,54055,1,0,0:0:0:0:
116,288,54141,1,0,0:0:0:0:
116,288,54227,1,0,0:0:0:0:
116,288,54398,1,0,0:0:0:0:
352,244,54570,1,8,0:0:0:0:
112,284,54741,1,0,0:0:0:0:
88,276,55084,1,0,0:0:0:0:
308,240,55255,1,8,0:0:0:0:
120,276,55427,1,0,0:0:0:0:
320,256,55598,1,8,0:0:0:0:
320,256,55684,1,8,0:0:0:0:
100,288,55770,1,0,0:0:0:0:
56,280,55855,1,0,0:0:0:0:
296,256,55941,1,8,0:0:0:0:
76,288,56284,1,0,0:0:0:0:
332,252,56455,1,8,0:0:0:0:
332,240,56627,1,8,0:0:0:0:
116,288,56798,1,0,0:0:0:0:
116,288,56970,1,0,0:0:0:0:
116,288,57056,1,0,0:0:0:0:
352,244,57141,1,8,0:0:0:0:
72,280,57312,1,0,0:0:0:0:
100,288,57484,1,0,0:0:0:0:
100,288,57570,1,0,0:0:0:0:
296,256,57655,1,8,0:0:0:0:
88,276,57827,1,0,0:0:0:0:
144,288,57998,1,0,0:0:0:0:
144,288,58084,1,0,0:0:0:0:
280,260,58170,1,8,0:0:0:0:
96,272,58341,1,0,0:0:0:0:
100,280,58512,1,0,0:0:0:0:
100,280,58598,1,0,0:0:0:0:
312,248,58684,1,8,0:0:0:0:
108,252,59027,1,0,0:0:0:0:
332,240,59370,1,8,0:0:0:0:
116,288,59541,1,0,0:0:0:0:
116,288,59713,1,0,0:0:0:0:
116,288,59799,1,0,0:0:0:0:
116,288,59884,1,0,0:0:0:0:
352,244,60056,1,8,0:0:0:0:
112,284,60227,1,0,0:0:0:0:
308,240,60398,1,8,0:0:0:0:
60,288,60570,1,0,0:0:0:0:
60,288,60655,1,0,0:0:0:0:
288,264,60741,1,8,0:0:0:0:
52,280,60912,1,0,0:0:0:0:
52,280,60998,1,0,0:0:0:0:
52,280,61084,1,0,0:0:0:0:
340,264,61170,1,8,0:0:0:0:
148,276,61341,1,0,0:0:0:0:
360,248,61427,1,8,0:0:0:0:
132,100,61770,1,4,0:0:0:0:
356,260,62112,1,8,0:0:0:0:
120,296,62284,1,0,0:0:0:0:
324,236,62455,1,8,0:0:0:0:
324,236,62541,1,8,0:0:0:0:
184,260,62627,1,0,0:0:0:0:
368,256,62798,1,8,0:0:0:0:
368,256,62970,1,8,0:0:0:0:
136,260,63141,1,0,0:0:0:0:
136,260,63227,1,0,0:0:0:0:
208,264,63312,1,0,0:0:0:0:
160,264,63484,1,0,0:0:0:0:
304,240,63655,1,8,0:0:0:0:
120,264,63827,1,0,0:0:0:0:
120,264,63998,1,0,0:0:0:0:
120,264,64084,1,0,0:0:0:0:
352,264,64170,1,8,0:0:0:0:
92,248,64512,1,0,0:0:0:0:
356,96,64855,1,12,0:0:0:0:
356,96,65198,1,12,0:0:0:0:
356,96,65541,1,12,0:0:0:0:
356,96,66055,1,12,0:0:0:0:
356,96,66226,1,12,0:0:0:0:
356,96,66398,1,12,0:0:0:0:
356,96,66741,1,12,0:0:0:0:
356,96,66912,1,12,0:0:0:0:
112,300,67255,1,0,0:0:0:0:
320,292,67598,1,8,0:0:0:0:
144,296,67770,1,0,0:0:0:0:
328,276,67941,1,8,0:0:0:0:
328,276,68027,1,8,0:0:0:0:
328,276,68112,1,8,0:0:0:0:
140,288,68284,1,0,0:0:0:0:
332,268,68455,1,8,0:0:0:0:
140,288,68627,1,0,0:0:0:0:
336,280,68712,1,8,0:0:0:0:
140,288,68798,1,0,0:0:0:0:
164,284,68970,1,0,0:0:0:0:
328,260,69141,1,8,0:0:0:0:
136,288,69312,1,0,0:0:0:0:
136,288,69484,1,0,0:0:0:0:
136,288,69570,1,0,0:0:0:0:
332,272,69655,1,8,0:0:0:0:
308,276,69827,1,8,0:0:0:0:
124,252,69998,1,0,0:0:0:0:
384,280,70341,1,8,0:0:0:0:
160,280,70512,1,0,0:0:0:0:
340,280,70684,1,8,0:0:0:0:
340,280,70770,1,8,0:0:0:0:
136,268,70855,1,0,0:0:0:0:
320,268,71027,1,8,0:0:0:0:
216,272,71198,1,0,0:0:0:0:
364,268,71370,1,8,0:0:0:0:
164,272,71541,1,0,0:0:0:0:
164,272,71627,1,0,0:0:0:0:
372,264,71712,1,8,0:0:0:0:
184,280,71884,1,0,0:0:0:0:
184,280,71970,1,0,0:0:0:0:
184,280,72055,1,0,0:0:0:0:
424,272,72141,1,8,0:0:0:0:
160,272,72312,1,0,0:0:0:0:
376,272,72398,1,8,0:0:0:0:
128,272,72741,1,0,0:0:0:0:
356,260,73084,1,8,0:0:0:0:
120,296,73256,1,0,0:0:0:0:
324,236,73427,1,8,0:0:0:0:
324,236,73513,1,8,0:0:0:0:
184,260,73599,1,0,0:0:0:0:
368,256,73770,1,8,0:0:0:0:
368,256,73942,1,8,0:0:0:0:
136,260,74113,1,0,0:0:0:0:
136,260,74199,1,0,0:0:0:0:
208,264,74284,1,0,0:0:0:0:
160,264,74456,1,0,0:0:0:0:
304,240,74627,5,8,0:0:0:0:
120,264,74799,1,0,0:0:0:0:
120,264,74970,1,0,0:0:0:0:
120,264,75056,1,0,0:0:0:0:
352,264,75142,1,8,0:0:0:0:
384,112,75484,5,12,0:0:0:0:
384,112,75655,1,12,0:0:0:0:
384,112,75827,1,12,0:0:0:0:
384,112,76170,1,12,0:0:0:0:
384,112,76512,1,12,0:0:0:0:
384,112,77198,1,12,0:0:0:0:
384,112,77369,1,12,0:0:0:0:
384,112,77712,1,12,0:0:0:0:
384,112,77883,1,12,0:0:0:0:
88,248,78227,1,0,0:0:0:0:
392,296,78570,1,8,0:0:0:0:
200,288,78741,1,0,0:0:0:0:
200,288,78827,1,0,0:0:0:0:
312,288,78912,1,8,0:0:0:0:
312,288,78998,1,8,0:0:0:0:
108,276,79084,1,0,0:0:0:0:
324,276,79255,1,8,0:0:0:0:
368,292,79427,1,8,0:0:0:0:
152,288,79598,1,0,0:0:0:0:
152,288,79684,1,0,0:0:0:0:
152,288,79770,1,0,0:0:0:0:
144,296,79941,1,0,0:0:0:0:
280,280,80112,1,8,0:0:0:0:
280,280,80198,1,8,0:0:0:0:
104,296,80284,1,0,0:0:0:0:
104,296,80455,1,0,0:0:0:0:
100,300,80541,1,0,0:0:0:0:
328,284,80627,1,8,0:0:0:0:
328,284,80798,1,8,0:0:0:0:
112,296,80970,1,0,0:0:0:0:
120,296,81055,1,0,0:0:0:0:
120,296,81141,1,0,0:0:0:0:
320,280,81312,1,8,0:0:0:0:
136,284,81484,1,0,0:0:0:0:
328,284,81655,1,8,0:0:0:0:
320,280,81741,1,8,0:0:0:0:
184,284,81827,1,0,0:0:0:0:
120,296,81912,1,0,0:0:0:0:
324,264,81998,1,8,0:0:0:0:
176,276,82170,1,0,0:0:0:0:
176,296,82341,1,0,0:0:0:0:
332,276,82684,1,8,0:0:0:0:
172,292,82855,1,0,0:0:0:0:
176,288,83027,1,0,0:0:0:0:
352,288,83112,1,8,0:0:0:0:
172,228,83198,1,0,0:0:0:0:
172,228,83255,1,0,0:0:0:0:
172,228,83312,1,0,0:0:0:0:
304,264,83370,1,8,0:0:0:0:
368,248,83712,1,8,0:0:0:0:
88,280,83884,1,0,0:0:0:0:
88,280,83970,1,0,0:0:0:0:
304,236,84055,1,8,0:0:0:0:
100,272,84227,1,0,0:0:0:0:
316,248,84398,1,8,0:0:0:0:
316,248,84570,1,8,0:0:0:0:
344,260,84655,1,8,0:0:0:0:
72,288,84741,1,0,0:0:0:0:
296,256,84912,1,8,0:0:0:0:
348,276,85084,1,8,0:0:0:0:
368,264,85170,1,8,0:0:0:0:
348,276,85255,1,8,0:0:0:0:
56,292,85427,1,0,0:0:0:0:
344,264,85598,1,8,0:0:0:0:
144,264,85770,1,0,0:0:0:0:
144,256,85941,1,0,0:0:0:0:
144,256,86027,1,0,0:0:0:0:
316,248,86112,1,8,0:0:0:0:
304,288,86284,1,8,0:0:0:0:
56,280,86627,1,0,0:0:0:0:
388,288,86798,1,8,0:0:0:0:
128,272,86970,1,0,0:0:0:0:
128,272,87055,1,0,0:0:0:0:
260,264,87141,1,8,0:0:0:0:
144,264,87312,1,0,0:0:0:0:
356,264,87484,1,8,0:0:0:0:
140,264,87655,1,0,0:0:0:0:
320,248,87827,1,8,0:0:0:0:
320,248,87912,1,8,0:0:0:0:
108,256,87998,1,0,0:0:0:0:
72,252,88084,1,0,0:0:0:0:
108,256,88170,1,0,0:0:0:0:
304,240,88341,1,8,0:0:0:0:
104,268,88512,1,0,0:0:0:0:
360,264,88684,1,8,0:0:0:0:
360,264,88770,1,8,0:0:0:0:
360,264,88855,1,8,0:0:0:0:
88,244,89198,1,0,0:0:0:0:
364,256,89370,1,8,0:0:0:0:
400,260,89455,1,8,0:0:0:0:
364,256,89541,1,8,0:0:0:0:
100,264,89712,1,0,0:0:0:0:
388,268,89884,1,8,0:0:0:0:
128,284,90055,1,0,0:0:0:0:
128,284,90141,1,0,0:0:0:0:
128,244,90227,1,0,0:0:0:0:
360,264,90398,1,8,0:0:0:0:
124,244,90570,1,0,0:0:0:0:
372,244,90741,1,8,0:0:0:0:
352,268,90827,1,8,0:0:0:0:
168,256,90912,1,0,0:0:0:0:
108,256,90998,1,0,0:0:0:0:
312,240,91084,1,8,0:0:0:0:
128,244,91255,1,0,0:0:0:0:
100,264,91427,1,0,0:0:0:0:
100,264,91512,1,0,0:0:0:0:
304,244,91598,1,8,0:0:0:0:
388,328,91941,1,8,0:0:0:0:
388,328,92027,1,8,0:0:0:0:
388,328,92112,1,8,0:0:0:0:
376,296,92198,1,8,0:0:0:0:
212,272,92284,1,0,0:0:0:0:
212,272,92370,1,0,0:0:0:0:
212,272,92455,1,0,0:0:0:0:
372,272,92627,1,8,0:0:0:0:
372,272,92712,1,8,0:0:0:0:
372,272,92798,1,8,0:0:0:0:
376,296,92884,1,8,0:0:0:0:
112,240,92970,1,0,0:0:0:0:
112,240,93055,1,0,0:0:0:0:
112,240,93141,1,0,0:0:0:0:
352,268,93312,1,8,0:0:0:0:
192,272,93484,1,0,0:0:0:0:
192,272,93570,1,0,0:0:0:0:
384,268,93655,1,8,0:0:0:0:
184,268,93827,1,0,0:0:0:0:
184,268,93912,1,0,0:0:0:0:
184,268,93998,1,0,0:0:0:0:
384,272,94084,1,8,0:0:0:0:
144,268,94255,1,0,0:0:0:0:
356,268,94341,1,8,0:0:0:0:
368,248,94684,1,8,0:0:0:0:
88,280,94856,1,0,0:0:0:0:
88,280,94942,1,0,0:0:0:0:
304,236,95027,1,8,0:0:0:0:
100,272,95199,1,0,0:0:0:0:
316,248,95370,1,8,0:0:0:0:
316,248,95542,1,8,0:0:0:0:
352,224,95627,1,8,0:0:0:0:
72,288,95713,1,0,0:0:0:0:
296,256,95884,1,8,0:0:0:0:
348,276,96056,1,8,0:0:0:0:
368,264,96142,1,8,0:0:0:0:
348,276,96227,1,8,0:0:0:0:
56,292,96399,1,0,0:0:0:0:
344,264,96570,1,8,0:0:0:0:
144,264,96742,1,0,0:0:0:0:
144,256,96913,1,0,0:0:0:0:
144,256,96999,1,0,0:0:0:0:
316,248,97084,1,8,0:0:0:0:
304,288,97256,1,8,0:0:0:0:
56,280,97599,1,0,0:0:0:0:
388,288,97770,1,8,0:0:0:0:
128,272,97942,1,0,0:0:0:0:
128,272,98027,1,0,0:0:0:0:
260,264,98113,1,8,0:0:0:0:
144,264,98284,1,0,0:0:0:0:
356,264,98456,1,8,0:0:0:0:
140,264,98627,1,0,0:0:0:0:
108,256,98712,1,0,0:0:0:0:
320,248,98799,1,8,0:0:0:0:
320,248,98884,1,8,0:0:0:0:
64,244,98970,1,0,0:0:0:0:
108,256,99142,1,0,0:0:0:0:
304,240,99313,1,8,0:0:0:0:
104,268,99484,1,0,0:0:0:0:
360,264,99656,1,8,0:0:0:0:
360,264,99742,1,8,0:0:0:0:
360,264,99827,1,8,0:0:0:0:
88,244,100170,1,0,0:0:0:0:
364,256,100342,1,8,0:0:0:0:
400,260,100427,1,8,0:0:0:0:
364,256,100513,1,8,0:0:0:0:
100,264,100684,1,0,0:0:0:0:
388,268,100856,1,8,0:0:0:0:
128,284,101027,1,0,0:0:0:0:
128,284,101113,1,0,0:0:0:0:
128,244,101199,1,0,0:0:0:0:
360,264,101370,1,8,0:0:0:0:
124,244,101542,1,0,0:0:0:0:
168,256,101627,1,0,0:0:0:0:
372,244,101713,1,8,0:0:0:0:
352,268,101799,1,8,0:0:0:0:
312,240,101884,1,8,0:0:0:0:
140,264,102056,1,0,0:0:0:0:
304,264,102227,1,8,0:0:0:0:
100,264,102399,1,0,0:0:0:0:
100,264,102484,1,0,0:0:0:0:
304,244,102570,1,8,0:0:0:0:
388,328,102913,1,8,0:0:0:0:
388,328,102999,1,8,0:0:0:0:
388,328,103084,1,8,0:0:0:0:
380,284,103170,1,8,0:0:0:0:
212,272,103256,1,0,0:0:0:0:
212,272,103342,1,0,0:0:0:0:
212,272,103427,1,0,0:0:0:0:
372,272,103599,1,8,0:0:0:0:
372,272,103684,1,8,0:0:0:0:
372,272,103770,1,8,0:0:0:0:
380,284,103855,1,8,0:0:0:0:
112,240,103942,1,0,0:0:0:0:
112,240,104027,1,0,0:0:0:0:
112,240,104113,1,0,0:0:0:0:
64,260,104284,1,0,0:0:0:0:
384,252,104627,1,8,0:0:0:0:
112,272,104798,1,0,0:0:0:0:
336,256,104970,1,8,0:0:0:0:
104,264,105141,1,0,0:0:0:0:
104,264,105227,1,0,0:0:0:0:
104,264,105312,1,0,0:0:0:0:
324,244,105484,1,8,0:0:0:0:
336,280,106341,1,8,0:0:0:0:
336,280,106427,1,8,0:0:0:0:
336,280,106512,1,8,0:0:0:0:
336,280,106684,1,8,0:0:0:0:
336,280,106855,1,8,0:0:0:0:
104,280,107027,1,0,0:0:0:0:
112,272,107541,1,0,0:0:0:0:
112,272,107884,1,0,0:0:0:0:
112,272,108227,1,0,0:0:0:0:
328,312,108741,1,8,0:0:0:0:
328,312,108912,1,8,0:0:0:0:
328,312,109084,1,8,0:0:0:0:
328,312,109427,1,8,0:0:0:0:
112,272,109770,1,0,0:0:0:0:
112,272,110284,1,0,0:0:0:0:
104,288,110627,1,0,0:0:0:0:
336,296,110970,1,8,0:0:0:0:
428,320,111484,1,8,0:0:0:0:
428,320,111998,1,8,0:0:0:0:
112,272,112512,1,0,0:0:0:0:
112,272,113027,1,0,0:0:0:0:
112,272,113370,1,0,0:0:0:0:
112,272,113712,1,0,0:0:0:0:
312,284,114227,1,8,0:0:0:0:
312,284,114398,1,8,0:0:0:0:
312,284,114570,1,8,0:0:0:0:
312,284,114912,1,8,0:0:0:0:
112,272,115255,1,0,0:0:0:0:
112,272,115770,1,0,0:0:0:0:
112,272,116112,1,0,0:0:0:0:
112,272,116455,1,0,0:0:0:0:
