osu file format v14

[General]
AudioFilename: Netoge Haijin Sprechchor.mp3
AudioLeadIn: 0
PreviewTime: 83712
Countdown: 0
SampleSet: Normal
StackLeniency: 0.7
Mode: 0
LetterboxInBreaks: 0
WidescreenStoryboard: 0

[Editor]
DistanceSpacing: 1.3
BeatDivisor: 2
GridSize: 4
TimelineZoom: 1

[Metadata]
Title:Netoge Haijin Sprechchor
TitleUnicode:ネトゲ廃人シュプレヒコール
Artist:Reol
ArtistUnicode:れをる
Creator:A r M i N
Version:Normal
Source:
Tags:Armin Hatsune Miku Niko Douga SnowNiNo_ NiNo MadaoX OzzyOzrock Ozzy Yora Yoratama Razakisu Squirrel Chocola Choco Prophecy Volta
BeatmapID:901553
BeatmapSetID:413183

[Difficulty]
HPDrainRate:3
CircleSize:2.5
OverallDifficulty:3
ApproachRate:4
SliderMultiplier:0.8
SliderTickRate:1

[Events]
//Background and Video events
0,0,"netoge haijin lolol.jpg",0,0
//Break Periods
//Storyboard Layer 0 (Background)
//Storyboard Layer 1 (Fail)
//Storyboard Layer 2 (Pass)
//Storyboard Layer 3 (Foreground)
//Storyboard Sound Samples

[TimingPoints]
4170,342.857142857143,4,1,0,60,1,0
4170,-100,4,1,2,60,0,0
5027,-100,4,1,2,60,0,0
6227,-100,4,1,2,60,0,0
8627,-100,4,2,6,60,0,0
8798,-100,4,1,2,60,0,0
11370,-100,4,2,6,60,0,0
11541,-100,4,1,2,60,0,0
13770,-100,4,3,2,60,0,0
16512,-100,4,1,2,70,0,1
18227,-100,4,2,6,70,0,1
18398,-100,4,1,2,70,0,1
19598,-100,4,2,6,70,0,1
19770,-100,4,1,2,70,0,1
20970,-100,4,2,6,70,0,1
21141,-100,4,1,2,70,0,1
23712,-100,4,2,6,70,0,1
23884,-100,4,1,2,70,0,1
29198,-100,4,2,6,70,0,1
29370,-100,4,1,2,70,0,1
34684,-100,4,2,6,70,0,1
34855,-100,4,1,2,70,0,1
38455,-100,4,1,2,70,0,0
39827,-100,4,1,2,70,0,0
41541,-100,4,2,6,70,0,0
41712,-100,4,1,2,60,0,0
42912,-100,4,2,6,60,0,0
43084,-100,4,1,2,60,0,0
50798,-100,4,1,2,60,0,0
53884,-100,4,2,6,60,0,0
54055,-100,4,1,2,60,0,0
56627,-100,4,2,6,60,0,0
56798,-100,4,1,2,60,0,0
59370,-100,4,2,6,60,0,0
59541,-100,4,1,2,60,0,0
63484,-100,4,2,6,60,0,0
63655,-100,4,1,2,60,0,0
68970,-100,4,2,6,60,0,0
69141,-100,4,1,2,60,0,0
70341,-100,4,2,6,60,0,0
70512,-100,4,1,2,60,0,0
71712,-100,4,2,6,60,0,0
71884,-100,4,1,2,60,0,0
79941,-100,4,2,6,60,0,0
80112,-100,4,1,2,60,0,0
82684,-100,4,2,6,60,0,0
82855,-100,4,1,2,60,0,0
83712,-100,4,1,2,70,0,1
84741,-100,4,2,6,70,0,1
84912,-100,4,1,2,70,0,1
88170,-100,4,2,6,70,0,1
88341,-100,4,1,2,70,0,1
90912,-100,4,2,6,70,0,1
91084,-100,4,1,2,70,0,1
96398,-100,4,2,6,70,0,1
96570,-100,4,1,2,70,0,1
97770,-100,4,2,6,70,0,1
97941,-100,4,1,2,70,0,1
101884,-100,4,2,6,70,0,1
102055,-100,4,1,2,70,0,1
105655,-100,4,1,2,70,0,0
107027,-111.111111111111,4,1,1,50,0,0
117998,-133.333333333333,4,1,1,5,0,0

[Colours]
Combo1 : 14,219,241
Combo2 : 128,128,255
Combo3 : 18,124,255
Combo4 : 234,165,21

[HitObjects]
116,76,4170,6,0,P|216:96|216:96,1,80
137,179,4855,2,0,P|233:199|233:199,1,80
317,218,5541,5,0,0:0:0:0:
364,312,5884,2,0,P|418:256|412:176,1,160,8|8,0:2|0:2,0:0:0:0:
361,82,6912,5,0,0:0:0:0:
267,127,7255,1,8,0:2:0:0:
162,124,7598,2,0,P|133:139|101:201,1,80,0|8,0:0|0:2,0:0:0:0:
200,221,8284,6,0,P|272:256|379:219,1,160
391,147,9312,1,8,0:2:0:0:
290,117,9655,6,0,P|300:31|300:31,2,80,0|8|0,0:0|0:2|0:0,0:0:0:0:
291,221,10684,1,8,0:2:0:0:
192,247,11027,6,0,B|240:311|240:311|240:311|240:311|328:335|328:335,1,160
374,245,12055,1,8,0:2:0:0:
360,144,12398,2,0,L|360:64,2,80,0|8|0,0:0|0:2|0:0,0:0:0:0:
280,208,13427,1,8,0:2:0:0:
256,192,13770,12,0,15141,0:0:0:0:
372,80,16512,6,0,P|291:121|291:121,1,80,0|8,0:0|0:2,0:0:0:0:
198,95,17198,2,0,P|137:151|137:151,1,80,0|8,0:0|0:2,0:0:0:0:
140,252,17884,6,0,B|208:284|304:264|304:264|300:264|300:264,1,160
364,188,18912,1,8,0:2:0:0:
304,104,19255,2,0,P|240:60|160:80,1,160
128,176,20284,5,8,0:2:0:0:
123,279,20627,2,0,B|157:307|199:297|199:297|241:289|275:321,1,160,0|0,0:2|0:2,0:0:0:0:
372,291,21655,1,8,0:2:0:0:
410,194,21998,5,0,0:0:0:0:
348,109,22341,1,8,0:2:0:0:
245,89,22684,2,0,P|199:115|165:161,1,80,0|8,0:0|0:2,0:0:0:0:
170,238,23370,6,0,B|234:246|282:290|282:290|338:262,1,160
368,186,24398,1,8,0:2:0:0:
256,192,24741,12,0,26112,0:2:0:0:
212,116,27484,6,0,P|212:24|212:24,2,80,0|8|0,0:0|0:2|0:0,0:0:0:0:
216,220,28512,1,8,0:2:0:0:
124,288,28855,2,0,P|188:332|288:309,1,160
308,228,29884,1,8,0:2:0:0:
229,159,30227,6,0,P|244:109|269:73,1,80,0|8,0:0|0:2,0:0:0:0:
354,43,30912,2,0,P|403:58|439:83,1,80,0|8,0:0|0:2,0:0:0:0:
456,172,31597,5,0,0:0:0:0:
392,254,31941,2,0,P|317:273|216:223,1,160,8|8,0:2|0:2,0:2:0:0:
179,119,32970,6,0,P|184:72|212:24,1,80,0|8,0:2|0:2,0:2:0:0:
300,24,33655,2,0,P|352:52|380:92,1,80,0|8,0:0|0:2,0:0:0:0:
403,164,34341,2,0,P|407:245|371:326,1,160
224,212,35370,1,8,0:2:0:0:
256,192,35712,12,0,37084,0:0:0:0:
144,164,38455,6,0,B|138:203|97:228|97:228|88:261|117:310,1,160
217,303,39484,1,0,0:0:0:0:
291,229,39827,6,0,P|401:254|401:254,1,80,0|8,0:0|0:2,0:0:0:0:
392,145,40512,2,0,P|299:121|299:121,1,80,0|8,0:0|0:2,0:0:0:0:
293,22,41198,2,0,P|228:65|213:154,1,160
135,213,42227,1,8,0:2:0:0:
231,244,42570,6,0,P|291:207|306:97,1,160
417,119,43598,1,8,0:2:0:0:
386,218,43941,1,0,0:2:0:0:
469,280,44284,6,0,P|424:318|346:312,2,120,8|0|0,0:2|0:2|0:2,0:2:0:0:
489,178,45655,1,0,0:0:0:0:
408,112,45998,1,0,0:0:0:0:
320,167,46341,2,0,B|265:225,1,80,8|0,0:2|0:0,0:0:0:0:
219,131,47027,2,0,B|273:72,1,80,8|0,0:2|0:0,0:0:0:0:
377,71,47712,1,8,0:2:0:0:
408,170,48055,6,0,P|396:214|338:248,1,80,0|8,0:0|0:2,0:0:0:0:
395,338,48741,2,0,P|355:340|318:325,1,80,0|8,0:0|0:2,0:0:0:0:
256,192,49427,12,0,50798,0:0:0:0:
184,256,52170,6,0,P|217:288|283:285,1,80,0|8,0:0|0:2,0:0:0:0:
266,192,52855,2,0,P|372:192|372:192,1,80,0|8,0:0|0:2,0:0:0:0:
435,131,53541,6,0,P|362:83|277:110,1,160
191,79,54570,1,8,0:2:0:0:
111,145,54912,2,0,P|92:244|92:244,1,80,0|8,0:0|0:2,0:0:0:0:
188,271,55598,2,0,P|207:172|207:172,1,80,0|8,0:0|0:2,0:0:0:0:
294,243,56284,6,0,B|296:164|373:155|361:90,1,160
271,52,57312,2,0,P|164:57|164:57,1,80,8|0,0:2|0:0,0:0:0:0:
107,118,57998,2,0,P|88:165|102:218,1,80,8|0,0:2|0:0,0:0:0:0:
184,240,58684,1,8,0:2:0:0:
286,225,59027,6,0,P|298:300|374:345,1,160
387,242,60055,2,8,L|395:192,2,40,8|0|8,0:2|0:2|0:2,0:2:0:0:
481,198,60741,2,0,P|474:157|433:127,1,80,8|8,0:2|0:2,0:0:0:0:
350,92,61427,1,8,0:2:0:0:
273,162,61770,1,0,0:0:0:0:
169,166,62112,6,8,P|72:201|18:163,1,160,8|8,0:2|0:2,0:2:0:0:
92,93,63141,2,0,P|159:55|232:82,1,160
262,182,64170,2,0,P|302:194|358:190,1,80,8|0,0:2|0:0,0:0:0:0:
424,132,64855,6,0,P|444:180|448:216,1,80,8|0,0:2|0:0,0:0:0:0:
400,300,65541,1,8,0:2:0:0:
299,301,65884,2,0,L|304:245,2,40,0|0|8,0:0|0:0|0:2,0:0:0:0:
196,283,66570,2,0,L|101:281,1,80,0|8,0:0|0:2,0:0:0:0:
150,183,67255,6,0,P|126:143|119:88,1,80,0|8,0:0|0:2,0:0:0:0:
216,92,67941,2,0,P|262:121|315:120,1,80,0|8,0:0|0:2,0:0:0:0:
349,207,68627,2,0,P|297:293|216:291,1,160
201,205,69655,1,8,0:2:0:0:
112,144,69998,6,0,P|152:76|235:55,1,160
314,114,71027,1,8,0:2:0:0:
221,161,71370,6,8,P|266:208|367:204,1,160,8|8,0:2|0:2,0:2:0:0:
434,140,72398,1,8,0:2:0:0:
344,87,72741,1,0,0:0:0:0:
244,56,73084,6,0,P|190:51|136:71,1,80,8|0,0:2|0:0,0:0:0:0:
141,158,73770,2,0,P|169:214|194:248,1,80,8|0,0:2|0:0,0:0:0:0:
266,286,74455,2,0,B|284:250|330:235|330:235|356:198|348:140,1,160,8|8,0:2|0:2,0:0:0:0:
253,123,75484,6,0,L|182:107,2,40,0|0|8,0:0|0:0|0:2,0:0:0:0:
204,215,76170,2,0,P|182:246|184:320,1,80,0|8,0:0|0:2,0:0:0:0:
272,324,76855,2,0,P|360:280|360:280,1,80,0|8,0:0|0:2,0:0:0:0:
304,192,77541,1,0,0:0:0:0:
392,144,77884,2,0,P|364:108|296:100,1,80,8|0,0:2|0:0,0:0:0:0:
228,74,78570,6,0,B|208:130|208:130|164:139|164:139|146:175|166:226,1,160,8|8,0:2|0:2,0:0:0:0:
233,264,79598,2,0,B|280:204|320:256|361:172|361:172|361:172,1,160
301,89,80627,1,8,0:2:0:0:
210,140,80970,6,0,P|108:122|108:122,1,80,0|8,0:0|0:2,0:0:0:0:
84,219,81655,2,0,P|186:237|186:237,1,80,0|8,0:0|0:2,0:0:0:0:
259,271,82341,2,0,B|339:261|339:261|383:170|383:170|383:170,1,160
353,86,83370,1,8,0:2:0:0:
249,86,83712,6,0,P|225:129|201:148,1,80,0|8,0:0|0:2,0:0:0:0:
97,160,84398,2,0,P|132:230|217:251,1,160
288,189,85427,2,0,P|339:192|385:173,1,80,8|0,0:2|0:0,0:0:0:0:
399,83,86112,1,8,0:2:0:0:
314,21,86455,6,8,L|219:50,1,80,0|8,0:2|0:2,0:2:0:0:
220,147,87141,2,0,L|125:176,1,80,0|8,0:0|0:2,0:0:0:0:
192,264,87827,2,0,B|256:216|284:304|354:225|354:225,1,160
312,136,88855,1,8,0:2:0:0:
368,48,89198,6,0,L|444:16,1,80,0|8,0:0|0:2,0:0:0:0:
495,106,89884,2,0,L|421:137,1,80,0|8,0:0|0:2,0:0:0:0:
378,230,90570,2,0,P|369:308|280:351,1,160
275,249,91598,1,8,0:2:0:0:
256,192,91941,12,0,93312,0:0:0:0:
392,40,94684,6,0,L|280:40,1,80,0|8,0:0|0:2,0:0:0:0:
264,132,95370,2,0,P|344:132|344:132,1,80,0|8,0:0|0:2,0:0:0:0:
424,200,96055,2,0,B|412:236|384:268|384:268|328:288|300:332,1,160
220,268,97084,1,8,0:2:0:0:
116,276,97427,6,0,P|88:196|116:124,1,160
208,84,98455,2,0,P|240:112|292:112,1,80,8|0,0:2|0:0,0:0:0:0:
284,16,99141,2,0,P|328:28|360:64,1,80,8|0,0:2|0:0,0:0:0:0:
372,152,99827,1,8,0:2:0:0:
284,208,100170,6,0,L|196:188,1,80,0|8,0:0|0:2,0:0:0:0:
200,296,100855,2,0,L|278:313,1,80,0|8,0:0|0:2,0:0:0:0:
364,252,101541,2,0,P|408:188|395:111,1,160
304,165,102570,1,8,0:2:0:0:
256,192,102912,12,0,104284,0:0:0:0:
200,280,105655,6,0,B|236:304|278:289|278:289|320:304|373:265,1,160
392,180,106684,2,0,L|423:123,2,40
291,175,107370,2,0,P|267:138|230:122,1,71.9999978027344
151,106,108055,6,0,P|152:152|204:208,1,71.9999978027344,0|8,0:0|0:2,0:0:0:0:
232,236,108741,1,0,0:0:0:0:
320,272,109084,1,0,0:0:0:0:
412,248,109427,1,8,0:2:0:0:
440,160,109770,6,0,P|452:118|426:73,1,71.9999978027344
355,123,110455,2,0,P|320:129|280:156,1,71.9999978027344
255,235,111141,2,0,P|305:245|365:194,2,107.999996704102
170,194,112512,6,0,P|170:113|170:113,1,71.9999978027344,0|0,0:0|0:2,0:0:0:0:
119,43,113198,2,0,P|70:36|46:28,2,71.9999978027344,0|0|0,0:0|0:2|0:0,0:0:0:0:
212,35,114227,2,0,L|224:-21,2,35.9999989013672
292,83,114912,1,8,0:2:0:0:
350,160,115255,6,0,P|383:118|386:65,2,107.999996704102,0|0|8,0:2|0:2|0:2,0:0:0:0:
256,192,116627,12,4,117998,0:0:0:0:
