osu file format v14

[General]
AudioFilename: Netoge Haijin Sprechchor.mp3
AudioLeadIn: 0
PreviewTime: 83712
Countdown: 0
SampleSet: Normal
StackLeniency: 0.7
Mode: 0
LetterboxInBreaks: 0
WidescreenStoryboard: 1

[Editor]
DistanceSpacing: 0.9
BeatDivisor: 4
GridSize: 4
TimelineZoom: 2

[Metadata]
Title:Netoge Haijin Sprechchor
TitleUnicode:ネトゲ廃人シュプレヒコール
Artist:Reol
ArtistUnicode:れをる
Creator:A r M i N
Version:Chocola's Insane
Source:
Tags:Armin Hatsune Miku Niko Douga SnowNiNo_ NiNo MadaoX OzzyOzrock Ozzy Yora Yoratama Razakisu Squirrel Chocola Choco Prophecy Volta
BeatmapID:936412
BeatmapSetID:413183

[Difficulty]
HPDrainRate:6
CircleSize:4
OverallDifficulty:7.5
ApproachRate:9
SliderMultiplier:2
SliderTickRate:2

[Events]
//Background and Video events
0,0,"netoge haijin lolol.jpg",0,0
//Break Periods
//Storyboard Layer 0 (Background)
//Storyboard Layer 1 (Fail)
//Storyboard Layer 2 (Pass)
//Storyboard Layer 3 (Foreground)
//Storyboard Sound Samples

[TimingPoints]
4170,342.857142857143,4,1,2,50,1,0
4171,-133.333333333333,4,1,2,50,0,0
5027,-66.6666666666667,4,1,2,50,0,0
5541,-100,4,1,2,50,0,0
6227,-100,4,1,2,50,0,0
7684,-100,4,3,0,50,0,0
7941,-100,4,1,2,50,0,0
9655,-100,4,3,0,50,0,0
9912,-100,4,1,2,50,0,0
10084,-100,4,3,0,50,0,0
10427,-100,4,1,2,50,0,0
13770,-100,4,3,2,50,0,0
16512,-100,4,1,2,60,0,1
17198,-133.333333333333,4,1,0,60,0,1
17455,-100,4,1,2,60,0,1
18141,-100,4,2,6,60,0,1
18312,-100,4,1,2,60,0,1
24741,-100,4,3,2,60,0,1
26284,-100,4,1,2,60,0,1
31855,-100,4,2,6,60,0,1
32027,-100,4,1,2,60,0,1
34598,-100,4,2,6,60,0,1
34770,-100,4,1,2,60,0,1
35712,-100,4,3,2,60,0,1
38455,-133.333333333333,4,3,2,60,0,0
39141,-100,4,1,1,60,0,0
39827,-100,4,1,2,50,0,0
49341,-80,4,3,1,50,0,0
50370,-100,4,3,1,50,0,0
50884,-100,4,1,2,50,0,0
55170,-100,4,2,6,50,0,0
55341,-100,4,1,2,50,0,0
68884,-100,4,2,6,50,0,0
69055,-100,4,1,2,50,0,0
69998,-133.333333333333,4,1,0,50,0,0
70255,-133.333333333333,4,2,6,50,0,0
70427,-133.333333333333,4,1,0,50,0,0
70941,-133.333333333333,4,2,6,50,0,0
71112,-133.333333333333,4,1,0,50,0,0
71370,-100,4,1,2,50,0,0
81227,-100,4,2,6,50,0,0
81398,-100,4,1,2,50,0,0
81912,-100,4,2,6,50,0,0
82084,-100,4,1,2,50,0,0
83712,-100,4,1,2,60,0,1
105655,-200,4,1,2,60,0,0
106341,-100,4,1,1,60,0,0
107027,-133.333333333333,4,2,1,45,0,0
116798,-133.333333333333,4,1,1,45,0,0
116970,-133.333333333333,4,1,1,40,0,0
117141,-133.333333333333,4,1,1,35,0,0
117312,-133.333333333333,4,1,1,30,0,0
117484,-133.333333333333,4,1,1,25,0,0
117655,-100,4,1,1,5,0,0

[Colours]
Combo1 : 14,219,241
Combo2 : 128,128,255
Combo3 : 18,124,255
Combo4 : 234,165,21

[HitObjects]
48,124,4169,6,0,B|120:136|120:136|172:124,1,100
184,120,4427,1,0,0:0:0:0:
224,112,4512,2,0,P|272:104|320:128,1,75.0000028610231
344,200,4855,1,0,0:0:0:0:
342,232,4940,1,0,0:0:0:0:
341,265,5026,1,0,0:0:0:0:
340,304,5112,2,0,L|380:328,3,37.5000014305115
240,244,5370,1,0,0:0:0:0:
144,304,5541,6,0,P|108:320|28:304,1,100
192,168,5884,2,0,P|228:152|308:168,1,100
288,180,6141,1,0,0:0:0:0:
292,204,6227,1,0,0:0:0:0:
376,236,6398,2,0,L|368:132,1,100
444,144,6741,6,0,L|440:72,2,50
368,136,7084,1,0,0:0:0:0:
444,276,7255,2,0,P|392:316|344:308,1,100
324,304,7512,1,0,0:0:0:0:
287,295,7598,2,0,B|235:279|235:279|183:291,1,100
188,312,7855,1,0,0:0:0:0:
184,336,7941,1,0,0:0:0:0:
200,112,8112,1,0,0:0:0:0:
128,184,8284,6,0,B|76:176|76:176|16:192,1,100
190,289,8627,2,0,L|178:225,1,50
260,208,8798,2,0,L|264:152,2,50
348,108,9141,2,0,P|408:124|460:96,1,100
260,208,9484,6,0,P|200:216|148:188,1,100
188,84,9827,1,0,0:0:0:0:
164,201,9998,1,0,0:0:0:0:
64,244,10170,2,0,L|56:136,2,100
140,320,10684,2,0,L|192:312,2,50
260,208,11027,5,0,0:0:0:0:
336,300,11198,1,0,0:0:0:0:
404,200,11370,2,0,P|452:188|512:212,1,100
336,300,11712,1,0,0:0:0:0:
260,208,11884,1,0,0:0:0:0:
296,88,12055,2,0,P|332:48|404:36,1,100
184,84,12398,6,0,B|156:96|128:84|128:84|76:64|40:92,1,150
88,152,12741,2,0,L|96:272,1,100
100,336,13084,1,0,0:0:0:0:
200,264,13255,2,0,L|204:208,1,50
292,192,13427,2,0,L|296:136,3,50
304,104,13770,5,0,0:0:0:0:
344,74,13855,1,0,0:0:0:0:
393,67,13941,1,0,0:0:0:0:
440,81,14027,1,0,0:0:0:0:
475,116,14112,2,8,L|464:172,3,50
448,200,14455,1,0,0:0:0:0:
417,188,14540,1,0,0:0:0:0:
384,185,14626,1,0,0:0:0:0:
351,189,14712,1,0,0:0:0:0:
324,204,14798,2,8,L|320:260,4,50
173,137,15312,5,0,0:0:0:0:
172,87,15397,1,0,0:0:0:0:
172,37,15483,1,8,0:0:0:0:
264,112,15655,2,0,L|328:104,2,50,0|0|8,0:0|0:0|0:0,0:0:0:0:
256,216,15998,2,0,L|192:224,2,50,0|0|8,0:0|0:0|0:0,0:0:0:0:
120,236,16341,1,0,0:0:0:0:
104,100,16512,6,0,P|168:80|220:96,1,100,6|0,0:0|0:0,0:0:0:0:
256,164,16855,2,0,L|256:276,1,100,8|0,0:0|0:0,0:0:0:0:
256,340,17198,1,0,0:0:0:0:
328,120,17370,2,0,L|372:112,2,37.5000014305115,0|0|8,0:0|0:0|0:0,0:0:0:0:
256,164,17712,1,0,0:0:0:0:
104,100,17884,5,0,0:0:0:0:
172,192,18055,2,0,P|128:220|68:212,1,100,0|8,0:0|0:0,0:0:0:0:
248,264,18398,2,0,P|293:237|351:246,1,100
312,324,18741,1,0,0:0:0:0:
424,196,18912,1,8,0:0:0:0:
471,360,19084,6,0,L|463:308,2,50
372,264,19427,1,0,0:0:0:0:
240,264,19598,1,8,0:0:0:0:
160,180,19770,1,0,0:0:0:0:
158,130,19855,1,0,0:0:0:0:
156,80,19941,1,8,0:0:0:0:
244,32,20112,1,0,0:0:0:0:
160,180,20284,1,8,0:0:0:0:
60,44,20455,1,0,0:0:0:0:
72,180,20627,6,0,L|72:284,1,100,8|0,0:0|0:0,0:0:0:0:
72,280,20884,1,0,0:0:0:0:
72,280,20970,1,8,0:0:0:0:
256,164,21141,2,0,P|296:148|368:164,1,100,0|8,0:0|0:0,0:0:0:0:
364,304,21484,1,0,0:0:0:0:
317,320,21569,1,0,0:0:0:0:
268,313,21655,1,8,0:0:0:0:
308,232,21827,1,0,0:0:0:0:
288,24,21998,5,8,0:0:0:0:
140,64,22170,1,0,0:0:0:0:
248,152,22341,1,8,0:0:0:0:
140,64,22512,1,0,0:0:0:0:
368,120,22684,5,0,0:0:0:0:
368,120,22770,1,0,0:0:0:0:
368,120,22855,1,0,0:0:0:0:
216,236,23027,1,8,0:0:0:0:
368,120,23198,1,0,0:0:0:0:
324,336,23370,5,0,0:0:0:0:
388,260,23541,2,0,P|432:248|488:268,1,100,0|8,0:0|0:0,0:0:0:0:
324,336,23884,2,0,B|276:344|276:344|200:320,1,100
232,212,24227,1,0,0:0:0:0:
224,258,24312,1,0,0:0:0:0:
216,302,24398,1,8,0:0:0:0:
88,208,24570,6,0,L|80:92,1,100
100,72,24827,1,0,0:0:0:0:
146,54,24912,1,0,0:0:0:0:
195,60,24998,1,0,0:0:0:0:
236,88,25084,2,8,L|223:150,3,50
232,212,25427,5,0,0:0:0:0:
272,244,25512,1,0,0:0:0:0:
320,256,25598,1,0,0:0:0:0:
368,244,25684,1,0,0:0:0:0:
404,212,25770,1,8,0:0:0:0:
344,88,25941,1,8,0:0:0:0:
424,208,26112,5,0,0:0:0:0:
353,310,26284,2,0,L|329:246,1,50
232,212,26455,2,0,L|232:104,1,100,8|0,0:0|0:0,0:0:0:0:
216,88,26712,2,0,P|180:72|148:72,1,50
64,152,26884,2,0,L|124:140,2,50
232,212,27141,2,0,L|176:200,2,50
280,296,27484,6,0,B|324:284|324:284|352:304|392:292,1,100
456,244,27827,2,0,P|472:180|436:116,1,100,8|0,0:0|0:0,0:0:0:0:
368,188,28170,1,0,0:0:0:0:
312,72,28341,2,0,L|244:72,2,50,0|0|8,0:0|0:0|0:0,0:0:0:0:
368,188,28684,1,0,0:0:0:0:
240,152,28855,6,0,P|188:120|192:40,1,100
143,208,29198,1,8,0:0:0:0:
44,216,29370,2,0,L|156:208,1,100
252,320,29712,1,0,0:0:0:0:
202,313,29797,1,0,0:0:0:0:
152,306,29883,1,8,0:0:0:0:
308,240,30055,6,0,B|360:224|360:224|428:244,1,100
360,320,30398,1,0,0:0:0:0:
360,88,30570,1,8,0:0:0:0:
308,240,30741,2,0,L|300:136,1,100
200,60,31084,1,0,0:0:0:0:
150,53,31169,1,0,0:0:0:0:
100,64,31255,1,8,0:0:0:0:
156,176,31427,1,0,0:0:0:0:
276,136,31598,6,0,L|268:32,1,100
284,228,31941,1,8,0:0:0:0:
368,56,32112,1,0,0:0:0:0:
370,99,32197,1,8,0:0:0:0:
372,144,32283,1,8,0:0:0:0:
375,186,32369,1,0,0:0:0:0:
380,228,32454,1,8,0:0:0:0:
316,336,32627,2,0,P|252:344|204:304,1,100,8|0,0:0|0:0,0:0:0:0:
156,240,32970,5,0,0:0:0:0:
60,280,33141,1,0,0:0:0:0:
156,240,33312,1,8,0:0:0:0:
160,140,33484,1,0,0:0:0:0:
276,72,33655,2,0,P|344:56|392:84,1,100
328,168,33998,1,8,0:0:0:0:
404,244,34170,1,0,0:0:0:0:
396,343,34341,2,0,L|404:231,1,100
368,68,34684,5,8,0:0:0:0:
321,53,34769,1,0,0:0:0:0:
275,71,34855,2,0,L|168:64,1,100
76,216,35198,1,0,0:0:0:0:
188,208,35370,1,8,0:0:0:0:
287,198,35541,6,0,L|155:210,1,100
160,244,35798,1,0,0:0:0:0:
173,291,35883,1,0,0:0:0:0:
207,327,35969,1,0,0:0:0:0:
253,344,36055,1,8,0:0:0:0:
302,338,36140,1,0,0:0:0:0:
340,316,36227,2,0,L|332:248,2,50
424,284,36570,5,0,0:0:0:0:
445,277,36655,1,0,0:0:0:0:
463,262,36741,1,8,0:0:0:0:
473,242,36827,1,0,0:0:0:0:
476,220,36912,2,0,B|468:148|468:148|448:184,1,100
424,356,37255,5,0,0:0:0:0:
260,236,37427,1,8,0:0:0:0:
84,352,37598,2,0,L|96:304,1,50
160,248,37770,2,0,P|108:220|52:236,1,100
184,80,38112,2,0,B|240:88|240:88|288:68,1,100
351,119,38455,6,0,P|339:179|511:151,1,300,0|8,0:0|0:0,0:0:0:0:
510,187,39227,1,8,0:0:0:0:
510,187,39312,1,8,0:0:0:0:
428,160,39484,1,0,0:0:0:0:
344,200,39827,6,0,P|288:216|224:184,1,100
292,84,40170,1,8,0:0:0:0:
344,200,40341,2,0,L|352:312,1,100
252,204,40684,2,0,L|244:88,1,100,0|8,0:0|0:0,0:0:0:0:
168,296,41027,2,0,P|112:308|60:276,1,100
80,156,41370,5,0,0:0:0:0:
127,143,41455,1,0,0:0:0:0:
173,160,41541,5,0,0:0:0:0:
36,68,41712,2,0,L|32:8,1,50
128,60,41884,2,0,P|184:36|248:56,1,100
224,68,42141,1,0,0:0:0:0:
224,92,42227,1,8,0:0:0:0:
240,240,42398,1,0,0:0:0:0:
320,148,42570,6,0,B|372:136|372:136|424:148,1,100
240,240,42912,1,8,0:0:0:0:
144,160,43084,2,0,B|132:108|132:108|144:55,1,100
64,264,43427,2,0,B|76:208|76:208|64:156,1,100,0|8,0:0|0:0,0:0:0:0:
144,320,43770,2,0,L|140:256,1,50
228,292,43941,6,0,P|280:264|336:276,1,100
396,164,44284,2,0,L|400:104,1,50,4|0,0:0|0:0,0:0:0:0:
316,124,44455,2,0,P|264:104|208:116,1,100
52,144,44798,2,8,L|112:152,1,50
160,228,44970,2,0,L|84:236,1,50,8|0,0:0|0:0,0:0:0:0:
40,304,45141,6,0,P|92:328|156:308,1,100
224,224,45484,1,0,0:0:0:0:
372,248,45655,1,8,0:0:0:0:
432,184,45827,2,0,P|380:160|316:180,1,100
464,152,46170,2,0,P|416:120|300:140,1,150
296,140,46512,1,0,0:0:0:0:
292,90,46597,1,0,0:0:0:0:
288,40,46683,1,0,0:0:0:0:
292,248,46855,1,0,0:0:0:0:
188,200,47027,6,0,L|192:144,1,50,8|0,0:0|0:0,0:0:0:0:
116,272,47198,1,0,0:0:0:0:
158,297,47283,1,0,0:0:0:0:
207,297,47369,1,0,0:0:0:0:
112,160,47541,2,8,L|48:168,2,50
268,120,47884,6,0,L|260:236,1,100
252,312,48227,1,0,0:0:0:0:
324,148,48398,2,0,P|256:120|196:148,1,100,8|0,0:0|0:0,0:0:0:0:
160,200,48741,1,0,0:0:0:0:
352,272,48912,2,0,L|344:172,2,100,0|8|0,0:0|0:0|0:0,0:0:0:0:
364,352,49427,1,0,0:0:0:0:
256,192,49512,12,0,50455,0:0:0:0:
120,124,50798,6,0,P|172:108|220:128,1,100
284,60,51141,2,0,L|296:196,1,100,8|0,0:0|0:0,0:0:0:0:
304,260,51484,1,0,0:0:0:0:
372,124,51655,2,0,P|432:100|488:120,1,100,0|8,0:0|0:0,0:0:0:0:
304,260,51998,6,0,P|244:280|192:256,2,100
160,200,52512,2,0,P|124:256|144:320,1,100,8|0,0:0|0:0,0:0:0:0:
348,88,52855,2,0,B|284:76|284:76|244:88|244:88|172:76,1,150
184,44,53198,2,0,P|140:16|64:32,1,100,8|0,0:0|0:0,0:0:0:0:
48,160,53541,5,0,0:0:0:0:
116,96,53712,1,0,0:0:0:0:
144,188,53884,2,0,L|120:304,1,100,8|0,0:0|0:0,0:0:0:0:
192,360,54227,1,0,0:0:0:0:
236,184,54398,2,0,P|216:128|164:104,1,100,0|8,0:0|0:0,0:0:0:0:
304,220,54741,6,0,B|380:208|380:208|416:216|416:216|480:208,1,150
488,196,55084,2,0,P|500:136|464:84,1,100,0|8,0:0|0:0,0:0:0:0:
400,72,55427,1,0,0:0:0:0:
428,256,55598,2,0,P|488:288|552:256,1,100
380,236,55941,2,0,L|264:252,1,100,8|0,0:0|0:0,0:0:0:0:
192,80,56284,5,0,0:0:0:0:
192,80,56455,1,0,0:0:0:0:
280,156,56627,1,8,0:0:0:0:
396,120,56798,1,0,0:0:0:0:
300,48,56970,1,0,0:0:0:0:
396,120,57141,2,8,L|376:248,1,100
252,180,57484,1,0,0:0:0:0:
356,232,57655,6,0,L|336:348,1,100
252,180,57998,1,8,0:0:0:0:
152,240,58170,2,0,P|88:252|36:216,1,100
252,180,58512,1,0,0:0:0:0:
293,138,58598,1,0,0:0:0:0:
348,116,58684,2,0,P|412:104|464:132,2,100,8|0|8,0:0|0:0|0:0,0:0:0:0:
264,152,59198,6,0,P|208:168|144:136,1,100
400,188,59541,2,0,L|392:304,2,100
348,116,60055,2,0,B|284:92|284:92|220:108,1,100,8|0,0:0|0:0,0:0:0:0:
208,112,60312,1,0,0:0:0:0:
164,120,60398,6,0,P|108:120|64:80,1,100,8|0,0:0|0:0,0:0:0:0:
68,136,60655,1,0,0:0:0:0:
60,176,60741,2,0,L|44:284,1,100,8|0,0:0|0:0,0:0:0:0:
112,324,61084,2,0,L|168:312,1,50,8|0,0:0|0:0,0:0:0:0:
184,276,61255,2,0,L|240:296,1,50,8|0,0:0|0:0,0:0:0:0:
264,296,61427,2,0,P|328:272|396:300,1,100
424,340,61770,6,0,B|460:304|456:248|428:216|428:216|440:164,1,150,6|0,0:0|0:0,0:0:0:0:
448,180,62112,1,8,0:0:0:0:
336,92,62284,1,0,0:0:0:0:
248,144,62455,2,0,P|196:168|132:140,1,100
92,116,62798,1,8,0:0:0:0:
90,17,62970,1,0,0:0:0:0:
192,88,63141,5,0,0:0:0:0:
176,272,63312,1,0,0:0:0:0:
248,144,63484,1,8,0:0:0:0:
280,256,63655,2,0,B|332:248|332:248|384:264,1,100
444,204,63998,2,0,L|432:136,1,50,8|0,0:0|0:0,0:0:0:0:
420,76,64170,1,8,0:0:0:0:
320,84,64341,2,0,B|272:76|272:76|204:92,1,100
128,72,64855,6,0,P|208:92|256:72,1,100,8|0,0:0|0:0,0:0:0:0:
436,136,65198,2,0,P|372:124|320:152,1,100
240,208,65541,2,0,P|160:240|48:176,1,200,8|0,0:0|0:0,0:0:0:0:
61,195,66055,5,0,0:0:0:0:
156,136,66227,1,0,0:0:0:0:
240,208,66398,1,0,0:0:0:0:
156,136,66741,2,0,L|152:72,1,50,8|0,0:0|0:0,0:0:0:0:
148,12,66912,1,8,0:0:0:0:
404,16,67255,6,0,P|464:28|496:92,1,100
456,184,67598,1,8,0:0:0:0:
344,224,67770,1,0,0:0:0:0:
268,132,67941,2,0,B|256:80|256:80|296:124,1,100
180,160,68284,2,0,P|120:164|84:132,1,100,8|0,0:0|0:0,0:0:0:0:
152,56,68627,1,0,0:0:0:0:
204,232,68798,6,0,P|264:228|300:260,2,100,0|8|0,0:0|0:0|0:0,0:0:0:0:
232,312,69312,1,0,0:0:0:0:
340,240,69484,2,0,L|336:184,1,50
332,92,69655,1,8,0:0:0:0:
408,140,69827,1,0,0:0:0:0:
256,144,69998,6,0,B|196:152|196:152|148:140|148:140|100:152,1,150.000005722046
72,96,70512,2,8,L|80:52,1,37.5000014305115
60,176,70684,6,0,B|48:264|48:264|60:304|112:312,1,150.000005722046,8|0,0:0|0:0,0:0:0:0:
140,288,71198,2,8,L|180:244,1,37.5000014305115
216,332,71370,6,0,P|280:348|336:324,1,100,8|0,0:0|0:0,0:0:0:0:
344,316,71627,1,0,0:0:0:0:
364,280,71712,2,0,L|348:172,1,100,8|0,0:0|0:0,0:0:0:0:
364,144,71970,1,0,0:0:0:0:
368,96,72055,2,0,L|352:48,1,50,8|0,0:0|0:0,0:0:0:0:
272,76,72227,2,0,L|212:60,1,50,8|0,0:0|0:0,0:0:0:0:
190,150,72398,2,0,P|130:170|66:146,1,100,8|0,0:0|0:0,0:0:0:0:
32,100,72741,5,12,0:0:0:0:
96,164,72912,2,8,L|88:272,1,100
112,296,73170,1,0,0:0:0:0:
148,316,73255,2,0,P|208:328|256:308,1,100
400,228,73598,2,0,P|340:216|292:236,1,100,0|8,2:0|2:0,2:0:0:0:
352,312,73941,1,0,0:0:0:0:
276,180,74112,6,0,L|284:128,1,50
244,76,74284,2,0,P|188:52|116:80,1,100,0|8,0:0|0:0,0:0:0:0:
88,132,74627,1,0,0:0:0:0:
136,220,74798,2,0,P|176:180|176:120,1,100
181,138,75055,1,0,0:0:0:0:
181,138,75141,1,8,0:0:0:0:
104,304,75312,1,0,0:0:0:0:
244,268,75484,6,0,L|300:256,1,50,8|8,0:0|0:0,0:0:0:0:
372,296,75655,2,0,L|440:308,1,50
380,196,75827,2,0,P|424:168|432:72,1,150,8|0,0:0|0:0,0:0:0:0:
400,52,76170,2,0,B|364:48|364:48|316:64|316:64|280:32|244:48,1,150,0|8,0:0|0:0,0:0:0:0:
252,116,76512,2,0,L|256:228,1,100,8|0,0:0|0:0,0:0:0:0:
180,288,76855,1,0,0:0:0:0:
180,288,77198,6,8,L|112:280,1,50
72,224,77370,2,0,P|60:156|96:104,1,100,8|0,0:0|0:0,0:0:0:0:
212,68,77712,2,8,L|208:140,1,50
252,192,77884,2,0,P|312:212|368:188,1,100,8|0,0:0|0:0,0:0:0:0:
463,213,78227,6,0,L|475:105,2,100,0|0|8,0:0|0:0|0:0,0:0:0:0:
388,292,78741,1,0,0:0:0:0:
296,240,78912,2,0,P|240:224|176:248,1,100
172,244,79255,2,0,L|180:140,1,100,8|0,0:0|0:0,0:0:0:0:
192,56,79598,1,0,0:0:0:0:
272,108,79770,2,0,P|332:116|384:92,1,100,0|8,0:0|0:0,0:0:0:0:
396,88,80112,2,0,L|392:192,1,100
268,340,80455,2,0,L|260:284,1,50
308,184,80627,1,8,0:0:0:0:
376,328,80798,1,0,0:0:0:0:
232,240,80970,6,0,P|180:228|112:252,1,100
48,300,81312,1,8,0:0:0:0:
160,104,81484,2,0,P|112:132|88:196,1,100
48,300,81827,1,8,0:0:0:0:
48,300,81998,1,8,0:0:0:0:
132,240,82170,2,0,L|192:244,1,50
204,220,82341,6,0,P|260:208|312:232,1,100
368,272,82684,2,0,B|392:204|360:168|360:168|332:132|352:60,1,200
368,52,83112,1,0,0:0:0:0:
404,40,83198,1,8,0:0:0:0:
444,56,83284,1,8,0:0:0:0:
472,88,83370,2,0,L|468:148,1,50,8|0,0:0|0:0,0:0:0:0:
376,208,83541,2,0,L|384:144,1,50,8|0,0:0|0:0,0:0:0:0:
436,304,83712,6,0,B|388:320|344:304|344:304|292:288|256:312,1,150,8|0,0:0|0:0,0:0:0:0:
240,300,84055,2,8,P|216:248|232:192,1,100,0|0,0:0|0:0,0:0:0:0:
292,144,84398,1,0,0:0:0:0:
124,204,84570,2,0,P|144:144|128:92,1,100,0|8,0:0|0:0,0:0:0:0:
52,40,84912,1,0,0:0:0:0:
152,72,85084,5,0,0:0:0:0:
260,36,85255,2,0,P|312:52|368:36,1,100,0|8,0:0|0:0,0:0:0:0:
452,184,85598,2,0,P|400:168|344:184,1,100
304,312,85941,1,0,0:0:0:0:
300,260,86027,1,0,0:0:0:0:
300,208,86112,1,8,0:0:0:0:
408,344,86284,2,0,P|420:292|380:236,1,100
224,216,86627,5,0,0:0:0:0:
180,332,86798,1,8,0:0:0:0:
160,152,86970,2,0,P|208:124|266:138,1,100
376,176,87312,5,0,0:0:0:0:
412,152,87398,1,0,0:0:0:0:
428,116,87484,2,0,P|416:60|368:24,1,100,8|0,0:0|0:0,0:0:0:0:
376,176,87827,1,0,0:0:0:0:
248,136,87998,2,0,P|192:120|124:144,1,100
112,280,88341,2,0,B|120:232|120:232|112:180,1,100,0|8,0:0|0:0,0:0:0:0:
208,264,88684,1,0,0:0:0:0:
200,313,88769,1,0,0:0:0:0:
207,362,88855,1,8,0:0:0:0:
312,264,89027,1,0,0:0:0:0:
244,136,89198,5,0,0:0:0:0:
376,140,89370,1,0,0:0:0:0:
203,169,89541,1,8,0:0:0:0:
327,125,89713,1,0,0:0:0:0:
312,264,89884,1,0,0:0:0:0:
192,220,90055,1,0,0:0:0:0:
144,96,90227,2,0,B|192:80|192:80|248:96,1,100,8|0,0:0|0:0,0:0:0:0:
104,244,90570,5,0,0:0:0:0:
104,124,90741,1,0,0:0:0:0:
104,124,90827,1,0,0:0:0:0:
104,124,90912,1,8,0:0:0:0:
104,296,91084,1,0,0:0:0:0:
200,356,91255,2,0,B|248:344|248:344|316:360,1,100
297,355,91512,1,0,0:0:0:0:
297,355,91598,1,8,0:0:0:0:
384,260,91770,1,0,0:0:0:0:
340,144,91941,5,0,0:0:0:0:
296,120,92026,1,0,0:0:0:0:
247,117,92112,1,0,0:0:0:0:
201,136,92198,1,0,0:0:0:0:
172,176,92284,2,0,L|180:236,3,50,8|0|0|0,0:0|0:0|0:0|0:0,0:0:0:0:
160,260,92627,5,0,0:0:0:0:
117,284,92712,1,0,0:0:0:0:
67,288,92798,1,0,0:0:0:0:
21,270,92884,1,0,0:0:0:0:
0,232,92970,2,0,L|0:168,2,50,8|0|0,0:0|0:0|0:0,0:0:0:0:
12,344,93312,5,0,0:0:0:0:
84,200,93484,1,0,0:0:0:0:
84,200,93570,1,0,0:0:0:0:
84,200,93655,1,8,0:0:0:0:
192,328,93827,2,0,L|256:312,1,50
268,280,93998,2,0,B|316:264|316:264|380:284,1,100
396,288,94255,1,8,0:0:0:0:
440,272,94341,2,0,P|440:240|420:204,1,50
380,144,94512,2,0,P|352:128|316:124,1,50
184,92,94684,6,0,P|240:84|280:48,1,100
92,128,95027,2,0,B|88:172|88:172|92:188|92:188|84:248,1,100,12|0,0:0|0:0,0:0:0:0:
86,226,95284,1,0,0:0:0:0:
86,226,95370,1,0,0:0:0:0:
192,332,95541,2,0,B|196:288|196:288|192:272|192:272|200:212,1,100,0|12,0:0|0:0,0:0:0:0:
288,288,95884,1,0,0:0:0:0:
267,150,96055,5,0,0:0:0:0:
364,192,96227,2,0,L|360:136,2,50,0|0|12,0:0|0:0|0:0,0:0:0:0:
440,248,96570,2,0,L|444:304,2,50
432,112,96912,1,0,0:0:0:0:
372,328,97084,1,12,0:0:0:0:
284,208,97255,6,0,P|252:196|176:224,1,100
204,312,97598,1,0,0:0:0:0:
88,132,97770,2,0,P|120:128|144:136,1,50,12|0,0:0|0:0,0:0:0:0:
204,80,97941,2,0,P|220:112|200:188,1,100
120,276,98284,1,0,0:0:0:0:
120,276,98370,1,0,0:0:0:0:
120,276,98455,1,12,0:0:0:0:
192,196,98627,1,0,0:0:0:0:
271,323,98798,6,0,P|299:327|327:323,1,50
360,288,98970,2,0,P|400:268|472:280,1,100,0|12,0:0|0:0,0:0:0:0:
292,260,99312,2,0,B|284:224|284:224|288:192|288:192|280:160,1,100
320,72,99655,1,0,0:0:0:0:
364,51,99740,1,0,0:0:0:0:
412,62,99826,1,12,0:0:0:0:
212,104,99998,6,0,P|172:124|108:104,1,100
164,32,100341,1,0,0:0:0:0:
112,232,100512,1,12,0:0:0:0:
160,60,100684,1,0,0:0:0:0:
184,288,100855,1,0,0:0:0:0:
240,200,101027,2,0,P|280:184|344:200,1,100,0|12,0:0|0:0,0:0:0:0:
336,220,101284,1,0,0:0:0:0:
336,248,101370,1,0,0:0:0:0:
408,140,101541,6,0,L|400:80,1,50
421,239,101712,2,0,L|405:123,1,100,0|12,0:0|0:0,0:0:0:0:
312,332,102055,2,0,P|356:340|404:308,1,100
232,268,102398,1,0,0:0:0:0:
183,260,102483,1,0,0:0:0:0:
142,287,102569,1,12,0:0:0:0:
204,352,102741,1,0,0:0:0:0:
88,228,102912,5,0,0:0:0:0:
69,181,102997,1,0,0:0:0:0:
71,132,103083,1,0,0:0:0:0:
93,87,103169,1,0,0:0:0:0:
132,60,103255,2,0,P|160:52|200:60,3,50,12|0|0|0,0:0|0:0|0:0|0:0,0:0:0:0:
256,105,103597,5,0,0:0:0:0:
306,110,103683,1,0,0:0:0:0:
354,97,103769,1,0,0:0:0:0:
400,80,103855,2,0,P|420:64|432:32,2,50,0|12|0,0:0|0:0|0:0,0:0:0:0:
380,128,104111,1,0,0:0:0:0:
360,172,104198,1,0,0:0:0:0:
364,228,104283,5,0,0:0:0:0:
432,308,104455,1,0,0:0:0:0:
460,184,104627,2,0,L|464:124,1,50
300,304,104798,2,0,P|268:328|188:332,1,100
124,288,105141,1,0,0:0:0:0:
224,176,105312,2,0,B|232:124|232:124|248:188,1,100
168,80,105655,6,0,B|200:36|248:36|284:64|284:64|320:84|360:72,1,200,0|14,0:0|0:0,0:0:0:0:
349,74,106427,1,14,0:0:0:0:
349,74,106512,1,14,0:0:0:0:
384,240,106684,2,0,L|392:180,1,50,14|0,0:0|0:0,0:0:0:0:
352,320,106855,2,0,L|344:264,1,50
252,300,107027,6,0,P|220:288|168:296,1,75.0000028610231
104,336,107370,1,0,0:0:0:0:
104,252,107541,2,0,P|112:224|104:172,1,75.0000028610231
12,176,107884,2,0,P|4:204|12:256,1,75.0000028610231
106,178,108227,2,0,B|119:132|102:90|102:90|118:62|162:66,1,150.000005722046
248,96,108741,5,0,0:0:0:0:
282,110,108826,1,0,0:0:0:0:
320,108,108912,1,0,0:0:0:0:
352,96,108998,1,0,0:0:0:0:
384,76,109084,2,0,P|408:64|464:68,1,75.0000028610231
400,160,109427,2,0,P|376:172|320:168,1,75.0000028610231
472,212,109770,6,0,B|480:252|472:280|472:280|460:316|480:360,1,150.000005722046
372,240,110284,2,0,P|340:224|296:220,1,75.0000028610231
276,312,110627,2,0,P|244:320|200:352,1,75.0000028610231
212,224,110970,1,0,0:0:0:0:
132,156,111141,6,0,P|100:148|48:156,1,75.0000028610231
204,72,111484,1,0,0:0:0:0:
284,140,111655,2,0,P|316:147|368:139,1,75.0000028610231,0|0,0:0|0:0,0:0:0:0:
400,32,111998,2,0,L|404:192,1,150.000005722046
464,252,112512,6,0,P|432:272|328:236,1,150.000005722046
256,112,113027,2,0,L|256:200,1,75.0000028610231,8|0,0:0|0:0,0:0:0:0:
176,256,113370,2,8,L|176:168,1,75.0000028610231,0|8,0:0|0:0,0:0:0:0:
128,104,113712,2,0,P|96:88|-8:144,1,150.000005722046
76,176,114227,5,0,0:0:0:0:
84,212,114312,1,0,0:0:0:0:
60,248,114398,1,0,0:0:0:0:
48,288,114484,1,0,0:0:0:0:
36,328,114570,2,0,L|108:356,1,75.0000028610231
192,276,114912,2,0,L|280:268,1,75.0000028610231
332,212,115255,6,0,P|360:180|356:68,1,150.000005722046
364,172,115770,2,0,P|360:224|376:264,1,75.0000028610231
228,312,116112,2,0,P|232:259|216:219,1,75.0000028610231
84,184,116455,2,0,P|132:196|188:180,1,75.0000028610231
256,192,116798,12,0,117998,0:0:0:0:
