osu file format v14

[General]
AudioFilename: Netoge Haijin Sprechchor.mp3
AudioLeadIn: 0
PreviewTime: 83712
Countdown: 0
SampleSet: Normal
StackLeniency: 0.7
Mode: 0
LetterboxInBreaks: 0
WidescreenStoryboard: 0

[Editor]
DistanceSpacing: 1
BeatDivisor: 4
GridSize: 4
TimelineZoom: 1.2

[Metadata]
Title:Netoge Haijin Sprechchor
TitleUnicode:ネトゲ廃人シュプレヒコール
Artist:Reol
ArtistUnicode:れをる
Creator:A r M i N
Version:Light Extra
Source:
Tags:Armin Hatsune Miku Niko Douga SnowNiNo_ NiNo MadaoX OzzyOzrock Ozzy Yora Yoratama Razakisu Squirrel Chocola Choco Prophecy Volta
BeatmapID:896077
BeatmapSetID:413183

[Difficulty]
HPDrainRate:6
CircleSize:4
OverallDifficulty:8
ApproachRate:9
SliderMultiplier:2
SliderTickRate:2

[Events]
//Background and Video events
0,0,"netoge haijin lolol.jpg",0,0
//Break Periods
//Storyboard Layer 0 (Background)
//Storyboard Layer 1 (Fail)
//Storyboard Layer 2 (Pass)
//Storyboard Layer 3 (Foreground)
//Storyboard Sound Samples

[TimingPoints]
4170,342.857142857143,4,1,2,20,1,0
4171,-133.333333333333,4,1,2,50,0,0
5027,-83.3333333333333,4,1,2,50,0,0
5541,-100,4,1,2,50,0,0
6227,-100,4,1,2,50,0,0
7684,-100,4,3,0,50,0,0
7941,-100,4,1,2,50,0,0
9655,-100,4,3,0,50,0,0
9912,-100,4,1,2,50,0,0
10084,-100,4,3,0,50,0,0
10427,-100,4,1,2,50,0,0
13770,-100,4,3,2,50,0,0
16512,-100,4,1,2,60,0,1
17198,-133.333333333333,4,1,0,60,0,1
17455,-100,4,1,2,60,0,1
18312,-100,4,1,2,60,0,1
24741,-100,4,3,2,60,0,1
26284,-100,4,1,2,60,0,1
35712,-100,4,3,2,60,0,1
38455,-100,4,3,2,60,0,0
39141,-100,4,1,1,60,0,0
39827,-100,4,1,2,50,0,0
41198,-100,4,3,22,50,0,0
41284,-100,4,1,2,50,0,0
46684,-100,4,3,22,50,0,0
46770,-100,4,1,2,50,0,0
49341,-80,4,3,1,50,0,0
50370,-100,4,3,1,50,0,0
50884,-100,4,1,2,50,0,0
58941,-100,4,2,0,50,0,0
59027,-100,4,1,2,50,0,0
68884,-100,4,2,6,50,0,0
69055,-100,4,1,2,50,0,0
69998,-100,4,1,2,50,0,0
71370,-100,4,1,2,50,0,0
81227,-66.6666666666667,4,2,2,50,0,0
81398,-100,4,1,2,50,0,0
81912,-66.6666666666667,4,2,2,50,0,0
82084,-100,4,1,2,50,0,0
83712,-100,4,1,2,60,0,1
105655,-100,4,1,2,60,0,0
106341,-100,4,1,1,60,0,0
107027,-133.333333333333,4,1,1,45,0,0
117655,-100,4,2,1,5,0,0

[Colours]
Combo1 : 14,219,241
Combo2 : 128,128,255
Combo3 : 18,124,255
Combo4 : 234,165,21

[HitObjects]
256,192,2112,12,0,3827,0:0:0:0:
240,204,4170,5,0,0:0:0:0:
344,68,4341,2,0,L|356:32,2,37.5000014305115,0|0|8,0:0|0:0|0:2,0:0:0:0:
188,84,4684,1,0,0:0:0:0:
316,172,4855,1,0,0:0:0:0:
340,204,4941,1,0,0:0:0:0:
352,244,5027,1,8,0:2:0:0:
248,280,5198,2,0,P|200:276|164:276,1,59.9999981689454,0|0,0:0|0:2,0:0:0:0:
144,296,5370,2,0,P|104:292|76:284,1,59.9999981689454,0|0,0:2|0:2,0:0:0:0:
48,252,5541,6,0,P|28:192|32:128,1,100
80,56,5884,1,8,0:2:0:0:
164,144,6055,1,0,0:0:0:0:
202,154,6141,1,0,0:0:0:0:
240,144,6227,1,0,0:0:0:0:
312,44,6398,1,0,0:0:0:0:
352,36,6484,1,0,0:0:0:0:
392,44,6570,2,0,B|424:84|424:84|424:132,1,100,8|0,0:2|0:0,0:0:0:0:
408,324,6912,5,0,0:0:0:0:
368,348,7084,2,0,L|296:336,1,50
300,296,7255,2,0,L|244:284,1,50,8|0,0:2|0:0,0:0:0:0:
216,264,7427,1,0,0:0:0:0:
180,264,7512,1,0,0:0:0:0:
148,248,7598,1,0,0:0:0:0:
120,132,7770,1,0,0:3:0:0:
120,132,7855,1,0,0:0:0:0:
120,132,7941,1,8,0:2:0:0:
224,72,8112,1,0,0:0:0:0:
404,53,8284,6,0,P|412:129|400:165,1,100
400,264,8627,1,8,0:2:0:0:
296,212,8798,1,0,0:0:0:0:
260,184,8884,1,0,0:0:0:0:
224,168,8970,2,0,P|176:148|100:148,1,100
8,120,9312,1,8,0:2:0:0:
92,32,9484,1,0,0:0:0:0:
132,20,9570,1,0,0:0:0:0:
176,32,9655,5,0,0:0:0:0:
224,168,9827,1,0,0:0:0:0:
360,136,9998,2,0,P|390:187|392:254,2,100,8|0|0,0:2|0:0|0:0,0:0:0:0:
424,48,10512,1,0,0:0:0:0:
452,80,10598,1,0,0:0:0:0:
464,120,10684,1,8,0:2:0:0:
360,136,10855,1,0,0:0:0:0:
218,184,11027,5,0,0:0:0:0:
363,225,11198,1,0,0:0:0:0:
263,97,11370,1,8,0:2:0:0:
271,253,11541,1,0,0:0:0:0:
240,280,11627,1,0,0:0:0:0:
200,288,11712,1,0,0:0:0:0:
28,224,11884,1,0,0:0:0:0:
218,184,12055,1,8,0:2:0:0:
96,320,12227,1,0,0:0:0:0:
166,106,12398,6,0,P|218:90|282:106,1,100
464,200,12741,2,0,P|392:204|336:176,1,100,8|0,0:2|0:0,0:0:0:0:
328,356,13084,1,0,0:0:0:0:
272,252,13255,1,0,0:0:0:0:
288,216,13341,1,0,0:0:0:0:
296,176,13427,1,8,0:2:0:0:
233,32,13598,1,0,0:0:0:0:
92,48,13770,5,2,0:0:0:0:
96,88,13855,1,0,0:0:0:0:
100,128,13941,1,4,0:0:0:0:
104,168,14027,1,0,0:0:0:0:
112,208,14112,1,10,0:2:0:0:
156,176,14198,1,0,0:0:0:0:
200,140,14284,1,4,0:0:0:0:
240,104,14370,1,0,0:0:0:0:
248,144,14455,5,2,0:0:0:0:
260,192,14541,1,0,0:0:0:0:
272,236,14627,1,4,0:0:0:0:
292,272,14712,1,0,0:0:0:0:
324,292,14798,1,10,0:2:0:0:
364,300,14884,1,0,0:0:0:0:
404,288,14970,1,4,0:0:0:0:
436,264,15055,1,0,0:0:0:0:
460,232,15141,5,8,0:2:0:0:
460,92,15312,1,4,0:0:0:0:
444,128,15398,1,0,0:0:0:0:
412,152,15484,1,8,0:2:0:0:
353,57,15655,5,0,0:0:0:0:
322,44,15741,1,0,0:0:0:0:
286,40,15827,1,0,0:0:0:0:
251,49,15912,1,8,0:2:0:0:
224,68,15998,1,8,0:2:0:0:
180,152,16170,6,0,L|156:208,1,50,8|0,0:2|0:0,0:0:0:0:
116,224,16341,2,0,L|88:292,1,50,8|0,0:2|0:0,0:0:0:0:
116,316,16512,6,0,P|172:340|216:336,1,100
232,304,16770,1,0,0:0:0:0:
256,272,16855,1,8,0:2:0:0:
280,240,16941,1,0,0:0:0:0:
304,208,17027,1,0,0:0:0:0:
272,108,17198,2,0,L|236:72,2,37.5000014305115
367,78,17541,2,0,P|399:113|396:188,1,100,8|0,0:2|0:0,0:0:0:0:
239,186,17884,5,0,0:0:0:0:
347,278,18055,1,0,0:0:0:0:
192,275,18227,1,8,0:2:0:0:
316,187,18398,1,0,0:0:0:0:
237,341,18570,1,0,0:0:0:0:
132,164,18741,1,0,0:0:0:0:
136,124,18827,1,0,0:0:0:0:
144,84,18912,2,0,P|184:28|236:8,1,100,8|0,0:2|0:2,0:2:0:0:
332,32,19255,6,0,P|428:88|428:88,1,100
376,176,19598,1,8,0:2:0:0:
368,216,19684,1,0,0:0:0:0:
348,252,19770,1,0,0:0:0:0:
312,268,19855,1,0,0:0:0:0:
272,268,19941,1,0,0:0:0:0:
104,76,20112,1,0,0:0:0:0:
132,104,20198,1,0,0:0:0:0:
160,132,20284,2,0,B|199:171|199:171|244:171,1,100,8|0,0:2|0:2,0:2:0:0:
267,33,20627,5,0,0:0:0:0:
380,112,20798,2,0,P|388:228|388:228,1,100,0|8,0:0|0:2,0:0:0:0:
512,268,21141,2,0,P|500:144|500:144,1,100
380,112,21484,1,0,0:0:0:0:
341,99,21570,1,0,0:0:0:0:
301,98,21655,1,8,0:2:0:0:
164,188,21827,1,0,0:0:0:0:
78,277,21998,5,0,0:0:0:0:
182,84,22170,1,0,0:0:0:0:
206,301,22341,1,8,0:2:0:0:
64,145,22512,1,0,0:0:0:0:
262,182,22684,1,0,0:0:0:0:
244,24,22855,1,0,0:0:0:0:
336,132,23027,1,8,0:2:0:0:
204,104,23198,1,0,0:0:0:0:
133,191,23370,6,0,P|81:147|61:99,1,100
68,80,23627,1,0,0:0:0:0:
88,48,23712,1,8,0:2:0:0:
204,104,23884,2,0,B|304:124|280:52|408:76,1,200
412,120,24312,1,0,0:0:0:0:
420,168,24398,1,8,0:2:0:0:
348,260,24570,1,0,0:0:0:0:
184,296,24741,5,2,0:0:0:0:
144,288,24827,1,0,0:0:0:0:
104,280,24912,1,4,0:0:0:0:
64,268,24998,1,0,0:0:0:0:
28,256,25084,1,10,0:2:0:0:
60,232,25170,1,4,0:0:0:0:
92,208,25255,1,4,0:0:0:0:
124,184,25341,1,0,0:0:0:0:
156,160,25427,5,2,0:0:0:0:
150,110,25512,1,0,0:0:0:0:
164,63,25598,1,4,0:0:0:0:
197,26,25684,1,0,0:0:0:0:
242,5,25769,1,10,0:2:0:0:
292,4,25855,1,0,0:0:0:0:
337,24,25941,1,4,0:0:0:0:
371,60,26027,1,0,0:0:0:0:
387,107,26112,5,8,0:2:0:0:
270,133,26284,1,0,0:0:0:0:
274,173,26370,1,0,0:0:0:0:
258,209,26455,1,8,0:2:0:0:
132,156,26627,5,0,0:0:0:0:
104,184,26712,1,0,0:0:0:0:
84,220,26798,1,0,0:0:0:0:
76,260,26884,1,8,0:2:0:0:
76,300,26970,1,8,0:2:0:0:
196,288,27141,6,0,L|244:240,1,50,8|0,0:2|0:0,0:0:0:0:
264,272,27312,2,0,L|312:224,1,50,8|0,0:2|0:0,0:0:0:0:
320,200,27484,6,0,P|396:148|428:44,2,200,0|8|0,0:0|0:2|0:0,0:0:0:0:
280,212,28255,1,0,0:0:0:0:
240,212,28341,1,0,0:0:0:0:
120,171,28512,2,0,P|64:183|0:151,1,100,8|0,0:2|0:0,0:0:0:0:
72,83,28855,6,0,P|120:71|184:95,1,100
240,212,29198,1,8,0:2:0:0:
317,82,29370,2,0,P|397:27|486:74,1,200
497,104,29798,1,0,0:0:0:0:
489,143,29884,1,8,0:2:0:0:
406,198,30055,1,0,0:0:0:0:
419,348,30227,6,0,P|348:336|289:352,1,100
281,346,30484,1,0,0:0:0:0:
241,351,30570,1,8,0:2:0:0:
148,284,30741,6,0,P|88:220|136:96,1,200
137,88,31170,1,0,0:0:0:0:
172,70,31255,1,8,0:2:0:0:
292,116,31427,1,0,0:0:0:0:
236,200,31598,5,0,0:0:0:0:
276,40,31770,2,0,P|326:44|366:102,1,100,0|8,0:0|0:2,0:0:0:0:
448,144,32112,1,0,0:0:0:0:
357,148,32284,1,0,0:2:0:0:
276,40,32455,1,0,0:0:0:0:
235,40,32541,1,0,0:0:0:0:
196,50,32627,2,0,P|146:81|116:147,1,100,8|0,0:2|0:0,0:0:0:0:
248,204,32969,5,0,0:2:0:0:
81,175,33141,1,0,0:0:0:0:
180,304,33312,1,8,0:2:0:0:
316,200,33484,1,0,0:0:0:0:
124,114,33655,5,0,0:0:0:0:
242,243,33827,1,0,0:0:0:0:
208,80,33998,1,8,0:2:0:0:
316,200,34170,1,0,0:0:0:0:
180,304,34341,5,0,0:0:0:0:
267,130,34512,1,0,0:0:0:0:
136,188,34684,2,0,P|89:183|41:114,1,100,8|0,0:2|0:0,0:0:0:0:
132,84,35027,1,0,0:0:0:0:
260,24,35198,1,0,0:0:0:0:
277,60,35284,1,0,0:0:0:0:
274,100,35370,1,8,0:2:0:0:
254,199,35541,1,0,0:0:0:0:
112,248,35712,5,2,0:0:0:0:
136,280,35798,1,0,0:0:0:0:
164,308,35884,1,4,0:0:0:0:
200,324,35970,1,0,0:0:0:0:
240,328,36055,1,10,0:2:0:0:
280,324,36141,1,0,0:0:0:0:
320,312,36227,1,4,0:0:0:0:
356,292,36312,1,0,0:0:0:0:
384,264,36398,5,2,0:0:0:0:
352,236,36484,1,0,0:0:0:0:
328,204,36570,1,4,0:0:0:0:
320,164,36655,1,0,0:0:0:0:
328,124,36741,1,10,0:2:0:0:
352,92,36827,1,0,0:0:0:0:
384,68,36912,1,4,0:0:0:0:
420,52,36998,1,0,0:0:0:0:
460,52,37084,5,8,0:0:0:0:
348,188,37255,1,0,0:0:0:0:
268,36,37427,1,8,0:2:0:0:
424,128,37598,1,0,0:0:0:0:
252,116,37770,1,8,0:2:0:0:
384,16,37941,1,0,0:0:0:0:
384,16,38027,1,0,0:0:0:0:
384,16,38112,1,0,0:0:0:0:
327,135,38284,1,8,0:2:0:0:
367,239,38455,6,0,P|258:227|219:127,1,200
76,164,39141,5,8,0:2:0:0:
112,200,39227,1,0,0:0:0:0:
156,224,39312,1,8,0:2:0:0:
368,244,39484,1,8,0:2:0:0:
356,292,39570,1,0,0:0:0:0:
328,332,39655,1,8,0:2:0:0:
127,149,39827,5,0,0:0:0:0:
200,72,39998,2,0,L|272:88,1,50
296,76,40170,2,0,L|360:92,1,50,8|0,0:2|0:0,0:0:0:0:
380,104,40341,1,0,0:0:0:0:
408,132,40427,1,0,0:0:0:0:
420,168,40512,1,0,0:0:0:0:
324,210,40684,1,0,0:0:0:0:
307,246,40770,1,0,0:0:0:0:
272,265,40855,1,8,0:2:0:0:
161,252,41027,2,0,P|81:328|93:193,1,300
92,164,41627,5,0,0:0:0:0:
112,120,41712,1,0,0:0:0:0:
160,108,41798,1,0,0:0:0:0:
200,80,41884,2,0,P|232:64|316:60,1,100,0|0,0:0|0:2,0:0:0:0:
335,60,42141,1,0,0:0:0:0:
372,75,42227,1,0,0:0:0:0:
428,224,42570,5,0,0:0:0:0:
328,216,42741,1,0,0:0:0:0:
292,232,42827,1,0,0:0:0:0:
260,252,42912,1,8,0:2:0:0:
232,280,42998,1,0,0:2:0:0:
212,316,43084,1,0,0:2:0:0:
140,280,43255,2,0,P|88:204|80:152,1,100
88,156,43512,1,0,0:0:0:0:
112,124,43598,1,8,0:2:0:0:
221,35,43770,1,0,0:0:0:0:
316,138,43941,6,0,P|265:133|209:181,1,100
294,255,44284,2,0,P|232:316|191:322,1,100,8|0,0:2|0:0,0:0:0:0:
90,343,44627,1,0,0:0:0:0:
64,300,44712,1,0,0:0:0:0:
48,252,44798,2,0,P|156:256|216:164,1,200,8|0,0:2|0:0,0:0:0:0:
192,92,45312,5,0,0:0:0:0:
288,124,45484,1,0,0:0:0:0:
328,124,45570,1,0,0:0:0:0:
364,112,45655,1,8,0:2:0:0:
396,88,45741,1,0,0:2:0:0:
420,56,45827,1,0,0:0:0:0:
484,132,45998,1,0,0:0:0:0:
416,204,46170,1,0,0:0:0:0:
416,204,46255,1,0,0:0:0:0:
416,204,46341,1,8,0:2:0:0:
316,220,46512,2,0,B|252:228|220:200|220:200|176:228|136:196|136:196|88:160|28:164,1,300,0|8,0:0|0:2,0:0:0:0:
72,132,47112,5,0,0:0:0:0:
112,104,47198,1,0,0:0:0:0:
124,56,47284,1,0,0:0:0:0:
172,36,47370,2,0,P|232:64|288:64,1,100
368,136,47712,2,0,P|324:159|275:166,1,100,8|0,0:2|0:0,0:0:0:0:
212,324,48055,5,0,0:0:0:0:
120,284,48227,1,0,0:0:0:0:
88,260,48312,1,0,0:0:0:0:
68,224,48398,1,8,0:2:0:0:
64,184,48484,1,0,0:0:0:0:
72,144,48570,1,0,0:0:0:0:
96,112,48655,1,0,0:0:0:0:
124,84,48741,1,0,0:0:0:0:
274,38,48912,5,0,0:0:0:0:
265,74,48998,1,0,0:0:0:0:
261,114,49084,1,8,0:2:0:0:
316,220,49255,1,0,0:0:0:0:
256,300,49427,6,0,L|124:280,1,125
132,281,49684,1,0,0:0:0:0:
132,281,49770,1,0,0:0:0:0:
82,166,49941,1,0,0:0:0:0:
82,166,50027,1,0,0:0:0:0:
82,166,50112,2,0,L|210:150,1,125
160,64,50455,2,0,P|260:70|304:158,1,200
448,220,50970,5,0,0:0:0:0:
440,260,51055,1,0,0:0:0:0:
420,296,51141,1,8,0:2:0:0:
388,324,51227,1,0,0:2:0:0:
352,336,51312,1,0,0:2:0:0:
244,326,51484,2,0,P|268:274|302:228,1,100
312,204,51741,1,0,0:0:0:0:
321,165,51827,1,8,0:2:0:0:
228,116,51998,6,0,P|144:52|36:96,1,200
44,112,52427,1,0,0:0:0:0:
48,152,52512,1,8,0:2:0:0:
80,248,52684,2,0,L|132:264,2,50
180,140,53027,1,0,0:0:0:0:
212,164,53112,1,0,0:0:0:0:
228,200,53198,1,8,0:2:0:0:
300,300,53370,1,0,0:0:0:0:
312,164,53541,6,0,P|328:88|368:60,1,100
380,72,53798,1,0,0:0:0:0:
420,80,53884,1,8,0:2:0:0:
428,180,54055,2,0,P|427:229|399:270,1,100
300,300,54398,1,0,0:0:0:0:
228,188,54570,1,8,0:2:0:0:
151,295,54741,1,0,0:0:0:0:
111,291,54827,1,0,0:0:0:0:
75,275,54912,5,0,0:0:0:0:
113,117,55084,1,0,0:0:0:0:
164,223,55255,1,8,0:2:0:0:
17,148,55427,1,0,0:0:0:0:
228,188,55598,1,0,0:0:0:0:
295,38,55770,1,0,0:0:0:0:
321,67,55855,1,0,0:0:0:0:
356,86,55941,1,8,0:2:0:0:
440,192,56112,1,0,0:0:0:0:
289,252,56284,6,0,P|256:296|181:300,1,100
201,211,56627,1,8,0:2:0:0:
101,222,56798,2,0,L|53:198,2,50
184,124,57141,2,0,P|207:71|276:58,1,100,0|8,0:0|0:2,0:0:0:0:
383,234,57484,5,0,0:0:0:0:
323,348,57655,2,0,L|202:324,1,100
259,127,57998,1,0,0:0:0:0:
199,241,58169,2,0,L|78:217,1,100
79,90,58512,1,0,0:2:0:0:
51,118,58598,1,0,0:0:0:0:
24,150,58684,2,0,P|-4:222|27:297,1,150,8|0,0:2|0:2,0:2:0:0:
84,308,59027,6,0,P|144:288|200:296,1,100
216,272,59284,1,0,0:0:0:0:
248,248,59370,1,8,0:2:0:0:
276,220,59455,1,0,0:0:0:0:
300,188,59541,1,0,0:0:0:0:
472,221,59712,2,0,P|483:178|487:104,1,100
490,82,59970,1,0,0:0:0:0:
491,42,60055,1,8,0:2:0:0:
360,76,60227,5,0,0:2:0:0:
352,128,60312,1,0,0:0:0:0:
344,184,60398,1,8,0:2:0:0:
272,152,60570,5,0,0:2:0:0:
280,96,60656,1,0,0:0:0:0:
288,44,60741,1,8,0:2:0:0:
216,12,60912,5,0,0:0:0:0:
208,68,60998,1,0,0:0:0:0:
200,124,61084,1,8,0:2:0:0:
188,176,61170,1,0,0:0:0:0:
180,228,61255,1,0,0:2:0:0:
172,284,61341,1,0,0:2:0:0:
164,340,61427,1,8,0:2:0:0:
288,312,61598,1,0,0:0:0:0:
81,223,61770,6,0,B|131:244|179:228|179:228,1,100,4|0,0:2|0:0,0:0:0:0:
400,72,62112,2,8,P|352:92|288:96,1,100,8|0,0:2|0:2,0:2:0:0:
179,227,62455,1,0,0:0:0:0:
167,223,62627,1,0,0:0:0:0:
304,97,62798,1,8,0:2:0:0:
316,97,62970,1,0,0:0:0:0:
148,148,63141,6,0,P|168:192|232:180,1,100
328,280,63484,1,8,0:2:0:0:
208,292,63655,2,0,P|84:248|52:168,1,200
72,144,64084,1,0,0:0:0:0:
104,108,64170,1,8,0:2:0:0:
188,56,64341,2,0,P|272:44|300:24,1,100
336,124,64684,1,0,0:0:0:0:
208,152,64855,6,0,L|196:256,1,100,8|0,0:2|0:0,0:0:0:0:
132,88,65198,2,0,L|120:192,1,100
208,152,65541,1,8,0:2:0:0:
328,280,65712,1,0,0:0:0:0:
484,216,65884,5,0,0:0:0:0:
468,68,66055,2,0,L|464:128,1,50,0|0,0:2|0:0,0:0:0:0:
456,64,66227,2,0,L|452:128,1,50,8|0,0:2|0:0,0:0:0:0:
444,60,66398,2,0,L|436:176,1,100
349,221,66741,2,0,L|352:172,1,50,0|0,0:2|0:0,0:0:0:0:
336,217,66912,2,0,L|340:168,1,50,8|0,0:2|0:0,0:0:0:0:
92,60,67255,6,0,P|116:128|72:256,1,200,0|8,0:0|0:2,0:0:0:0:
176,276,67770,1,0,0:0:0:0:
228,192,67941,1,0,0:0:0:0:
300,264,68112,1,0,0:0:0:0:
352,192,68284,2,0,P|307:153|313:74,1,100,8|0,0:2|0:0,0:0:0:0:
392,108,68627,5,0,0:0:0:0:
444,192,68798,2,0,P|404:268|294:259,1,200
228,192,69312,2,0,P|172:184|124:144,1,100
104,136,69570,1,0,0:0:0:0:
88,100,69655,1,8,0:2:0:0:
242,20,69827,1,0,0:0:0:0:
389,90,69998,5,0,0:0:0:0:
416,284,70170,1,0,0:0:0:0:
436,25,70341,2,0,P|379:10|331:34,1,100,8|0,0:2|0:0,0:0:0:0:
270,137,70684,5,0,0:0:0:0:
486,248,70856,1,0,0:0:0:0:
245,60,71027,2,0,P|201:93|191:147,1,100,8|0,0:2|0:0,0:0:0:0:
142,323,71370,6,0,P|209:335|260:282,1,100,8|0,0:2|0:0,0:0:0:0:
251,279,71627,1,0,0:0:0:0:
264,236,71712,1,8,0:2:0:0:
440,44,71884,5,0,0:0:0:0:
436,96,71970,1,0,0:0:0:0:
424,144,72055,1,8,0:2:0:0:
404,188,72141,1,0,0:0:0:0:
364,220,72227,1,0,0:0:0:0:
316,236,72312,1,0,0:0:0:0:
264,236,72398,1,8,0:2:0:0:
180,120,72570,1,0,0:2:0:0:
132,120,72655,1,0,0:0:0:0:
96,152,72741,6,0,P|70:204|81:255,1,100,0|0,0:2|0:2,0:0:0:0:
172,216,73084,1,8,0:2:0:0:
247,303,73255,1,0,0:0:0:0:
368,292,73427,2,0,P|408:236|368:116,1,200,0|8,0:2|0:2,0:0:0:0:
280,160,73941,1,0,0:0:0:0:
200,104,74112,6,0,P|104:115|81:146,1,100,0|0,0:0|0:2,0:0:0:0:
84,296,74455,1,8,0:2:0:0:
241,202,74627,2,0,P|293:168|302:102,1,100
232,50,74970,1,0,0:0:0:0:
267,32,75055,1,0,0:0:0:0:
306,28,75141,1,8,0:2:0:0:
444,88,75312,1,0,0:0:0:0:
464,268,75484,6,0,L|412:280,1,50
464,256,75655,2,0,L|408:268,1,50
464,244,75827,2,0,L|260:296,2,200,8|0|8,0:2|0:0|0:2,0:0:0:0:
432,332,76684,5,0,0:0:0:0:
268,216,76855,1,0,0:0:0:0:
392,60,77027,1,0,0:0:0:0:
435,147,77198,6,0,L|383:159,1,50,8|0,0:2|0:0,0:0:0:0:
420,140,77370,2,0,L|368:152,1,50,8|0,0:2|0:0,0:0:0:0:
492,48,77712,1,0,0:0:0:0:
492,48,77798,1,0,0:0:0:0:
492,48,77884,2,0,L|408:64,1,50,8|0,0:2|0:0,0:0:0:0:
344,224,78227,6,0,P|268:228|236:216,1,100
220,124,78570,2,0,P|152:136|120:160,1,100,8|0,0:2|0:0,0:0:0:0:
246,220,78912,1,0,0:0:0:0:
224,24,79084,1,0,0:0:0:0:
127,152,79255,1,8,0:2:0:0:
312,76,79427,1,0,0:0:0:0:
408,192,79598,6,0,P|424:268|420:304,2,100,0|0|8,0:2|0:2|0:2,0:0:0:0:
288,120,80112,2,0,B|252:188|260:216|260:216|232:256|232:256|256:304|244:328,1,200
212,320,80541,1,0,0:0:0:0:
172,324,80627,1,8,0:2:0:0:
88,220,80798,1,0,0:0:0:0:
387,52,80970,6,0,P|321:82|348:173,1,150
360,152,81312,2,0,L|360:328,1,150.000005722046,8|0,0:2|0:0,0:0:0:0:
64,136,81655,6,0,L|160:272,1,150
188,236,81998,2,0,P|224:264|228:192,1,150.000005722046,8|0,0:2|0:0,0:0:0:0:
300,116,82341,6,0,P|352:176|396:188,2,100,0|0|8,0:0|0:0|0:2,0:0:0:0:
169,87,82855,1,0,0:0:0:0:
234,193,83027,1,0,0:0:0:0:
212,224,83112,1,0,0:0:0:0:
188,256,83198,2,0,L|188:304,4,25
328,252,83541,5,0,0:0:0:0:
356,208,83627,1,0,0:0:0:0:
368,160,83712,1,0,0:0:0:0:
292,76,83884,2,0,P|252:87|192:75,1,100,0|8,0:0|0:2,0:0:0:0:
160,64,84141,1,0,0:0:0:0:
124,44,84227,1,0,0:0:0:0:
136,220,84398,5,0,0:0:0:0:
172,236,84484,1,0,0:0:0:0:
212,244,84570,1,0,0:0:0:0:
252,240,84655,1,0,0:0:0:0:
292,228,84741,1,8,0:2:0:0:
308,128,84912,2,0,P|384:152|424:188,1,100
420,200,85170,1,0,0:0:0:0:
432,236,85255,1,0,0:0:0:0:
368,312,85427,1,8,0:2:0:0:
264,320,85598,6,0,B|204:332|168:276|168:276|124:280|124:280|76:224,1,200
88,208,86027,1,0,0:0:0:0:
96,168,86112,1,8,0:2:0:0:
196,188,86284,1,0,0:0:0:0:
212,44,86455,6,0,P|280:36|332:52,1,100
348,52,86712,1,0,0:0:0:0:
384,68,86798,1,8,0:2:0:0:
396,164,86970,6,0,B|432:244|392:300|392:300|300:300,1,200
296,304,87398,1,0,0:0:0:0:
256,300,87484,1,8,0:2:0:0:
220,312,87570,1,0,0:0:0:0:
180,304,87655,1,0,0:0:0:0:
72,172,87827,6,0,P|128:144|192:152,1,100
204,140,88084,1,0,0:0:0:0:
240,120,88170,1,8,0:2:0:0:
332,168,88341,2,0,P|380:216|424:220,1,100
323,275,88684,2,0,P|363:306|411:317,1,100,0|8,0:0|0:2,0:0:0:0:
280,352,89027,1,0,0:0:0:0:
160,232,89198,5,0,0:0:0:0:
112,40,89370,1,0,0:0:0:0:
256,172,89541,1,8,0:2:0:0:
72,164,89712,1,0,0:0:0:0:
220,52,89884,1,0,0:0:0:0:
364,168,90055,1,0,0:0:0:0:
184,228,90227,1,8,0:2:0:0:
364,289,90398,1,0,0:0:0:0:
204,352,90570,6,0,P|144:352|100:316,1,100
84,304,90827,1,0,0:0:0:0:
68,268,90912,1,8,0:2:0:0:
184,228,91084,2,0,B|116:148|136:48|136:48|184:24,1,200
180,36,91512,1,0,0:0:0:0:
220,28,91598,1,8,0:2:0:0:
312,40,91770,1,0,0:0:0:0:
372,120,91941,5,0,0:0:0:0:
360,156,92027,1,0,0:0:0:0:
348,192,92112,1,0,0:0:0:0:
336,228,92198,1,0,0:0:0:0:
296,236,92284,1,8,0:2:0:0:
284,272,92370,1,0,0:0:0:0:
272,312,92455,1,0,0:0:0:0:
260,348,92541,1,0,0:0:0:0:
208,348,92627,5,0,0:0:0:0:
160,332,92712,1,0,0:0:0:0:
120,300,92798,1,0,0:0:0:0:
88,260,92884,1,0,0:0:0:0:
76,212,92970,1,8,0:2:0:0:
76,164,93055,1,0,0:0:0:0:
96,116,93141,1,0,0:0:0:0:
132,84,93227,1,0,0:0:0:0:
176,64,93312,5,8,0:2:0:0:
252,200,93484,1,0,0:2:0:0:
256,160,93569,1,0,0:0:0:0:
260,120,93655,1,8,0:2:0:0:
348,248,93827,5,0,0:0:0:0:
328,284,93912,1,0,0:0:0:0:
296,308,93998,1,0,0:0:0:0:
256,316,94084,1,8,0:2:0:0:
216,316,94170,1,8,0:2:0:0:
128,264,94341,2,0,L|144:204,1,50,8|0,0:2|0:0,0:0:0:0:
188,200,94512,2,0,L|208:128,1,50,8|0,0:2|0:0,0:0:0:0:
244,124,94684,6,0,P|300:76|388:172,2,200,0|8|0,0:0|0:2|0:0,0:0:0:0:
268,156,95455,1,0,0:0:0:0:
296,184,95541,1,0,0:0:0:0:
300,284,95712,1,8,0:2:0:0:
200,292,95884,6,0,P|132:324|80:320,2,100
216,256,96312,1,0,0:0:0:0:
232,220,96398,1,8,0:2:0:0:
164,148,96570,2,0,B|204:116|232:72|232:72|256:116|300:156,1,200
332,152,96998,1,0,0:0:0:0:
368,164,97084,1,8,0:2:0:0:
384,272,97255,6,0,B|308:272|280:324|280:324|200:324,1,200
164,312,97684,1,0,0:0:0:0:
140,280,97770,1,8,0:2:0:0:
136,176,97941,6,0,B|208:172|240:152|240:152|276:156|284:240,1,200
324,216,98370,1,0,0:0:0:0:
360,196,98455,1,8,0:2:0:0:
388,168,98541,1,0,0:0:0:0:
408,132,98627,1,0,0:0:0:0:
316,84,98798,6,0,P|252:52|196:48,1,100
108,152,99141,2,0,P|172:148|216:164,1,100,8|0,0:2|0:0,0:0:0:0:
252,280,99484,2,0,P|200:264|140:272,1,100
116,280,99741,1,0,0:0:0:0:
84,304,99827,1,8,0:2:0:0:
360,264,99998,1,0,0:0:0:0:
440,192,100170,5,0,0:0:0:0:
256,168,100341,1,0,0:0:0:0:
448,72,100512,1,8,0:2:0:0:
224,48,100684,2,0,P|177:36|100:68,1,100
280,120,101027,2,0,P|332:136|387:127,1,100,0|8,0:0|0:2,0:0:0:0:
204,332,101370,1,0,0:0:0:0:
280,120,101541,5,0,0:0:0:0:
364,340,101712,1,0,0:0:0:0:
160,188,101884,1,8,0:2:0:0:
400,192,102055,2,0,P|479:178|508:68,1,200
492,36,102484,1,0,0:0:0:0:
468,4,102570,1,8,0:2:0:0:
424,104,102741,1,0,0:0:0:0:
244,64,102912,5,0,0:0:0:0:
204,60,102998,1,0,0:0:0:0:
168,76,103084,1,0,0:0:0:0:
144,108,103170,1,0,0:0:0:0:
140,148,103255,1,8,0:2:0:0:
152,188,103341,1,0,0:0:0:0:
156,228,103427,1,0,0:0:0:0:
148,268,103512,1,0,0:0:0:0:
152,304,103598,5,0,0:0:0:0:
188,324,103684,1,0,0:0:0:0:
232,324,103770,1,0,0:0:0:0:
276,316,103855,1,0,0:0:0:0:
316,292,103941,1,8,0:2:0:0:
348,260,104027,1,0,0:0:0:0:
388,244,104112,1,0,0:0:0:0:
432,236,104198,1,0,0:0:0:0:
476,248,104284,5,8,0:2:0:0:
508,80,104455,1,0,0:0:0:0:
500,120,104541,1,0,0:0:0:0:
472,148,104627,1,8,0:2:0:0:
404,72,104798,1,0,0:0:0:0:
316,144,104970,2,0,P|248:164|196:156,1,100,8|0,0:2|0:0,0:0:0:0:
172,76,105312,2,0,B|112:116|112:116|128:160|128:160|92:196|108:252|108:252|108:252|108:252|132:268,1,200,8|0,0:2|0:2,0:0:0:0:
284,232,105827,5,0,0:0:0:0:
288,252,105998,1,0,0:0:0:0:
292,272,106170,1,0,0:0:0:0:
472,274,106341,5,8,0:2:0:0:
459,225,106427,1,0,0:0:0:0:
433,185,106512,1,8,0:2:0:0:
284,232,106684,1,8,0:2:0:0:
239,250,106769,1,0,0:0:0:0:
188,254,106855,1,8,0:2:0:0:
126,129,107027,5,4,0:0:0:0:
312,75,107198,1,0,0:0:0:0:
329,108,107284,1,0,0:0:0:0:
339,144,107370,2,0,P|329:192|293:235,1,75.0000028610231,8|0,0:2|0:0,0:0:0:0:
212,216,107712,1,0,0:0:0:0:
132,260,107884,2,0,P|84:268|36:252,1,75.0000028610231,0|8,0:0|0:2,0:0:0:0:
76,184,108227,2,0,B|116:124|176:136|176:136|208:76|208:76|272:96,1,225.000008583069,0|8,0:0|0:2,0:0:0:0:
288,100,108827,5,0,0:0:0:0:
304,144,108912,1,0,0:0:0:0:
344,172,108998,1,0,0:0:0:0:
360,216,109084,2,0,P|344:244|300:264,1,75.0000028610231
224,228,109427,2,0,B|172:236|136:208|136:208|100:220|56:196,1,150.000005722046,8|0,0:2|0:0,0:0:0:0:
96,116,109941,5,0,0:0:0:0:
96,116,110027,1,0,0:0:0:0:
96,116,110112,1,8,0:2:0:0:
185,103,110284,2,0,P|208:132|254:148,2,75.0000028610231
272,48,110798,1,8,0:2:0:0:
352,92,110970,6,0,B|376:116|368:144|368:144|384:160|376:208|376:208|368:248,1,150.000005722046,0|8,0:0|0:2,0:0:0:0:
304,296,111484,2,0,B|256:260|208:280|208:280|144:252,1,150.000005722046,0|8,0:0|0:2,0:0:0:0:
156,172,111998,2,0,P|208:92|336:92,1,225.000008583069
408,160,112684,1,0,0:0:0:0:
348,240,112855,6,0,P|288:248|252:264,1,75.0000028610231,8|0,0:2|0:0,0:0:0:0:
188,272,113198,1,0,0:0:0:0:
116,216,113370,2,8,P|88:172|76:128,1,75.0000028610231,0|8,0:2|0:2,0:2:0:0:
132,76,113712,2,0,B|180:92|180:92|188:144|244:124|260:180|260:180|324:176,1,225.000008583069,0|8,0:0|0:2,0:0:0:0:
348,204,114312,5,0,0:0:0:0:
348,248,114398,1,0,0:0:0:0:
376,284,114484,1,0,0:0:0:0:
368,328,114570,2,0,P|288:320|288:320,1,75.0000028610231
248,244,114912,2,0,P|144:236|144:236,1,75.0000028610231,8|0,0:2|0:0,0:0:0:0:
112,136,115255,6,0,P|168:144|216:128,1,75.0000028610231
228,124,115512,1,0,0:0:0:0:
272,136,115598,1,8,0:2:0:0:
384,140,115770,2,0,P|408:224|408:224,1,75.0000028610231
316,236,116112,2,0,P|336:316|336:316,1,75.0000028610231,0|8,0:0|0:2,0:0:0:0:
208,224,116455,1,0,0:0:0:0:
256,192,116627,12,0,117998,0:0:0:0:
