osu file format v14

[General]
AudioFilename: audio.mp3
AudioLeadIn: 0
PreviewTime: 254914
Countdown: 0
SampleSet: Soft
StackLeniency: 0.2
Mode: 0
LetterboxInBreaks: 0
WidescreenStoryboard: 0

[Editor]
Bookmarks: 260400
DistanceSpacing: 0.9
BeatDivisor: 4
GridSize: 4
TimelineZoom: 3.199998

[Metadata]
Title:Minazoko Yuuhodou
TitleUnicode:水底游歩道
Artist:Reol
ArtistUnicode:れをる
Creator:ksg
Version:type something edgy here i guess
Source:
Tags:
BeatmapID:1578190
BeatmapSetID:749234

[Difficulty]
HPDrainRate:5
CircleSize:4
OverallDifficulty:9
ApproachRate:9.5
SliderMultiplier:1.7
SliderTickRate:1

[Events]
//Background and Video events
0,0,"333580.jpg",0,0
//Break Periods
//Storyboard Layer 0 (Background)
//Storyboard Layer 1 (Fail)
//Storyboard Layer 2 (Pass)
//Storyboard Layer 3 (Foreground)
//Storyboard Sound Samples

[TimingPoints]
685,342.857142857143,4,2,1,60,1,0
1372,342.857142857143,4,2,1,60,1,0
1372,-200,4,2,1,60,0,0
2400,-133.333333333333,4,2,1,60,0,0
9857,-133.333333333333,4,2,0,5,0,0
9943,-133.333333333333,4,2,1,60,0,0
12343,-133.333333333333,4,2,2,60,0,0
20229,-100,4,2,2,60,0,0
20572,-100,4,2,2,20,0,0
20914,-100,4,2,2,30,0,0
21257,-100,4,2,2,40,0,0
21600,-100,4,2,2,50,0,0
21943,-200,4,2,2,60,0,0
22972,-66.6666666666667,4,2,3,60,0,0
23229,-66.6666666666667,4,2,0,5,0,0
23314,-50,4,2,3,60,0,0
23743,-50,4,2,3,5,0,0
23829,-50,4,2,3,60,0,0
24514,-66.6666666666667,4,2,3,60,0,0
24857,-100,4,2,3,60,0,0
25200,-66.6666666666667,4,2,3,60,0,0
25714,-133.333333333333,4,2,3,60,0,0
26057,-50,4,2,3,60,0,0
26314,-50,4,2,3,5,0,0
26400,-50,4,2,3,60,0,0
26829,-66.6666666666667,4,2,3,60,0,0
27086,-100,4,2,3,60,0,0
27429,-66.6666666666667,4,2,3,60,0,0
28457,-100,4,2,3,60,0,0
28714,-100,4,2,0,5,0,0
28800,-50,4,2,3,60,0,0
29057,-50,4,2,0,5,0,0
29143,-66.6666666666667,4,2,3,60,0,0
31029,-100,4,2,3,60,0,0
31543,-50,4,2,3,60,0,0
31800,-50,4,2,0,5,0,0
31886,-50,4,2,3,60,0,0
32057,-66.6666666666667,4,2,3,60,0,0
32229,-100,4,2,3,60,0,0
32486,-100,4,2,0,5,0,0
32572,-50,4,2,3,60,0,0
32914,-100,4,2,3,60,0,0
33600,-66.6666666666667,4,2,3,60,0,0
34286,-200,4,2,3,60,0,0
34886,-200,4,2,0,5,0,0
34972,-50,4,2,3,60,0,0
35486,-66.6666666666667,4,2,3,60,0,0
37029,-50,4,2,3,60,0,0
37286,-50,4,2,0,5,0,0
37372,-50,4,2,3,60,0,0
37714,-66.6666666666667,4,2,3,60,0,0
38057,-100,4,2,3,60,0,0
38486,-100,4,2,3,5,0,0
38572,-100,4,2,3,60,0,0
38743,-66.6666666666667,4,2,3,60,0,0
39429,-100,4,2,3,60,0,0
39686,-100,4,2,0,5,0,0
39772,-50,4,2,3,60,0,0
40286,-100,4,2,3,60,0,0
40972,-66.6666666666667,4,2,3,60,0,0
42000,-100,4,2,3,60,0,0
42172,-66.6666666666667,4,2,3,60,0,0
43886,-100,4,2,3,60,0,0
44914,-151.515151515152,4,2,3,60,0,0
45257,-200,4,2,2,60,0,0
45943,-200,4,2,4,60,0,0
56229,-133.333333333333,4,2,4,60,0,0
66514,-100,4,2,3,60,0,0
67200,-100,4,2,2,60,0,0
76800,-200,4,2,2,60,0,0
77829,-200,4,2,3,60,0,0
78172,-50,4,2,3,60,0,1
78600,-50,4,2,0,5,0,1
78686,-50,4,2,3,60,0,1
78857,-66.6666666666667,4,2,3,60,0,1
79372,-66.6666666666667,4,2,0,5,0,1
79457,-66.6666666666667,4,2,3,60,0,1
79629,-66.6666666666667,4,2,0,5,0,1
79714,-66.6666666666667,4,2,3,60,0,1
80229,-100,4,2,3,60,0,1
80914,-50,4,2,3,60,0,1
81172,-50,4,2,0,5,0,1
81257,-50,4,2,3,60,0,1
81686,-100,4,2,3,60,0,1
81857,-100,4,2,0,5,0,1
81943,-66.6666666666667,4,2,3,60,0,1
82543,-66.6666666666667,4,2,0,5,0,1
82629,-66.6666666666667,4,2,3,60,0,1
83314,-100,4,2,3,60,0,1
83572,-100,4,2,0,5,0,1
83657,-50,4,2,3,60,0,1
83914,-50,4,2,0,5,0,1
84000,-50,4,2,3,60,0,1
84343,-66.6666666666667,4,2,3,60,0,1
84600,-66.6666666666667,4,2,0,5,0,1
84686,-66.6666666666667,4,2,3,60,0,1
86057,-100,4,2,3,60,0,1
86400,-50,4,2,3,60,0,1
86657,-50,4,2,0,5,0,1
86743,-50,4,2,3,60,0,1
87600,-66.6666666666667,4,2,3,60,0,1
88972,-50,4,2,3,60,0,1
89143,-200,4,2,3,60,0,0
89743,-200,4,2,0,5,0,0
89829,-50,4,2,3,60,0,1
90172,-66.6666666666667,4,2,3,60,0,1
90429,-66.6666666666667,4,2,0,5,0,1
90514,-66.6666666666667,4,2,3,60,0,1
90857,-100,4,2,3,60,0,1
91800,-100,4,2,0,5,0,1
91886,-50,4,2,3,60,0,1
92143,-50,4,2,0,5,0,1
92229,-50,4,2,3,60,0,1
92657,-66.6666666666667,4,2,3,60,0,1
92829,-66.6666666666667,4,2,0,5,0,1
92914,-66.6666666666667,4,2,3,60,0,1
94286,-100,4,2,3,60,0,1
94543,-100,4,2,0,5,0,1
94629,-50,4,2,3,60,0,1
94972,-66.6666666666667,4,2,3,60,0,1
95572,-66.6666666666667,4,2,0,5,0,1
95657,-66.6666666666667,4,2,3,60,0,1
97372,-50,4,2,3,60,0,1
97629,-50,4,2,0,5,0,1
97714,-50,4,2,3,60,0,1
99429,-100,4,2,3,60,0,0
100114,-50,4,2,3,60,0,0
100372,-50,4,2,0,5,0,0
100457,-50,4,2,3,60,0,0
100800,-66.6666666666667,4,2,3,60,0,0
101143,-100,4,2,3,60,0,0
101743,-100,4,2,0,5,0,0
101829,-100,4,2,3,60,0,0
102172,-66.6666666666667,4,2,3,60,0,0
102857,-50,4,2,3,60,0,0
103114,-50,4,2,0,5,0,0
103200,-66.6666666666667,4,2,3,60,0,0
103629,-100,4,2,3,60,0,0
103800,-100,4,2,0,5,0,0
103886,-50,4,2,3,60,0,0
104143,-50,4,2,0,5,0,0
104229,-100,4,2,3,60,0,0
104486,-100,4,2,0,5,0,0
104572,-100,4,2,3,60,0,0
104914,-50,4,2,3,60,0,0
105086,-66.6666666666667,4,2,3,60,0,0
105257,-100,4,2,3,60,0,0
105514,-100,4,2,0,5,0,0
105600,-50,4,2,3,60,0,0
105857,-50,4,2,0,5,0,0
105943,-50,4,2,3,60,0,0
106286,-100,4,2,3,60,0,0
106629,-66.6666666666667,4,2,3,60,0,0
106886,-66.6666666666667,4,2,0,5,0,0
106972,-100,4,2,3,60,0,0
107229,-100,4,2,0,5,0,0
107314,-50,4,2,3,60,0,0
107657,-100,4,2,3,60,0,0
107829,-66.6666666666667,4,2,3,60,0,0
108000,-100,4,2,3,60,0,0
108343,-50,4,2,3,60,0,0
108600,-50,4,2,0,5,0,0
108686,-50,4,2,3,60,0,0
109286,-50,4,2,0,5,0,0
109372,-50,4,2,3,60,0,0
109629,-50,4,2,0,5,0,0
109714,-50,4,2,3,60,0,0
109886,-66.6666666666667,4,2,3,60,0,0
111086,-50,4,2,3,60,0,0
111343,-50,4,2,0,5,0,0
111429,-50,4,2,3,60,0,0
111772,-66.6666666666667,4,2,3,60,0,0
112114,-100,4,2,3,60,0,0
112372,-100,4,2,0,5,0,0
112457,-66.6666666666667,4,2,3,60,0,0
112629,-100,4,2,3,60,0,0
112800,-66.6666666666667,4,2,3,60,0,0
113143,-50,4,2,3,60,0,0
114086,-50,4,2,0,5,0,0
114172,-50,4,2,3,60,0,0
114600,-100,4,2,3,60,0,0
114772,-100,4,2,0,5,0,0
114857,-50,4,2,3,60,0,0
115114,-50,4,2,0,5,0,0
115200,-100,4,2,3,60,0,0
115457,-100,4,2,0,5,0,0
115543,-100,4,2,3,60,0,0
115886,-50,4,2,3,60,0,0
116057,-66.6666666666667,4,2,3,60,0,0
116229,-100,4,2,3,60,0,0
116486,-100,4,2,0,5,0,0
116572,-50,4,2,3,60,0,0
117257,-66.6666666666667,4,2,3,60,0,0
117600,-50,4,2,3,60,0,0
117857,-50,4,2,0,5,0,0
117943,-66.6666666666667,4,2,3,60,0,0
118200,-66.6666666666667,4,2,0,5,0,0
118286,-66.6666666666667,4,2,3,60,0,0
119314,-50,4,2,3,60,0,0
119657,-50,4,2,0,5,0,0
119829,-50,4,2,3,60,0,0
120172,-50,4,2,0,5,0,0
120343,-50,4,2,3,60,0,0
120686,-50,4,2,0,5,0,0
120772,-50,4,2,3,60,0,0
121200,-50,4,2,4,60,0,0
122057,-133.333333333333,4,2,4,60,0,0
138514,-100,4,2,4,60,0,0
144000,-100,4,2,2,60,0,0
146057,-133.333333333333,4,2,2,60,0,0
146743,-100,4,2,2,60,0,0
148800,-133.333333333333,4,2,2,60,0,0
149486,-100,4,2,2,60,0,0
154286,-133.333333333333,4,2,3,60,0,0
154543,-133.333333333333,4,2,0,5,0,0
154629,-200,4,2,3,60,0,0
154886,-200,4,2,0,5,0,0
154972,-200,4,2,2,60,0,0
165600,-200,4,2,3,60,0,0
165857,-200,4,2,0,5,0,0
165943,-50,4,2,3,60,0,1
166629,-100,4,2,3,60,0,1
167143,-50,4,2,3,60,0,1
167314,-100,4,2,3,60,0,1
168000,-200,4,2,3,60,0,1
168514,-200,4,2,0,5,0,1
168686,-50,4,2,3,60,0,1
168943,-50,4,2,0,5,0,1
169029,-100,4,2,3,60,0,1
169457,-50,4,2,3,60,0,1
169714,-133.333333333333,4,2,3,60,0,1
170229,-133.333333333333,4,2,0,5,0,1
170286,-50,4,2,3,60,0,1
170343,-50,4,2,3,5,0,1
170400,-100,4,2,3,60,0,1
170572,-66.6666666666667,4,2,3,60,0,1
170743,-50,4,2,3,60,0,1
171343,-50,4,2,0,5,0,1
171429,-50,4,2,3,60,0,1
171772,-66.6666666666667,4,2,3,60,0,1
172114,-100,4,2,3,60,0,1
172629,-50,4,2,3,60,0,1
172800,-100,4,2,3,60,0,1
173486,-200,4,2,3,60,0,1
174172,-50,4,2,3,60,0,1
174600,-50,4,2,0,5,0,1
174686,-50,4,2,3,60,0,1
176829,-50,4,2,0,5,0,1
176914,-50,4,2,3,60,0,1
177172,-50,4,2,0,5,0,1
177257,-66.6666666666667,4,2,3,60,0,1
177600,-100,4,2,3,60,0,1
178114,-50,4,2,3,60,0,1
178286,-100,4,2,3,60,0,1
178972,-200,4,2,3,60,0,1
179486,-66.6666666666667,4,2,3,60,0,1
179657,-50,4,2,3,60,0,1
179914,-50,4,2,0,5,0,1
180000,-100,4,2,3,60,0,1
180343,-50,4,2,3,60,0,1
180686,-100,4,2,3,60,0,1
180914,-133.333333333333,4,2,3,60,0,1
181200,-133.333333333333,4,2,0,5,0,1
181257,-50,4,2,3,60,0,1
181372,-66.6666666666667,4,2,3,60,0,1
181714,-50,4,2,3,60,0,1
182314,-50,4,2,0,5,0,1
182400,-200,4,2,3,60,0,1
183000,-200,4,2,3,5,0,1
183086,-50,4,2,3,60,0,1
183429,-66.6666666666667,4,2,3,60,0,1
183772,-100,4,2,3,60,0,1
184457,-200,4,2,3,60,0,1
185057,-200,4,2,0,5,0,1
185143,-50,4,2,3,60,0,1
185572,-50,4,2,0,5,0,1
185657,-50,4,2,3,60,0,1
186514,-200,4,2,3,60,0,0
186943,-200,4,2,0,5,0,0
187029,-133.333333333333,4,2,3,60,0,0
187457,-133.333333333333,4,2,0,5,0,0
187543,-100,4,2,5,60,0,0
187886,-100,4,2,2,60,0,1
187972,-100,4,2,0,60,0,0
192857,-200,4,2,4,60,0,0
193372,-200,4,2,0,60,0,0
195772,-200,4,2,4,60,0,0
196114,-200,4,2,0,60,0,0
196629,-200,4,2,4,60,0,0
197486,-200,4,2,0,60,0,0
198172,-200,4,2,4,60,0,0
198857,-100,4,2,2,60,0,0
203572,-100,4,2,0,5,0,0
203657,-100,4,2,2,60,0,0
203914,-100,4,2,0,5,0,0
204000,-100,4,2,2,60,0,0
204257,-100,4,2,0,5,0,0
204343,-100,4,2,2,60,0,0
208457,-100,4,2,3,60,0,0
209143,-200,4,2,3,60,0,0
209743,-200,4,2,0,5,0,0
209829,-50,4,2,3,60,0,1
210514,-66.6666666666667,4,2,3,60,0,1
211029,-66.6666666666667,4,2,0,5,0,1
211114,-66.6666666666667,4,2,3,60,0,1
211286,-66.6666666666667,4,2,0,5,0,1
211372,-66.6666666666667,4,2,3,60,0,1
211886,-100,4,2,3,60,0,1
212229,-66.6666666666667,4,2,3,60,0,1
212572,-50,4,2,3,60,0,1
212829,-50,4,2,0,5,0,1
212914,-50,4,2,3,60,0,1
213257,-100,4,2,3,60,0,1
213600,-66.6666666666667,4,2,3,60,0,1
213943,-100,4,2,3,60,0,1
214286,-66.6666666666667,4,2,3,60,0,1
214972,-133.333333333333,4,2,3,60,0,1
215229,-133.333333333333,4,2,0,5,0,1
215314,-50,4,2,3,60,0,1
215829,-100,4,2,3,60,0,1
216000,-66.6666666666667,4,2,3,60,0,1
216257,-66.6666666666667,4,2,0,5,0,1
216343,-66.6666666666667,4,2,3,60,0,1
217543,-100,4,2,3,60,0,1
218057,-50,4,2,3,60,0,1
218743,-66.6666666666667,4,2,3,60,0,1
219514,-66.6666666666667,4,2,0,5,0,1
219600,-66.6666666666667,4,2,3,60,0,1
220800,-200,4,2,3,60,0,0
221400,-200,4,2,0,5,0,0
221486,-50,4,2,3,60,0,1
221743,-50,4,2,0,5,0,1
221829,-50,4,2,3,60,0,1
223200,-200,4,2,3,60,0,1
223457,-200,4,2,0,5,0,1
223543,-50,4,2,3,60,0,1
224229,-66.6666666666667,4,2,3,60,0,1
224572,-66.6666666666667,4,2,3,60,0,1
225000,-133.333333333333,4,2,0,5,0,1
225086,-133.333333333333,4,2,3,60,0,1
225257,-66.6666666666667,4,2,3,60,0,1
225943,-133.333333333333,4,2,3,60,0,1
226200,-133.333333333333,4,2,0,5,0,1
226286,-50,4,2,3,60,0,1
226543,-50,4,2,0,5,0,1
226629,-50,4,2,3,60,0,1
226972,-66.6666666666667,4,2,3,60,0,1
228343,-100,4,2,3,60,0,1
229029,-50,4,2,3,60,0,1
229286,-50,4,2,0,5,0,1
229372,-50,4,2,3,60,0,1
230400,-100,4,2,3,60,0,1
231086,-100,4,2,0,60,0,0
231772,-50,4,2,3,60,0,1
232457,-66.6666666666667,4,2,3,60,0,1
232800,-133.333333333333,4,2,3,60,0,1
233229,-133.333333333333,4,2,0,5,0,1
233314,-133.333333333333,4,2,3,60,0,1
233829,-66.6666666666667,4,2,3,60,0,1
234514,-50,4,2,3,60,0,1
234772,-50,4,2,0,5,0,1
234857,-50,4,2,3,60,0,1
235286,-100,4,2,3,60,0,1
235457,-100,4,2,0,5,0,1
235543,-66.6666666666667,4,2,3,60,0,1
235800,-66.6666666666667,4,2,0,5,0,1
235886,-50,4,2,3,60,0,1
236143,-50,4,2,0,5,0,1
236229,-50,4,2,3,60,0,1
236572,-66.6666666666667,4,2,3,60,0,1
236743,-100,4,2,3,60,0,1
236914,-133.333333333333,4,2,3,60,0,1
237172,-133.333333333333,4,2,0,5,0,1
237257,-50,4,2,3,60,0,1
237600,-100,4,2,3,60,0,1
237943,-66.6666666666667,4,2,3,60,0,1
238286,-133.333333333333,4,2,3,60,0,1
238543,-133.333333333333,4,2,0,5,0,1
238629,-66.6666666666667,4,2,3,60,0,1
240000,-50,4,2,3,60,0,1
240257,-50,4,2,0,5,0,1
240343,-66.6666666666667,4,2,3,60,0,1
240686,-50,4,2,3,60,0,1
240943,-50,4,2,0,5,0,1
241029,-100,4,2,3,60,0,1
241457,-100,4,2,0,5,0,1
241543,-66.6666666666667,4,2,3,60,0,1
242743,-50,4,2,3,60,0,1
243000,-50,4,2,0,5,0,1
243086,-66.6666666666667,4,2,3,60,0,1
243429,-100,4,2,3,60,0,1
243772,-66.6666666666667,4,2,3,60,0,1
244029,-66.6666666666667,4,2,3,5,0,1
244114,-66.6666666666667,4,2,3,60,0,1
244372,-66.6666666666667,4,2,0,5,0,1
244457,-66.6666666666667,4,2,3,60,0,1
245486,-50,4,2,3,60,0,1
245743,-50,4,2,0,5,0,1
245829,-50,4,2,3,60,0,1
246172,-100,4,2,3,60,0,1
246514,-50,4,2,3,60,0,1
246772,-50,4,2,0,5,0,1
246857,-66.6666666666667,4,2,3,60,0,1
247114,-66.6666666666667,4,2,0,5,0,1
247200,-66.6666666666667,4,2,3,60,0,1
247714,-100,4,2,3,60,0,1
247886,-133.333333333333,4,2,3,60,0,1
248143,-133.333333333333,4,2,0,5,0,1
248229,-50,4,2,3,60,0,1
248486,-50,4,2,0,5,0,1
248572,-100,4,2,3,60,0,1
248914,-66.6666666666667,4,2,3,60,0,1
249257,-50,4,2,3,60,0,1
249514,-50,4,2,0,5,0,1
249600,-100,4,2,3,60,0,1
249857,-100,4,2,0,5,0,1
249943,-100,4,2,3,60,0,1
250629,-100,4,2,3,60,0,0
250972,-50,4,2,3,60,0,1
251314,-50,4,2,0,5,0,0
251486,-47.8468899521531,4,2,3,60,0,1
251829,-50,4,2,0,5,0,0
252000,-50,4,2,3,60,0,1
252343,-50,4,2,0,5,0,0
252857,-50,4,2,4,60,0,0
253714,-50,4,2,3,60,0,0
254143,-50,4,2,0,5,0,0
254229,-50,4,2,3,60,0,0
254914,-66.6666666666667,4,2,3,60,0,0
255257,-100,4,2,3,60,0,0
255772,-66.6666666666667,4,2,3,60,0,0
256114,-133.333333333333,4,2,3,60,0,0
256457,-50,4,2,3,60,0,0
256714,-50,4,2,0,5,0,0
256800,-50,4,2,3,60,0,0
257229,-66.6666666666667,4,2,3,60,0,0
257486,-100,4,2,3,60,0,0
257914,-100,4,2,0,5,0,0
258000,-66.6666666666667,4,2,3,60,0,0
258857,-100,4,2,3,60,0,0
259200,-50,4,2,3,60,0,0
259457,-50,4,2,0,5,0,0
259543,-50,4,2,3,60,0,0
260057,-66.6666666666667,4,2,3,60,0,0
261600,-66.6666666666667,4,2,3,60,0,0
261943,-50,4,2,3,60,0,0
262200,-50,4,2,0,5,0,0
262286,-50,4,2,3,60,0,0
262629,-100,4,2,3,60,0,0
262886,-100,4,2,0,5,0,0
262972,-50,4,2,3,60,0,0
263314,-100,4,2,3,60,0,0
264000,-66.6666666666667,4,2,3,60,0,0
264686,-200,4,2,3,60,0,0
265114,-200,4,2,0,5,0,0
265200,-100,4,2,3,60,0,0
265372,-66.6666666666667,4,2,3,60,0,0
267429,-50,4,2,3,60,0,0
267686,-50,4,2,0,5,0,0
267772,-50,4,2,3,60,0,0
268200,-66.6666666666667,4,2,3,60,0,0
268457,-50,4,2,3,60,0,0
268714,-50,4,2,0,5,0,0
268800,-66.6666666666667,4,2,3,60,0,0
269829,-100,4,2,3,60,0,0
270172,-66.6666666666667,4,2,3,60,0,0
270429,-66.6666666666667,4,2,0,5,0,0
270514,-66.6666666666667,4,2,3,60,0,0
272572,-50,4,2,3,60,0,0
273257,-66.6666666666667,4,2,3,60,0,0
273514,-66.6666666666667,4,2,3,5,0,0
273600,-66.6666666666667,4,2,3,60,0,0
274286,-100,4,2,3,60,0,0
274543,-100,4,2,0,5,0,0
274629,-100,4,2,3,60,0,0
274743,-151.515151515152,4,2,3,60,0,0
274972,-200,4,2,3,60,0,0
275572,-200,4,2,0,5,0,0
275657,-200,4,2,2,30,0,0
275743,-200,4,2,5,30,0,0
281314,-133.333333333333,4,2,5,30,0,0
281829,-200,4,2,5,30,0,0
284229,-133.333333333333,4,2,5,30,0,0
285086,-200,4,2,5,30,0,0
292114,-200,4,2,5,30,0,0
297429,-200,4,2,5,30,0,0
297514,-200,4,2,5,5,0,0

[Colours]
Combo1 : 155,155,227
Combo2 : 199,97,171

[HitObjects]
198,100,685,5,0,0:0:0:0:
202,104,856,1,0,0:0:0:0:
271,34,1027,1,0,0:0:0:0:
274,39,1198,1,0,0:0:0:0:
381,45,1372,6,0,L|354:83,1,42.5,2|0,0:0|0:0,0:0:0:0:
407,141,1714,1,0,0:0:0:0:
411,146,1886,2,0,L|436:112,1,42.5,0|2,0:0|0:0,0:0:0:0:
356,217,2229,1,0,0:0:0:0:
360,221,2400,6,0,L|194:208,1,159.375006079674
163,249,2914,2,0,L|131:246,2,21.2500008106232
89,265,3086,2,0,L|25:260,1,63.7500024318696
139,345,3429,5,2,0:0:0:0:
314,264,3686,1,0,0:0:0:0:
156,152,3943,1,0,0:0:0:0:
14,281,4114,6,0,L|19:347,2,63.7500024318696,2|0|0,0:0|0:0|0:0,0:0:0:0:
84,201,4629,2,0,L|89:267,2,63.7500024318696,0|2|0,0:0|0:0|0:0,0:0:0:0:
154,121,5143,2,0,L|156:152,2,31.8750012159348
166,232,5486,6,0,P|201:236|249:225,2,63.7500024318696,2|0|0,0:0|0:0|0:0,0:0:0:0:
313,189,6000,2,0,P|344:184|376:189,2,63.7500024318696,0|2|0,0:0|0:0|0:0,0:0:0:0:
235,139,6514,2,0,P|231:104|242:56,1,63.7500024318696
412,22,6857,5,2,0:0:0:0:
416,26,7029,2,0,L|419:72,1,31.8750012159348
439,195,7200,2,0,L|356:187,1,63.7500024318696
144,161,7543,6,0,P|135:121|145:79,2,63.7500024318696,2|0|0,0:0|0:0|0:0,0:0:0:0:
148,166,8057,2,0,L|143:220,1,31.8750012159348
137,295,8229,6,0,P|177:301|215:291,2,63.7500024318696,2|0|0,0:0|0:0|0:0,0:0:0:0:
62,238,8743,2,0,P|22:232|-16:242,2,63.7500024318696,0|2|0,0:0|0:0|0:0,0:0:0:0:
161,214,9257,2,0,P|165:182|158:151,1,63.7500024318696
124,68,9600,5,2,0:0:0:0:
178,132,9772,2,0,L|222:136,1,31.8750012159348
267,183,9943,6,0,L|302:186,3,31.8750012159348
362,230,10286,6,0,P|392:237|424:233,2,63.7500024318696,2|0|0,0:0|0:0|0:0,0:0:0:0:
244,274,10800,6,0,L|239:307,2,21.2500008106232
329,297,10972,2,0,L|320:357,3,31.8750012159348,2|0|0|0,0:0|0:0|0:0|0:0,0:0:0:0:
413,323,11314,2,0,L|405:373,2,47.8125018239022
493,336,11657,5,2,0:0:0:0:
472,258,11829,1,0,0:0:0:0:
390,241,12000,1,0,0:0:0:0:
329,297,12172,1,0,0:0:0:0:
447,173,12343,6,0,L|437:89,1,63.7500024318696,2|0,0:3|0:0,0:0:0:0:
436,24,12686,1,2,0:0:0:0:
368,73,12857,6,0,L|300:123,1,63.7500024318696,0|2,0:0|0:3,0:0:0:0:
255,157,13200,1,0,0:0:0:0:
319,200,13372,2,0,P|332:155|317:111,1,95.6250036478044,2|0,0:0|0:0,0:0:0:0:
195,107,13714,6,0,L|187:87,4,21.2500008106232,2|0|0|0|0,0:3|0:0|0:0|0:0|0:0,0:0:0:0:
184,184,14057,2,0,L|94:196,1,63.7500024318696,2|0,0:0|0:0,0:0:0:0:
30,156,14400,5,2,0:0:0:0:
219,249,14657,2,0,L|271:243,1,31.8750012159348,0|2,0:0|0:0,0:0:0:0:
43,366,14914,1,0,0:0:0:0:
97,257,15086,5,2,0:0:0:0:
218,356,15429,1,2,0:0:0:0:
415,127,15772,5,2,0:0:0:0:
294,28,16115,1,2,0:0:0:0:
98,150,16457,5,2,0:0:0:0:
219,249,16800,1,2,0:0:0:0:
414,234,17143,5,2,0:0:0:0:
293,135,17486,1,2,0:0:0:0:
312,331,17829,5,2,3:0:0:0:
401,260,18000,1,2,0:0:0:0:
302,317,18172,5,2,0:0:0:0:
390,175,18343,1,2,0:0:0:0:
288,305,18514,5,2,3:0:0:0:
349,104,18686,1,2,0:0:0:0:
268,294,18857,5,2,0:0:0:0:
286,52,19029,1,2,0:0:0:0:
241,288,19199,5,2,0:3:0:0:
28,212,19372,1,2,0:0:0:0:
283,225,19543,5,2,0:0:0:0:
28,233,19714,1,2,0:0:0:0:
286,153,19886,5,2,0:3:0:0:
32,254,20057,1,2,0:0:0:0:
269,82,20229,6,0,P|251:50|231:26,1,42.5,2|0,0:1|0:0,0:1:0:0:
38,274,20400,1,2,0:0:0:0:
154,163,20572,5,2,0:3:0:0:
159,148,20657,1,2,0:0:0:0:
157,132,20743,1,2,0:0:0:0:
149,119,20829,1,2,0:0:0:0:
135,110,20914,1,2,0:0:0:0:
120,109,21000,1,2,0:0:0:0:
105,114,21086,1,2,0:0:0:0:
94,126,21172,1,2,0:0:0:0:
90,141,21257,5,2,0:3:0:0:
96,109,21342,1,2,0:0:0:0:
114,84,21428,1,2,0:0:0:0:
142,68,21514,1,2,0:0:0:0:
174,66,21599,1,2,0:0:0:0:
203,77,21685,1,2,0:0:0:0:
226,99,21771,1,2,0:0:0:0:
237,128,21857,1,2,0:0:0:0:
235,160,21943,6,0,B|228:192|199:206|199:206|248:203|281:178|293:139|289:103,1,212.5,2|2,0:3|0:0,0:0:0:0:
203,77,22886,1,2,0:0:0:0:
231,151,22972,6,2,P|176:192|83:111,1,191.250007295609,0|0,0:0|0:0,0:1:0:0:
107,51,23314,6,0,B|190:31|190:31|147:283|147:283|72:236,1,425,6|0,0:0|0:0,0:0:0:0:
80,123,23829,5,2,0:0:0:0:
80,123,23914,1,0,0:0:0:0:
80,123,24000,2,0,P|87:187|71:232,1,85,8|0,0:0|0:0,0:0:0:0:
31,336,24172,1,0,0:0:0:0:
230,362,24343,1,2,0:0:0:0:
357,182,24514,6,0,P|296:145|232:138,1,127.500004863739
138,318,24857,2,0,P|172:280|227:266,1,85
383,298,25200,5,2,0:0:0:0:
383,298,25286,1,2,0:0:0:0:
383,298,25372,2,0,L|369:368,2,63.7500024318696,8|0|0,0:0|0:0|0:0,0:0:0:0:
457,151,25714,2,0,L|470:214,1,63.7500024318696
260,24,26057,6,0,P|202:81|328:74,1,255,6|0,0:0|0:0,0:0:0:0:
412,84,26400,6,0,B|371:88|371:88|337:113,2,85,0|0|2,0:0|0:0|0:0,0:0:0:0:
89,18,26743,5,8,0:0:0:0:
89,18,26829,2,0,L|96:174,1,127.500004863739,2|0,0:0|0:0,0:0:0:0:
111,120,27086,2,0,L|106:27,1,85,2|0,0:0|0:0,0:0:0:0:
31,288,27429,6,0,P|86:283|53:250,1,127.500004863739
62,256,27686,1,0,0:0:0:0:
61,255,27772,6,0,P|52:282|77:271,1,63.7500024318696,2|0,0:0|0:0,0:0:0:0:
160,195,27943,6,0,P|144:218|171:214,1,63.7500024318696,2|0,0:0|0:0,0:0:0:0:
263,167,28115,6,0,P|273:203|271:234,1,63.7500024318696,8|0,0:0|0:0,0:0:0:0:
386,160,28286,6,0,P|360:172|386:182,1,63.7500024318696,2|0,0:0|0:0,0:0:0:0:
498,188,28457,6,0,P|460:223|511:232,1,127.5,8|0,0:0|0:0,0:0:0:0:
487,173,28800,6,0,B|393:151|393:151|346:94|346:94|263:76,1,255,6|0,0:0|0:0,0:0:0:0:
234,90,29143,6,0,P|240:121|240:153,1,63.7500024318696
449,19,29314,2,0,P|442:50|442:82,1,63.7500024318696,2|0,0:0|0:0,0:0:0:0:
234,185,29486,5,8,0:0:0:0:
330,51,29657,1,0,0:0:0:0:
398,202,29829,1,0,0:0:0:0:
164,293,30000,6,0,P|151:209|162:98,1,191.250007295609
234,185,30343,2,0,P|279:203|312:208,1,63.7500024318696
97,325,30514,2,0,P|52:343|19:348,1,63.7500024318696
160,103,30686,5,2,0:0:0:0:
160,103,30772,1,2,0:0:0:0:
160,103,30857,1,8,0:0:0:0:
253,269,31029,6,0,P|245:306|236:324,1,42.5,2|2,0:3|0:3,0:3:0:0:
37,271,31200,1,2,0:3:0:0:
362,304,31372,6,0,P|344:337|331:352,1,42.5,2|0,0:3|0:0,0:0:0:0:
125,249,31543,6,0,B|74:239|37:271|37:271|91:195|195:225,1,255,6|0,0:0|0:0,0:0:0:0:
270,260,31886,6,0,P|267:302|246:340,1,85,2|0,0:3|0:0,0:0:0:0:
31,285,32057,2,0,P|15:257|8:226,1,63.7500024318696,2|0,0:3|0:0,0:0:0:0:
176,104,32229,6,0,P|195:141|185:236,1,127.5,8|0,0:0|0:0,0:0:0:0:
130,300,32572,6,0,P|89:196|117:17,1,255,6|0,0:0|0:0,0:0:0:0:
217,239,32914,6,0,P|211:271|194:295,1,42.5,2|0,0:3|0:0,0:0:0:0:
55,123,33086,2,0,P|61:91|78:67,1,42.5,2|0,0:3|0:0,0:0:0:0:
246,72,33257,5,0,0:0:0:0:
64,250,33429,1,2,0:0:0:0:
316,351,33600,6,0,L|324:279,1,63.7500024318696,8|0,0:0|0:0,0:0:0:0:
350,78,33772,1,2,0:0:0:0:
348,91,33857,6,0,L|330:228,1,127.500004863739,8|0,0:0|0:0,0:0:0:0:
315,359,34114,1,2,0:0:0:0:
354,51,34286,6,0,P|404:79|347:90,1,148.75,2|0,0:0|0:0,0:0:0:0:
258,35,34972,6,0,P|246:118|269:165,1,85,12|0,0:0|0:0,0:0:0:0:
267,244,35143,2,0,P|360:241|442:226,1,170
239,24,35486,6,0,P|227:107|248:170,1,127.500004863739
353,292,35829,2,0,P|362:250|364:215,1,63.7500024318696,2|0,0:0|0:0,0:0:0:0:
174,78,36000,5,2,0:0:0:0:
166,89,36086,1,2,0:0:0:0:
152,110,36171,1,2,0:0:0:0:
144,147,36257,1,2,0:0:0:0:
158,196,36343,1,2,0:0:0:0:
206,236,36428,1,2,0:0:0:0:
282,229,36514,1,2,0:0:0:0:
328,168,36600,1,2,0:0:0:0:
310,93,36686,5,8,0:0:0:0:
310,93,37029,6,0,P|350:169|230:283,1,255,6|0,0:0|0:0,0:0:0:0:
144,147,37372,6,0,P|200:136|247:147,1,85,2|0,0:3|0:0,0:0:0:0:
326,306,37543,2,0,P|382:317|429:306,1,85,2|0,0:0|0:0,0:0:0:0:
512,136,37714,5,8,0:0:0:0:
492,152,37800,2,0,P|426:140|362:147,1,127.500004863739,2|0,0:0|0:0,0:0:0:0:
247,191,38057,6,0,B|206:125|257:56|257:56|286:83|285:120,1,212.5,2|0,0:0|0:0,0:0:0:0:
224,275,38572,2,0,P|203:277|182:276,1,42.5,2|0,0:3|0:0,0:0:0:0:
33,152,38743,6,0,P|40:127|50:150,1,63.7500024318696,2|0,0:0|0:0,0:0:0:0:
126,120,38914,6,0,P|140:96|143:122,1,63.7500024318696,2|0,0:0|0:0,0:0:0:0:
230,131,39086,6,0,P|230:157|208:206,1,63.7500024318696,8|0,0:0|0:0,0:0:0:0:
314,148,39257,6,0,P|337:135|327:158,1,63.7500024318696,2|0,0:0|0:0,0:0:0:0:
402,196,39429,6,0,P|445:175|419:215,1,127.5,8|0,0:0|0:0,0:0:0:0:
500,286,39772,6,0,P|375:261|247:266,1,255,6|0,0:0|0:0,0:0:0:0:
19,296,40114,6,0,P|56:276|97:263,1,85,2|0,0:3|0:0,0:0:0:0:
387,292,40286,2,0,P|382:313|374:333,1,42.5,2|0,0:0|0:0,0:0:0:0:
171,226,40457,6,0,P|160:198|155:168,1,42.5,8|0,0:0|0:0,0:0:0:0:
358,140,40629,2,0,P|358:182|353:212,1,42.5
253,340,40800,1,2,0:0:0:0:
82,187,40972,6,0,P|89:149|229:164,1,191.250007295609,0|0,0:3|0:0,0:0:0:0:
248,265,41314,2,0,P|273:245|286:211,1,63.7500024318696,2|0,0:3|0:0,0:0:0:0:
333,70,41486,2,0,P|361:82|381:107,1,63.7500024318696,2|0,0:3|0:0,0:0:0:0:
427,229,41657,5,2,0:0:0:0:
427,229,41743,1,2,0:0:0:0:
427,229,41829,1,8,0:0:0:0:
127,54,42000,2,0,P|98:52|69:56,1,42.5,2|2,0:3|0:0,0:0:0:0:
68,260,42172,6,0,P|100:261|132:257,1,63.7500024318696,2|0,0:3|0:0,0:0:0:0:
309,109,42343,2,0,P|279:105|246:108,1,63.7500024318696,2|0,0:3|0:0,0:0:0:0:
271,334,42514,5,6,0:0:0:0:
271,334,42857,6,0,B|290:284|271:242|271:242|254:190|277:146,1,191.250007295609
279,175,43200,6,0,L|265:309,1,127.500004863739
293,56,43543,5,6,0:0:0:0:
293,56,43886,6,0,P|268:103|296:197,1,127.5
364,268,44229,5,0,0:0:0:0:
364,268,44286,1,0,0:0:0:0:
364,268,44343,2,0,L|432:241,1,56.6666666666667
512,212,44572,5,2,0:0:0:0:
147,146,44914,2,0,L|156:250,1,84.1499997431946
161,314,45257,6,0,L|153:221,1,85,2|0,0:0|0:0,0:0:0:0:
291,296,45943,1,2,0:0:0:0:
424,208,46286,1,0,0:0:0:0:
424,208,46457,6,0,L|431:124,1,85
438,46,46972,1,0,0:0:0:0:
442,50,47314,1,2,0:0:0:0:
80,124,47657,1,0,0:0:0:0:
80,124,47829,6,0,L|88:208,1,85
97,285,48343,1,0,0:0:0:0:
101,289,48686,1,2,0:0:0:0:
442,50,49029,1,0,0:0:0:0:
442,50,49200,6,0,L|429:190,1,127.5
368,216,50057,6,0,P|335:220|300:208,1,63.75,2|0,0:0|0:0,0:0:0:0:
282,199,50400,2,0,P|283:243|444:267,1,233.75
448,269,51429,6,0,L|428:348,1,63.75,2|0,0:0|0:0,0:0:0:0:
417,374,51772,2,0,P|360:382|287:359,1,127.5
290,367,52800,5,0,0:0:0:0:
208,193,53143,1,0,0:0:0:0:
362,230,53486,6,0,L|259:219,1,85
127,260,54172,2,0,L|212:270,1,85,2|0,0:0|0:0,0:0:0:0:
420,160,54857,6,0,L|317:149,1,85
69,330,55543,2,0,L|172:341,1,85,2|0,0:0|0:0,0:0:0:0:
244,61,56229,6,0,P|222:101|253:190,1,127.500004863739,2|0,0:3|0:0,0:0:0:0:
392,36,56743,1,2,0:3:0:0:
392,36,56829,1,2,0:3:0:0:
392,36,56914,2,0,L|302:25,1,63.7500024318696,10|0,0:0|0:0,0:0:0:0:
239,177,57257,2,0,L|302:184,1,63.7500024318696,2|0,0:3|0:0,0:0:0:0:
360,112,57600,6,0,L|225:96,1,127.500004863739
124,218,58114,1,2,0:3:0:0:
124,218,58200,1,2,0:3:0:0:
124,218,58286,2,0,L|135:288,1,63.7500024318696,10|0,0:0|0:0,0:0:0:0:
228,165,58629,2,0,L|219:103,1,63.7500024318696
244,272,58972,6,0,P|287:253|331:178,1,127.500004863739,2|0,0:3|0:0,0:0:0:0:
297,82,59486,1,2,0:3:0:0:
228,165,59657,1,8,0:0:0:0:
228,165,59743,2,0,L|177:161,1,31.8750012159348,2|0,0:3|0:0,0:0:0:0:
66,36,60000,5,0,0:0:0:0:
72,40,60172,2,0,B|26:96|35:175|35:175|44:146|79:124,1,191.250007295609,2|2,0:3|0:3,0:0:0:0:
151,115,60857,1,2,0:3:0:0:
228,165,61029,2,0,P|243:200|241:237,1,63.7500024318696,10|2,0:0|0:3,0:0:0:0:
201,312,61372,2,0,P|167:330|130:333,1,63.7500024318696,8|0,0:0|0:0,0:0:0:0:
135,224,61714,6,0,L|268:213,1,127.500004863739,2|0,0:3|0:0,0:0:0:0:
359,302,62229,1,2,0:3:0:0:
359,302,62314,1,2,0:3:0:0:
359,302,62400,2,0,L|283:296,1,63.7500024318696,10|0,0:0|0:0,0:0:0:0:
310,127,62743,2,0,P|344:119|387:128,1,63.7500024318696,2|0,0:3|0:0,0:0:0:0:
455,192,63086,6,0,L|445:266,2,63.7500024318696
477,88,63600,5,2,0:3:0:0:
477,88,63686,1,2,0:3:0:0:
477,88,63772,2,0,P|437:97|369:79,1,95.6250036478044,8|0,0:0|0:0,0:0:0:0:
307,65,64114,2,0,P|310:121|309:173,1,95.6250036478044
310,246,64457,6,0,P|272:251|233:247,1,63.7500024318696,2|0,0:3|0:0,0:0:0:0:
386,201,64800,1,0,0:0:0:0:
386,291,64972,6,0,P|424:296|463:292,1,63.7500024318696,2|8,0:3|0:0,0:0:0:0:
310,246,65315,1,0,0:0:0:0:
308,338,65486,1,2,0:3:0:0:
222,288,65657,6,0,P|132:295|105:381,1,191.250007295609
185,361,66343,1,2,0:3:0:0:
70,151,66514,6,0,L|140:158,1,42.5,8|0,0:0|0:0,0:0:0:0:
250,141,66686,1,2,0:0:0:0:
250,141,66772,2,0,L|207:135,1,42.5,8|0,0:0|0:0,0:0:0:0:
10,121,67029,2,0,L|80:128,1,42.5,8|0,0:0|0:0,0:0:0:0:
215,228,67200,6,0,P|225:272|226:322,1,85,6|0,0:0|0:0,0:0:0:0:
343,181,67543,1,2,0:0:0:0:
343,181,67714,2,0,P|341:226|329:274,1,85,0|2,0:0|0:0,0:0:0:0:
478,168,68058,1,0,0:0:0:0:
478,168,68229,2,0,P|464:211|440:254,1,85,2|0,0:0|0:0,0:0:0:0:
384,322,68572,5,2,0:0:0:0:
384,322,68743,1,0,0:0:0:0:
307,265,68914,5,2,0:0:0:0:
307,265,69086,1,0,0:0:0:0:
317,169,69257,5,2,0:0:0:0:
317,169,69429,1,0,0:0:0:0:
405,129,69600,5,2,0:0:0:0:
405,129,69772,1,0,0:0:0:0:
327,73,69943,6,0,P|264:61|210:66,1,85,2|0,0:0|0:0,0:0:0:0:
220,151,70286,1,2,0:0:0:0:
220,151,70457,2,0,P|156:155|105:174,1,85,0|2,0:0|0:0,0:0:0:0:
136,254,70800,1,0,0:0:0:0:
136,254,70971,2,0,P|75:275|31:306,1,85,2|0,0:0|0:0,0:0:0:0:
204,315,71314,5,2,0:0:0:0:
204,315,71486,1,0,0:0:0:0:
276,249,71657,5,2,0:0:0:0:
276,249,71829,1,0,0:0:0:0:
210,177,72000,5,2,0:0:0:0:
210,177,72172,1,0,0:0:0:0:
138,243,72343,5,2,0:0:0:0:
138,243,72515,1,0,0:0:0:0:
276,249,72686,5,2,0:3:0:0:
306,156,72857,1,2,0:0:0:0:
210,177,73029,5,2,0:0:0:0:
372,228,73200,1,2,0:0:0:0:
336,63,73372,5,2,0:3:0:0:
276,249,73543,1,2,0:0:0:0:
468,208,73714,1,2,0:0:0:0:
252,138,73886,1,2,0:0:0:0:
300,361,74057,5,2,0:3:0:0:
380,110,74229,1,2,0:0:0:0:
214,195,74400,5,2,0:0:0:0:
465,275,74572,1,2,0:0:0:0:
132,110,74743,5,2,0:3:0:0:
212,361,74915,1,2,0:0:0:0:
297,195,75086,5,2,0:0:0:0:
46,275,75258,1,2,0:0:0:0:
298,299,75429,5,2,0:3:0:0:
319,296,75514,1,2,0:0:0:0:
339,290,75600,1,2,0:0:0:0:
357,280,75686,1,2,0:0:0:0:
373,266,75771,1,2,0:0:0:0:
386,249,75857,1,2,0:0:0:0:
395,229,75943,1,2,0:0:0:0:
399,209,76029,1,2,0:0:0:0:
399,187,76114,5,2,0:3:0:0:
413,226,76199,1,2,0:0:0:0:
413,269,76285,1,2,0:0:0:0:
399,309,76371,1,2,0:0:0:0:
372,341,76456,1,2,0:0:0:0:
336,363,76542,1,2,0:0:0:0:
295,372,76628,1,2,0:0:0:0:
253,367,76714,1,2,0:0:0:0:
203,307,76800,6,0,P|281:305|215:347,1,212.5,2|2,0:3|0:0,0:0:0:0:
287,286,77743,1,2,0:0:0:0:
295,372,77829,1,8,0:0:0:0:
295,372,78172,6,0,B|299:374|260:354|214:346|214:346|341:280|420:197|420:197|419:241|426:282,1,425,6|0,0:0|0:0,0:0:0:0:
287,286,78686,6,0,P|280:230|287:183,1,85,2|0,0:0|0:0,0:0:0:0:
471,50,78857,2,0,P|473:81|471:113,2,63.7500024318696,8|0|0,0:0|0:0|0:0,0:0:0:0:
327,104,79200,6,0,P|277:108|188:82,1,127.500004863739,2|0,0:0|0:0,0:0:0:0:
80,12,79457,2,0,P|108:53|130:143,1,127.500004863739,2|0,0:0|0:0,0:0:0:0:
124,272,79714,6,0,P|145:226|190:179,1,63.7500024318696,2|0,0:0|0:0,0:0:0:0:
364,182,79886,2,0,P|352:211|335:238,1,63.7500024318696,2|0,0:0|0:0,0:0:0:0:
196,350,80057,5,2,0:0:0:0:
196,350,80143,1,2,0:0:0:0:
196,350,80229,2,0,P|156:352|115:348,2,42.5,8|0|0,0:0|0:0|0:0,0:0:0:0:
336,239,80572,2,0,P|285:230|231:229,1,85
428,348,80914,6,0,B|473:356|513:337|513:337|441:267|480:174,1,255,6|0,0:0|0:0,0:0:0:0:
507,383,81257,6,0,P|434:375|402:355,1,85,2|0,0:3|0:0,0:0:0:0:
405,120,81429,2,0,P|397:193|377:225,1,85,2|0,0:0|0:0,0:0:0:0:
241,348,81600,1,8,0:0:0:0:
241,348,81686,2,0,P|286:360|348:347,1,85,2|0,0:0|0:0,0:0:0:0:
382,288,81943,6,0,B|371:255|384:224|384:224|346:240|326:260|326:260|295:224|234:236|234:236|205:300|120:292|120:292|164:289|185:260,1,446.250017023087,4|0,0:0|0:0,0:0:0:0:
101,179,82629,6,0,P|108:217|127:182,1,63.7500024318696,2|0,0:0|0:0,0:0:0:0:
192,78,82800,6,0,P|172:111|209:97,1,63.7500024318696,2|0,0:0|0:0,0:0:0:0:
312,76,82972,6,0,P|320:45|336:17,1,63.7500024318696,8|0,0:0|0:0,0:0:0:0:
441,131,83143,6,0,P|404:118|424:152,1,63.7500024318696,2|0,0:0|0:0,0:0:0:0:
485,258,83315,6,0,P|445:225|446:276,1,127.5,8|0,0:0|0:0,0:0:0:0:
477,347,83657,6,0,B|434:361|386:344|361:298|357:263|357:263|356:320|302:344,1,255,6|0,0:0|0:0,0:0:0:0:
236,339,84000,6,0,P|198:290|198:233,1,85
232,195,84171,2,0,P|292:186|342:215,1,85,2|0,0:0|0:0,0:0:0:0:
229,352,84343,6,0,B|177:369|135:344|135:344|87:315|31:337,1,191.250007295609,8|0,0:0|0:0,0:0:0:0:
20,350,84686,2,0,P|18:308|29:272,1,63.7500024318696,2|0,0:0|0:0,0:0:0:0:
191,142,84857,6,0,P|198:177|182:307,1,127.500004863739
0,140,85200,2,0,P|-6:76|2:13,1,127.500004863739,0|2,0:0|0:3,0:0:0:0:
204,51,85543,5,2,0:0:0:0:
204,51,85629,1,2,0:0:0:0:
204,51,85714,2,0,P|242:66|276:95,1,63.7500024318696,8|0,0:0|0:0,0:0:0:0:
202,276,85886,5,2,0:3:0:0:
202,276,85972,1,2,0:3:0:0:
202,276,86057,2,0,P|181:269|162:259,1,42.5,2|0,0:3|0:0,0:0:0:0:
15,156,86229,2,0,P|42:137|72:126,1,42.5,2|0,0:3|0:0,0:0:0:0:
284,203,86400,6,0,B|331:217|364:187|364:187|403:207|449:205|495:170|504:129,1,255,6|0,0:0|0:0,0:0:0:0:
418,13,86743,6,0,P|410:54|411:97,1,85
373,339,86914,2,0,P|350:302|337:262,1,85
354,52,87086,5,8,0:0:0:0:
460,262,87257,1,0,0:0:0:0:
219,239,87429,1,2,0:0:0:0:
442,183,87600,6,0,P|376:199|261:117,1,191.250007295609,2|0,0:3|0:0,0:0:0:0:
287,115,87943,6,0,P|271:187|254:212,1,63.7500024318696,2|0,0:3|0:0,0:0:0:0:
433,319,88114,2,0,P|449:292|460:262,1,63.7500024318696,2|0,0:3|0:0,0:0:0:0:
159,128,88286,6,0,P|162:201|152:230,1,63.7500024318696,2|0,0:0|0:0,0:0:0:0:
352,287,88457,2,0,P|361:256|364:225,1,63.7500024318696,8|0,0:0|0:0,0:0:0:0:
134,56,88629,5,2,0:0:0:0:
124,68,88714,2,0,P|110:141|115:208,1,127.500004863739,8|0,0:0|0:0,0:0:0:0:
173,275,88972,2,0,P|165:219|163:162,1,85,8|0,0:0|0:0,0:0:0:0:
322,95,89143,6,0,P|361:130|314:108,1,148.75,2|0,0:0|0:0,0:0:0:0:
165,0,89829,6,0,P|167:44|190:83,1,85,12|0,0:0|0:0,0:0:0:0:
393,129,90000,2,0,P|352:109|307:109,1,85
215,203,90172,6,0,P|208:294|293:343,1,191.250007295609,2|0,0:3|0:0,0:0:0:0:
287,254,90514,5,2,0:0:0:0:
181,6,90686,1,2,0:0:0:0:
317,140,90857,5,2,0:0:0:0:
313,167,90942,1,2,0:0:0:0:
304,194,91028,1,2,0:0:0:0:
288,217,91114,1,2,0:0:0:0:
215,204,91200,5,2,0:0:0:0:
189,216,91285,1,2,0:0:0:0:
161,221,91371,1,2,0:0:0:0:
132,219,91457,1,2,0:0:0:0:
99,139,91543,6,0,P|129:100|133:149,1,127.5,8|0,0:0|0:0,0:0:0:0:
27,216,91886,6,0,B|-4:178|-14:126|4:83|50:56|50:56|12:95|26:154,1,255,6|0,0:0|0:0,0:0:0:0:
39,201,92229,6,0,P|56:266|34:317,1,85
12,373,92400,1,2,0:0:0:0:
216,316,92572,5,8,0:0:0:0:
215,316,92657,2,0,P|279:310|343:313,1,127.500004863739,2|0,0:0|0:0,0:0:0:0:
149,360,92914,6,0,P|140:282|256:244,1,191.250007295609,2|0,0:0|0:0,0:0:0:0:
318,234,93257,5,2,0:3:0:0:
334,194,93342,1,2,0:3:0:0:
339,152,93428,1,2,0:3:0:0:
333,111,93514,1,2,0:3:0:0:
262,61,93600,6,0,P|237:85|270:74,1,63.7500024318696,2|0,0:0|0:0,0:0:0:0:
145,108,93772,6,0,P|153:141|160:107,1,63.7500024318696,2|0,0:0|0:0,0:0:0:0:
126,232,93943,6,0,P|166:228|201:195,1,63.7500024318696,8|0,0:0|0:0,0:0:0:0:
225,309,94114,6,0,P|250:285|216:295,1,63.7500024318696,2|0,0:0|0:0,0:0:0:0:
340,262,94286,6,0,P|359:216|327:249,1,127.5,8|0,0:0|0:0,0:0:0:0:
474,328,94629,6,0,P|350:297|224:309,1,255,6|0,0:0|0:0,0:0:0:0:
110,351,94972,5,2,0:0:0:0:
102,319,95057,1,2,0:0:0:0:
95,288,95143,1,2,0:0:0:0:
88,256,95229,1,2,0:0:0:0:
67,182,95314,6,0,B|52:130|-5:105|-5:105|39:99|73:127,1,191.250007295609,8|0,0:0|0:0,0:0:0:0:
88,256,95657,2,0,P|48:256|-6:168,1,127.500004863739,2|0,0:0|0:0,0:0:0:0:
102,43,96000,5,2,0:0:0:0:
318,120,96172,1,2,0:0:0:0:
71,126,96343,5,8,0:0:0:0:
302,72,96514,1,2,0:0:0:0:
310,96,96600,1,2,0:0:0:0:
318,120,96686,6,0,B|338:181|338:181|317:240,1,127.500004863739,8|0,0:0|0:0,0:0:0:0:
249,279,96943,1,2,0:3:0:0:
178,246,97029,6,0,L|100:257,1,63.7500024318696,2|2,0:3|0:0,0:0:0:0:
206,62,97200,1,8,0:0:0:0:
373,181,97372,6,0,B|413:184|457:168|457:168|415:242|410:332,1,255,2|0,0:0|0:0,0:0:0:0:
406,350,97714,2,0,P|363:337|305:330,1,85,8|0,0:0|0:0,0:0:0:0:
72,313,97886,5,2,0:0:0:0:
72,313,97972,1,2,0:0:0:0:
72,313,98057,1,8,0:0:0:0:
348,262,98229,1,2,0:0:0:0:
76,317,98400,5,8,0:0:0:0:
373,181,98572,1,2,0:0:0:0:
205,329,98743,5,8,0:0:0:0:
220,305,98828,1,2,0:0:0:0:
229,278,98914,1,2,0:0:0:0:
232,250,99000,1,2,0:0:0:0:
280,198,99086,5,8,0:0:0:0:
274,170,99171,1,2,0:0:0:0:
261,144,99257,1,2,0:0:0:0:
243,123,99343,1,2,0:0:0:0:
248,52,99429,6,0,P|256:17|262:3,1,42.5
280,198,99600,6,0,P|272:163|266:149,1,42.5
205,329,99772,6,0,P|224:298|229:284,3,42.5
323,283,100114,6,0,B|406:319|462:260|462:260|414:292|365:261,1,255,6|4,0:0|0:0,0:0:0:0:
414,197,100457,5,0,0:0:0:0:
193,336,100629,1,2,0:0:0:0:
479,237,100800,6,0,P|487:188|479:158,1,63.7500024318696,8|0,0:0|0:0,0:0:0:0:
427,51,100972,2,0,P|388:18|358:11,1,63.7500024318696
239,126,101143,6,0,B|208:215|255:290|255:290|236:263|201:247|158:255|130:287,1,297.5,2|0,0:0|0:0,0:0:0:0:
193,336,101829,1,0,0:0:0:0:
125,59,102000,5,2,0:0:0:0:
125,59,102086,1,2,0:0:0:0:
125,59,102172,2,0,P|144:51|123:70,1,63.7500024318696,8|0,0:0|0:0,0:0:0:0:
257,6,102343,6,0,P|276:14|248:12,1,63.7500024318696,2|0,0:3|0:0,0:0:0:0:
388,61,102514,6,0,P|390:88|364:81,1,63.7500024318696,2|0,0:3|0:0,0:0:0:0:
442,193,102686,6,0,P|424:214|410:190,1,63.7500024318696,2|0,0:3|0:0,0:0:0:0:
118,285,102857,6,0,B|78:219|122:150|122:150|200:158|181:225,1,255,6|0,0:0|0:0,0:0:0:0:
121,342,103200,6,0,P|91:329|68:308,1,63.7500024318696,0|2,0:0|0:3,0:0:0:0:
110,76,103372,1,2,0:0:0:0:
278,248,103543,5,8,0:0:0:0:
278,248,103629,2,0,P|238:240|172:237,1,85,2|0,0:0|0:0,0:0:0:0:
104,233,103886,6,0,P|199:214|377:227,1,255,2|0,0:0|0:0,0:0:0:0:
505,358,104229,6,0,P|449:304|390:278,1,127.5,2|0,0:3|0:0,0:0:0:0:
340,356,104572,5,2,0:0:0:0:
104,233,104743,1,2,0:0:0:0:
409,50,104914,6,0,P|393:87|382:144,1,85,8|0,0:0|0:0,0:0:0:0:
336,343,105086,2,0,P|332:311|326:279,1,63.7500024318696,2|0,0:0|0:0,0:0:0:0:
259,22,105257,6,0,P|194:13|113:23,1,127.5,8|0,0:0|0:0,0:0:0:0:
38,77,105600,6,0,B|38:117|12:158|12:158|79:122|183:129,1,255,6|0,0:0|0:0,0:0:0:0:
272,176,105943,5,0,0:0:0:0:
59,4,106114,1,2,0:0:0:0:
111,309,106286,6,0,L|101:249,1,42.5,8|0,0:0|0:0,0:0:0:0:
276,196,106457,2,0,L|282:237,1,42.5
38,77,106629,6,0,P|10:150|90:130,1,191.250007295609,2|0,0:0|0:0,0:0:0:0:
128,70,106972,6,0,P|196:56|246:101,1,127.5
272,176,107314,6,0,L|364:165,1,85,2|0,0:3|0:0,0:0:0:0:
512,156,107486,5,2,0:0:0:0:
512,156,107572,1,2,0:0:0:0:
512,155,107657,2,0,P|507:176|505:197,1,42.5,8|0,0:0|0:0,0:0:0:0:
346,104,107829,6,0,P|351:157|381:188,1,63.7500024318696,2|0,0:3|0:0,0:0:0:0:
176,128,108000,6,0,P|174:177|220:163,1,85,2|0,0:3|0:3,0:0:0:0:
430,341,108343,6,0,B|470:360|513:343|513:343|435:295|351:330,1,255,6|0,0:0|0:0,0:0:0:0:
278,368,108686,1,0,0:0:0:0:
426,234,108857,1,2,0:0:0:0:
282,290,109029,6,0,B|212:278|207:206|207:206|131:179|86:232,1,255,8|0,0:0|0:0,0:0:0:0:
288,209,109372,6,0,B|349:205|349:205|336:133|296:85|296:85|251:130,1,255,6|0,0:0|0:0,0:0:0:0:
367,127,109714,1,0,0:0:0:0:
178,70,109886,6,0,P|162:122|164:161,1,63.7500024318696,2|0,0:3|0:0,0:0:0:0:
394,205,110057,2,0,P|389:173|377:144,1,63.7500024318696,2|0,0:3|0:0,0:0:0:0:
174,243,110229,2,0,P|178:274|190:303,1,63.7500024318696,2|0,0:3|0:0,0:0:0:0:
296,150,110400,6,0,L|216:139,1,63.7500024318696,8|0,0:0|0:0,0:0:0:0:
12,107,110572,1,2,0:0:0:0:
35,111,110657,6,0,L|200:136,1,127.500004863739,8|0,0:0|0:0,0:0:0:0:
374,161,110914,1,8,0:0:0:0:
97,251,111086,6,0,B|91:295|48:332|48:332|126:296|205:324,1,255,6|0,0:0|0:0,0:0:0:0:
283,360,111429,5,0,0:0:0:0:
161,130,111600,1,2,0:0:0:0:
22,348,111772,2,0,P|59:366|84:370,1,63.7500024318696,8|0,0:0|0:0,0:0:0:0:
283,360,111943,2,0,P|313:352|341:337,1,63.7500024318696
293,186,112114,6,0,P|235:158|172:149,1,127.500004863739,2|0,0:0|0:0,0:0:0:0:
93,158,112457,6,0,L|98:239,1,63.7500024318696,2|0,0:3|0:0,0:0:0:0:
270,335,112629,2,0,L|272:292,1,42.5,2|0,0:3|0:0,0:0:0:0:
219,107,112800,6,0,P|184:132|167:168,1,63.7500024318696
111,305,112972,1,2,0:0:0:0:
111,305,113057,1,2,0:0:0:0:
110,305,113143,2,0,P|152:310|194:301,1,85,8|0,0:0|0:0,0:0:0:0:
439,181,113314,6,0,P|409:198|415:165,1,85,2|0,0:3|0:0,0:0:0:0:
259,91,113486,6,0,P|289:107|257:119,1,85,2|0,0:3|0:0,0:0:0:0:
272,292,113657,6,0,P|271:257|297:279,1,85,2|0,0:3|0:0,0:0:0:0:
418,137,113829,6,0,P|437:225|385:150,1,255,6|0,0:0|0:0,0:0:0:0:
508,92,114172,6,0,P|506:134|499:176,1,85
449,352,114343,1,2,0:0:0:0:
277,209,114514,5,8,0:0:0:0:
277,209,114600,2,0,P|347:213|390:224,1,85,2|0,0:0|0:0,0:0:0:0:
447,251,114857,6,0,P|356:197|150:182,1,255,2|0,0:0|0:0,0:0:0:0:
83,264,115200,6,0,P|157:245|241:259,1,127.5
282,293,115543,5,2,0:0:0:0:
253,150,115714,1,2,0:0:0:0:
496,92,115886,6,0,P|449:108|413:134,1,85,8|0,0:0|0:0,0:0:0:0:
290,283,116057,2,0,P|283:256|282:201,1,63.7500024318696,2|0,0:0|0:0,0:0:0:0:
312,38,116229,6,0,P|347:31|318:81,1,127.5,8|0,0:0|0:0,0:0:0:0:
236,49,116572,6,0,P|147:35|193:170,1,255,6|0,0:0|0:0,0:0:0:0:
182,98,116914,5,0,0:0:0:0:
0,36,117086,1,2,0:0:0:0:
43,287,117257,6,0,P|100:284|127:275,1,63.7500024318696,8|0,0:0|0:0,0:0:0:0:
219,205,117429,2,0,P|276:208|303:217,1,63.7500024318696
430,260,117600,6,0,P|366:261|293:100,1,255,2|0,0:0|0:0,0:0:0:0:
390,115,117943,6,0,P|432:149|360:138,1,191.250007295609
465,67,118286,6,0,P|474:133|470:153,1,63.7500024318696,2|0,0:3|0:0,0:0:0:0:
418,341,118457,1,2,0:0:0:0:
418,341,118543,1,2,0:0:0:0:
418,341,118629,1,8,0:0:0:0:
207,192,118800,2,0,P|241:177|273:210,1,63.7500024318696,2|0,0:3|0:0,0:0:0:0:
233,339,118972,5,8,0:0:0:0:
192,352,119057,1,8,0:0:0:0:
150,355,119143,1,2,0:0:0:0:
108,348,119229,1,2,0:0:0:0:
33,300,119314,2,0,B|73:224|73:224|64:138|64:138|98:61|98:61|113:152,1,340,6|0,0:0|0:0,0:0:0:0:
33,300,119829,6,0,B|59:263|73:224|73:224|61:179|64:138|64:138|88:105|99:62|99:62|95:104|111:143,1,340,6|0,0:0|0:0,0:0:0:0:
111,143,120343,6,0,P|87:73|93:177,1,340,6|0,0:0|0:0,0:0:0:0:
37,197,121200,5,8,0:3:0:0:
42,201,121286,1,8,0:3:0:0:
47,205,121372,1,4,0:3:0:0:
169,348,121543,1,8,0:0:0:0:
252,247,121714,5,8,0:0:0:0:
378,384,121886,1,8,0:0:0:0:
500,180,122057,6,0,P|507:117|492:55,1,127.500004863739,2|0,0:3|0:0,0:0:0:0:
318,85,122572,2,0,L|324:44,1,31.8750012159348,2|2,0:3|0:3,0:3:0:0:
318,85,122743,6,0,P|315:116|318:148,1,63.7500024318696,10|0,0:0|0:0,0:0:0:0:
435,121,123086,1,2,0:3:0:0:
384,15,123257,6,0,P|321:2|258:10,1,127.500004863739
197,105,123772,1,0,0:0:0:0:
87,79,123943,2,0,L|83:34,1,31.8750012159348,2|2,0:3|0:3,0:0:0:0:
87,79,124114,6,0,P|101:136|113:165,1,63.7500024318696,10|0,0:0|0:0,0:0:0:0:
171,218,124457,1,0,0:0:0:0:
197,105,124629,1,0,0:0:0:0:
171,218,124800,6,0,P|220:229|302:216,1,127.500004863739,2|0,0:3|0:0,0:0:0:0:
84,283,125314,2,0,L|78:243,1,31.8750012159348,2|2,0:3|0:3,0:0:0:0:
68,163,125486,5,10,0:0:0:0:
68,163,125572,2,0,L|78:237,1,63.7500024318696,2|0,0:3|0:0,0:0:0:0:
95,372,125829,1,2,0:3:0:0:
176,308,126000,6,0,P|246:298|311:316,1,127.500004863739
355,381,126514,1,2,0:3:0:0:
455,343,126686,1,2,0:3:0:0:
373,271,126857,6,0,P|371:222|364:187,1,63.7500024318696,10|2,0:0|0:3,0:0:0:0:
473,166,127200,2,0,P|468:197|468:229,1,63.7500024318696,8|0,0:0|0:0,0:0:0:0:
484,364,127543,6,0,P|446:353|347:357,1,127.500004863739,2|0,0:3|0:0,0:0:0:0:
231,331,128057,2,0,L|227:369,1,31.8750012159348,2|2,0:3|0:3,0:0:0:0:
231,331,128229,6,0,P|231:288|224:249,1,63.7500024318696,10|0,0:0|0:0,0:0:0:0:
353,152,128572,2,0,P|349:183|350:215,1,63.7500024318696,2|0,0:3|0:0,0:0:0:0:
260,180,128914,6,0,P|205:170|122:189,1,127.500004863739
31,258,129429,2,0,L|27:299,1,31.8750012159348,2|2,0:3|0:3,0:0:0:0:
31,258,129600,6,0,P|33:209|24:170,1,63.7500024318696,10|0,0:0|0:0,0:0:0:0:
68,102,129943,1,0,0:0:0:0:
120,210,130114,1,0,0:0:0:0:
68,102,130286,6,0,P|66:66|87:-1,1,95.6250036478044,2|0,0:3|0:0,0:0:0:0:
98,29,130629,2,0,L|170:18,1,63.7500024318696
285,179,130972,6,0,P|287:143|266:76,1,95.6250036478044,10|0,0:0|0:0,0:0:0:0:
255,106,131315,2,0,L|183:95,1,63.7500024318696,2|0,0:3|0:0,0:0:0:0:
216,262,131657,6,0,L|279:271,1,63.7500024318696
409,201,132000,1,0,0:0:0:0:
447,338,132172,1,2,0:3:0:0:
303,205,132343,6,0,L|313:174,1,31.8750012159348,8|0,0:0|0:0,0:0:0:0:
375,18,132514,1,2,0:3:0:0:
372,26,132600,6,0,L|352:85,1,31.8750012159348,8|0,0:0|0:0,0:0:0:0:
298,217,132857,2,0,L|288:248,1,31.8750012159348,8|0,0:0|0:0,0:0:0:0:
327,136,133029,6,0,P|270:126|195:142,1,127.500004863739,2|0,0:3|0:0,0:0:0:0:
58,224,133543,2,0,L|53:179,1,31.8750012159348,2|2,0:3|0:3,0:0:0:0:
58,224,133714,6,0,P|61:275|55:316,1,63.7500024318696,10|0,0:0|0:0,0:0:0:0:
149,223,134057,1,2,0:3:0:0:
107,112,134229,1,0,0:0:0:0:
154,238,134400,6,0,P|186:244|217:241,1,63.7500024318696
294,178,134743,1,0,0:0:0:0:
202,138,134914,2,0,L|197:177,1,31.8750012159348,2|0,0:3|0:0,0:0:0:0:
202,138,135086,6,0,P|208:90|201:47,1,63.7500024318696,10|0,0:0|0:0,0:0:0:0:
131,27,135429,1,0,0:0:0:0:
197,169,135600,1,0,0:0:0:0:
279,81,135772,6,0,P|315:76|414:97,1,127.500004863739,2|0,0:3|0:0,0:0:0:0:
480,158,136286,2,0,L|472:199,1,31.8750012159348,0|2,0:3|0:3,0:0:0:0:
444,323,136457,5,10,0:0:0:0:
444,323,136543,2,0,L|459:248,1,63.7500024318696,2|0,0:3|0:0,0:0:0:0:
403,209,136800,2,0,L|318:214,1,63.7500024318696,2|0,0:3|0:0,0:0:0:0:
236,298,137143,6,0,P|275:303|373:289,1,127.500004863739,0|2,0:0|0:3,0:0:0:0:
226,199,137657,1,2,0:3:0:0:
144,259,137829,6,0,L|153:329,1,63.7500024318696,10|2,0:0|0:3,0:0:0:0:
236,298,138172,1,8,0:0:0:0:
115,73,138514,6,0,P|180:61|298:81,1,170,2|0,0:3|0:0,0:0:0:0:
409,153,139029,2,0,L|408:104,1,42.5,2|2,0:3|0:3,0:0:0:0:
409,153,139200,6,0,P|393:206|366:238,1,85,10|0,0:0|0:0,0:0:0:0:
258,275,139543,2,0,P|234:239|225:198,1,85,2|0,0:3|0:0,0:0:0:0:
327,155,139886,5,0,0:0:0:0:
389,243,140057,1,0,0:0:0:0:
226,199,140229,1,0,0:0:0:0:
338,119,140400,5,2,0:3:0:0:
338,119,140486,1,2,0:3:0:0:
338,119,140572,2,0,L|362:27,1,85,10|0,0:0|0:0,0:0:0:0:
494,146,140914,2,0,L|472:228,1,85
446,371,141257,6,0,P|407:355|365:350,1,85,2|0,0:3|0:0,0:0:0:0:
136,375,141600,1,0,0:0:0:0:
182,314,141772,2,0,P|221:298|257:294,2,42.5,2|2|10,0:3|0:3|0:0,0:0:0:0:
95,250,142114,1,0,0:0:0:0:
208,144,142286,2,0,P|208:196|197:251,1,85,2|0,0:3|0:0,0:0:0:0:
103,135,142629,6,0,P|97:93|98:51,1,85
308,20,142972,2,0,P|313:62|313:104,1,85,0|2,0:0|0:3,0:0:0:0:
218,199,143314,6,0,L|215:147,1,42.5,10|0,0:0|0:0,0:0:0:0:
208,0,143486,1,2,0:3:0:0:
209,11,143572,6,0,L|210:53,1,42.5,8|0,0:0|0:0,0:0:0:0:
218,211,143829,2,0,L|219:253,1,42.5,8|0,0:0|0:0,0:0:0:0:
342,154,144000,6,0,P|390:147|453:166,1,85
309,239,144343,1,0,0:0:0:0:
309,239,144514,2,0,P|338:278|353:342,1,85
219,253,144857,1,0,0:0:0:0:
219,253,145029,2,0,P|200:298|152:343,1,85
161,182,145372,5,0,0:0:0:0:
161,182,145543,1,0,0:0:0:0:
251,163,145714,5,0,0:0:0:0:
251,163,145885,1,0,0:0:0:0:
141,94,146057,6,0,L|62:86,1,63.7500024318696
265,8,146400,2,0,L|201:14,1,63.7500024318696
367,119,146743,6,0,P|320:110|268:71,1,85
435,255,147086,1,0,0:0:0:0:
435,255,147257,2,0,P|419:209|427:145,1,85
351,381,147600,1,0,0:0:0:0:
351,381,147772,2,0,P|382:344|442:319,1,85
199,371,148114,5,0,0:0:0:0:
199,371,148286,1,0,0:0:0:0:
280,308,148457,5,0,0:0:0:0:
280,308,148629,1,0,0:0:0:0:
185,225,148800,6,0,L|196:304,1,63.7500024318696
97,149,149143,2,0,L|86:228,1,63.7500024318696
206,105,149486,6,0,P|247:92|309:96,1,85
309,174,149829,1,0,0:0:0:0:
309,174,150000,2,0,P|340:202|362:239,1,85
299,297,150343,1,0,0:0:0:0:
299,297,150514,2,0,P|290:339|270:376,1,85
104,302,150857,5,0,0:0:0:0:
104,302,151029,1,0,0:0:0:0:
197,249,151200,5,0,0:0:0:0:
197,249,151372,1,0,0:0:0:0:
103,192,151543,6,0,P|41:206|2:254,1,127.5
193,367,151886,2,0,P|215:308|196:248,1,127.5
184,162,152229,6,0,B|212:81|166:17|166:17|197:60|248:74,1,255
323,60,152914,2,0,P|342:23|379:-3,2,85
413,79,153600,5,0,0:0:0:0:
413,79,154286,6,0,P|384:121|390:183,1,95.6250036478044,0|0,3:0|0:0,0:0:0:0:
395,194,154629,2,0,P|424:226|462:236,1,63.75
471,148,154972,5,2,0:0:0:0:
413,79,155314,1,2,0:0:0:0:
99,79,155657,5,2,0:0:0:0:
41,148,155999,1,2,0:0:0:0:
340,268,156343,5,2,0:0:0:0:
359,179,156686,1,2,0:0:0:0:
153,179,157029,5,2,0:0:0:0:
172,268,157372,1,2,0:0:0:0:
399,347,157714,5,2,0:0:0:0:
441,262,158057,1,2,0:0:0:0:
71,262,158400,5,2,0:0:0:0:
113,347,158743,1,2,0:0:0:0:
372,150,159086,5,2,0:0:0:0:
354,49,159429,1,2,0:0:0:0:
158,49,159772,5,2,0:0:0:0:
140,150,160114,1,2,0:0:0:0:
170,268,160457,5,2,0:3:0:0:
299,304,160629,1,2,0:0:0:0:
205,341,160800,5,2,0:0:0:0:
344,237,160972,1,2,0:0:0:0:
125,335,161143,5,2,0:3:0:0:
379,310,161315,1,2,0:0:0:0:
90,262,161486,5,2,0:0:0:0:
334,377,161657,1,2,0:0:0:0:
111,181,161829,5,2,0:3:0:0:
225,368,162000,1,2,0:0:0:0:
210,123,162172,5,2,0:0:0:0:
228,356,162343,1,2,0:0:0:0:
334,104,162514,5,2,0:3:0:0:
238,349,162686,1,2,0:0:0:0:
462,157,162857,5,2,0:0:0:0:
250,350,163029,1,2,0:0:0:0:
424,292,163200,5,2,0:3:0:0:
437,293,163285,1,2,0:0:0:0:
450,296,163371,1,2,0:0:0:0:
462,301,163457,1,2,0:0:0:0:
473,307,163542,1,2,0:0:0:0:
484,316,163628,1,2,0:0:0:0:
493,326,163714,1,2,0:0:0:0:
500,337,163800,1,2,0:0:0:0:
506,349,163886,5,2,0:3:0:0:
506,309,163971,1,2,0:0:0:0:
493,271,164057,1,2,0:0:0:0:
468,240,164143,1,2,0:0:0:0:
435,219,164228,1,2,0:0:0:0:
396,210,164314,1,2,0:0:0:0:
357,214,164400,1,2,0:0:0:0:
321,230,164486,1,2,0:0:0:0:
293,258,164572,6,0,B|277:290|280:330|280:330|233:270|156:281,1,212.5,2|2,0:3|0:0,0:0:0:0:
104,339,165514,1,2,0:0:0:0:
73,252,165600,6,0,L|57:190,1,63.75,8|0,0:0|0:0,0:0:0:0:
48,163,165943,6,0,B|28:80|28:80|226:100,1,255,6|0,0:0|0:0,0:0:0:0:
309,112,166286,5,0,0:0:0:0:
122,136,166457,2,0,P|116:74|139:32,1,85,2|0,0:0|0:0,0:0:0:0:
309,112,166629,6,0,P|312:144|294:115,1,85,8|0,0:0|0:0,0:0:0:0:
408,165,166886,6,0,P|404:199|380:174,1,85,2|0,0:3|0:0,0:0:0:0:
483,246,167143,6,0,P|470:281|451:248,1,85,2|0,0:3|0:0,0:0:0:0:
393,56,167314,6,0,P|384:27|376:64,1,85,2|0,0:3|0:0,0:0:0:0:
290,119,167572,6,0,P|281:82|257:112,1,85,2|0,0:3|0:0,0:0:0:0:
168,144,167829,5,2,0:0:0:0:
168,144,167914,1,2,0:0:0:0:
167,144,168000,2,0,P|170:91|124:117,1,127.5,8|0,0:0|0:0,0:0:0:0:
172,281,168686,6,0,B|196:313|197:363|197:363|269:280|345:318,1,255,2|0,0:0|0:0,0:0:0:0:
372,359,169029,6,0,P|333:348|306:332,1,42.5
210,213,169200,2,0,P|249:202|276:186,1,42.5,2|0,0:0|0:0,0:0:0:0:
458,120,169372,5,8,0:0:0:0:
467,136,169457,2,0,P|467:207|443:321,1,170,2|0,0:0|0:0,0:0:0:0:
510,383,169714,6,0,P|513:343|496:306,1,42.5000016212464,2|0,0:0|0:0,0:0:0:0:
419,92,169943,6,0,P|412:151|413:214,1,106.250004053116,2|2,0:3|0:3,0:0:0:0:
398,224,170286,2,0,P|388:197|381:169,1,56.6666666666667
453,0,170400,6,0,P|432:5|410:4,1,42.5,2|0,0:0|0:0,0:0:0:0:
313,87,170572,6,0,P|280:81|247:65,1,63.7500024318696
149,106,170743,6,0,P|111:80|93:43,1,85,8|0,0:0|0:0,0:0:0:0:
338,13,170914,6,0,P|376:39|394:76,1,85,2|0,0:0|0:0,0:0:0:0:
201,172,171086,6,0,P|87:161|93:45,1,255,8|0,0:0|0:0,0:0:0:0:
316,97,171429,6,0,P|328:185|298:363,1,255,6|0,0:0|0:0,0:0:0:0:
205,235,171772,6,0,P|198:203|201:172,1,63.7500024318696
419,293,171943,2,0,P|426:324|423:355,1,63.7500024318696
375,193,172114,6,0,P|359:154|367:195,1,85,8|0,0:0|0:0,0:0:0:0:
316,97,172372,6,0,P|290:63|308:101,1,85,2|0,0:3|0:0,0:0:0:0:
221,38,172629,6,0,P|187:12|215:43,1,85,2|0,0:3|0:0,0:0:0:0:
238,191,172800,6,0,P|258:161|222:156,1,85,2|0,0:3|0:0,0:0:0:0:
144,252,173057,6,0,P|171:228|138:214,1,85,2|0,0:3|0:0,0:0:0:0:
16,254,173314,5,2,0:0:0:0:
19,267,173400,1,2,0:0:0:0:
22,280,173486,2,0,P|64:276|15:249,1,127.5,8|0,0:0|0:0,0:0:0:0:
26,365,174172,6,0,P|108:342|-34:182,1,425,2|0,0:0|0:0,0:0:0:0:
161,322,174686,2,0,P|176:282|177:239,1,85,2|0,0:3|0:0,0:0:0:0:
291,33,174857,6,0,P|256:56|230:89,1,85,2|0,0:3|0:0,0:0:0:0:
17,189,175029,2,0,P|59:190|99:179,1,85,2|0,0:3|0:0,0:0:0:0:
330,223,175200,2,0,P|297:197|258:183,1,85,2|0,0:3|0:0,0:0:0:0:
98,11,175372,2,0,P|109:51|133:86,1,85,2|0,0:3|0:0,0:0:0:0:
493,144,175543,6,0,L|236:100,1,255,2|0,0:0|0:0,0:0:0:0:
323,145,175886,2,0,L|407:160,1,85
164,102,176057,6,0,B|100:96|53:153|53:153|92:91|62:31,1,255,2|0,0:0|0:0,0:0:0:0:
36,188,176400,2,0,P|33:230|44:271,1,85,8|0,0:0|0:0,0:0:0:0:
151,263,176572,6,0,P|164:177|132:258,1,255,2|0,0:0|0:0,0:0:0:0:
268,253,176914,6,0,B|284:160|211:117|211:117|254:138|303:126,1,255,6|0,0:0|0:0,0:0:0:0:
358,258,177257,6,0,P|351:317|343:342,1,63.7500024318696
164,102,177429,2,0,P|157:70|155:38,1,63.7500024318696,2|0,0:0|0:0,0:0:0:0:
435,52,177600,6,0,P|440:85|420:59,1,85,8|0,0:0|0:0,0:0:0:0:
400,153,177857,6,0,P|396:186|383:155,1,85,2|0,0:3|0:0,0:0:0:0:
340,241,178114,6,0,P|327:272|323:239,1,85,2|0,0:3|0:0,0:0:0:0:
174,147,178286,6,0,P|169:180|189:154,1,85,2|0,0:3|0:0,0:0:0:0:
209,248,178543,6,0,P|212:281|225:250,1,85,2|0,0:3|0:0,0:0:0:0:
293,312,178800,5,2,0:0:0:0:
289,332,178885,1,2,0:0:0:0:
286,353,178972,2,0,P|327:340|293:312,1,106.25,8|0,0:0|0:0,0:0:0:0:
204,357,179486,2,0,P|171:355|142:345,1,63.7500024318696
41,243,179657,6,0,B|96:220|153:244|153:244|206:267|252:248|252:248|220:247|190:231,1,255,2|0,0:0|0:0,0:0:0:0:
56,256,180000,2,0,P|28:260|1:257,2,56.6666666666667,2|2|2,0:3|0:3|0:3,0:0:0:0:
109,78,180343,5,8,0:0:0:0:
99,80,180429,2,0,P|101:132|135:71,1,170,2|0,0:0|0:0,0:0:0:0:
88,81,180686,6,0,P|78:107|73:135,1,56.6666666666667,2|0,0:0|0:0,0:0:0:0:
155,342,180914,6,0,P|218:350|277:351,1,106.250004053116,2|2,0:3|0:3,0:0:0:0:
284,339,181257,2,0,P|255:342|227:341,1,56.6666666666667
68,267,181372,6,0,P|68:299|74:331,1,63.7500024318696,2|0,0:0|0:0,0:0:0:0:
240,216,181543,2,0,P|245:184|247:152,1,63.7500024318696,2|0,0:0|0:0,0:0:0:0:
167,320,181714,6,0,P|209:328|252:330,1,85,8|0,0:0|0:0,0:0:0:0:
157,144,181886,2,0,P|115:136|72:134,1,85,2|0,0:0|0:0,0:0:0:0:
331,279,182057,6,0,P|353:185|346:24,1,255,8|0,0:0|0:0,0:0:0:0:
337,85,182400,6,0,P|343:141|369:241,1,148.75,2|0,0:0|0:0,0:0:0:0:
466,305,183086,6,0,B|459:334|464:372|464:372|405:334|279:343,1,255,12|0,0:0|0:0,0:0:0:0:
242,172,183429,6,0,P|273:174|305:180,1,63.7500024318696,2|0,0:0|0:0,0:0:0:0:
192,320,183600,2,0,P|160:325|128:328,1,63.7500024318696,2|0,0:3|0:0,0:0:0:0:
66,168,183772,6,0,P|92:149|81:179,1,85,2|0,0:3|0:0,0:0:0:0:
122,101,184029,6,0,P|152:89|133:115,1,85,2|0,0:3|0:0,0:0:0:0:
193,53,184286,5,2,0:0:0:0:
197,59,184372,1,2,0:0:0:0:
200,65,184457,2,0,P|241:33|193:53,1,148.75,8|0,0:0|0:0,0:0:0:0:
259,145,185143,6,0,P|410:200|309:78,1,425,2|0,0:0|0:0,0:0:0:0:
228,178,185657,2,0,P|245:217|275:247,1,85,2|0,0:3|0:0,0:0:0:0:
377,45,185829,6,0,P|335:40|294:50,1,85,8|0,0:0|0:0,0:0:0:0:
419,236,186000,2,0,P|444:203|455:162,1,85,2|0,0:3|0:0,0:0:0:0:
160,72,186172,5,8,0:0:0:0:
132,143,186257,1,8,0:0:0:0:
146,200,186343,5,2,0:0:0:0:
154,230,186429,1,2,0:0:0:0:
132,294,186514,6,0,P|183:301|234:286,1,106.25,2|0,0:0|0:0,0:0:0:0:
334,207,187029,2,0,P|399:202|355:259,1,159.375006079674,0|0,3:0|0:0,0:0:0:0:
254,206,187543,6,0,P|247:186|246:165,1,42.5,2|0,0:0|0:0,0:0:0:0:
489,233,187714,2,0,P|487:253|481:273,1,42.5,2|0,0:0|0:0,0:0:0:0:
203,347,187886,5,6,0:0:0:0:
203,347,188400,1,2,0:0:0:0:
319,32,190629,5,2,0:0:0:0:
319,32,191143,1,2,0:0:0:0:
376,89,192857,6,0,P|385:130|387:185,1,85
378,248,193372,5,2,0:0:0:0:
378,248,193886,1,2,0:0:0:0:
160,204,195772,6,0,P|156:168|155:146,1,42.5
162,67,196114,5,2,0:0:0:0:
162,67,196629,6,0,P|167:31|172:9,1,42.5
269,106,196972,1,0,0:0:0:0:
269,106,197143,2,0,P|272:126|275:147,1,42.5
216,257,197486,5,2,0:0:0:0:
85,270,198172,5,2,0:1:0:0:
117,345,198343,1,0,0:0:0:0:
198,337,198514,1,2,0:0:0:0:
216,257,198686,1,0,0:0:0:0:
145,216,198857,6,0,L|137:131,1,85,2|0,0:0|0:0,0:0:0:0:
145,216,199200,1,2,0:0:0:0:
301,128,199372,6,0,L|293:212,1,85,0|2,0:0|0:0,0:0:0:0:
301,128,199714,1,0,0:0:0:0:
385,239,199886,6,0,B|436:231|510:217|510:217|450:190,1,170,2|2,0:0|0:0,0:0:0:0:
219,90,200572,1,2,0:0:0:0:
219,90,200914,5,2,0:0:0:0:
251,15,201085,1,0,0:0:0:0:
332,23,201256,1,2,0:0:0:0:
350,103,201428,1,0,0:0:0:0:
279,144,201600,6,0,L|271:228,1,85,2|0,0:0|0:0,0:0:0:0:
279,144,201943,1,2,0:0:0:0:
104,283,202114,6,0,L|96:198,1,85,0|2,0:0|0:0,0:0:0:0:
104,283,202458,1,0,0:0:0:0:
266,325,202629,2,0,B|342:290|435:320|395:362|345:328,1,170,2|2,0:0|0:0,0:0:0:0:
124,359,203314,6,0,P|66:354|25:286,1,127.5,2|0,0:0|0:0,0:0:0:0:
57,323,203657,2,0,P|115:318|156:250,1,127.5,2|0,0:0|0:0,0:0:0:0:
118,273,204000,2,0,P|60:268|19:200,1,127.5,2|0,0:0|0:0,0:0:0:0:
54,111,204343,5,2,0:0:0:0:
96,198,204514,1,2,0:0:0:0:
132,81,204686,5,2,0:0:0:0:
133,196,204857,1,2,0:0:0:0:
227,79,205029,5,2,0:0:0:0:
167,209,205200,1,2,0:0:0:0:
329,119,205372,5,2,0:0:0:0:
192,235,205543,1,2,0:0:0:0:
397,232,205714,5,2,0:0:0:0:
167,209,205886,1,2,0:0:0:0:
343,301,206057,5,2,0:0:0:0:
184,138,206229,1,2,0:0:0:0:
245,350,206400,5,2,0:0:0:0:
248,95,206572,1,2,0:0:0:0:
130,336,206743,5,2,0:0:0:0:
329,119,206914,1,2,0:0:0:0:
167,209,207085,5,2,0:3:0:0:
146,210,207172,1,2,0:0:0:0:
128,200,207256,1,2,0:0:0:0:
119,181,207342,1,2,0:0:0:0:
123,160,207428,1,2,0:0:0:0:
138,145,207513,1,2,0:0:0:0:
158,141,207599,1,2,0:0:0:0:
177,150,207685,1,2,0:0:0:0:
190,169,207772,5,2,0:3:0:0:
167,133,207857,1,2,0:0:0:0:
132,110,207943,1,2,0:0:0:0:
90,105,208029,1,2,0:0:0:0:
50,119,208114,1,2,0:0:0:0:
21,149,208200,1,2,0:0:0:0:
7,189,208286,1,2,0:0:0:0:
12,231,208372,1,2,0:0:0:0:
35,266,208457,6,0,L|139:252,1,85,8|0,0:0|0:0,0:0:0:0:
193,291,208714,6,0,L|296:276,1,85,8|0,0:0|0:0,0:0:0:0:
350,315,208972,6,0,L|392:309,1,42.5,8|0,0:0|0:0,0:0:0:0:
502,332,209143,6,0,P|463:343|487:278,1,148.75,2|0,0:0|0:0,0:0:0:0:
376,354,209829,6,0,B|358:306|369:256|400:222|445:208|445:208|402:210|373:186,1,255,6|0,0:0|0:0,0:0:0:0:
295,78,210172,5,0,0:0:0:0:
484,277,210343,1,2,0:0:0:0:
487,82,210514,6,0,P|455:122|442:148,1,63.7500024318696,8|0,0:0|0:0,0:0:0:0:
376,354,210686,1,0,0:0:0:0:
186,77,210857,6,0,P|191:156|177:227,1,127.500004863739,2|0,0:0|0:0,0:0:0:0:
262,161,211114,6,0,P|246:238|214:303,1,127.500004863739,2|0,0:3|0:0,0:0:0:0:
293,311,211372,6,0,P|275:337|254:361,1,63.7500024318696,2|0,0:3|0:0,0:0:0:0:
101,195,211543,2,0,P|118:168|139:144,1,63.7500024318696,2|0,0:3|0:0,0:0:0:0:
353,84,211714,5,2,0:0:0:0:
353,84,211800,1,2,0:0:0:0:
353,84,211886,2,0,P|374:86|394:90,2,42.5,8|0|0,0:0|0:0|0:0,0:0:0:0:
130,215,212229,2,0,P|221:220|283:197,1,127.500004863739,2|0,0:3|0:0,0:0:0:0:
131,30,212572,6,0,B|91:16|66:21|66:21|30:90|74:154|74:154|97:134|102:97,1,255,6|0,0:0|0:0,0:0:0:0:
0,57,212914,6,0,P|-1:101|10:142,1,85,2|0,0:3|0:0,0:0:0:0:
117,359,213086,1,2,0:0:0:0:
248,107,213257,6,0,P|212:112|176:127,1,42.5,8|2,0:0|0:0,0:0:0:0:
121,353,213429,2,0,P|157:348|193:333,1,42.5
257,209,213600,6,0,P|164:221|58:201,1,191.250007295609,2|0,0:0|0:0,0:0:0:0:
166,131,213943,6,0,P|167:152|165:173,1,42.5,2|0,0:3|0:0,0:0:0:0:
125,347,214114,2,0,P|114:365|103:382,1,42.5,2|0,0:3|0:0,0:0:0:0:
293,355,214286,6,0,P|317:368|291:373,1,63.7500024318696,2|0,0:0|0:0,0:0:0:0:
364,293,214457,6,0,P|391:299|367:310,1,63.7500024318696,2|0,0:0|0:0,0:0:0:0:
409,211,214629,6,0,P|437:217|482:250,1,63.7500024318696,8|0,0:0|0:0,0:0:0:0:
431,118,214800,6,0,P|458:110|443:132,1,63.7500024318696,2|0,0:0|0:0,0:0:0:0:
445,31,214972,6,0,P|465:0|471:36,1,95.6250036478044,8|0,0:0|0:0,0:0:0:0:
343,77,215314,6,0,B|277:96|221:60|221:60|159:25|98:57,1,255,6|0,0:0|0:0,0:0:0:0:
72,176,215657,6,0,P|124:178|163:169,1,85
282,2,215829,2,0,P|275:26|275:49,1,42.5,2|0,0:0|0:0,0:0:0:0:
363,158,216000,6,0,B|375:186|378:215|378:215|321:252|245:230,1,191.250007295609,8|0,0:0|0:0,0:0:0:0:
343,77,216343,2,0,P|379:76|411:91,1,63.7500024318696,2|0,0:0|0:0,0:0:0:0:
253,316,216514,6,0,P|222:313|195:297,2,63.7500024318696
422,190,216857,2,0,P|362:176|286:173,1,127.500004863739,2|0,0:3|0:0,0:0:0:0:
493,347,217200,5,2,0:0:0:0:
493,347,217286,1,2,0:0:0:0:
493,347,217372,1,8,0:0:0:0:
480,101,217543,6,0,P|490:81|501:64,1,42.5,2|0,0:3|0:0,0:0:0:0:
382,237,217714,2,0,P|385:216|392:196,1,42.5,2|0,0:3|0:0,0:0:0:0:
350,62,217886,2,0,P|353:42|360:22,1,42.5,2|0,0:3|0:0,0:0:0:0:
255,227,218057,6,0,B|221:193|210:151|242:112|273:87|273:87|321:125|299:165,1,255,6|0,0:0|0:0,0:0:0:0:
283,312,218400,6,0,P|240:313|197:305,1,85,2|0,0:3|0:0,0:0:0:0:
147,110,218572,2,0,P|188:108|231:116,1,85,2|0,0:3|0:0,0:0:0:0:
77,321,218743,6,0,P|59:250|70:208,1,63.7500024318696,8|0,0:0|0:0,0:0:0:0:
133,89,218914,1,0,0:0:0:0:
255,227,219086,1,2,0:0:0:0:
64,140,219257,6,0,P|56:49|134:3,1,191.250007295609
215,69,219600,6,0,P|219:100|210:130,1,63.7500024318696,2|0,0:3|0:0,0:0:0:0:
132,264,219772,2,0,P|123:233|127:202,1,63.7500024318696,2|0,0:3|0:0,0:0:0:0:
316,226,219943,2,0,P|285:232|254:226,1,63.7500024318696,2|0,0:3|0:0,0:0:0:0:
215,69,220114,6,0,L|307:57,1,63.7500024318696,8|0,0:0|0:0,0:0:0:0:
490,35,220286,1,2,0:0:0:0:
478,37,220372,6,0,L|349:50,1,127.500004863739,8|0,0:0|0:0,0:0:0:0:
133,87,220628,1,8,0:0:0:0:
399,164,220800,6,0,P|391:220|362:171,1,148.75,2|0,0:0|0:0,0:0:0:0:
446,151,221486,6,0,B|512:136|512:136|473:319,1,255,12|0,0:0|0:0,0:0:0:0:
351,370,221829,6,0,P|340:313|349:273,1,85,2|0,0:3|0:0,0:0:0:0:
475,103,222000,2,0,P|486:143|482:186,1,85,2|0,0:3|0:0,0:0:0:0:
432,380,222172,5,2,0:3:0:0:
194,240,222343,1,2,0:0:0:0:
374,108,222514,5,2,0:0:0:0:
373,124,222600,1,2,0:0:0:0:
367,157,222686,1,2,0:0:0:0:
348,203,222771,1,2,0:0:0:0:
306,256,222857,1,2,0:0:0:0:
241,296,222943,1,2,0:0:0:0:
167,308,223028,1,2,0:0:0:0:
92,293,223114,1,2,0:0:0:0:
28,251,223200,6,0,P|26:202|27:170,1,63.75,8|0,0:0|0:0,0:0:0:0:
40,102,223543,6,0,P|57:197|31:356,1,255,6|0,0:0|0:0,0:0:0:0:
99,151,223886,6,0,P|162:143|208:150,1,85,2|0,0:3|0:0,0:0:0:0:
291,366,224057,2,0,P|228:374|182:367,1,85,2|0,0:0|0:0,0:0:0:0:
308,115,224229,5,8,0:0:0:0:
316,128,224314,2,0,L|305:257,1,127.500004863739,2|0,0:0|0:0,0:0:0:0:
170,349,224572,6,0,B|151:326|156:291|156:291|75:233|96:152|96:152|103:205|151:225,1,318.750012159348,2|0,0:0|0:0,0:0:0:0:
183,144,225086,2,0,P|183:123|177:109,1,31.8750012159348
270,347,225257,6,0,P|296:344|279:324,1,63.7500024318696,2|0,0:0|0:0,0:0:0:0:
365,290,225429,6,0,P|381:269|355:267,1,63.7500024318696,2|0,0:0|0:0,0:0:0:0:
391,182,225600,6,0,P|368:177|310:200,1,63.7500024318696,8|0,0:0|0:0,0:0:0:0:
333,87,225772,6,0,P|312:70|310:96,1,63.7500024318696,2|0,0:0|0:0,0:0:0:0:
224,60,225943,6,0,P|197:63|234:75,1,95.6250036478044,8|0,0:0|0:0,0:0:0:0:
336,0,226286,6,0,P|328:126|357:250,1,255,6|0,0:0|0:0,0:0:0:0:
390,116,226629,5,2,0:0:0:0:
343,93,226714,1,2,0:0:0:0:
273,118,226800,5,2,0:0:0:0:
226,95,226885,1,2,0:0:0:0:
156,120,226972,6,0,P|123:104|17:88,1,127.500004863739,8|0,0:0|0:0,0:0:0:0:
112,319,227314,1,2,0:0:0:0:
315,257,227486,1,0,0:0:0:0:
85,202,227657,5,2,0:0:0:0:
264,352,227829,1,2,0:0:0:0:
480,266,228000,1,2,0:0:0:0:
301,116,228172,5,2,0:0:0:0:
301,116,228257,1,2,0:0:0:0:
301,115,228343,2,0,P|298:147|301:179,1,42.5,8|0,0:0|0:0,0:0:0:0:
346,333,228514,2,0,P|375:319|402:301,1,42.5,2|2,0:3|0:3,0:0:0:0:
511,184,228686,5,0,0:0:0:0:
484,166,228771,1,2,0:0:0:0:
455,152,228857,1,8,0:0:0:0:
260,258,229029,6,0,B|218:285|168:270|168:270|146:303|95:324|37:305|28:248,1,255,6|0,0:0|0:0,0:0:0:0:
194,106,229372,2,0,P|204:170|204:215,1,85,8|0,0:0|0:0,0:0:0:0:
24,354,229543,5,0,0:0:0:0:
26,311,229628,1,2,0:0:0:0:
34,269,229714,1,8,0:0:0:0:
107,79,229886,1,2,0:0:0:0:
279,280,230057,5,8,0:0:0:0:
38,157,230229,1,2,0:0:0:0:
270,47,230400,5,8,0:0:0:0:
301,53,230485,1,2,0:0:0:0:
329,68,230571,1,2,0:0:0:0:
352,89,230657,1,2,0:0:0:0:
368,116,230743,5,8,0:0:0:0:
376,54,230828,1,2,0:0:0:0:
335,7,230914,1,2,0:0:0:0:
273,7,231000,1,2,0:0:0:0:
226,50,231086,5,2,0:2:0:0:
225,115,231171,1,2,0:2:0:0:
260,170,231257,1,2,0:2:0:0:
320,196,231343,1,2,0:2:0:0:
386,188,231429,5,2,0:2:0:0:
386,253,231514,1,2,0:2:0:0:
351,308,231600,1,2,0:2:0:0:
291,334,231686,1,2,0:2:0:0:
226,323,231772,6,0,B|225:247|150:234|150:234|179:298|280:282|305:225|297:170,1,340,6|0,0:0|0:0,0:0:0:0:
226,81,232286,1,2,0:0:0:0:
68,231,232457,6,0,P|72:262|85:291,1,63.7500024318696,8|0,0:0|0:0,0:0:0:0:
401,253,232629,2,0,P|414:224|418:192,1,63.7500024318696
226,81,232800,6,0,B|187:60|135:65|135:65|129:33|100:12,1,159.375006079674,2|0,0:0|0:0,0:0:0:0:
55,76,233314,1,0,0:0:0:0:
248,0,233486,1,0,0:0:0:0:
319,192,233657,5,2,0:0:0:0:
324,206,233742,1,2,0:0:0:0:
329,221,233829,2,0,P|312:240|319:212,1,63.7500024318696,8|0,0:0|0:0,0:0:0:0:
254,287,234000,6,0,P|232:300|246:275,1,63.7500024318696,2|0,0:3|0:0,0:0:0:0:
164,331,234172,6,0,P|139:338|159:318,1,63.7500024318696,2|0,0:3|0:0,0:0:0:0:
65,350,234343,6,0,P|39:351|64:336,1,63.7500024318696,2|0,0:3|0:0,0:0:0:0:
56,203,234514,6,0,B|99:181|98:134|98:134|125:169|168:184|220:176|250:140,1,255,6|0,0:0|0:0,0:0:0:0:
177,71,234857,1,0,0:0:0:0:
150,294,235029,1,2,0:0:0:0:
0,114,235200,5,8,0:0:0:0:
13,126,235286,2,0,L|97:133,1,85,2|0,0:0|0:0,0:0:0:0:
246,143,235543,6,0,P|258:60|178:71,1,191.250007295609,2|0,0:0|0:0,0:0:0:0:
200,216,235886,6,0,B|258:246|316:210|316:210|380:169|447:219,1,255
424,373,236229,5,2,0:0:0:0:
320,179,236400,1,2,0:0:0:0:
473,69,236572,6,0,L|462:132,1,63.7500024318696,8|0,0:0|0:0,0:0:0:0:
424,373,236743,2,0,L|402:328,1,42.5,2|0,0:0|0:0,0:0:0:0:
309,79,236914,6,0,P|262:62|199:62,1,95.6250036478044,8|0,0:0|0:0,0:0:0:0:
163,49,237257,6,0,B|191:22|235:10|276:26|300:64|300:64|258:45|206:52,1,255,6|0,0:0|0:0,0:0:0:0:
135,126,237600,6,0,P|134:147|136:168,1,42.5
221,321,237772,1,2,0:0:0:0:
350,157,237943,6,0,P|320:176|285:215,1,63.7500024318696,8|0,0:0|0:0,0:0:0:0:
57,133,238114,2,0,P|58:167|75:218,1,63.7500024318696
208,343,238286,6,0,P|254:352|301:345,1,95.6250036478044,2|0,0:0|0:0,0:0:0:0:
299,195,238629,6,0,P|245:185|208:185,1,63.7500024318696,2|0,0:3|0:0,0:0:0:0:
107,346,238800,2,0,P|142:304|161:272,1,63.7500024318696,2|0,0:3|0:0,0:0:0:0:
74,107,238972,2,0,P|92:158|110:190,1,63.7500024318696,2|0,0:3|0:0,0:0:0:0:
309,352,239143,5,2,0:0:0:0:
309,352,239229,1,2,0:0:0:0:
309,352,239314,1,8,0:0:0:0:
361,159,239486,6,0,P|341:170|370:169,1,63.7500024318696,2|0,0:3|0:0,0:0:0:0:
222,290,239657,6,0,P|241:301|225:276,1,63.7500024318696,2|0,0:3|0:0,0:0:0:0:
405,345,239829,6,0,P|405:322|391:348,1,63.7500024318696,2|0,0:3|0:0,0:0:0:0:
392,142,240000,6,0,P|350:219|400:155,1,255,2|0,0:0|0:0,0:0:0:0:
338,56,240343,6,0,P|305:63|278:82,1,63.7500024318696,2|0,0:3|0:0,0:0:0:0:
373,289,240514,2,0,P|406:282|433:263,1,63.7500024318696,2|0,0:3|0:0,0:0:0:0:
206,154,240686,6,0,B|150:231|191:326|191:326|197:278|226:248,1,255,8|0,0:0|0:0,0:0:0:0:
393,191,241029,6,0,P|324:153|371:210,1,212.5,2|0,0:0|0:0,0:0:0:0:
440,248,241543,2,0,P|459:222|471:190,1,63.7500024318696,2|0,0:3|0:0,0:0:0:0:
205,141,241714,6,0,P|185:166|176:202,1,63.7500024318696,2|0,0:3|0:0,0:0:0:0:
386,109,241886,2,0,P|374:72|360:50,1,63.7500024318696,2|0,0:0|0:0,0:0:0:0:
143,74,242057,6,0,P|123:100|106:138,1,63.7500024318696,8|0,0:0|0:0,0:0:0:0:
28,343,242229,1,2,0:0:0:0:
30,327,242314,6,0,P|42:263|45:190,1,127.500004863739,8|0,0:0|0:0,0:0:0:0:
7,6,242572,1,8,0:0:0:0:
325,140,242743,6,0,B|377:151|409:107|409:107|373:181|415:261,1,255,6|0,0:0|0:0,0:0:0:0:
504,360,243086,6,0,P|472:365|440:367,1,63.7500024318696
251,266,243257,2,0,P|282:260|314:258,1,63.7500024318696,2|0,0:0|0:0,0:0:0:0:
476,163,243429,6,0,L|481:205,1,42.5,8|0,0:0|0:0,0:0:0:0:
326,383,243600,2,0,L|331:340,1,42.5
260,128,243772,6,0,B|218:93|159:105|159:105|176:54|141:13,1,191.250007295609,2|0,0:0|0:0,0:0:0:0:
84,135,244114,6,0,P|14:105|84:75,1,191.250007295609
189,183,244457,2,0,P|174:223|152:255,1,63.7500024318696,2|0,0:3|0:0,0:0:0:0:
10,371,244629,5,2,0:0:0:0:
5,364,244714,1,2,0:0:0:0:
0,357,244800,2,0,P|15:338|21:368,1,63.7500024318696,8|0,0:0|0:0,0:0:0:0:
40,265,244972,6,0,P|59:250|57:281,1,63.7500024318696,2|0,0:3|0:0,0:0:0:0:
130,211,245143,6,0,P|152:202|142:232,1,63.7500024318696,2|0,0:3|0:0,0:0:0:0:
234,190,245314,6,0,P|258:187|241:213,1,63.7500024318696,2|0,0:3|0:0,0:0:0:0:
331,231,245486,6,0,P|418:243|331:252,1,255,6|0,0:0|0:0,0:0:0:0:
438,173,245829,6,0,P|466:211|461:271,1,85,2|0,0:3|0:0,0:0:0:0:
312,312,246000,2,0,P|284:274|289:214,1,85,2|0,0:0|0:0,0:0:0:0:
328,94,246172,5,8,0:0:0:0:
328,94,246257,2,0,L|326:144,2,42.5,2|0|0,0:0|0:0|0:0,0:0:0:0:
247,136,246514,6,0,B|252:182|288:202|288:202|193:195|187:84,1,255,2|0,0:0|0:0,0:0:0:0:
260,54,246857,6,0,P|345:18|406:94,1,191.250007295609,2|0,0:3|0:0,0:0:0:0:
291,273,247200,5,2,0:0:0:0:
328,94,247372,1,2,0:0:0:0:
72,161,247543,6,0,L|153:164,1,63.7500024318696,8|0,0:0|0:0,0:0:0:0:
414,170,247714,2,0,L|332:186,1,42.5,2|0,0:0|0:0,0:0:0:0:
17,263,247886,6,0,P|21:311|45:352,1,95.6250036478044,8|0,0:0|0:0,0:0:0:0:
65,359,248229,6,0,P|187:354|337:309,1,255,6|0,0:0|0:0,0:0:0:0:
405,375,248572,6,0,P|383:376|362:376,1,42.5
175,262,248743,2,0,P|158:248|144:232,1,42.5,2|0,0:0|0:0,0:0:0:0:
299,152,248914,6,0,P|304:192|298:241,1,63.7500024318696,8|0,0:0|0:0,0:0:0:0:
4,292,249086,2,0,P|0:260|0:228,1,63.7500024318696
26,59,249257,6,0,P|113:29|353:45,1,255,2|0,0:0|0:0,0:0:0:0:
346,56,249600,6,0,P|387:89|429:175,1,127.5,2|0,0:3|0:0,0:0:0:0:
439,228,249943,6,0,P|442:248|442:270,1,42.5
396,375,250114,5,2,0:0:0:0:
396,375,250200,1,2,0:0:0:0:
396,375,250286,2,0,P|372:359|334:351,1,42.5,8|0,0:0|0:0,0:0:0:0:
77,316,250457,2,0,P|101:300|139:292,1,42.5,2|0,0:3|0:0,0:0:0:0:
285,333,250629,5,8,0:0:0:0:
255,301,250714,1,8,0:0:0:0:
235,263,250800,1,2,0:0:0:0:
226,222,250886,1,2,0:0:0:0:
270,154,250972,6,0,B|279:116|331:89|331:89|404:177|344:259|344:259|352:202|326:166,1,340,6|0,0:0|0:0,0:0:0:0:
270,154,251486,6,0,B|289:101|343:78|405:103|430:177|396:221|344:258|344:258|323:221|355:175,1,355.300003388405,6|0,0:0|0:0,0:0:0:0:
341,198,252000,6,0,P|274:69|200:202,1,355.300003388405,6|0,0:0|0:0,0:0:0:0:
203,202,252857,5,8,0:3:0:0:
203,202,252943,1,8,0:3:0:0:
203,202,253029,1,4,0:3:0:0:
372,152,253200,1,8,0:2:0:0:
350,308,253372,5,8,0:2:0:0:
178,349,253543,1,8,0:2:0:0:
275,159,253714,6,0,B|261:75|261:75|34:194|34:194|97:247,1,425,6|0,0:0|0:0,0:0:0:0:
148,96,254229,5,2,0:0:0:0:
148,96,254314,1,0,0:0:0:0:
148,96,254400,2,0,P|110:77|67:74,1,85,8|0,0:0|0:0,0:0:0:0:
60,311,254572,1,0,0:0:0:0:
220,329,254743,1,2,0:0:0:0:
306,182,254914,6,0,P|243:168|180:172,1,127.500004863739
60,311,255257,2,0,P|115:285|163:279,1,85
347,282,255600,5,2,0:0:0:0:
347,282,255686,1,2,0:0:0:0:
347,282,255772,2,0,L|336:364,2,63.7500024318696,8|0|0,0:0|0:0|0:0,0:0:0:0:
434,156,256114,2,0,L|445:238,1,63.7500024318696
215,113,256457,6,0,P|219:189|344:140,1,255,6|0,0:0|0:0,0:0:0:0:
261,42,256800,6,0,B|220:27|220:27|159:42,1,85,2|0,0:3|0:0,0:0:0:0:
120,209,256972,2,0,B|161:224|161:224|222:209,1,85,2|0,0:0|0:0,0:0:0:0:
39,72,257143,5,8,0:0:0:0:
31,85,257229,2,0,L|39:228,1,127.500004863739,2|0,0:0|0:0,0:0:0:0:
48,361,257486,6,0,B|99:390|146:353|146:353|197:313|246:330,1,212.5,2|0,0:0|0:0,0:0:0:0:
382,384,258000,2,0,P|398:349|407:317,1,63.7500024318696
429,103,258172,6,0,P|408:87|421:110,1,63.7500024318696,2|0,0:0|0:0,0:0:0:0:
324,103,258343,6,0,P|300:92|318:112,1,63.7500024318696,2|0,0:0|0:0,0:0:0:0:
222,130,258514,6,0,P|231:169|249:202,1,63.7500024318696,8|0,0:0|0:0,0:0:0:0:
130,183,258686,6,0,P|104:185|129:193,1,63.7500024318696,2|0,0:0|0:0,0:0:0:0:
56,257,258857,6,0,P|16:277|58:267,1,127.5,8|0,0:0|0:0,0:0:0:0:
162,320,259200,6,0,P|271:334|426:313,1,255,6|0,0:0|0:0,0:0:0:0:
332,306,259543,6,0,P|290:297|252:278,1,85,2|0,0:3|0:0,0:0:0:0:
162,175,259714,1,2,0:0:0:0:
373,116,259886,5,8,0:0:0:0:
161,319,260057,2,0,P|176:288|178:253,1,63.7500024318696
90,52,260229,1,2,0:0:0:0:
429,220,260400,6,0,P|336:244|242:230,1,191.250007295609
327,158,260743,2,0,P|354:141|373:116,1,63.7500024318696
467,310,260914,2,0,P|506:341|519:369,1,63.7500024318696
498,141,261086,5,2,0:0:0:0:
498,141,261172,1,2,0:0:0:0:
498,141,261257,1,8,0:0:0:0:
353,353,261429,1,2,0:0:0:0:
346,363,261514,1,2,0:0:0:0:
340,374,261600,2,0,P|289:370|264:363,1,63.7500024318696,2|0,0:3|0:0,0:0:0:0:
113,238,261772,2,0,P|144:231|176:231,1,63.7500024318696,2|0,0:3|0:0,0:0:0:0:
399,259,261943,6,0,B|443:275|468:311|468:311|393:274|305:279,1,255,6|0,0:0|0:0,0:0:0:0:
231,347,262286,6,0,P|214:308|210:266,1,85
479,189,262457,2,0,P|495:227|499:269,1,85
305,279,262629,6,0,P|296:205|310:123,1,127.5,8|0,0:0|0:0,0:0:0:0:
323,72,262972,6,0,P|342:154|321:343,1,255,6|0,0:0|0:0,0:0:0:0:
232,157,263314,6,0,P|233:135|241:116,1,42.5
388,286,263486,2,0,P|396:305|397:327,1,42.5
200,241,263657,5,8,0:0:0:0:
419,125,263829,1,2,0:0:0:0:
259,351,264000,6,0,P|226:353|195:345,1,63.7500024318696,8|0,0:0|0:0,0:0:0:0:
82,180,264172,1,2,0:0:0:0:
77,201,264257,6,0,P|90:266|138:322,1,127.500004863739,8|0,0:0|0:0,0:0:0:0:
327,322,264514,1,8,0:0:0:0:
98,147,264686,6,0,P|53:148|82:179,1,106.25,2|0,0:0|0:0,0:0:0:0:
192,185,265200,2,0,P|202:146|203:116,1,42.5
120,20,265372,6,0,P|126:52|137:83,1,63.7500024318696,12|0,0:0|0:0,0:0:0:0:
314,156,265543,2,0,P|324:125|330:94,1,63.7500024318696
200,193,265714,1,0,0:0:0:0:
200,193,265800,1,0,0:0:0:0:
200,193,265886,1,0,0:0:0:0:
421,213,266057,5,2,0:3:0:0:
333,0,266229,1,2,0:0:0:0:
326,235,266401,5,2,0:0:0:0:
330,247,266487,1,2,0:0:0:0:
342,269,266572,1,2,0:0:0:0:
369,295,266658,1,2,0:0:0:0:
420,307,266744,1,2,0:0:0:0:
478,286,266829,1,2,0:0:0:0:
509,216,266915,1,2,0:0:0:0:
480,146,267001,1,2,0:0:0:0:
406,124,267087,5,8,0:0:0:0:
406,124,267429,6,0,P|329:208|254:123,1,255,4|0,0:0|0:0,0:0:0:0:
440,53,267772,6,0,B|448:94|448:94|447:137,1,85
218,241,267943,2,0,B|217:198|217:198|225:156,1,85,2|0,0:0|0:0,0:0:0:0:
324,51,268114,5,8,0:0:0:0:
334,66,268200,2,0,L|325:176,2,63.7500024318696,2|0|0,0:0|0:0|0:0,0:0:0:0:
324,51,268457,6,0,B|240:5|143:28|143:28|138:67|157:101,1,255,2|0,0:0|0:0,0:0:0:0:
337,208,268800,6,0,P|346:177|347:145,1,63.7500024318696
91,50,268972,2,0,P|81:80|80:112,1,63.7500024318696
149,302,269143,6,0,P|161:320|159:295,1,63.7500024318696,2|0,0:0|0:0,0:0:0:0:
242,268,269314,6,0,P|265:261|242:253,1,63.7500024318696,2|0,0:0|0:0,0:0:0:0:
261,170,269486,6,0,P|224:172|185:201,1,63.7500024318696,8|0,0:0|0:0,0:0:0:0:
185,105,269657,6,0,P|166:89|173:113,1,63.7500024318696,2|0,0:0|0:0,0:0:0:0:
91,139,269829,6,0,P|46:158|84:161,1,127.5,8|0,0:0|0:0,0:0:0:0:
168,195,270172,6,0,P|226:230|161:216,1,191.250007295609,6|4,0:0|0:0,0:0:0:0:
261,90,270514,6,0,P|301:91|345:103,1,63.7500024318696
473,210,270686,1,2,0:0:0:0:
473,210,270772,1,0,0:0:0:0:
473,210,270857,2,0,P|441:215|409:215,1,63.7500024318696,8|0,0:0|0:0,0:0:0:0:
296,179,271029,1,0,0:0:0:0:
420,56,271200,1,2,0:0:0:0:
346,258,271372,6,0,P|269:265|209:152,1,191.250007295609
345,109,271714,2,0,P|379:157|379:192,1,63.7500024318696,2|0,0:3|0:0,0:0:0:0:
156,292,271886,2,0,P|133:269|121:240,1,63.7500024318696,2|0,0:3|0:0,0:0:0:0:
209,62,272057,1,2,0:0:0:0:
209,62,272142,1,2,0:0:0:0:
208,61,272229,2,0,P|234:77|252:104,1,63.7500024318696,8|0,0:0|0:0,0:0:0:0:
275,298,272400,5,0,0:0:0:0:
268,313,272486,1,0,0:0:0:0:
261,328,272572,2,0,L|248:243,1,85
343,13,272743,2,0,L|355:97,1,85
377,336,272914,5,6,0:0:0:0:
377,336,273257,6,0,B|362:290|393:245|393:245|427:201|413:155,1,191.250007295609
382,186,273600,6,0,L|401:326,1,127.500004863739,2|0,0:3|0:0,0:0:0:0:
364,65,273943,5,6,0:0:0:0:
364,65,274286,2,0,P|359:124|268:151,1,127.5
231,165,274629,5,2,0:3:0:0:
225,169,274686,1,2,0:3:0:0:
220,174,274743,2,0,L|181:168,1,37.3999998858643,2|0,0:3|0:0,0:0:0:0:
127,217,274972,6,0,B|80:219|47:192|47:192|78:204|109:194,1,148.75,4|0,0:1|0:0,0:0:0:0:
161,137,275657,6,0,P|124:117|83:122,1,85,4|0,0:1|0:0,0:0:0:0:
139,233,276172,2,0,P|175:253|217:248,1,85
271,167,276686,6,0,B|275:122|260:83|260:83|299:127|344:114|344:114|388:101|439:156|439:156|433:99|382:76,1,382.5,2|0,0:0|0:0,0:0:0:0:
323,42,278400,6,0,P|298:17|202:33,1,127.5,2|0,0:0|0:0,0:0:0:0:
180,97,279086,2,0,B|189:116|208:130|208:130|242:129|260:138|260:138|270:156|270:166,1,127.5,2|0,0:0|0:0,0:0:0:0:
286,247,279772,2,0,B|257:254|188:256|147:218|135:177|135:177|156:205|191:212|191:212|181:265|127:279,1,340,2|0,0:0|0:0,0:0:0:0:
66,225,281314,6,0,P|53:196|52:165,2,63.7500024318696
135,178,281829,2,0,P|122:117|70:83,1,127.5,2|0,0:0|0:0,0:0:0:0:
153,103,282514,6,0,B|195:87|200:38|200:38|221:78|267:84|267:84|296:64|332:59|367:73|385:107,1,297.5,2|0,0:0|0:0,0:0:0:0:
318,145,283886,6,0,P|294:157|259:156,1,42.5,2|0,0:0|0:0,0:0:0:0:
208,164,284229,2,0,P|199:150|186:141,3,31.8750012159348,2|0|0|0,0:0|0:0|0:0|0:0,0:0:0:0:
249,223,284572,2,0,P|242:243|243:293,2,63.7500024318696,2|0|0,0:0|0:0|0:0,0:0:0:0:
324,219,285086,2,0,B|371:241|426:215|426:215|408:252|422:295,1,170,2|0,0:0|0:0,0:0:0:0:
382,345,285943,6,0,L|329:337,1,42.5
249,364,286286,2,0,L|196:356,1,42.5
133,299,286629,6,0,L|80:291,1,42.5,2|0,0:0|0:0,0:0:0:0:
219,265,286972,1,0,0:0:0:0:
223,269,287143,2,0,L|265:275,1,42.5,0|2,0:0|0:0,0:0:0:0:
149,203,287486,1,0,0:0:0:0:
153,207,287657,6,0,B|134:163|154:125|154:125|205:135|231:101,1,170,2|0,0:0|0:0,0:0:0:0:
176,52,288514,1,0,0:0:0:0:
105,71,288686,2,0,P|70:59|42:34,2,63.75,2|0|0,0:0|0:0|0:0,0:0:0:0:
176,52,289372,6,0,B|208:20|254:33|254:33|299:48|332:15|332:15|313:49|318:89|345:118|390:124,1,297.5,2|0,0:0|0:0,0:0:0:0:
395,52,290743,2,0,P|440:96|428:164,1,127.5,2|0,0:0|0:0,0:0:0:0:
368,197,291429,2,0,B|316:194|298:149|298:149|273:159|267:190,1,127.5,2|0,0:0|0:0,0:0:0:0:
234,234,292114,6,0,B|210:221|195:195|199:168|205:146|205:146|167:143|139:119|139:119|115:198|150:250|150:250|172:283|174:333|137:364|100:359|100:359|112:311|169:291|214:300|258:331,1,637.5,2|0,0:0|0:0,0:0:0:0:
320,363,294857,6,0,B|349:374|376:363|393:351|411:325|411:284|387:259|359:245|327:249|304:269|304:269|318:240|306:202,1,297.5,2|0,0:0|0:0,0:0:0:0:
246,172,296229,6,0,P|236:207|237:225,1,42.5,2|0,0:0|0:0,0:0:0:0:
380,189,296572,2,0,P|377:167|369:148,1,42.5,2|0,0:0|0:0,0:0:0:0:
225,195,296914,6,0,P|215:230|216:248,1,42.5,2|0,0:0|0:0,0:0:0:0:
380,134,297257,2,0,P|388:153|391:174,1,42.5,0|2,0:0|0:0,0:0:0:0:
256,192,297514,12,0,301714,0:0:0:0:
